  0
SECTION
  2
HEADER
  9
$ACADVER
  1
AC1015
  9
$ACADMAINTVER
 70
    20
  9
$DWGCODEPAGE
  3
ANSI_1252
  9
$INSBASE
 10
0.0
 20
0.0
 30
0.0
  9
$EXTMIN
 10
-73.43225227489688
 20
-31.78849897824944
 30
-0.0000000000000058
  9
$EXTMAX
 10
121.454589818177
 20
70.20225726220758
 30
0.0000000000000104
  9
$LIMMIN
 10
0.0
 20
0.0
  9
$LIMMAX
 10
420.0
 20
297.0
  9
$ORTHOMODE
 70
     0
  9
$REGENMODE
 70
     1
  9
$FILLMODE
 70
     1
  9
$QTEXTMODE
 70
     0
  9
$MIRRTEXT
 70
     1
  9
$LTSCALE
 40
1.0
  9
$ATTMODE
 70
     1
  9
$TEXTSIZE
 40
3.5
  9
$TRACEWID
 40
0.05
  9
$TEXTSTYLE
  7
ROMANS
  9
$CLAYER
  8
2
  9
$CELTYPE
  6
BYLAYER
  9
$CECOLOR
 62
   256
  9
$CELTSCALE
 40
1.0
  9
$DISPSILH
 70
     0
  9
$DIMSCALE
 40
1.0
  9
$DIMASZ
 40
3.5
  9
$DIMEXO
 40
0.5
  9
$DIMDLI
 40
8.0
  9
$DIMRND
 40
0.0
  9
$DIMDLE
 40
0.0
  9
$DIMEXE
 40
2.0
  9
$DIMTP
 40
0.0
  9
$DIMTM
 40
0.0
  9
$DIMTXT
 40
3.5
  9
$DIMCEN
 40
0.5
  9
$DIMTSZ
 40
0.0
  9
$DIMTOL
 70
     0
  9
$DIMLIM
 70
     0
  9
$DIMTIH
 70
     0
  9
$DIMTOH
 70
     0
  9
$DIMSE1
 70
     0
  9
$DIMSE2
 70
     0
  9
$DIMTAD
 70
     1
  9
$DIMZIN
 70
     8
  9
$DIMBLK
  1

  9
$DIMASO
 70
     1
  9
$DIMSHO
 70
     1
  9
$DIMPOST
  1

  9
$DIMAPOST
  1

  9
$DIMALT
 70
     0
  9
$DIMALTD
 70
     2
  9
$DIMALTF
 40
25.4
  9
$DIMLFAC
 40
1.0
  9
$DIMTOFL
 70
     1
  9
$DIMTVP
 40
0.0
  9
$DIMTIX
 70
     0
  9
$DIMSOXD
 70
     0
  9
$DIMSAH
 70
     0
  9
$DIMBLK1
  1

  9
$DIMBLK2
  1

  9
$DIMSTYLE
  2
STANDARD
  9
$DIMCLRD
 70
     0
  9
$DIMCLRE
 70
     0
  9
$DIMCLRT
 70
     0
  9
$DIMTFAC
 40
0.7142857142857145
  9
$DIMGAP
 40
2.0
  9
$DIMJUST
 70
     0
  9
$DIMSD1
 70
     0
  9
$DIMSD2
 70
     0
  9
$DIMTOLJ
 70
     1
  9
$DIMTZIN
 70
     8
  9
$DIMALTZ
 70
     0
  9
$DIMALTTZ
 70
     0
  9
$DIMUPT
 70
     0
  9
$DIMDEC
 70
     4
  9
$DIMTDEC
 70
     4
  9
$DIMALTU
 70
     2
  9
$DIMALTTD
 70
     2
  9
$DIMTXSTY
  7
ROMANS
  9
$DIMAUNIT
 70
     0
  9
$DIMADEC
 70
     0
  9
$DIMALTRND
 40
0.0
  9
$DIMAZIN
 70
     0
  9
$DIMDSEP
 70
    46
  9
$DIMATFIT
 70
     3
  9
$DIMFRAC
 70
     0
  9
$DIMLDRBLK
  1

  9
$DIMLUNIT
 70
     2
  9
$DIMLWD
 70
    -2
  9
$DIMLWE
 70
    -2
  9
$DIMTMOVE
 70
     0
  9
$LUNITS
 70
     2
  9
$LUPREC
 70
     8
  9
$SKETCHINC
 40
0.1
  9
$FILLETRAD
 40
0.5
  9
$AUNITS
 70
     0
  9
$AUPREC
 70
     8
  9
$MENU
  1
acad
  9
$ELEVATION
 40
0.0
  9
$PELEVATION
 40
0.0
  9
$THICKNESS
 40
0.0
  9
$LIMCHECK
 70
     1
  9
$CHAMFERA
 40
0.0
  9
$CHAMFERB
 40
0.0
  9
$CHAMFERC
 40
0.0
  9
$CHAMFERD
 40
0.0
  9
$SKPOLY
 70
     0
  9
$TDCREATE
 40
2449991.675189120
  9
$TDUCREATE
 40
2449991.633522454
  9
$TDUPDATE
 40
2455259.508973530
  9
$TDUUPDATE
 40
2455259.467306864
  9
$TDINDWG
 40
1.3972200231
  9
$TDUSRTIMER
 40
1.3971109722
  9
$USRTIMER
 70
     1
  9
$ANGBASE
 50
0.0
  9
$ANGDIR
 70
     0
  9
$PDMODE
 70
     0
  9
$PDSIZE
 40
0.0
  9
$PLINEWID
 40
0.0
  9
$SPLFRAME
 70
     0
  9
$SPLINETYPE
 70
     6
  9
$SPLINESEGS
 70
     8
  9
$HANDSEED
  5
5C3C
  9
$SURFTAB1
 70
     6
  9
$SURFTAB2
 70
     6
  9
$SURFTYPE
 70
     6
  9
$SURFU
 70
     6
  9
$SURFV
 70
     6
  9
$UCSBASE
  2

  9
$UCSNAME
  2

  9
$UCSORG
 10
0.0
 20
0.0
 30
0.0
  9
$UCSXDIR
 10
1.0
 20
0.0
 30
0.0
  9
$UCSYDIR
 10
0.0
 20
1.0
 30
0.0
  9
$UCSORTHOREF
  2

  9
$UCSORTHOVIEW
 70
     0
  9
$UCSORGTOP
 10
0.0
 20
0.0
 30
0.0
  9
$UCSORGBOTTOM
 10
0.0
 20
0.0
 30
0.0
  9
$UCSORGLEFT
 10
0.0
 20
0.0
 30
0.0
  9
$UCSORGRIGHT
 10
0.0
 20
0.0
 30
0.0
  9
$UCSORGFRONT
 10
0.0
 20
0.0
 30
0.0
  9
$UCSORGBACK
 10
0.0
 20
0.0
 30
0.0
  9
$PUCSBASE
  2

  9
$PUCSNAME
  2

  9
$PUCSORG
 10
0.0
 20
0.0
 30
0.0
  9
$PUCSXDIR
 10
1.0
 20
0.0
 30
0.0
  9
$PUCSYDIR
 10
0.0
 20
1.0
 30
0.0
  9
$PUCSORTHOREF
  2

  9
$PUCSORTHOVIEW
 70
     0
  9
$PUCSORGTOP
 10
0.0
 20
0.0
 30
0.0
  9
$PUCSORGBOTTOM
 10
0.0
 20
0.0
 30
0.0
  9
$PUCSORGLEFT
 10
0.0
 20
0.0
 30
0.0
  9
$PUCSORGRIGHT
 10
0.0
 20
0.0
 30
0.0
  9
$PUCSORGFRONT
 10
0.0
 20
0.0
 30
0.0
  9
$PUCSORGBACK
 10
0.0
 20
0.0
 30
0.0
  9
$USERI1
 70
     0
  9
$USERI2
 70
     0
  9
$USERI3
 70
     0
  9
$USERI4
 70
     0
  9
$USERI5
 70
     0
  9
$USERR1
 40
0.0
  9
$USERR2
 40
0.0
  9
$USERR3
 40
0.0
  9
$USERR4
 40
0.0
  9
$USERR5
 40
0.0
  9
$WORLDVIEW
 70
     1
  9
$SHADEDGE
 70
     3
  9
$SHADEDIF
 70
    70
  9
$TILEMODE
 70
     1
  9
$MAXACTVP
 70
    16
  9
$PINSBASE
 10
0.0
 20
0.0
 30
0.0
  9
$PLIMCHECK
 70
     0
  9
$PEXTMIN
 10
1.000000000000000E+20
 20
1.000000000000000E+20
 30
1.000000000000000E+20
  9
$PEXTMAX
 10
-1.000000000000000E+20
 20
-1.000000000000000E+20
 30
-1.000000000000000E+20
  9
$PLIMMIN
 10
0.0
 20
0.0
  9
$PLIMMAX
 10
12.0
 20
9.0
  9
$UNITMODE
 70
     0
  9
$VISRETAIN
 70
     0
  9
$PLINEGEN
 70
     0
  9
$PSLTSCALE
 70
     1
  9
$TREEDEPTH
 70
  3020
  9
$CMLSTYLE
  2
STANDARD
  9
$CMLJUST
 70
     0
  9
$CMLSCALE
 40
1.0
  9
$PROXYGRAPHICS
 70
     1
  9
$MEASUREMENT
 70
     0
  9
$CELWEIGHT
370
    -1
  9
$ENDCAPS
280
     0
  9
$JOINSTYLE
280
     0
  9
$LWDISPLAY
290
     0
  9
$INSUNITS
 70
     0
  9
$HYPERLINKBASE
  1

  9
$STYLESHEET
  1
SW.CTB
  9
$XEDIT
290
     1
  9
$CEPSNTYPE
380
     0
  9
$PSTYLEMODE
290
     1
  9
$FINGERPRINTGUID
  2
{4A4C32FF-1854-4F16-94C7-84331224C04B}
  9
$VERSIONGUID
  2
{87FB34B5-0234-45DE-9BFA-92E9D113C3B4}
  9
$EXTNAMES
290
     1
  9
$PSVPSCALE
 40
0.0
  9
$OLESTARTUP
290
     0
  0
ENDSEC
  0
SECTION
  2
CLASSES
  0
CLASS
  1
ACDBDICTIONARYWDFLT
  2
AcDbDictionaryWithDefault
  3
ObjectDBX Classes
 90
        0
280
     0
281
     0
  0
CLASS
  1
ACDBPLACEHOLDER
  2
AcDbPlaceHolder
  3
ObjectDBX Classes
 90
        0
280
     0
281
     0
  0
CLASS
  1
LAYOUT
  2
AcDbLayout
  3
ObjectDBX Classes
 90
        0
280
     0
281
     0
  0
CLASS
  1
DICTIONARYVAR
  2
AcDbDictionaryVar
  3
ObjectDBX Classes
 90
        0
280
     0
281
     0
  0
CLASS
  1
TABLESTYLE
  2
AcDbTableStyle
  3
ObjectDBX Classes
 90
     2047
280
     0
281
     0
  0
CLASS
  1
SORTENTSTABLE
  2
AcDbSortentsTable
  3
ObjectDBX Classes
 90
        0
280
     0
281
     0
  0
ENDSEC
  0
SECTION
  2
TABLES
  0
TABLE
  2
VPORT
  5
8
330
0
100
AcDbSymbolTable
 70
     5
  0
VPORT
  5
5C36
330
8
100
AcDbSymbolTableRecord
100
AcDbViewportTableRecord
  2
*Active
 70
     0
 10
0.0
 20
0.0
 11
1.0
 21
1.0
 12
173.2838738625515
 22
132.6057505108753
 13
0.0
 23
0.0
 14
1.0
 24
1.0
 15
10.0
 25
10.0
 16
0.0
 26
0.0
 36
1.0
 17
0.0
 27
0.0
 37
0.0
 40
332.9692060481525
 41
1.489637305699481
 42
50.0
 43
0.0
 44
0.0
 50
0.0
 51
0.0
 71
     0
 72
  1000
 73
     1
 74
     2
 75
     0
 76
     0
 77
     0
 78
     0
281
     0
 65
     1
110
0.0
120
0.0
130
0.0
111
1.0
121
0.0
131
0.0
112
0.0
122
1.0
132
0.0
 79
     0
146
0.0
  0
ENDTAB
  0
TABLE
  2
LTYPE
  5
5
330
0
100
AcDbSymbolTable
 70
     4
  0
LTYPE
  5
12
330
5
100
AcDbSymbolTableRecord
100
AcDbLinetypeTableRecord
  2
BYBLOCK
 70
     0
  3

 72
    65
 73
     0
 40
0.0
  0
LTYPE
  5
13
330
5
100
AcDbSymbolTableRecord
100
AcDbLinetypeTableRecord
  2
BYLAYER
 70
     0
  3

 72
    65
 73
     0
 40
0.0
  0
LTYPE
  5
14
330
5
100
AcDbSymbolTableRecord
100
AcDbLinetypeTableRecord
  2
CONTINUOUS
 70
     0
  3
Durchgezogene Linie
 72
    65
 73
     0
 40
0.0
  0
LTYPE
  5
23
330
5
100
AcDbSymbolTableRecord
100
AcDbLinetypeTableRecord
  2
MITTE2
 70
     0
  3
___ _ ___ _ ___ _ ___ _ ___ _ ___ _ ___ _ ___ _
 72
    65
 73
     4
 40
28.575
 49
19.05
 74
     0
 49
-3.174999999999998
 74
     0
 49
3.174999999999998
 74
     0
 49
-3.174999999999998
 74
     0
  0
LTYPE
  5
24
330
5
100
AcDbSymbolTableRecord
100
AcDbLinetypeTableRecord
  2
VERDECKT2
 70
     0
  3
_ _ _ _ _ _ _ _ _ _ _ _ _ _ _ _ _ _ _ _ _ _ _ _
 72
    65
 73
     2
 40
4.762499999999998
 49
3.174999999999998
 74
     0
 49
-1.587499999999999
 74
     0
  0
LTYPE
  5
5014
330
5
100
AcDbSymbolTableRecord
100
AcDbLinetypeTableRecord
  2
ACAD_ISO10W100
 70
     0
  3
ISO Strichpunktlinie __ . __ . __ . __ . __ . _
 72
    65
 73
     4
 40
18.0
 49
12.0
 74
     0
 49
-3.0
 74
     0
 49
0.0
 74
     0
 49
-3.0
 74
     0
  0
ENDTAB
  0
TABLE
  2
LAYER
  5
2
102
{ACAD_XDICTIONARY
360
5016
102
}
330
0
100
AcDbSymbolTable
 70
    16
  0
LAYER
  5
F
330
2
100
AcDbSymbolTableRecord
100
AcDbLayerTableRecord
  2
0
 70
     0
 62
     7
  6
CONTINUOUS
370
    -3
390
765
  0
LAYER
  5
3D
330
2
100
AcDbSymbolTableRecord
100
AcDbLayerTableRecord
  2
RAHMEN
 70
     0
 62
     7
  6
CONTINUOUS
370
    -3
390
765
  0
LAYER
  5
3E
330
2
100
AcDbSymbolTableRecord
100
AcDbLayerTableRecord
  2
KONTUR
 70
     0
 62
     1
  6
CONTINUOUS
370
    -3
390
765
  0
LAYER
  5
40
330
2
100
AcDbSymbolTableRecord
100
AcDbLayerTableRecord
  2
BEMASSUNG
 70
     0
 62
     4
  6
CONTINUOUS
370
    -3
390
765
  0
LAYER
  5
41
330
2
100
AcDbSymbolTableRecord
100
AcDbLayerTableRecord
  2
TEXT
 70
     0
 62
     2
  6
CONTINUOUS
370
    -3
390
765
  0
LAYER
  5
47
330
2
100
AcDbSymbolTableRecord
100
AcDbLayerTableRecord
  2
HILFSLINIEN
 70
     0
 62
     5
  6
CONTINUOUS
370
    -3
390
765
  0
LAYER
  5
644
330
2
100
AcDbSymbolTableRecord
100
AcDbLayerTableRecord
  2
DEFPOINTS
 70
     0
 62
     7
  6
CONTINUOUS
290
     0
370
    -3
390
765
  0
LAYER
  5
500F
330
2
100
AcDbSymbolTableRecord
100
AcDbLayerTableRecord
  2
1
 70
     0
 62
     4
  6
CONTINUOUS
370
    -3
390
765
1001
AcAecLayerStandard
1000

1000

  0
LAYER
  5
5011
330
2
100
AcDbSymbolTableRecord
100
AcDbLayerTableRecord
  2
SK4
 70
     0
 62
     2
  6
ACAD_ISO10W100
370
    -3
390
765
1001
AcAecLayerStandard
1000

1000

  0
LAYER
  5
5015
330
2
100
AcDbSymbolTableRecord
100
AcDbLayerTableRecord
  2
2
 70
     0
 62
     7
  6
CONTINUOUS
370
    -3
390
765
1001
AcAecLayerStandard
1000

1000

  0
LAYER
  5
51D3
330
2
100
AcDbSymbolTableRecord
100
AcDbLayerTableRecord
  2
GEWINDE
 70
     0
 62
     2
  6
CONTINUOUS
370
    -3
390
765
  0
LAYER
  5
51D4
330
2
100
AcDbSymbolTableRecord
100
AcDbLayerTableRecord
  2
SCHRAFFUR
 70
     0
 62
     6
  6
CONTINUOUS
370
    -3
390
765
  0
LAYER
  5
51D5
330
2
100
AcDbSymbolTableRecord
100
AcDbLayerTableRecord
  2
MITTELLINIEN
 70
     0
 62
     7
  6
MITTE2
370
    -3
390
765
  0
LAYER
  5
51D6
330
2
100
AcDbSymbolTableRecord
100
AcDbLayerTableRecord
  2
HILFSLINIEN1
 70
     0
 62
    -8
  6
CONTINUOUS
370
    -3
390
765
  0
LAYER
  5
51D7
330
2
100
AcDbSymbolTableRecord
100
AcDbLayerTableRecord
  2
INNEN1
 70
     0
 62
     9
  6
CONTINUOUS
370
    -3
390
765
  0
LAYER
  5
51D8
330
2
100
AcDbSymbolTableRecord
100
AcDbLayerTableRecord
  2
INNEN2
 70
     0
 62
    10
  6
CONTINUOUS
370
    -3
390
765
  0
ENDTAB
  0
TABLE
  2
STYLE
  5
3
330
0
100
AcDbSymbolTable
 70
     4
  0
STYLE
  5
10
330
3
100
AcDbSymbolTableRecord
100
AcDbTextStyleTableRecord
  2
STANDARD
 70
     0
 40
0.0
 41
1.0
 50
0.0
 71
     0
 42
5.0
  3
txt
  4

  0
STYLE
  5
21
330
3
100
AcDbSymbolTableRecord
100
AcDbTextStyleTableRecord
  2
ROMANS
 70
     0
 40
0.0
 41
0.75
 50
0.0
 71
     0
 42
3.5
  3
romans
  4

  0
STYLE
  5
22
330
3
100
AcDbSymbolTableRecord
100
AcDbTextStyleTableRecord
  2
ROMAND
 70
     0
 40
0.0
 41
0.75
 50
0.0
 71
     0
 42
3.5
  3
romand
  4

  0
STYLE
  5
5013
330
3
100
AcDbSymbolTableRecord
100
AcDbTextStyleTableRecord
  2

 70
     1
 40
0.0
 41
1.0
 50
0.0
 71
     0
 42
3.5
  3
ltypeshp.shx
  4

  0
ENDTAB
  0
TABLE
  2
VIEW
  5
6
330
0
100
AcDbSymbolTable
 70
     0
  0
ENDTAB
  0
TABLE
  2
UCS
  5
7
330
0
100
AcDbSymbolTable
 70
     0
  0
ENDTAB
  0
TABLE
  2
APPID
  5
9
330
0
100
AcDbSymbolTable
 70
     3
  0
APPID
  5
11
330
9
100
AcDbSymbolTableRecord
100
AcDbRegAppTableRecord
  2
ACAD
 70
     0
  0
APPID
  5
4F5C
330
9
100
AcDbSymbolTableRecord
100
AcDbRegAppTableRecord
  2
ACAD_DSTYLE_DIMTEXT_FILL
 70
     0
  0
APPID
  5
5010
330
9
100
AcDbSymbolTableRecord
100
AcDbRegAppTableRecord
  2
AcAecLayerStandard
 70
     0
  0
ENDTAB
  0
TABLE
  2
DIMSTYLE
  5
A
330
0
100
AcDbSymbolTable
 70
    22
100
AcDbDimStyleTable
 71
     2
340
27
340
28
  0
DIMSTYLE
105
27
102
{ACAD_REACTORS
330
5B22
330
5B2F
330
5BBC
102
}
330
A
100
AcDbSymbolTableRecord
100
AcDbDimStyleTableRecord
  2
STANDARD
 70
     0
 41
3.5
 42
0.5
 43
8.0
 44
2.0
 73
     0
 74
     0
 77
     1
 78
     8
140
3.5
141
0.5
146
0.7142857142857145
147
2.0
172
     1
284
     8
340
21
  0
DIMSTYLE
105
28
330
A
100
AcDbSymbolTableRecord
100
AcDbDimStyleTableRecord
  2
DURCHMESSER
 70
     0
  3
%%c <> 
 41
3.5
 42
0.5
 43
8.0
 44
2.0
 73
     0
 74
     0
 77
     1
 78
     8
140
3.5
141
0.5
146
0.7142857142857145
147
2.0
172
     1
176
   256
177
   256
178
   256
279
     2
284
     8
285
     8
286
     8
340
21
  0
DIMSTYLE
105
29
330
A
100
AcDbSymbolTableRecord
100
AcDbDimStyleTableRecord
  2
TOL-01
 70
     0
 41
3.5
 42
0.5
 43
8.0
 44
2.0
 47
0.1
 71
     1
 73
     0
 74
     0
 77
     1
 78
     8
140
3.5
141
0.5
146
0.7142857142857145
147
2.0
172
     1
279
     2
284
     8
285
     8
286
     8
340
21
  0
DIMSTYLE
105
2A
330
A
100
AcDbSymbolTableRecord
100
AcDbDimStyleTableRecord
  2
TOL-02
 70
     0
 41
3.5
 42
0.5
 43
8.0
 44
2.0
 48
0.1
 71
     1
 73
     0
 74
     0
 77
     1
 78
     8
140
3.5
141
0.5
146
0.7142857142857145
147
2.0
172
     1
279
     2
284
     8
285
     8
286
     8
340
21
  0
DIMSTYLE
105
2B
330
A
100
AcDbSymbolTableRecord
100
AcDbDimStyleTableRecord
  2
TOL-03
 70
     0
 41
3.5
 42
0.5
 43
8.0
 44
2.0
 47
0.1
 48
0.1
 71
     1
 73
     0
 74
     0
 77
     1
 78
     8
140
3.5
141
0.5
146
0.7142857142857145
147
2.0
172
     1
279
     2
284
     8
285
     8
286
     8
340
21
  0
DIMSTYLE
105
2C
330
A
100
AcDbSymbolTableRecord
100
AcDbDimStyleTableRecord
  2
TOL-04
 70
     0
 41
3.5
 42
0.5
 43
8.0
 44
2.0
 47
0.2
 71
     1
 73
     0
 74
     0
 77
     1
 78
     8
140
3.5
141
0.5
146
0.7142857142857145
147
2.0
172
     1
279
     2
284
     8
285
     8
286
     8
340
21
  0
DIMSTYLE
105
2D
330
A
100
AcDbSymbolTableRecord
100
AcDbDimStyleTableRecord
  2
TOL-05
 70
     0
 41
3.5
 42
0.5
 43
8.0
 44
2.0
 48
0.2
 71
     1
 73
     0
 74
     0
 77
     1
 78
     8
140
3.5
141
0.5
146
0.7142857142857145
147
2.0
172
     1
279
     2
284
     8
285
     8
286
     8
340
21
  0
DIMSTYLE
105
2E
330
A
100
AcDbSymbolTableRecord
100
AcDbDimStyleTableRecord
  2
TOL-06
 70
     0
 41
3.5
 42
0.5
 43
8.0
 44
2.0
 47
0.2
 48
0.2
 71
     1
 73
     0
 74
     0
 77
     1
 78
     8
140
3.5
141
0.5
146
0.7142857142857145
147
2.0
172
     1
279
     2
284
     8
285
     8
286
     8
340
21
  0
DIMSTYLE
105
2F
330
A
100
AcDbSymbolTableRecord
100
AcDbDimStyleTableRecord
  2
TOL-07
 70
     0
 41
3.5
 42
0.5
 43
8.0
 44
2.0
 47
0.5
 71
     1
 73
     0
 74
     0
 77
     1
 78
     8
140
3.5
141
0.5
146
0.7142857142857145
147
2.0
172
     1
279
     2
284
     8
285
     8
286
     8
340
21
  0
DIMSTYLE
105
30
330
A
100
AcDbSymbolTableRecord
100
AcDbDimStyleTableRecord
  2
TOL-08
 70
     0
 41
3.5
 42
0.5
 43
8.0
 44
2.0
 48
0.5
 71
     1
 73
     0
 74
     0
 77
     1
 78
     8
140
3.5
141
0.5
146
0.7142857142857145
147
2.0
172
     1
279
     2
284
     8
285
     8
286
     8
340
21
  0
DIMSTYLE
105
31
330
A
100
AcDbSymbolTableRecord
100
AcDbDimStyleTableRecord
  2
TOL-09
 70
     0
 41
3.5
 42
0.5
 43
8.0
 44
2.0
 47
0.5
 48
0.5
 71
     1
 73
     0
 74
     0
 77
     1
 78
     8
140
3.5
141
0.5
146
0.7142857142857145
147
2.0
172
     1
279
     2
284
     8
285
     8
286
     8
340
21
  0
DIMSTYLE
105
32
330
A
100
AcDbSymbolTableRecord
100
AcDbDimStyleTableRecord
  2
DTOL-01
 70
     0
  3
%%c <> 
 41
3.5
 42
0.5
 43
8.0
 44
2.0
 47
0.1
 71
     1
 73
     0
 74
     0
 77
     1
 78
     8
140
3.5
141
0.5
146
0.7142857142857145
147
2.0
172
     1
279
     2
284
     8
285
     8
286
     8
340
21
  0
DIMSTYLE
105
33
330
A
100
AcDbSymbolTableRecord
100
AcDbDimStyleTableRecord
  2
DTOL-02
 70
     0
  3
%%c <> 
 41
3.5
 42
0.5
 43
8.0
 44
2.0
 48
0.1
 71
     1
 73
     0
 74
     0
 77
     1
 78
     8
140
3.5
141
0.5
146
0.7142857142857145
147
2.0
172
     1
279
     2
284
     8
285
     8
286
     8
340
21
  0
DIMSTYLE
105
34
330
A
100
AcDbSymbolTableRecord
100
AcDbDimStyleTableRecord
  2
DTOL-03
 70
     0
  3
%%c <> 
 41
3.5
 42
0.5
 43
8.0
 44
2.0
 47
0.1
 48
0.1
 71
     1
 73
     0
 74
     0
 77
     1
 78
     8
140
3.5
141
0.5
146
0.7142857142857145
147
2.0
172
     1
279
     2
284
     8
285
     8
286
     8
340
21
  0
DIMSTYLE
105
35
330
A
100
AcDbSymbolTableRecord
100
AcDbDimStyleTableRecord
  2
DTOL-04
 70
     0
  3
%%c <> 
 41
3.5
 42
0.5
 43
8.0
 44
2.0
 47
0.2
 71
     1
 73
     0
 74
     0
 77
     1
 78
     8
140
3.5
141
0.5
146
0.7142857142857145
147
2.0
172
     1
279
     2
284
     8
285
     8
286
     8
340
21
  0
DIMSTYLE
105
36
330
A
100
AcDbSymbolTableRecord
100
AcDbDimStyleTableRecord
  2
DTOL-05
 70
     0
  3
%%c <> 
 41
3.5
 42
0.5
 43
8.0
 44
2.0
 48
0.2
 71
     1
 73
     0
 74
     0
 77
     1
 78
     8
140
3.5
141
0.5
146
0.7142857142857145
147
2.0
172
     1
279
     2
284
     8
285
     8
286
     8
340
21
  0
DIMSTYLE
105
37
330
A
100
AcDbSymbolTableRecord
100
AcDbDimStyleTableRecord
  2
DTOL-06
 70
     0
  3
%%c <> 
 41
3.5
 42
0.5
 43
8.0
 44
2.0
 47
0.2
 48
0.2
 71
     1
 73
     0
 74
     0
 77
     1
 78
     8
140
3.5
141
0.5
146
0.7142857142857145
147
2.0
172
     1
279
     2
284
     8
285
     8
286
     8
340
21
  0
DIMSTYLE
105
38
330
A
100
AcDbSymbolTableRecord
100
AcDbDimStyleTableRecord
  2
DTOL-07
 70
     0
  3
%%c <> 
 41
3.5
 42
0.5
 43
8.0
 44
2.0
 47
0.5
 71
     1
 73
     0
 74
     0
 77
     1
 78
     8
140
3.5
141
0.5
146
0.7142857142857145
147
2.0
172
     1
279
     2
284
     8
285
     8
286
     8
340
21
  0
DIMSTYLE
105
39
330
A
100
AcDbSymbolTableRecord
100
AcDbDimStyleTableRecord
  2
DTOL-08
 70
     0
  3
%%c <> 
 41
3.5
 42
0.5
 43
8.0
 44
2.0
 48
0.5
 71
     1
 73
     0
 74
     0
 77
     1
 78
     8
140
3.5
141
0.5
146
0.7142857142857145
147
2.0
172
     1
279
     2
284
     8
285
     8
286
     8
340
21
  0
DIMSTYLE
105
3A
330
A
100
AcDbSymbolTableRecord
100
AcDbDimStyleTableRecord
  2
DTOL-09
 70
     0
  3
%%c <> 
 41
3.5
 42
0.5
 43
8.0
 44
2.0
 47
0.5
 48
0.5
 71
     1
 73
     0
 74
     0
 77
     1
 78
     8
140
3.5
141
0.5
146
0.7142857142857145
147
2.0
172
     1
279
     2
284
     8
285
     8
286
     8
340
21
  0
DIMSTYLE
105
3B
330
A
100
AcDbSymbolTableRecord
100
AcDbDimStyleTableRecord
  2
TOL-10
 70
     0
 41
3.5
 42
0.5
 43
8.0
 44
2.0
 47
1.0
 71
     1
 73
     0
 74
     0
 77
     1
 78
     8
140
3.5
141
0.5
146
0.7142857142857145
147
2.0
172
     1
279
     2
284
     8
285
     8
286
     8
340
21
  0
DIMSTYLE
105
3C
330
A
100
AcDbSymbolTableRecord
100
AcDbDimStyleTableRecord
  2
TOL-11
 70
     0
 41
3.5
 42
0.5
 43
8.0
 44
2.0
 48
1.0
 71
     1
 73
     0
 74
     0
 77
     1
 78
     8
140
3.5
141
0.5
146
0.7142857142857145
147
2.0
172
     1
279
     2
284
     8
285
     8
286
     8
340
21
  0
ENDTAB
  0
TABLE
  2
BLOCK_RECORD
  5
1
330
0
100
AcDbSymbolTable
 70
    31
  0
BLOCK_RECORD
  5
18
102
{ACAD_XDICTIONARY
360
4FB3
102
}
330
1
100
AcDbSymbolTableRecord
100
AcDbBlockTableRecord
  2
*MODEL_SPACE
340
768
  0
BLOCK_RECORD
  5
15
330
1
100
AcDbSymbolTableRecord
100
AcDbBlockTableRecord
  2
*PAPER_SPACE
340
769
  0
BLOCK_RECORD
  5
1E
330
1
100
AcDbSymbolTableRecord
100
AcDbBlockTableRecord
  2
A3
340
0
  0
BLOCK_RECORD
  5
1F
330
1
100
AcDbSymbolTableRecord
100
AcDbBlockTableRecord
  2
KOPF2
340
0
  0
BLOCK_RECORD
  5
33D
330
1
100
AcDbSymbolTableRecord
100
AcDbBlockTableRecord
  2
KOPF4
340
0
  0
BLOCK_RECORD
  5
11D5
330
1
100
AcDbSymbolTableRecord
100
AcDbBlockTableRecord
  2
*D3
340
0
  0
BLOCK_RECORD
  5
11E2
330
1
100
AcDbSymbolTableRecord
100
AcDbBlockTableRecord
  2
*D4
340
0
  0
BLOCK_RECORD
  5
1205
330
1
100
AcDbSymbolTableRecord
100
AcDbBlockTableRecord
  2
*D5
340
0
  0
BLOCK_RECORD
  5
1228
330
1
100
AcDbSymbolTableRecord
100
AcDbBlockTableRecord
  2
*D6
340
0
  0
BLOCK_RECORD
  5
1557
330
1
100
AcDbSymbolTableRecord
100
AcDbBlockTableRecord
  2
Spannbacke
340
0
310
2800000020000000200000000100080000000000000400000000000000000000000000000000000000000000000080000080000000808000800000008000800080800000C0C0C000C0DCC000F0CAA6000020400000206000002080000020A0000020C0000020E00000400000004020000040400000406000004080000040A0
310
000040C0000040E00000600000006020000060400000606000006080000060A0000060C0000060E00000800000008020000080400000806000008080000080A0000080C0000080E00000A0000000A0200000A0400000A0600000A0800000A0A00000A0C00000A0E00000C0000000C0200000C0400000C0600000C0800000C0
310
A00000C0C00000C0E00000E0000000E0200000E0400000E0600000E0800000E0A00000E0C00000E0E00040000000400020004000400040006000400080004000A0004000C0004000E00040200000402020004020400040206000402080004020A0004020C0004020E000404000004040200040404000404060004040800040
310
40A0004040C0004040E00040600000406020004060400040606000406080004060A0004060C0004060E00040800000408020004080400040806000408080004080A0004080C0004080E00040A0000040A0200040A0400040A0600040A0800040A0A00040A0C00040A0E00040C0000040C0200040C0400040C0600040C08000
310
40C0A00040C0C00040C0E00040E0000040E0200040E0400040E0600040E0800040E0A00040E0C00040E0E00080000000800020008000400080006000800080008000A0008000C0008000E00080200000802020008020400080206000802080008020A0008020C0008020E00080400000804020008040400080406000804080
310
008040A0008040C0008040E00080600000806020008060400080606000806080008060A0008060C0008060E00080800000808020008080400080806000808080008080A0008080C0008080E00080A0000080A0200080A0400080A0600080A0800080A0A00080A0C00080A0E00080C0000080C0200080C0400080C0600080C0
310
800080C0A00080C0C00080C0E00080E0000080E0200080E0400080E0600080E0800080E0A00080E0C00080E0E000C0000000C0002000C0004000C0006000C0008000C000A000C000C000C000E000C0200000C0202000C0204000C0206000C0208000C020A000C020C000C020E000C0400000C0402000C0404000C0406000C0
310
408000C040A000C040C000C040E000C0600000C0602000C0604000C0606000C0608000C060A000C060C000C060E000C0800000C0802000C0804000C0806000C0808000C080A000C080C000C080E000C0A00000C0A02000C0A04000C0A06000C0A08000C0A0A000C0A0C000C0A0E000C0C00000C0C02000C0C04000C0C06000
310
C0C08000C0C0A000F0FBFF00A4A0A000808080000000FF0000FF000000FFFF00FF000000FF00FF00FFFF0000FFFFFF0000000000000000000000000000000000000000000000000000000000000000000000000000000000000000000000000000000000000000000000000000000000000000000000000000000000000000
310
00000000000000000000000000000000000000000000000000000000000000000000000000000000000000000000000000000000000000000000000000000000000000000000000000000000000000000000000000000000000000000000000000000000000000000000000000000000000000000000000000000000000000
310
00000000000000000000000000000000000000000000000000000000000000000000000000000000000000000000000000000000000000000000000000000000000000000000000000F9F9F9F9F9F9F9F900000000000000000000000000000000000000000000F9F9F9F90000F900F9F90000000000000000000000000000
310
0000000000F9F9F9000000F90000F900F9F900000000000000000000000000000000F9F9F90000000000F9F90000F900F9F900000000000000000000000000F9F9F9F900000000F9F9F900F90000F900F9F900000000000000000000F9F9F9F900000000F9F9F900000000F90000F900F9F900000000000000F9F9F9F90000
310
0000F9F9F900000000000000F90000F900F9F900000000F9F9F9F9F900000000F9F900000000000000000000F90000F900F9F90000F9F9F9F900000000F9F9F9000000000000000000000000F90000F900F9F90000F9F9000000F9F9F9000000000000000000000000000000F90000F900F9F90000F900F9F9F90000000000
310
00000000000000000000000000F90000F900F9F90000F9F9000000000000000000000000000000000000000000F90000F900F9F90000F900000000000000000000000000000000000000000000F90000F900F9F90000F900000000000000000000000000000000000000000000F90000F900F9F90000F9F9F9F9F9F9F9F9F9
310
F9F9F9F9F9F9F9F9F9F9F9F9F9F9F9F9F9F9F9F9F90000F9F9F9F9F9F9F9F9F9F9F9F9F9F9F9F9F9F9F9F9F9F9F9F9F9F9F9F9F9F90000000000000000000000000000000000000000000000000000000000000000000000000000000000000000000000000000000000000000000000000000000000000000000000000000
310
00000000000000000000000000000000000000000000000000000000000000000000000000000000000000000000000000000000000000000000000000000000000000000000000000000000000000000000000000000000000000000000000000000000000000000000000000000000000000000000000000000000000000
310
0000000000000000000000000000000000000000000000000000000000000000000000000000000000000000000000000000000000000000
102
{BLKREFS
331
58B4
331
58DB
102
}
  0
BLOCK_RECORD
  5
1E33
330
1
100
AcDbSymbolTableRecord
100
AcDbBlockTableRecord
  2
Stueckliste1
340
0
  0
BLOCK_RECORD
  5
39CC
330
1
100
AcDbSymbolTableRecord
100
AcDbBlockTableRecord
  2
*D9
340
0
  0
BLOCK_RECORD
  5
39D9
330
1
100
AcDbSymbolTableRecord
100
AcDbBlockTableRecord
  2
*D10
340
0
  0
BLOCK_RECORD
  5
39E6
330
1
100
AcDbSymbolTableRecord
100
AcDbBlockTableRecord
  2
*D11
340
0
  0
BLOCK_RECORD
  5
3A3B
330
1
100
AcDbSymbolTableRecord
100
AcDbBlockTableRecord
  2
*D12
340
0
  0
BLOCK_RECORD
  5
3E1E
330
1
100
AcDbSymbolTableRecord
100
AcDbBlockTableRecord
  2
*X13
340
0
  0
BLOCK_RECORD
  5
3E25
330
1
100
AcDbSymbolTableRecord
100
AcDbBlockTableRecord
  2
*X14
340
0
  0
BLOCK_RECORD
  5
3E2C
330
1
100
AcDbSymbolTableRecord
100
AcDbBlockTableRecord
  2
*X15
340
0
  0
BLOCK_RECORD
  5
5020
330
1
100
AcDbSymbolTableRecord
100
AcDbBlockTableRecord
  2
*D16
340
0
  0
BLOCK_RECORD
  5
506A
330
1
100
AcDbSymbolTableRecord
100
AcDbBlockTableRecord
  2
*D17
340
0
  0
BLOCK_RECORD
  5
5166
330
1
100
AcDbSymbolTableRecord
100
AcDbBlockTableRecord
  2
*X18
340
0
  0
BLOCK_RECORD
  5
5180
330
1
100
AcDbSymbolTableRecord
100
AcDbBlockTableRecord
  2
*X19
340
0
  0
BLOCK_RECORD
  5
51B2
330
1
100
AcDbSymbolTableRecord
100
AcDbBlockTableRecord
  2
*X20
340
0
  0
BLOCK_RECORD
  5
54FB
330
1
100
AcDbSymbolTableRecord
100
AcDbBlockTableRecord
  2
*X21
340
0
  0
BLOCK_RECORD
  5
5515
330
1
100
AcDbSymbolTableRecord
100
AcDbBlockTableRecord
  2
*X22
340
0
  0
BLOCK_RECORD
  5
5547
330
1
100
AcDbSymbolTableRecord
100
AcDbBlockTableRecord
  2
*D23
340
0
  0
BLOCK_RECORD
  5
5555
330
1
100
AcDbSymbolTableRecord
100
AcDbBlockTableRecord
  2
*X24
340
0
  0
BLOCK_RECORD
  5
589A
330
1
100
AcDbSymbolTableRecord
100
AcDbBlockTableRecord
  2
*D25
340
0
  0
BLOCK_RECORD
  5
58B3
330
1
100
AcDbSymbolTableRecord
100
AcDbBlockTableRecord
  2
A$C69932470
340
0
  0
BLOCK_RECORD
  5
58DA
330
1
100
AcDbSymbolTableRecord
100
AcDbBlockTableRecord
  2
A$C167B21A6
340
0
  0
BLOCK_RECORD
  5
5B23
330
1
100
AcDbSymbolTableRecord
100
AcDbBlockTableRecord
  2
*D28
340
0
  0
BLOCK_RECORD
  5
5B30
330
1
100
AcDbSymbolTableRecord
100
AcDbBlockTableRecord
  2
*D29
340
0
  0
BLOCK_RECORD
  5
5BBD
330
1
100
AcDbSymbolTableRecord
100
AcDbBlockTableRecord
  2
*D30
340
0
  0
ENDTAB
  0
ENDSEC
  0
SECTION
  2
BLOCKS
  0
BLOCK
  5
4B
330
18
100
AcDbEntity
  8
0
100
AcDbBlockBegin
  2
*MODEL_SPACE
 70
     0
 10
0.0
 20
0.0
 30
0.0
  3
*MODEL_SPACE
  1

  0
ENDBLK
  5
4C
330
18
100
AcDbEntity
  8
0
100
AcDbBlockEnd
  0
BLOCK
  5
49
330
15
100
AcDbEntity
 67
     1
  8
0
100
AcDbBlockBegin
  2
*PAPER_SPACE
 70
     0
 10
0.0
 20
0.0
 30
0.0
  3
*PAPER_SPACE
  1

  0
ENDBLK
  5
4A
330
15
100
AcDbEntity
 67
     1
  8
0
100
AcDbBlockEnd
  0
BLOCK
  5
4D
330
1E
100
AcDbEntity
  8
0
100
AcDbBlockBegin
  2
A3
 70
     0
 10
0.0
 20
0.0
 30
0.0
  3
A3
  1

  0
LINE
  5
4E
330
1E
100
AcDbEntity
  8
RAHMEN
100
AcDbLine
 10
0.0
 20
0.0
 30
0.0
 11
420.0
 21
0.0
 31
0.0
  0
LINE
  5
4F
330
1E
100
AcDbEntity
  8
RAHMEN
100
AcDbLine
 10
420.0
 20
0.0
 30
0.0
 11
420.0
 21
297.0
 31
0.0
  0
LINE
  5
50
330
1E
100
AcDbEntity
  8
RAHMEN
100
AcDbLine
 10
420.0
 20
297.0
 30
0.0
 11
0.0
 21
297.0
 31
0.0
  0
LINE
  5
51
330
1E
100
AcDbEntity
  8
RAHMEN
100
AcDbLine
 10
0.0
 20
297.0
 30
0.0
 11
0.0
 21
0.0
 31
0.0
  0
LINE
  5
52
330
1E
100
AcDbEntity
  8
0
100
AcDbLine
 10
0.0
 20
0.0
 30
0.0
 11
0.0
 21
0.0
 31
0.0
  0
LINE
  5
53
330
1E
100
AcDbEntity
  8
RAHMEN
 62
     1
100
AcDbLine
 10
20.0
 20
5.0
 30
0.0
 11
415.0
 21
5.0
 31
0.0
  0
LINE
  5
54
330
1E
100
AcDbEntity
  8
RAHMEN
 62
     1
100
AcDbLine
 10
415.0
 20
5.0
 30
0.0
 11
415.0
 21
292.0
 31
0.0
  0
LINE
  5
55
330
1E
100
AcDbEntity
  8
RAHMEN
 62
     1
100
AcDbLine
 10
415.0
 20
292.0
 30
0.0
 11
20.0
 21
292.0
 31
0.0
  0
LINE
  5
56
330
1E
100
AcDbEntity
  8
RAHMEN
 62
     1
100
AcDbLine
 10
20.0
 20
292.0
 30
0.0
 11
20.0
 21
5.0
 31
0.0
  0
LINE
  5
57
330
1E
100
AcDbEntity
  8
0
100
AcDbLine
 10
20.0
 20
5.0
 30
0.0
 11
20.0
 21
5.0
 31
0.0
  0
LINE
  5
58
330
1E
100
AcDbEntity
  8
RAHMEN
100
AcDbLine
 10
230.0
 20
0.0
 30
0.0
 11
230.0
 21
5.0
 31
0.0
  0
LINE
  5
59
330
1E
100
AcDbEntity
  8
RAHMEN
100
AcDbLine
 10
230.0
 20
292.0
 30
0.0
 11
230.0
 21
297.0
 31
0.0
  0
LINE
  5
5A
330
1E
100
AcDbEntity
  8
RAHMEN
100
AcDbLine
 10
125.0
 20
0.0
 30
0.0
 11
125.0
 21
5.0
 31
0.0
  0
LINE
  5
5B
330
1E
100
AcDbEntity
  8
RAHMEN
100
AcDbLine
 10
125.0
 20
292.0
 30
0.0
 11
125.0
 21
297.0
 31
0.0
  0
ENDBLK
  5
5C
330
1E
100
AcDbEntity
  8
0
100
AcDbBlockEnd
  0
BLOCK
  5
5D
330
1F
100
AcDbEntity
  8
0
100
AcDbBlockBegin
  2
KOPF2
 70
     2
 10
0.0
 20
0.0
 30
0.0
  3
KOPF2
  1

  0
LINE
  5
5E
330
1F
100
AcDbEntity
  8
0
100
AcDbLine
 10
0.0
 20
297.0
 30
0.0
 11
0.0
 21
0.0
 31
0.0
  0
LINE
  5
5F
330
1F
100
AcDbEntity
  8
0
100
AcDbLine
 10
0.0
 20
0.0
 30
0.0
 11
0.0
 21
0.0
 31
0.0
  0
LINE
  5
60
330
1F
100
AcDbEntity
  8
RAHMEN
100
AcDbLine
 10
0.0
 20
148.5
 30
0.0
 11
4.080403395846737
 21
148.5
 31
0.0
  0
LINE
  5
61
330
1F
100
AcDbEntity
  8
HILFSLINIEN
100
AcDbLine
 10
18.75
 20
0.0
 30
0.0
 11
18.75
 21
2.0
 31
0.0
  0
LINE
  5
62
330
1F
100
AcDbEntity
  8
HILFSLINIEN
100
AcDbLine
 10
18.75
 20
2.0
 30
0.0
 11
15.0
 21
2.0
 31
0.0
  0
CIRCLE
  5
63
330
1F
100
AcDbEntity
  8
TEXT
100
AcDbCircle
 10
16.875
 20
2.0
 30
0.0
 40
1.7
  0
LINE
  5
64
330
1F
100
AcDbEntity
  8
HILFSLINIEN
100
AcDbLine
 10
13.75
 20
0.0
 30
0.0
 11
13.75
 21
2.0
 31
0.0
  0
LINE
  5
65
330
1F
100
AcDbEntity
  8
HILFSLINIEN
100
AcDbLine
 10
13.75
 20
2.0
 30
0.0
 11
10.0
 21
2.0
 31
0.0
  0
CIRCLE
  5
66
330
1F
100
AcDbEntity
  8
TEXT
100
AcDbCircle
 10
11.875
 20
2.0
 30
0.0
 40
1.7
  0
LINE
  5
67
330
1F
100
AcDbEntity
  8
HILFSLINIEN
100
AcDbLine
 10
8.75
 20
0.0
 30
0.0
 11
8.75
 21
2.0
 31
0.0
  0
LINE
  5
68
330
1F
100
AcDbEntity
  8
HILFSLINIEN
100
AcDbLine
 10
8.75
 20
2.0
 30
0.0
 11
5.0
 21
2.0
 31
0.0
  0
CIRCLE
  5
69
330
1F
100
AcDbEntity
  8
TEXT
100
AcDbCircle
 10
6.875
 20
2.0
 30
0.0
 40
1.7
  0
TEXT
  5
6A
330
1F
100
AcDbEntity
  8
TEXT
100
AcDbText
 10
7.875
 20
1.392857142857142
 30
0.0
 40
2.0
  1
1
 50
90.0
 41
0.75
  7
ROMANS
 72
     4
 11
6.875
 21
2.0
 31
0.0
100
AcDbText
  0
TEXT
  5
6B
330
1F
100
AcDbEntity
  8
TEXT
100
AcDbText
 10
12.875
 20
1.285714285714285
 30
0.0
 40
2.0
  1
2
 50
90.0
 41
0.75
  7
ROMANS
 72
     4
 11
11.875
 21
2.0
 31
0.0
100
AcDbText
  0
TEXT
  5
6C
330
1F
100
AcDbEntity
  8
TEXT
100
AcDbText
 10
17.875
 20
1.285714285714285
 30
0.0
 40
2.0
  1
3
 50
90.0
 41
0.75
  7
ROMANS
 72
     4
 11
16.875
 21
2.0
 31
0.0
100
AcDbText
  0
LINE
  5
6D
330
1F
100
AcDbEntity
  8
HILFSLINIEN
100
AcDbLine
 10
18.75
 20
207.0
 30
0.0
 11
18.75
 21
209.0
 31
0.0
  0
LINE
  5
6E
330
1F
100
AcDbEntity
  8
HILFSLINIEN
100
AcDbLine
 10
18.75
 20
209.0
 30
0.0
 11
15.0
 21
209.0
 31
0.0
  0
CIRCLE
  5
6F
330
1F
100
AcDbEntity
  8
TEXT
100
AcDbCircle
 10
16.875
 20
209.0
 30
0.0
 40
1.7
  0
LINE
  5
70
330
1F
100
AcDbEntity
  8
HILFSLINIEN
100
AcDbLine
 10
13.75
 20
207.0
 30
0.0
 11
13.75
 21
209.0
 31
0.0
  0
LINE
  5
71
330
1F
100
AcDbEntity
  8
HILFSLINIEN
100
AcDbLine
 10
13.75
 20
209.0
 30
0.0
 11
10.0
 21
209.0
 31
0.0
  0
CIRCLE
  5
72
330
1F
100
AcDbEntity
  8
TEXT
100
AcDbCircle
 10
11.875
 20
209.0
 30
0.0
 40
1.7
  0
LINE
  5
73
330
1F
100
AcDbEntity
  8
HILFSLINIEN
100
AcDbLine
 10
8.75
 20
207.0
 30
0.0
 11
8.75
 21
209.0
 31
0.0
  0
LINE
  5
74
330
1F
100
AcDbEntity
  8
HILFSLINIEN
100
AcDbLine
 10
8.75
 20
209.0
 30
0.0
 11
5.0
 21
209.0
 31
0.0
  0
CIRCLE
  5
75
330
1F
100
AcDbEntity
  8
TEXT
100
AcDbCircle
 10
6.875
 20
209.0
 30
0.0
 40
1.7
  0
TEXT
  5
76
330
1F
100
AcDbEntity
  8
TEXT
100
AcDbText
 10
7.875
 20
208.25
 30
0.0
 40
2.0
  1
4
 50
90.0
 41
0.75
  7
ROMANS
 72
     4
 11
6.875
 21
209.0
 31
0.0
100
AcDbText
  0
TEXT
  5
77
330
1F
100
AcDbEntity
  8
TEXT
100
AcDbText
 10
12.875
 20
208.2857142857143
 30
0.0
 40
2.0
  1
5
 50
90.0
 41
0.75
  7
ROMANS
 72
     4
 11
11.875
 21
209.0
 31
0.0
100
AcDbText
  0
TEXT
  5
78
330
1F
100
AcDbEntity
  8
TEXT
100
AcDbText
 10
17.875
 20
208.25
 30
0.0
 40
2.0
  1
6
 50
90.0
 41
0.75
  7
ROMANS
 72
     4
 11
16.875
 21
209.0
 31
0.0
100
AcDbText
  0
LINE
  5
79
330
1F
100
AcDbEntity
  8
HILFSLINIEN
100
AcDbLine
 10
3.75
 20
0.0
 30
0.0
 11
3.75
 21
4.5
 31
0.0
  0
LINE
  5
7A
330
1F
100
AcDbEntity
  8
HILFSLINIEN
100
AcDbLine
 10
3.75
 20
4.5
 30
0.0
 11
18.75
 21
4.5
 31
0.0
  0
LINE
  5
7B
330
1F
100
AcDbEntity
  8
HILFSLINIEN
100
AcDbLine
 10
18.75
 20
60.0
 30
0.0
 11
18.75
 21
61.0
 31
0.0
  0
LINE
  5
7C
330
1F
100
AcDbEntity
  8
HILFSLINIEN
100
AcDbLine
 10
18.75
 20
61.0
 30
0.0
 11
3.75
 21
61.0
 31
0.0
  0
LINE
  5
7D
330
1F
100
AcDbEntity
  8
HILFSLINIEN
100
AcDbLine
 10
18.75
 20
75.0
 30
0.0
 11
18.75
 21
76.0
 31
0.0
  0
LINE
  5
7E
330
1F
100
AcDbEntity
  8
HILFSLINIEN
100
AcDbLine
 10
18.75
 20
76.0
 30
0.0
 11
3.75
 21
76.0
 31
0.0
  0
LINE
  5
7F
330
1F
100
AcDbEntity
  8
HILFSLINIEN
100
AcDbLine
 10
18.75
 20
207.0
 30
0.0
 11
18.75
 21
211.5
 31
0.0
  0
LINE
  5
80
330
1F
100
AcDbEntity
  8
HILFSLINIEN
100
AcDbLine
 10
18.75
 20
211.5
 30
0.0
 11
3.75
 21
211.5
 31
0.0
  0
LINE
  5
81
330
1F
100
AcDbEntity
  8
HILFSLINIEN
100
AcDbLine
 10
18.75
 20
267.0
 30
0.0
 11
18.75
 21
268.0
 31
0.0
  0
LINE
  5
82
330
1F
100
AcDbEntity
  8
HILFSLINIEN
100
AcDbLine
 10
18.75
 20
268.0
 30
0.0
 11
3.75
 21
268.0
 31
0.0
  0
LINE
  5
83
330
1F
100
AcDbEntity
  8
HILFSLINIEN
100
AcDbLine
 10
18.75
 20
282.0
 30
0.0
 11
18.75
 21
283.0
 31
0.0
  0
LINE
  5
84
330
1F
100
AcDbEntity
  8
HILFSLINIEN
100
AcDbLine
 10
18.75
 20
283.0
 30
0.0
 11
3.75
 21
283.0
 31
0.0
  0
LINE
  5
85
330
1F
100
AcDbEntity
  8
0
100
AcDbLine
 10
0.0
 20
297.0
 30
0.0
 11
0.0
 21
0.0
 31
0.0
  0
LINE
  5
86
330
1F
100
AcDbEntity
  8
HILFSLINIEN
100
AcDbLine
 10
3.75
 20
0.0
 30
0.0
 11
3.75
 21
60.0
 31
0.0
  0
LINE
  5
87
330
1F
100
AcDbEntity
  8
HILFSLINIEN
100
AcDbLine
 10
8.75
 20
0.0
 30
0.0
 11
8.75
 21
60.0
 31
0.0
  0
LINE
  5
88
330
1F
100
AcDbEntity
  8
HILFSLINIEN
100
AcDbLine
 10
13.75
 20
0.0
 30
0.0
 11
13.75
 21
60.0
 31
0.0
  0
LINE
  5
89
330
1F
100
AcDbEntity
  8
HILFSLINIEN
100
AcDbLine
 10
18.75
 20
0.0
 30
0.0
 11
18.75
 21
60.0
 31
0.0
  0
LINE
  5
8A
330
1F
100
AcDbEntity
  8
HILFSLINIEN
100
AcDbLine
 10
3.75
 20
0.0
 30
0.0
 11
3.75
 21
60.0
 31
0.0
  0
LINE
  5
8B
330
1F
100
AcDbEntity
  8
HILFSLINIEN
100
AcDbLine
 10
8.75
 20
0.0
 30
0.0
 11
8.75
 21
60.0
 31
0.0
  0
LINE
  5
8C
330
1F
100
AcDbEntity
  8
HILFSLINIEN
100
AcDbLine
 10
13.75
 20
0.0
 30
0.0
 11
13.75
 21
60.0
 31
0.0
  0
LINE
  5
8D
330
1F
100
AcDbEntity
  8
HILFSLINIEN
100
AcDbLine
 10
18.75
 20
0.0
 30
0.0
 11
18.75
 21
60.0
 31
0.0
  0
LINE
  5
8E
330
1F
100
AcDbEntity
  8
HILFSLINIEN
100
AcDbLine
 10
5.0
 20
0.0
 30
0.0
 11
4.25
 21
0.0
 31
0.0
  0
LINE
  5
8F
330
1F
100
AcDbEntity
  8
HILFSLINIEN
100
AcDbLine
 10
5.0
 20
0.0
 30
0.0
 11
3.75
 21
0.0
 31
0.0
  0
LINE
  5
90
330
1F
100
AcDbEntity
  8
HILFSLINIEN
100
AcDbLine
 10
5.0
 20
0.0
 30
0.0
 11
4.25
 21
0.0
 31
0.0
  0
LINE
  5
91
330
1F
100
AcDbEntity
  8
HILFSLINIEN
100
AcDbLine
 10
5.0
 20
0.0
 30
0.0
 11
3.75
 21
0.0
 31
0.0
  0
LINE
  5
92
330
1F
100
AcDbEntity
  8
0
100
AcDbLine
 10
0.0
 20
0.0
 30
0.0
 11
0.0
 21
0.0
 31
0.0
  0
TEXT
  5
93
330
1F
100
AcDbEntity
  8
TEXT
100
AcDbText
 10
3.749999999999999
 20
23.70535714285714
 30
0.0
 40
2.5
  1
Änderung
 50
90.0
 41
0.75
  7
ROMANS
 72
     1
 11
3.75
 21
30.0
 31
0.0
100
AcDbText
  0
LINE
  5
94
330
1F
100
AcDbEntity
  8
0
100
AcDbLine
 10
20.0
 20
5.0
 30
0.0
 11
20.0
 21
5.0
 31
0.0
  0
LINE
  5
95
330
1F
100
AcDbEntity
  8
RAHMEN
100
AcDbLine
 10
0.0
 20
148.5
 30
0.0
 11
4.080403395846737
 21
148.5
 31
0.0
  0
LINE
  5
96
330
1F
100
AcDbEntity
  8
HILFSLINIEN
100
AcDbLine
 10
3.75
 20
75.0
 30
0.0
 11
3.75
 21
90.0
 31
0.0
  0
LINE
  5
97
330
1F
100
AcDbEntity
  8
HILFSLINIEN
100
AcDbLine
 10
8.75
 20
75.0
 30
0.0
 11
8.75
 21
90.0
 31
0.0
  0
TEXT
  5
98
330
1F
100
AcDbEntity
  8
TEXT
100
AcDbText
 10
3.749999999999999
 20
78.48214285714286
 30
0.0
 40
2.5
  1
Name
 50
90.0
 41
0.75
  7
ROMANS
 72
     1
 11
3.75
 21
82.5
 31
0.0
100
AcDbText
  0
LINE
  5
99
330
1F
100
AcDbEntity
  8
HILFSLINIEN
100
AcDbLine
 10
3.75
 20
75.0
 30
0.0
 11
3.75
 21
90.0
 31
0.0
  0
LINE
  5
9A
330
1F
100
AcDbEntity
  8
HILFSLINIEN
100
AcDbLine
 10
8.75
 20
75.0
 30
0.0
 11
8.75
 21
90.0
 31
0.0
  0
LINE
  5
9B
330
1F
100
AcDbEntity
  8
HILFSLINIEN
100
AcDbLine
 10
3.75
 20
60.0
 30
0.0
 11
3.75
 21
75.0
 31
0.0
  0
LINE
  5
9C
330
1F
100
AcDbEntity
  8
HILFSLINIEN
100
AcDbLine
 10
8.75
 20
60.0
 30
0.0
 11
8.75
 21
75.0
 31
0.0
  0
TEXT
  5
9D
330
1F
100
AcDbEntity
  8
TEXT
100
AcDbText
 10
3.749999999999999
 20
62.99107142857143
 30
0.0
 40
2.5
  1
Datum
 50
90.0
 41
0.75
  7
ROMANS
 72
     1
 11
3.75
 21
67.5
 31
0.0
100
AcDbText
  0
LINE
  5
9E
330
1F
100
AcDbEntity
  8
HILFSLINIEN
100
AcDbLine
 10
3.75
 20
60.0
 30
0.0
 11
3.75
 21
75.0
 31
0.0
  0
LINE
  5
9F
330
1F
100
AcDbEntity
  8
HILFSLINIEN
100
AcDbLine
 10
8.75
 20
60.0
 30
0.0
 11
8.75
 21
75.0
 31
0.0
  0
LINE
  5
A0
330
1F
100
AcDbEntity
  8
HILFSLINIEN
100
AcDbLine
 10
13.75
 20
75.0
 30
0.0
 11
13.75
 21
90.0
 31
0.0
  0
LINE
  5
A1
330
1F
100
AcDbEntity
  8
HILFSLINIEN
100
AcDbLine
 10
18.75
 20
75.0
 30
0.0
 11
18.75
 21
90.0
 31
0.0
  0
LINE
  5
A2
330
1F
100
AcDbEntity
  8
HILFSLINIEN
100
AcDbLine
 10
13.75
 20
75.0
 30
0.0
 11
13.75
 21
90.0
 31
0.0
  0
LINE
  5
A3
330
1F
100
AcDbEntity
  8
HILFSLINIEN
100
AcDbLine
 10
18.75
 20
75.0
 30
0.0
 11
18.75
 21
90.0
 31
0.0
  0
LINE
  5
A4
330
1F
100
AcDbEntity
  8
HILFSLINIEN
100
AcDbLine
 10
13.75
 20
60.0
 30
0.0
 11
13.75
 21
75.0
 31
0.0
  0
LINE
  5
A5
330
1F
100
AcDbEntity
  8
HILFSLINIEN
100
AcDbLine
 10
18.75
 20
60.0
 30
0.0
 11
18.75
 21
75.0
 31
0.0
  0
LINE
  5
A6
330
1F
100
AcDbEntity
  8
HILFSLINIEN
100
AcDbLine
 10
13.75
 20
60.0
 30
0.0
 11
13.75
 21
75.0
 31
0.0
  0
LINE
  5
A7
330
1F
100
AcDbEntity
  8
HILFSLINIEN
100
AcDbLine
 10
18.75
 20
60.0
 30
0.0
 11
18.75
 21
75.0
 31
0.0
  0
TEXT
  5
A8
330
1F
100
AcDbEntity
  8
TEXT
100
AcDbText
 10
3.749999999999999
 20
230.7053571428571
 30
0.0
 40
2.5
  1
Änderung
 50
90.0
 41
0.75
  7
ROMANS
 72
     1
 11
3.75
 21
237.0
 31
0.0
100
AcDbText
  0
LINE
  5
A9
330
1F
100
AcDbEntity
  8
HILFSLINIEN
100
AcDbLine
 10
18.75
 20
207.0
 30
0.0
 11
18.75
 21
267.0
 31
0.0
  0
LINE
  5
AA
330
1F
100
AcDbEntity
  8
HILFSLINIEN
100
AcDbLine
 10
13.75
 20
207.0
 30
0.0
 11
13.75
 21
267.0
 31
0.0
  0
LINE
  5
AB
330
1F
100
AcDbEntity
  8
HILFSLINIEN
100
AcDbLine
 10
8.75
 20
207.0
 30
0.0
 11
8.75
 21
267.0
 31
0.0
  0
LINE
  5
AC
330
1F
100
AcDbEntity
  8
HILFSLINIEN
100
AcDbLine
 10
3.75
 20
207.0
 30
0.0
 11
3.75
 21
267.0
 31
0.0
  0
LINE
  5
AD
330
1F
100
AcDbEntity
  8
HILFSLINIEN
100
AcDbLine
 10
5.0
 20
207.0
 30
0.0
 11
3.75
 21
207.0
 31
0.0
  0
LINE
  5
AE
330
1F
100
AcDbEntity
  8
HILFSLINIEN
100
AcDbLine
 10
5.0
 20
207.0
 30
0.0
 11
4.25
 21
207.0
 31
0.0
  0
TEXT
  5
AF
330
1F
100
AcDbEntity
  8
TEXT
100
AcDbText
 10
3.749999999999999
 20
285.4821428571428
 30
0.0
 40
2.5
  1
Name
 50
90.0
 41
0.75
  7
ROMANS
 72
     1
 11
3.75
 21
289.5
 31
0.0
100
AcDbText
  0
LINE
  5
B0
330
1F
100
AcDbEntity
  8
HILFSLINIEN
100
AcDbLine
 10
8.75
 20
282.0
 30
0.0
 11
8.75
 21
297.0
 31
0.0
  0
LINE
  5
B1
330
1F
100
AcDbEntity
  8
HILFSLINIEN
100
AcDbLine
 10
3.75
 20
282.0
 30
0.0
 11
3.75
 21
297.0
 31
0.0
  0
TEXT
  5
B2
330
1F
100
AcDbEntity
  8
TEXT
100
AcDbText
 10
3.749999999999999
 20
269.9910714285715
 30
0.0
 40
2.5
  1
Datum
 50
90.0
 41
0.75
  7
ROMANS
 72
     1
 11
3.75
 21
274.5
 31
0.0
100
AcDbText
  0
LINE
  5
B3
330
1F
100
AcDbEntity
  8
HILFSLINIEN
100
AcDbLine
 10
8.75
 20
267.0
 30
0.0
 11
8.75
 21
282.0
 31
0.0
  0
LINE
  5
B4
330
1F
100
AcDbEntity
  8
HILFSLINIEN
100
AcDbLine
 10
3.75
 20
267.0
 30
0.0
 11
3.75
 21
282.0
 31
0.0
  0
LINE
  5
B5
330
1F
100
AcDbEntity
  8
HILFSLINIEN
100
AcDbLine
 10
18.75
 20
282.0
 30
0.0
 11
18.75
 21
297.0
 31
0.0
  0
LINE
  5
B6
330
1F
100
AcDbEntity
  8
HILFSLINIEN
100
AcDbLine
 10
13.75
 20
282.0
 30
0.0
 11
13.75
 21
297.0
 31
0.0
  0
LINE
  5
B7
330
1F
100
AcDbEntity
  8
HILFSLINIEN
100
AcDbLine
 10
18.75
 20
267.0
 30
0.0
 11
18.75
 21
282.0
 31
0.0
  0
LINE
  5
B8
330
1F
100
AcDbEntity
  8
HILFSLINIEN
100
AcDbLine
 10
13.75
 20
267.0
 30
0.0
 11
13.75
 21
282.0
 31
0.0
  0
LINE
  5
B9
330
1F
100
AcDbEntity
  8
0
100
AcDbLine
 10
0.0
 20
297.0
 30
0.0
 11
0.0
 21
0.0
 31
0.0
  0
LINE
  5
BA
330
1F
100
AcDbEntity
  8
RAHMEN
100
AcDbLine
 10
0.0
 20
90.0
 30
0.0
 11
0.0
 21
0.0
 31
0.0
  0
LINE
  5
BB
330
1F
100
AcDbEntity
  8
RAHMEN
100
AcDbLine
 10
0.0
 20
0.0
 30
0.0
 11
0.0
 21
90.0
 31
0.0
  0
LINE
  5
BC
330
1F
100
AcDbEntity
  8
RAHMEN
100
AcDbLine
 10
5.0
 20
0.0
 30
0.0
 11
5.0
 21
90.0
 31
0.0
  0
LINE
  5
BD
330
1F
100
AcDbEntity
  8
RAHMEN
100
AcDbLine
 10
10.0
 20
0.0
 30
0.0
 11
10.0
 21
90.0
 31
0.0
  0
LINE
  5
BE
330
1F
100
AcDbEntity
  8
RAHMEN
100
AcDbLine
 10
15.0
 20
0.0
 30
0.0
 11
15.0
 21
90.0
 31
0.0
  0
LINE
  5
BF
330
1F
100
AcDbEntity
  8
RAHMEN
100
AcDbLine
 10
0.0
 20
0.0
 30
0.0
 11
20.0
 21
0.0
 31
0.0
  0
LINE
  5
C0
330
1F
100
AcDbEntity
  8
RAHMEN
100
AcDbLine
 10
0.0
 20
0.0
 30
0.0
 11
5.0
 21
0.0
 31
0.0
  0
LINE
  5
C1
330
1F
100
AcDbEntity
  8
0
100
AcDbLine
 10
0.0
 20
0.0
 30
0.0
 11
0.0
 21
0.0
 31
0.0
  0
LINE
  5
C2
330
1F
100
AcDbEntity
  8
0
100
AcDbLine
 10
20.0
 20
5.0
 30
0.0
 11
20.0
 21
5.0
 31
0.0
  0
LINE
  5
C3
330
1F
100
AcDbEntity
  8
RAHMEN
100
AcDbLine
 10
0.0
 20
90.0
 30
0.0
 11
20.0
 21
90.0
 31
0.0
  0
LINE
  5
C4
330
1F
100
AcDbEntity
  8
RAHMEN
100
AcDbLine
 10
0.0
 20
60.0
 30
0.0
 11
20.0
 21
60.0
 31
0.0
  0
LINE
  5
C5
330
1F
100
AcDbEntity
  8
RAHMEN
100
AcDbLine
 10
0.0
 20
75.0
 30
0.0
 11
20.0
 21
75.0
 31
0.0
  0
LINE
  5
C6
330
1F
100
AcDbEntity
  8
RAHMEN
100
AcDbLine
 10
0.0
 20
148.5
 30
0.0
 11
7.544638271345937
 21
148.5
 31
0.0
  0
LINE
  5
C7
330
1F
100
AcDbEntity
  8
RAHMEN
100
AcDbLine
 10
15.0
 20
207.0
 30
0.0
 11
15.0
 21
297.0
 31
0.0
  0
LINE
  5
C8
330
1F
100
AcDbEntity
  8
RAHMEN
100
AcDbLine
 10
10.0
 20
207.0
 30
0.0
 11
10.0
 21
297.0
 31
0.0
  0
LINE
  5
C9
330
1F
100
AcDbEntity
  8
RAHMEN
100
AcDbLine
 10
5.0
 20
207.0
 30
0.0
 11
5.0
 21
297.0
 31
0.0
  0
LINE
  5
CA
330
1F
100
AcDbEntity
  8
RAHMEN
100
AcDbLine
 10
0.0
 20
207.0
 30
0.0
 11
0.0
 21
297.0
 31
0.0
  0
LINE
  5
CB
330
1F
100
AcDbEntity
  8
RAHMEN
100
AcDbLine
 10
0.0
 20
297.0
 30
0.0
 11
0.0
 21
207.0
 31
0.0
  0
LINE
  5
CC
330
1F
100
AcDbEntity
  8
RAHMEN
100
AcDbLine
 10
0.0
 20
207.0
 30
0.0
 11
20.0
 21
207.0
 31
0.0
  0
LINE
  5
CD
330
1F
100
AcDbEntity
  8
RAHMEN
100
AcDbLine
 10
0.0
 20
207.0
 30
0.0
 11
5.0
 21
207.0
 31
0.0
  0
LINE
  5
CE
330
1F
100
AcDbEntity
  8
RAHMEN
100
AcDbLine
 10
0.0
 20
282.0
 30
0.0
 11
20.0
 21
282.0
 31
0.0
  0
LINE
  5
CF
330
1F
100
AcDbEntity
  8
RAHMEN
100
AcDbLine
 10
0.0
 20
267.0
 30
0.0
 11
20.0
 21
267.0
 31
0.0
  0
LINE
  5
D0
330
1F
100
AcDbEntity
  8
RAHMEN
100
AcDbLine
 10
0.0
 20
297.0
 30
0.0
 11
20.0
 21
297.0
 31
0.0
  0
ATTDEF
  5
D1
330
1F
100
AcDbEntity
  8
TEXT
100
AcDbText
 10
8.75
 20
4.5
 30
0.0
 40
2.5
  1

 50
90.0
 41
0.75
  7
ROMANS
100
AcDbAttributeDefinition
  3
1-Änderung-Text
  2
1
 70
     0
  0
ATTDEF
  5
D2
330
1F
100
AcDbEntity
  8
TEXT
100
AcDbText
 10
8.75
 20
61.0
 30
0.0
 40
2.5
  1

 50
90.0
 41
0.75
  7
ROMANS
100
AcDbAttributeDefinition
  3
1-Änderung-Datum
  2
2
 70
     0
  0
ATTDEF
  5
D3
330
1F
100
AcDbEntity
  8
TEXT
100
AcDbText
 10
8.75
 20
76.0
 30
0.0
 40
2.5
  1

 50
90.0
 41
0.75
  7
ROMANS
100
AcDbAttributeDefinition
  3
1-Änderung-Name
  2
3
 70
     0
  0
ATTDEF
  5
D4
330
1F
100
AcDbEntity
  8
TEXT
100
AcDbText
 10
13.75
 20
4.5
 30
0.0
 40
2.5
  1

 50
90.0
 41
0.75
  7
ROMANS
100
AcDbAttributeDefinition
  3
2-Änderung-Text
  2
4
 70
     0
  0
ATTDEF
  5
D5
330
1F
100
AcDbEntity
  8
TEXT
100
AcDbText
 10
13.75
 20
61.0
 30
0.0
 40
2.5
  1

 50
90.0
 41
0.75
  7
ROMANS
100
AcDbAttributeDefinition
  3
2-Änderung-Datum
  2
5
 70
     0
  0
ATTDEF
  5
D6
330
1F
100
AcDbEntity
  8
TEXT
100
AcDbText
 10
13.75
 20
76.0
 30
0.0
 40
2.5
  1

 50
90.0
 41
0.75
  7
ROMANS
100
AcDbAttributeDefinition
  3
2-Änderung-Name
  2
6
 70
     0
  0
ATTDEF
  5
D7
330
1F
100
AcDbEntity
  8
TEXT
100
AcDbText
 10
18.75
 20
4.5
 30
0.0
 40
2.5
  1

 50
90.0
 41
0.75
  7
ROMANS
100
AcDbAttributeDefinition
  3
3-Änderung-Text
  2
7
 70
     0
  0
ATTDEF
  5
D8
330
1F
100
AcDbEntity
  8
TEXT
100
AcDbText
 10
18.75
 20
61.0
 30
0.0
 40
2.5
  1

 50
90.0
 41
0.75
  7
ROMANS
100
AcDbAttributeDefinition
  3
3-Änderung-Datum
  2
8
 70
     0
  0
ATTDEF
  5
D9
330
1F
100
AcDbEntity
  8
TEXT
100
AcDbText
 10
18.75
 20
76.0
 30
0.0
 40
2.5
  1

 50
90.0
 41
0.75
  7
ROMANS
100
AcDbAttributeDefinition
  3
3-Änderung-Name
  2
9
 70
     0
  0
ATTDEF
  5
DA
330
1F
100
AcDbEntity
  8
TEXT
100
AcDbText
 10
8.75
 20
211.5
 30
0.0
 40
2.5
  1

 50
90.0
 41
0.75
  7
ROMANS
100
AcDbAttributeDefinition
  3
4-Änderung-Text
  2
10
 70
     0
  0
ATTDEF
  5
DB
330
1F
100
AcDbEntity
  8
TEXT
100
AcDbText
 10
8.75
 20
268.0
 30
0.0
 40
2.5
  1

 50
90.0
 41
0.75
  7
ROMANS
100
AcDbAttributeDefinition
  3
4-Änderung-Datum
  2
11
 70
     0
  0
ATTDEF
  5
DC
330
1F
100
AcDbEntity
  8
TEXT
100
AcDbText
 10
8.75
 20
283.0
 30
0.0
 40
2.5
  1

 50
90.0
 41
0.75
  7
ROMANS
100
AcDbAttributeDefinition
  3
4-Änderung-Name
  2
12
 70
     0
  0
ATTDEF
  5
DD
330
1F
100
AcDbEntity
  8
TEXT
100
AcDbText
 10
13.75
 20
211.5
 30
0.0
 40
2.5
  1

 50
90.0
 41
0.75
  7
ROMANS
100
AcDbAttributeDefinition
  3
5-Änderung-Text
  2
13
 70
     0
  0
ATTDEF
  5
DE
330
1F
100
AcDbEntity
  8
TEXT
100
AcDbText
 10
13.75
 20
268.0
 30
0.0
 40
2.5
  1

 50
90.0
 41
0.75
  7
ROMANS
100
AcDbAttributeDefinition
  3
5-Änderung-Datum
  2
14
 70
     0
  0
ATTDEF
  5
DF
330
1F
100
AcDbEntity
  8
TEXT
100
AcDbText
 10
13.75
 20
283.0
 30
0.0
 40
2.5
  1

 50
90.0
 41
0.75
  7
ROMANS
100
AcDbAttributeDefinition
  3
5-Änderung-Name
  2
15
 70
     0
  0
ATTDEF
  5
E0
330
1F
100
AcDbEntity
  8
TEXT
100
AcDbText
 10
18.75
 20
211.5
 30
0.0
 40
2.5
  1

 50
90.0
 41
0.75
  7
ROMANS
100
AcDbAttributeDefinition
  3
6-Änderung-Text
  2
16
 70
     0
  0
ATTDEF
  5
E1
330
1F
100
AcDbEntity
  8
TEXT
100
AcDbText
 10
18.75
 20
268.0
 30
0.0
 40
2.5
  1

 50
90.0
 41
0.75
  7
ROMANS
100
AcDbAttributeDefinition
  3
6-Änderung-Datum
  2
17
 70
     0
  0
ATTDEF
  5
E2
330
1F
100
AcDbEntity
  8
TEXT
100
AcDbText
 10
18.75
 20
283.0
 30
0.0
 40
2.5
  1

 50
90.0
 41
0.75
  7
ROMANS
100
AcDbAttributeDefinition
  3
6-Änderung-Name
  2
18
 70
     0
  0
LINE
  5
E3
330
1F
100
AcDbEntity
  8
HILFSLINIEN
100
AcDbLine
 10
20.0
 20
297.0
 30
0.0
 11
20.0
 21
0.0
 31
0.0
  0
LINE
  5
E4
330
1F
100
AcDbEntity
  8
HILFSLINIEN
100
AcDbLine
 10
0.0
 20
183.5
 30
0.0
 11
20.0
 21
183.5
 31
0.0
  0
LINE
  5
E5
330
1F
100
AcDbEntity
  8
HILFSLINIEN
100
AcDbLine
 10
0.0
 20
113.5
 30
0.0
 11
20.0
 21
113.5
 31
0.0
  0
TEXT
  5
E6
330
1F
100
AcDbEntity
  8
TEXT
100
AcDbText
 10
9.847940365286088
 20
113.5
 30
0.0
 40
1.8
  1
Diese Unterlagen bleiben unser Eigentum. Vervielfältigungen, Anfertigungen
 50
90.0
 41
0.6727073036792982
  7
ROMANS
 72
     5
 11
9.847940365286088
 21
183.5
 31
0.0
100
AcDbText
  0
TEXT
  5
E7
330
1F
100
AcDbEntity
  8
TEXT
100
AcDbText
 10
12.7622260795718
 20
113.5
 30
0.0
 40
1.8
  1
von Aufzeichnungen bezüglich des Inhaltes, die Weitergabe, auch des In-
 50
90.0
 41
0.6721536351165966
  7
ROMANS
 72
     5
 11
12.7622260795718
 21
183.5
 31
0.0
100
AcDbText
  0
TEXT
  5
E8
330
1F
100
AcDbEntity
  8
TEXT
100
AcDbText
 10
15.67651179385752
 20
113.5
 30
0.0
 40
1.8
  1
haltes an Dritte, sowie Verwertung des Inhaltes durch den Empfänger oder
 50
90.0
 41
0.6564844587352626
  7
ROMANS
 72
     5
 11
15.67651179385752
 21
183.5
 31
0.0
100
AcDbText
  0
TEXT
  5
E9
330
1F
100
AcDbEntity
  8
TEXT
100
AcDbText
 10
18.59079750814323
 20
113.5
 30
0.0
 40
1.8
  1
auf dessen Vermittlung durch Dritte, sind unzulässig und strafbar.
 50
90.0
 41
0.745133819951337
  7
ROMANS
 72
     5
 11
18.59079750814323
 21
183.5
 31
0.0
100
AcDbText
  0
LINE
  5
EA
330
1F
100
AcDbEntity
  8
HILFSLINIEN
100
AcDbLine
 10
9.871991918659212
 20
113.4923292010233
 30
0.0
 11
9.871991918659212
 21
183.5399722751536
 31
0.0
  0
LINE
  5
EB
330
1F
100
AcDbEntity
  8
RAHMEN
100
AcDbLine
 10
20.0
 20
0.0
 30
0.0
 11
20.0
 21
5.0
 31
0.0
  0
LINE
  5
EC
330
1F
100
AcDbEntity
  8
RAHMEN
100
AcDbLine
 10
20.0
 20
297.0
 30
0.0
 11
20.0
 21
292.0
 31
0.0
  0
ENDBLK
  5
ED
330
1F
100
AcDbEntity
  8
0
100
AcDbBlockEnd
  0
BLOCK
  5
3AB
330
33D
100
AcDbEntity
  8
0
100
AcDbBlockBegin
  2
KOPF4
 70
     2
 10
0.0
 20
0.0
 30
0.0
  3
KOPF4
  1

  0
LINE
  5
33E
330
33D
100
AcDbEntity
  8
RAHMEN
 62
     1
100
AcDbLine
 10
-140.0000402299779
 20
25.0
 30
0.0
 11
-185.0000402299779
 21
25.0
 31
0.0
  0
LINE
  5
33F
330
33D
100
AcDbEntity
  8
RAHMEN
 62
     1
100
AcDbLine
 10
-140.0000402299779
 20
30.0
 30
0.0
 11
-185.0000402299779
 21
30.0
 31
0.0
  0
LINE
  5
340
330
33D
100
AcDbEntity
  8
RAHMEN
 62
     1
100
AcDbLine
 10
-0.0000402299779694
 20
55.0
 30
0.0
 11
-185.0000402299779
 21
55.0
 31
0.0
  0
LINE
  5
341
330
33D
100
AcDbEntity
  8
RAHMEN
 62
     1
100
AcDbLine
 10
-0.0000402299779694
 20
50.0
 30
0.0
 11
-185.0000402299779
 21
50.0
 31
0.0
  0
LINE
  5
342
330
33D
100
AcDbEntity
  8
RAHMEN
 62
     1
100
AcDbLine
 10
-0.0000402299779694
 20
45.0
 30
0.0
 11
-185.0000402299779
 21
45.0
 31
0.0
  0
LINE
  5
343
330
33D
100
AcDbEntity
  8
RAHMEN
 62
     1
100
AcDbLine
 10
-0.0000402299779694
 20
40.0
 30
0.0
 11
-185.0000402299779
 21
40.0
 31
0.0
  0
LINE
  5
344
330
33D
100
AcDbEntity
  8
RAHMEN
 62
     1
100
AcDbLine
 10
-79.19579999999998
 20
20.0
 30
0.0
 11
-185.0000402299779
 21
20.0
 31
0.0
  0
LINE
  5
345
330
33D
100
AcDbEntity
  8
RAHMEN
 62
     1
100
AcDbLine
 10
-185.0000402299779
 20
0.0
 30
0.0
 11
-79.19579999999998
 21
0.0
 31
0.0
  0
LINE
  5
346
330
33D
100
AcDbEntity
  8
RAHMEN
 62
     1
100
AcDbLine
 10
-183.1958
 20
55.0
 30
0.0
 11
-0.0000402299779694
 21
55.0
 31
0.0
  0
LINE
  5
347
330
33D
100
AcDbEntity
  8
RAHMEN
 62
     1
100
AcDbLine
 10
-183.1958
 20
0.0
 30
0.0
 11
-0.0000402299779694
 21
0.0
 31
0.0
  0
LINE
  5
348
330
33D
100
AcDbEntity
  8
RAHMEN
 62
     1
100
AcDbLine
 10
-70.00004022997794
 20
15.0
 30
0.0
 11
-185.0000402299779
 21
15.0
 31
0.0
  0
LINE
  5
349
330
33D
100
AcDbEntity
  8
RAHMEN
 62
     1
100
AcDbLine
 10
-70.00004022997794
 20
20.0
 30
0.0
 11
-185.0000402299779
 21
20.0
 31
0.0
  0
LINE
  5
34A
330
33D
100
AcDbEntity
  8
RAHMEN
 62
     1
100
AcDbLine
 10
-185.0000402299779
 20
0.0
 30
0.0
 11
-185.0000402299779
 21
55.0
 31
0.0
  0
LINE
  5
34B
330
33D
100
AcDbEntity
  8
RAHMEN
 62
     1
100
AcDbLine
 10
-185.0000402299779
 20
0.0
 30
0.0
 11
-183.1958
 21
0.0
 31
0.0
  0
LINE
  5
34C
330
33D
100
AcDbEntity
  8
RAHMEN
 62
     1
100
AcDbLine
 10
-183.1958
 20
0.0
 30
0.0
 11
-183.1958
 21
0.0
 31
0.0
  0
LINE
  5
34D
330
33D
100
AcDbEntity
  8
RAHMEN
 62
     1
100
AcDbLine
 10
-175.1958
 20
10.0
 30
0.0
 11
-175.1958
 21
25.0
 31
0.0
  0
LINE
  5
34E
330
33D
100
AcDbEntity
  8
RAHMEN
 62
     1
100
AcDbLine
 10
-59.19579999999999
 20
20.0
 30
0.0
 11
-0.0000402299779694
 21
20.0
 31
0.0
  0
LINE
  5
34F
330
33D
100
AcDbEntity
  8
HILFSLINIEN
 62
     5
100
AcDbLine
 10
-140.0000402299779
 20
30.0
 30
0.0
 11
-0.0000402299779694
 21
30.0
 31
0.0
  0
LINE
  5
350
330
33D
100
AcDbEntity
  8
HILFSLINIEN
 62
     5
100
AcDbLine
 10
-142.5000402299779
 20
2.5
 30
0.0
 11
-142.5000402299779
 21
10.0
 31
0.0
  0
LINE
  5
351
330
33D
100
AcDbEntity
  8
RAHMEN
 62
     1
100
AcDbLine
 10
-157.1958
 20
10.0
 30
0.0
 11
-157.1958
 21
25.0
 31
0.0
  0
LINE
  5
352
330
33D
100
AcDbEntity
  8
RAHMEN
 62
     1
100
AcDbLine
 10
-150.0000402299779
 20
40.0
 30
0.0
 11
-150.0000402299779
 21
55.0
 31
0.0
  0
LINE
  5
353
330
33D
100
AcDbEntity
  8
RAHMEN
 62
     1
100
AcDbLine
 10
-140.0000402299779
 20
10.0
 30
0.0
 11
-140.0000402299779
 21
55.0
 31
0.0
  0
LINE
  5
354
330
33D
100
AcDbEntity
  8
HILFSLINIEN
 62
     5
100
AcDbLine
 10
-112.5000402299779
 20
10.0
 30
0.0
 11
-112.5000402299779
 21
2.5
 31
0.0
  0
LINE
  5
355
330
33D
100
AcDbEntity
  8
RAHMEN
 62
     1
100
AcDbLine
 10
-70.00004022997794
 20
0.0
 30
0.0
 11
-70.00004022997797
 21
20.0
 31
0.0
  0
LINE
  5
356
330
33D
100
AcDbEntity
  8
RAHMEN
 62
     1
100
AcDbLine
 10
-79.19579999999998
 20
0.0
 30
0.0
 11
-59.19579999999999
 21
0.0
 31
0.0
  0
LINE
  5
357
330
33D
100
AcDbEntity
  8
RAHMEN
 62
     1
100
AcDbLine
 10
-59.19579999999999
 20
20.0
 30
0.0
 11
-79.19579999999998
 21
20.0
 31
0.0
  0
LINE
  5
358
330
33D
100
AcDbEntity
  8
RAHMEN
 62
     1
100
AcDbLine
 10
-70.00004022997797
 20
40.0
 30
0.0
 11
-70.00004022997797
 21
55.0
 31
0.0
  0
LINE
  5
359
330
33D
100
AcDbEntity
  8
RAHMEN
 62
     1
100
AcDbLine
 10
-50.00004022997794
 20
0.0000000000000355
 30
0.0
 11
-50.00004022997797
 21
20.00000000000003
 31
0.0
  0
LINE
  5
35A
330
33D
100
AcDbEntity
  8
RAHMEN
 62
     1
100
AcDbLine
 10
-50.00004022997797
 20
40.0
 30
0.0
 11
-50.00004022997797
 21
55.0
 31
0.0
  0
LINE
  5
35B
330
33D
100
AcDbEntity
  8
RAHMEN
 62
     1
100
AcDbLine
 10
-40.00004022997797
 20
40.0
 30
0.0
 11
-40.00004022997797
 21
55.0
 31
0.0
  0
LINE
  5
35C
330
33D
100
AcDbEntity
  8
RAHMEN
 62
     1
100
AcDbLine
 10
-0.0000402299779694
 20
0.0
 30
0.0
 11
-0.0000402299779694
 21
55.0
 31
0.0
  0
LINE
  5
35D
330
33D
100
AcDbEntity
  8
RAHMEN
 62
     1
100
AcDbLine
 10
-20.00004022997797
 20
40.0
 30
0.0
 11
-20.00004022997797
 21
55.0
 31
0.0
  0
LINE
  5
35E
330
33D
100
AcDbEntity
  8
HILFSLINIEN
 62
     5
100
AcDbLine
 10
-0.0000402299779694
 20
45.75
 30
0.0
 11
-20.00004022997797
 21
45.75
 31
0.0
  0
LINE
  5
35F
330
33D
100
AcDbEntity
  8
HILFSLINIEN
 62
     5
100
AcDbLine
 10
-0.0000402299779694
 20
50.75
 30
0.0
 11
-20.00004022997797
 21
50.75
 31
0.0
  0
LINE
  5
360
330
33D
100
AcDbEntity
  8
HILFSLINIEN
 62
     5
100
AcDbLine
 10
-140.0000402299779
 20
32.5
 30
0.0
 11
-185.0000402299779
 21
32.5
 31
0.0
  0
LINE
  5
361
330
33D
100
AcDbEntity
  8
HILFSLINIEN
 62
     5
100
AcDbLine
 10
-140.0000402299779
 20
22.0
 30
0.0
 11
-0.0000402299779694
 21
22.0
 31
0.0
  0
LINE
  5
362
330
33D
100
AcDbEntity
  8
RAHMEN
 62
     1
100
AcDbLine
 10
-70.00004022997794
 20
10.0
 30
0.0
 11
-185.0000402299779
 21
10.0
 31
0.0
  0
LINE
  5
363
330
33D
100
AcDbEntity
  8
HILFSLINIEN
 62
     5
100
AcDbLine
 10
-0.0000402299779694
 20
2.499999999999999
 30
0.0
 11
-50.00004022997794
 21
2.499999999999999
 31
0.0
  0
LINE
  5
364
330
33D
100
AcDbEntity
  8
HILFSLINIEN
 62
     5
100
AcDbLine
 10
-0.0000402299779694
 20
41.0
 30
0.0
 11
-185.0000402299779
 21
41.0
 31
0.0
  0
LINE
  5
365
330
33D
100
AcDbEntity
  8
HILFSLINIEN
 62
     5
100
AcDbLine
 10
-140.0000402299779
 20
26.0
 30
0.0
 11
-185.0000402299779
 21
26.0
 31
0.0
  0
LINE
  5
366
330
33D
100
AcDbEntity
  8
HILFSLINIEN
 62
     5
100
AcDbLine
 10
-140.0000402299779
 20
21.0
 30
0.0
 11
-185.0000402299779
 21
21.0
 31
0.0
  0
LINE
  5
367
330
33D
100
AcDbEntity
  8
HILFSLINIEN
 62
     5
100
AcDbLine
 10
-0.0000402299779694
 20
16.00000000000001
 30
0.0
 11
-140.0000402299779
 21
16.0
 31
0.0
  0
LINE
  5
368
330
33D
100
AcDbEntity
  8
HILFSLINIEN
 62
     5
100
AcDbLine
 10
-70.00004022997796
 20
11.00000000000001
 30
0.0
 11
-140.0000402299779
 21
11.0
 31
0.0
  0
LINE
  5
369
330
33D
100
AcDbEntity
  8
HILFSLINIEN
 62
     5
100
AcDbLine
 10
-140.0000402299779
 20
10.75
 30
0.0
 11
-157.1958
 21
10.75
 31
0.0
  0
LINE
  5
36A
330
33D
100
AcDbEntity
  8
HILFSLINIEN
 62
     5
100
AcDbLine
 10
-175.1958
 20
16.0
 30
0.0
 11
-185.0000402299779
 21
16.0
 31
0.0
  0
LINE
  5
36B
330
33D
100
AcDbEntity
  8
HILFSLINIEN
 62
     5
100
AcDbLine
 10
-175.1958
 20
11.0
 30
0.0
 11
-185.0000402299779
 21
11.0
 31
0.0
  0
LINE
  5
36C
330
33D
100
AcDbEntity
  8
HILFSLINIEN
 62
     5
100
AcDbLine
 10
-140.0000402299779
 20
15.75
 30
0.0
 11
-157.1958
 21
15.75
 31
0.0
  0
TEXT
  5
36D
330
33D
100
AcDbEntity
  8
TEXT
100
AcDbText
 10
-178.3544303916816
 20
41.08052227112436
 30
0.0
 40
2.5
  1
Artikel-Nummer
 41
0.75
  7
ROMANS
 72
     1
 11
-167.1044303916816
 21
41.08052227112436
 31
0.0
100
AcDbText
  0
TEXT
  5
36E
330
33D
100
AcDbEntity
  8
TEXT
100
AcDbText
 10
-147.1932643448926
 20
41.08052227112436
 30
0.0
 40
2.5
  1
Teil
 41
0.75
  7
ROMANS
 72
     1
 11
-145.0950500591783
 21
41.08052227112436
 31
0.0
100
AcDbText
  0
TEXT
  5
36F
330
33D
100
AcDbEntity
  8
TEXT
100
AcDbText
 10
-174.4901878787306
 20
25.97728905893306
 30
0.0
 40
2.5
  1
Artikel-Nummer
 41
0.75
  7
ROMANS
 72
     1
 11
-163.2401878787306
 21
25.97728905893306
 31
0.0
100
AcDbText
  0
TEXT
  5
370
330
33D
100
AcDbEntity
  8
TEXT
100
AcDbText
 10
-171.1093269294519
 20
20.94287798820262
 30
0.0
 40
2.5
  1
Datum
 41
0.75
  7
ROMANS
 72
     1
 11
-166.6003983580233
 21
20.94287798820262
 31
0.0
100
AcDbText
  0
TEXT
  5
371
330
33D
100
AcDbEntity
  8
TEXT
100
AcDbText
 10
-152.8091390371002
 20
20.94287798820262
 30
0.0
 40
2.5
  1
Name
 41
0.75
  7
ROMANS
 72
     1
 11
-148.7912818942431
 21
20.94287798820262
 31
0.0
100
AcDbText
  0
TEXT
  5
372
330
33D
100
AcDbEntity
  8
TEXT
100
AcDbText
 10
-184.0734942356386
 20
16.07628075171095
 30
0.0
 40
2.5
  1
Gez.:
 41
0.75
  7
ROMANS
100
AcDbText
  0
TEXT
  5
373
330
33D
100
AcDbEntity
  8
TEXT
100
AcDbText
 10
-183.9054843273598
 20
11.04186968098051
 30
0.0
 40
2.5
  1
Gepr.:
 41
0.75
  7
ROMANS
100
AcDbText
  0
TEXT
  5
374
330
33D
100
AcDbEntity
  8
TEXT
100
AcDbText
 10
-139.0466702729225
 20
11.04186968098051
 30
0.0
 40
2.5
  1
Ersatz für:
 41
0.75
  7
ROMANS
100
AcDbText
  0
TEXT
  5
375
330
33D
100
AcDbEntity
  8
TEXT
100
AcDbText
 10
-138.8786603646438
 20
16.07628075171095
 30
0.0
 40
2.5
  1
Nicht tolerierte Maße nach DIN 7168-m
 41
0.75
  7
ROMANS
100
AcDbText
  0
TEXT
  5
376
330
33D
100
AcDbEntity
  8
TEXT
100
AcDbText
 10
-139.0294041087637
 20
2.483371168461286
 30
0.0
 40
2.5
  1
Bohrfutterfabrik
 41
0.75
  7
ROMANS
 72
     1
 11
-127.9579755373352
 21
2.483371168461286
 31
0.0
100
AcDbText
  0
TEXT
  5
377
330
33D
100
AcDbEntity
  8
TEXT
100
AcDbText
 10
-65.84064642411388
 20
16.07628075171095
 30
0.0
 40
2.5
  1
Maßstab
 41
0.75
  7
ROMANS
 72
     1
 11
-60.08171785268531
 21
16.07628075171095
 31
0.0
100
AcDbText
  0
TEXT
  5
378
330
33D
100
AcDbEntity
  8
TEXT
100
AcDbText
 10
-40.97557871727793
 20
15.90846691747219
 30
0.0
 40
2.5
  1
Zeichnungs-Nummer
 41
0.75
  7
ROMANS
 72
     1
 11
-25.97557871727794
 21
15.90846691747219
 31
0.0
100
AcDbText
  0
TEXT
  5
379
330
33D
100
AcDbEntity
  8
TEXT
100
AcDbText
 10
-113.7505336845391
 20
40.91270887648918
 30
0.0
 40
2.5
  1
Benennung
 41
0.75
  7
ROMANS
 72
     1
 11
-106.1166051131106
 21
40.91270887648918
 31
0.0
100
AcDbText
  0
TEXT
  5
37A
330
33D
100
AcDbEntity
  8
TEXT
100
AcDbText
 10
-68.88692223012085
 20
41.08052227112436
 30
0.0
 40
2.5
  1
Zeichng.-Nr.
 41
0.75
  7
ROMANS
 72
     1
 11
-59.91370794440658
 21
41.08052227112436
 31
0.0
100
AcDbText
  0
TEXT
  5
37B
330
33D
100
AcDbEntity
  8
TEXT
100
AcDbText
 10
-48.84469849768939
 20
41.08052227112436
 30
0.0
 40
2.5
  1
Stück
 41
0.75
  7
ROMANS
 72
     1
 11
-44.96076992626082
 21
41.08052227112436
 31
0.0
100
AcDbText
  0
TEXT
  5
37C
330
33D
100
AcDbEntity
  8
TEXT
100
AcDbText
 10
-37.10844604823094
 20
41.08052227112436
 30
0.0
 40
2.5
  1
Werkstoff
 41
0.75
  7
ROMANS
 72
     1
 11
-30.67987461965952
 21
41.08052227112436
 31
0.0
100
AcDbText
  0
TEXT
  5
37D
330
33D
100
AcDbEntity
  8
TEXT
100
AcDbText
 10
-16.02024238394536
 20
41.08052227112436
 30
0.0
 40
2.5
  1
Rohmaß
 41
0.75
  7
ROMANS
 72
     1
 11
-10.3505995268025
 21
41.08052227112436
 31
0.0
100
AcDbText
  0
TEXT
  5
37E
330
33D
100
AcDbEntity
  8
TEXT
 62
     1
100
AcDbText
 10
-183.6163752712799
 20
2.472465488844568
 30
0.0
 40
5.0
  1
Josef Albrecht
 41
0.75
  7
ROMAND
100
AcDbText
  0
TEXT
  5
37F
330
33D
100
AcDbEntity
  8
TEXT
 62
     1
100
AcDbText
 10
-113.9761284192554
 20
2.472465488844568
 30
0.0
 40
5.0
  1
73249 Wernau
 41
0.75
  7
ROMAND
100
AcDbText
  0
LINE
  5
380
330
33D
100
AcDbEntity
  8
HILFSLINIEN
100
AcDbLine
 10
-70.00004022997796
 20
11.00000000000001
 30
0.0
 11
-50.00004022997796
 21
11.00000000000004
 31
0.0
  0
LINE
  5
381
330
33D
100
AcDbEntity
  8
HILFSLINIEN
 62
     5
100
AcDbLine
 10
-50.00004022997794
 20
2.499999999999999
 30
0.0
 11
-70.00004022997794
 21
2.499999999999999
 31
0.0
  0
LINE
  5
382
330
33D
100
AcDbEntity
  8
HILFSLINIEN
 62
     5
100
AcDbLine
 10
-70.00004022997794
 20
2.499999999999999
 30
0.0
 11
-185.0000402299779
 21
2.5
 31
0.0
  0
LINE
  5
383
330
33D
100
AcDbEntity
  8
HILFSLINIEN
 62
     5
100
AcDbLine
 10
-150.0000402299779
 20
50.75
 30
0.0
 11
-185.0000402299779
 21
50.75
 31
0.0
  0
LINE
  5
384
330
33D
100
AcDbEntity
  8
HILFSLINIEN
 62
     5
100
AcDbLine
 10
-140.0000402299779
 20
50.75
 30
0.0
 11
-150.0000402299779
 21
50.75
 31
0.0
  0
LINE
  5
385
330
33D
100
AcDbEntity
  8
HILFSLINIEN
 62
     5
100
AcDbLine
 10
-70.00004022997797
 20
50.74999999999999
 30
0.0
 11
-140.0000402299779
 21
50.75
 31
0.0
  0
LINE
  5
386
330
33D
100
AcDbEntity
  8
HILFSLINIEN
 62
     5
100
AcDbLine
 10
-50.00004022997797
 20
50.74999999999999
 30
0.0
 11
-70.00004022997797
 21
50.75
 31
0.0
  0
LINE
  5
387
330
33D
100
AcDbEntity
  8
HILFSLINIEN
 62
     5
100
AcDbLine
 10
-40.00004022997797
 20
50.74999999999999
 30
0.0
 11
-50.00004022997797
 21
50.75
 31
0.0
  0
LINE
  5
388
330
33D
100
AcDbEntity
  8
HILFSLINIEN
 62
     5
100
AcDbLine
 10
-20.00004022997797
 20
50.75
 30
0.0
 11
-40.00004022997797
 21
50.75
 31
0.0
  0
LINE
  5
389
330
33D
100
AcDbEntity
  8
HILFSLINIEN
 62
     5
100
AcDbLine
 10
-150.0000402299779
 20
45.75
 30
0.0
 11
-185.0000402299779
 21
45.75
 31
0.0
  0
LINE
  5
38A
330
33D
100
AcDbEntity
  8
HILFSLINIEN
 62
     5
100
AcDbLine
 10
-140.0000402299779
 20
45.75
 30
0.0
 11
-150.0000402299779
 21
45.75
 31
0.0
  0
LINE
  5
38B
330
33D
100
AcDbEntity
  8
HILFSLINIEN
 62
     5
100
AcDbLine
 10
-70.00004022997797
 20
45.75
 30
0.0
 11
-140.0000402299779
 21
45.75
 31
0.0
  0
LINE
  5
38C
330
33D
100
AcDbEntity
  8
HILFSLINIEN
 62
     5
100
AcDbLine
 10
-40.00004022997798
 20
45.75000000000001
 30
0.0
 11
-50.6537323585501
 21
45.75
 31
0.0
  0
LINE
  5
38D
330
33D
100
AcDbEntity
  8
HILFSLINIEN
 62
     5
100
AcDbLine
 10
-20.00004022997797
 20
45.75
 30
0.0
 11
-40.00004022997797
 21
45.75
 31
0.0
  0
LINE
  5
38E
330
33D
100
AcDbEntity
  8
HILFSLINIEN
100
AcDbLine
 10
-70.00004022997797
 20
45.75
 30
0.0
 11
-50.00004022997797
 21
45.75
 31
0.0
  0
LINE
  5
38F
330
33D
100
AcDbEntity
  8
HILFSLINIEN
 62
     5
100
AcDbLine
 10
-157.1958
 20
15.75
 30
0.0
 11
-175.1958
 21
15.75
 31
0.0
  0
LINE
  5
390
330
33D
100
AcDbEntity
  8
HILFSLINIEN
 62
     5
100
AcDbLine
 10
-157.1958
 20
10.75
 30
0.0
 11
-175.1958
 21
10.75
 31
0.0
  0
ATTDEF
  5
391
330
33D
100
AcDbEntity
  8
TEXT
 62
     1
100
AcDbText
 10
-70.0
 20
30.0
 30
0.0
 40
7.5
  1

 41
0.75
  7
ROMAND
 72
     1
 11
-70.0
 21
30.0
 31
0.0
100
AcDbAttributeDefinition
  3
Zeichn.-Name(29Z)
  2
1
 70
     0
  0
ATTDEF
  5
392
330
33D
100
AcDbEntity
  8
TEXT
 62
     1
100
AcDbText
 10
-70.0
 20
22.0
 30
0.0
 40
5.0
  1

 41
0.75
  7
ROMAND
 72
     1
 11
-70.0
 21
22.0
 31
0.0
100
AcDbAttributeDefinition
  3
Zusatzinfo(40Z)
  2
2
 70
     0
  0
ATTDEF
  5
393
330
33D
100
AcDbEntity
  8
TEXT
 62
     1
100
AcDbText
 10
-25.0
 20
2.5
 30
0.0
 40
7.5
  1

 41
0.75
  7
ROMAND
 72
     1
 11
-25.0
 21
2.5
 31
0.0
100
AcDbAttributeDefinition
  3
Zeichn.-Nummer
  2
3
 70
     0
  0
ATTDEF
  5
394
330
33D
100
AcDbEntity
  8
TEXT
 62
     1
100
AcDbText
 10
-162.5
 20
32.5
 30
0.0
 40
5.0
  1

 41
0.65
  7
ROMAND
 72
     1
 11
-162.5
 21
32.5
 31
0.0
100
AcDbAttributeDefinition
  3
Art.-Nummer
  2
4
 70
     0
  0
ATTDEF
  5
395
330
33D
100
AcDbEntity
  8
TEXT
 62
     1
100
AcDbText
 10
-60.0
 20
2.5
 30
0.0
 40
7.5
  1

 41
0.75
  7
ROMAND
 72
     1
 11
-60.0
 21
2.5
 31
0.0
100
AcDbAttributeDefinition
  3
Maßstab 1
  2
5
 70
     0
  0
ATTDEF
  5
396
330
33D
100
AcDbEntity
  8
TEXT
100
AcDbText
 10
-60.0
 20
11.0
 30
0.0
 40
3.5
  1

 41
0.75
  7
ROMAND
 72
     1
 11
-60.0
 21
11.0
 31
0.0
100
AcDbAttributeDefinition
  3
Maßstab 2
  2
6
 70
     0
  0
ATTDEF
  5
397
330
33D
100
AcDbEntity
  8
TEXT
100
AcDbText
 10
-166.1958
 20
15.75
 30
0.0
 40
3.5
  1

 41
0.75
  7
ROMAND
 72
     1
 11
-166.1958
 21
15.75
 31
0.0
100
AcDbAttributeDefinition
  3
Gez.Datum(6Z)
  2
7
 70
     0
  0
ATTDEF
  5
398
330
33D
100
AcDbEntity
  8
TEXT
100
AcDbText
 10
-148.5979
 20
15.75
 30
0.0
 40
3.5
  1

 41
0.75
  7
ROMAND
 72
     1
 11
-148.5979
 21
15.75
 31
0.0
100
AcDbAttributeDefinition
  3
Gez.Name(Kurzz.)
  2
8
 70
     0
  0
ATTDEF
  5
399
330
33D
100
AcDbEntity
  8
TEXT
100
AcDbText
 10
-166.1958
 20
10.75
 30
0.0
 40
3.5
  1

 41
0.75
  7
ROMAND
 72
     1
 11
-166.1958
 21
10.75
 31
0.0
100
AcDbAttributeDefinition
  3
Gepr.Datum(6Z)
  2
9
 70
     0
  0
ATTDEF
  5
39A
330
33D
100
AcDbEntity
  8
TEXT
100
AcDbText
 10
-148.5979
 20
10.75
 30
0.0
 40
3.5
  1

 41
0.75
  7
ROMAND
 72
     1
 11
-148.5979
 21
10.75
 31
0.0
100
AcDbAttributeDefinition
  3
Gepr.Name(Kurzz.)
  2
10
 70
     0
  0
ATTDEF
  5
39B
330
33D
100
AcDbEntity
  8
TEXT
100
AcDbText
 10
-121.2618
 20
11.1168
 30
0.0
 40
2.5
  1

 41
0.75
  7
ROMAND
100
AcDbAttributeDefinition
  3
Ersatz für
  2
11
 70
     0
  0
ATTDEF
  5
39C
330
33D
100
AcDbEntity
  8
TEXT
100
AcDbText
 10
-167.5
 20
45.75
 30
0.0
 40
3.5
  1

 41
0.65
  7
ROMAND
 72
     1
 11
-167.5
 21
45.75
 31
0.0
100
AcDbAttributeDefinition
  3
Pos.-Art.-Nr.
  2
12
 70
     0
  0
ATTDEF
  5
39D
330
33D
100
AcDbEntity
  8
TEXT
100
AcDbText
 10
-143.3633
 20
45.7664
 30
0.0
 40
3.5
  1

 41
0.65
  7
ROMAND
 72
     2
 11
-143.3633
 21
45.7664
 31
0.0
100
AcDbAttributeDefinition
  3
Teil
  2
13
 70
     0
  0
ATTDEF
  5
39E
330
33D
100
AcDbEntity
  8
TEXT
100
AcDbText
 10
-137.7383
 20
45.7664
 30
0.0
 40
3.5
  1

 41
0.65
  7
ROMAND
100
AcDbAttributeDefinition
  3
Benennung
  2
14
 70
     0
  0
ATTDEF
  5
39F
330
33D
100
AcDbEntity
  8
TEXT
100
AcDbText
 10
-69.6524
 20
45.7664
 30
0.0
 40
3.5
  1

 41
0.65
  7
ROMAND
100
AcDbAttributeDefinition
  3
Zeichn.-Nr.
  2
15
 70
     0
  0
ATTDEF
  5
3A0
330
33D
100
AcDbEntity
  8
TEXT
100
AcDbText
 10
-45.3269
 20
45.75
 30
0.0
 40
3.5
  1

 41
0.65
  7
ROMAND
 72
     1
 11
-45.3269
 21
45.75
 31
0.0
100
AcDbAttributeDefinition
  3
Stück
  2
16
 70
     0
  0
ATTDEF
  5
3A1
330
33D
100
AcDbEntity
  8
TEXT
100
AcDbText
 10
-39.9789
 20
45.7664
 30
0.0
 40
3.5
  1

 41
0.65
  7
ROMAND
100
AcDbAttributeDefinition
  3
Werkstoff
  2
17
 70
     0
  0
ATTDEF
  5
3A2
330
33D
100
AcDbEntity
  8
TEXT
100
AcDbText
 10
-19.3555
 20
45.7664
 30
0.0
 40
3.5
  1

 41
0.6
  7
ROMAND
100
AcDbAttributeDefinition
  3
Rohmaß
  2
18
 70
     0
  0
TEXT
  5
3A3
330
33D
100
AcDbEntity
  8
TEXT
100
AcDbText
 10
-183.8076187041216
 20
20.45208064093261
 30
0.0
 40
3.5
  1
CAD
 41
0.75
  7
ROMAND
100
AcDbText
  0
ATTDEF
  5
3A4
330
33D
100
AcDbEntity
  8
TEXT
100
AcDbText
 10
-167.5
 20
50.75
 30
0.0
 40
3.5
  1

 41
0.65
  7
ROMAND
 72
     1
 11
-167.5
 21
50.75
 31
0.0
100
AcDbAttributeDefinition
  3
Pos.-Art.-Nr.
  2
19
 70
     0
  0
ATTDEF
  5
3A5
330
33D
100
AcDbEntity
  8
TEXT
100
AcDbText
 10
-143.3633
 20
50.75
 30
0.0
 40
3.5
  1

 41
0.65
  7
ROMAND
 72
     2
 11
-143.3633
 21
50.75
 31
0.0
100
AcDbAttributeDefinition
  3
Teil
  2
20
 70
     0
  0
ATTDEF
  5
3A6
330
33D
100
AcDbEntity
  8
TEXT
100
AcDbText
 10
-137.7383
 20
50.8276
 30
0.0
 40
3.5
  1

 41
0.65
  7
ROMAND
100
AcDbAttributeDefinition
  3
Benennung
  2
21
 70
     0
  0
ATTDEF
  5
3A7
330
33D
100
AcDbEntity
  8
TEXT
100
AcDbText
 10
-69.6524
 20
50.8276
 30
0.0
 40
3.5
  1

 41
0.65
  7
ROMAND
100
AcDbAttributeDefinition
  3
Zeichng.-Nr.
  2
22
 70
     0
  0
ATTDEF
  5
3A8
330
33D
100
AcDbEntity
  8
TEXT
100
AcDbText
 10
-45.3269
 20
50.8276
 30
0.0
 40
3.5
  1

 41
0.65
  7
ROMAND
 72
     1
 11
-45.3269
 21
50.8276
 31
0.0
100
AcDbAttributeDefinition
  3
Stück
  2
23
 70
     0
  0
ATTDEF
  5
3A9
330
33D
100
AcDbEntity
  8
TEXT
100
AcDbText
 10
-39.9789
 20
50.8276
 30
0.0
 40
3.5
  1

 41
0.65
  7
ROMAND
100
AcDbAttributeDefinition
  3
Werkstoff
  2
24
 70
     0
  0
ATTDEF
  5
3AA
330
33D
100
AcDbEntity
  8
TEXT
100
AcDbText
 10
-19.3555
 20
50.8276
 30
0.0
 40
3.5
  1

 41
0.6
  7
ROMAND
100
AcDbAttributeDefinition
  3
Rohmaß
  2
25
 70
     0
  0
ENDBLK
  5
3AC
330
33D
100
AcDbEntity
  8
0
100
AcDbBlockEnd
  0
BLOCK
  5
11DF
330
11D5
100
AcDbEntity
  8
0
100
AcDbBlockBegin
  2
*D3
 70
     1
 10
0.0
 20
0.0
 30
0.0
  3
*D3
  1

  0
LINE
  5
4E31
330
11D5
100
AcDbEntity
  8
BEMASSUNG
 62
     0
370
    -2
100
AcDbLine
 10
147.4511600140655
 20
238.3466255209555
 30
0.0
 11
147.4511600140655
 21
250.9524386317494
 31
0.0
  0
LINE
  5
4E32
330
11D5
100
AcDbEntity
  8
BEMASSUNG
 62
     0
370
    -2
100
AcDbLine
 10
166.5511600140656
 20
224.5216255209554
 30
0.0
 11
166.5511600140656
 21
250.9524386317494
 31
0.0
  0
LINE
  5
4E33
330
11D5
100
AcDbEntity
  8
BEMASSUNG
 62
     0
370
    -2
100
AcDbLine
 10
150.9511600140655
 20
248.9524386317494
 30
0.0
 11
163.0511600140656
 21
248.9524386317494
 31
0.0
  0
MTEXT
  5
4E34
330
11D5
100
AcDbEntity
  8
BEMASSUNG
 62
     0
100
AcDbMText
 10
156.8650458454801
 20
253.421898777757
 30
0.0
 40
3.5
 41
0.0
 71
     5
 72
     1
  1
\A1;19.1
  7
ROMANS
 73
     1
 44
1.0
1001
ACAD
1000
MTEXTBEGIN
1070
    73
1070
     1
1070
    44
1040
1.0
1070
    74
1070
     0
1000
MTEXTEND
  0
SOLID
  5
4E35
330
11D5
100
AcDbEntity
  8
BEMASSUNG
 62
     0
100
AcDbTrace
 10
150.9511600140655
 20
249.5357719650827
 30
0.0
 11
150.9511600140655
 21
248.369105298416
 31
0.0
 12
147.4511600140655
 22
248.9524386317494
 32
0.0
 13
147.4511600140655
 23
248.9524386317494
 33
0.0
  0
SOLID
  5
4E36
330
11D5
100
AcDbEntity
  8
BEMASSUNG
 62
     0
100
AcDbTrace
 10
163.0511600140656
 20
249.5357719650827
 30
0.0
 11
163.0511600140656
 21
248.369105298416
 31
0.0
 12
166.5511600140656
 22
248.9524386317494
 32
0.0
 13
166.5511600140656
 23
248.9524386317494
 33
0.0
  0
POINT
  5
4E37
330
11D5
100
AcDbEntity
  8
DEFPOINTS
 62
     0
100
AcDbPoint
 10
147.4511600140655
 20
237.8466255209555
 30
0.0
  0
POINT
  5
4E38
330
11D5
100
AcDbEntity
  8
DEFPOINTS
 62
     0
100
AcDbPoint
 10
166.5511600140656
 20
224.0216255209555
 30
0.0
  0
POINT
  5
4E39
330
11D5
100
AcDbEntity
  8
DEFPOINTS
 62
     0
100
AcDbPoint
 10
166.5511600140656
 20
248.9524386317494
 30
0.0
  0
ENDBLK
  5
11E0
330
11D5
100
AcDbEntity
  8
0
100
AcDbBlockEnd
  0
BLOCK
  5
11EE
330
11E2
100
AcDbEntity
  8
0
100
AcDbBlockBegin
  2
*D4
 70
     1
 10
0.0
 20
0.0
 30
0.0
  3
*D4
  1

  0
LINE
  5
4E5B
330
11E2
100
AcDbEntity
  8
BEMASSUNG
 62
     0
370
    -2
100
AcDbLine
 10
163.3511600140655
 20
238.3466255209555
 30
0.0
 11
163.3511600140655
 21
244.6011009298743
 31
0.0
  0
LINE
  5
4E5C
330
11E2
100
AcDbEntity
  8
BEMASSUNG
 62
     0
370
    -2
100
AcDbLine
 10
166.5511600140656
 20
224.5216255209554
 30
0.0
 11
166.5511600140656
 21
244.6011009298743
 31
0.0
  0
LINE
  5
4E5D
330
11E2
100
AcDbEntity
  8
BEMASSUNG
 62
     0
370
    -2
100
AcDbLine
 10
159.8511600140656
 20
242.6011009298743
 30
0.0
 11
156.3511600140656
 21
242.6011009298743
 31
0.0
  0
LINE
  5
4E5E
330
11E2
100
AcDbEntity
  8
BEMASSUNG
 62
     0
370
    -2
100
AcDbLine
 10
170.0511600140656
 20
242.6011009298743
 30
0.0
 11
173.5511600140656
 21
242.6011009298743
 31
0.0
  0
MTEXT
  5
4E5F
330
11E2
100
AcDbEntity
  8
BEMASSUNG
 62
     0
100
AcDbMText
 10
172.9879620290392
 20
245.5415346541365
 30
0.0
 40
3.5
 41
0.0
 71
     5
 72
     1
  1
\A1;3.2
  7
ROMANS
 73
     1
 44
1.0
1001
ACAD
1000
MTEXTBEGIN
1070
    73
1070
     1
1070
    44
1040
1.0
1070
    74
1070
     0
1000
MTEXTEND
  0
LINE
  5
4E60
330
11E2
100
AcDbEntity
  8
BEMASSUNG
 62
     0
370
    -2
100
AcDbLine
 10
163.3511600140655
 20
242.6011009298743
 30
0.0
 11
166.5511600140656
 21
242.6011009298743
 31
0.0
  0
SOLID
  5
4E61
330
11E2
100
AcDbEntity
  8
BEMASSUNG
 62
     0
100
AcDbTrace
 10
159.8511600140656
 20
243.1844342632076
 30
0.0
 11
159.8511600140656
 21
242.017767596541
 31
0.0
 12
163.3511600140655
 22
242.6011009298743
 32
0.0
 13
163.3511600140655
 23
242.6011009298743
 33
0.0
  0
SOLID
  5
4E62
330
11E2
100
AcDbEntity
  8
BEMASSUNG
 62
     0
100
AcDbTrace
 10
170.0511600140656
 20
243.1844342632076
 30
0.0
 11
170.0511600140656
 21
242.017767596541
 31
0.0
 12
166.5511600140656
 22
242.6011009298743
 32
0.0
 13
166.5511600140656
 23
242.6011009298743
 33
0.0
  0
POINT
  5
4E63
330
11E2
100
AcDbEntity
  8
DEFPOINTS
 62
     0
100
AcDbPoint
 10
163.3511600140655
 20
237.8466255209555
 30
0.0
  0
POINT
  5
4E64
330
11E2
100
AcDbEntity
  8
DEFPOINTS
 62
     0
100
AcDbPoint
 10
166.5511600140656
 20
224.0216255209555
 30
0.0
  0
POINT
  5
4E65
330
11E2
100
AcDbEntity
  8
DEFPOINTS
 62
     0
100
AcDbPoint
 10
166.5511600140656
 20
242.6011009298743
 30
0.0
  0
ENDBLK
  5
11EF
330
11E2
100
AcDbEntity
  8
0
100
AcDbBlockEnd
  0
BLOCK
  5
1211
330
1205
100
AcDbEntity
  8
0
100
AcDbBlockBegin
  2
*D5
 70
     1
 10
0.0
 20
0.0
 30
0.0
  3
*D5
  1

  0
LINE
  5
4E45
330
1205
100
AcDbEntity
  8
BEMASSUNG
 62
     0
370
    -2
100
AcDbLine
 10
146.9511600140656
 20
213.5966255209554
 30
0.0
 11
146.9511600140656
 21
250.9524386317494
 31
0.0
  0
LINE
  5
4E46
330
1205
100
AcDbEntity
  8
BEMASSUNG
 62
     0
370
    -2
100
AcDbLine
 10
147.4511600140655
 20
209.5966255209554
 30
0.0
 11
147.4511600140655
 21
250.9524386317494
 31
0.0
  0
LINE
  5
4E47
330
1205
100
AcDbEntity
  8
BEMASSUNG
 62
     0
370
    -2
100
AcDbLine
 10
143.4511600140655
 20
248.9524386317494
 30
0.0
 11
139.9511600140656
 21
248.9524386317494
 31
0.0
  0
LINE
  5
4E48
330
1205
100
AcDbEntity
  8
BEMASSUNG
 62
     0
370
    -2
100
AcDbLine
 10
150.9511600140655
 20
248.9524386317494
 30
0.0
 11
154.4511600140655
 21
248.9524386317494
 31
0.0
  0
MTEXT
  5
4E49
330
1205
100
AcDbEntity
  8
BEMASSUNG
 62
     0
100
AcDbMText
 10
140.8598155115764
 20
253.3042817330496
 30
0.0
 40
3.5
 41
0.0
 71
     5
 72
     1
  1
\A1;0.5
  7
ROMANS
 73
     1
 44
1.0
1001
ACAD
1000
MTEXTBEGIN
1070
    73
1070
     1
1070
    44
1040
1.0
1070
    74
1070
     0
1000
MTEXTEND
  0
LINE
  5
4E4A
330
1205
100
AcDbEntity
  8
BEMASSUNG
 62
     0
370
    -2
100
AcDbLine
 10
146.9511600140656
 20
248.9524386317494
 30
0.0
 11
147.4511600140655
 21
248.9524386317494
 31
0.0
  0
SOLID
  5
4E4B
330
1205
100
AcDbEntity
  8
BEMASSUNG
 62
     0
100
AcDbTrace
 10
143.4511600140655
 20
249.5357719650827
 30
0.0
 11
143.4511600140655
 21
248.369105298416
 31
0.0
 12
146.9511600140656
 22
248.9524386317494
 32
0.0
 13
146.9511600140656
 23
248.9524386317494
 33
0.0
  0
SOLID
  5
4E4C
330
1205
100
AcDbEntity
  8
BEMASSUNG
 62
     0
100
AcDbTrace
 10
150.9511600140655
 20
249.5357719650827
 30
0.0
 11
150.9511600140655
 21
248.369105298416
 31
0.0
 12
147.4511600140655
 22
248.9524386317494
 32
0.0
 13
147.4511600140655
 23
248.9524386317494
 33
0.0
  0
POINT
  5
4E4D
330
1205
100
AcDbEntity
  8
DEFPOINTS
 62
     0
100
AcDbPoint
 10
146.9511600140656
 20
213.0966255209554
 30
0.0
  0
POINT
  5
4E4E
330
1205
100
AcDbEntity
  8
DEFPOINTS
 62
     0
100
AcDbPoint
 10
147.4511600140655
 20
209.0966255209554
 30
0.0
  0
POINT
  5
4E4F
330
1205
100
AcDbEntity
  8
DEFPOINTS
 62
     0
100
AcDbPoint
 10
147.4511600140655
 20
248.9524386317494
 30
0.0
  0
ENDBLK
  5
1212
330
1205
100
AcDbEntity
  8
0
100
AcDbBlockEnd
  0
BLOCK
  5
1232
330
1228
100
AcDbEntity
  8
0
100
AcDbBlockBegin
  2
*D6
 70
     1
 10
0.0
 20
0.0
 30
0.0
  3
*D6
  1

  0
LINE
  5
49DA
330
1228
100
AcDbEntity
  8
BEMASSUNG
370
    -2
100
AcDbLine
 10
99.95116001406548
 20
217.0966255209554
 30
0.0
 11
45.22905045713038
 21
217.0966255209555
 31
0.0
  0
LINE
  5
49DB
330
1228
100
AcDbEntity
  8
BEMASSUNG
370
    -2
100
AcDbLine
 10
100.1170562508447
 20
161.0966255209554
 30
0.0
 11
45.22905045713035
 21
161.0966255209554
 31
0.0
  0
LINE
  5
49DC
330
1228
100
AcDbEntity
  8
BEMASSUNG
370
    -2
100
AcDbLine
 10
47.22905045713038
 20
213.5966255209555
 30
0.0
 11
47.22905045713035
 21
164.5966255209554
 31
0.0
  0
SOLID
  5
49DD
330
1228
100
AcDbEntity
  8
BEMASSUNG
100
AcDbTrace
 10
46.64571712379703
 20
213.5966255209555
 30
0.0
 11
47.81238379046371
 21
213.5966255209555
 31
0.0
 12
47.22905045713038
 22
217.0966255209555
 32
0.0
 13
47.22905045713038
 23
217.0966255209555
 33
0.0
  0
SOLID
  5
49DE
330
1228
100
AcDbEntity
  8
BEMASSUNG
100
AcDbTrace
 10
46.64571712379703
 20
164.5966255209554
 30
0.0
 11
47.8123837904637
 21
164.5966255209554
 31
0.0
 12
47.22905045713035
 22
161.0966255209554
 32
0.0
 13
47.22905045713035
 23
161.0966255209554
 33
0.0
  0
MTEXT
  5
49DF
330
1228
100
AcDbEntity
  8
BEMASSUNG
100
AcDbMText
 10
43.47905045713035
 20
189.0966255209554
 30
0.0
 40
3.5
 41
0.0
 71
     5
 72
     1
  1
\A1;%%c 56 
  7
ROMANS
 11
0.0000000000000001
 21
1.0
 31
0.0
 73
     1
 44
1.0
1001
ACAD
1000
MTEXTBEGIN
1070
    73
1070
     1
1070
    44
1040
1.0
1070
    74
1070
     0
1000
MTEXTEND
  0
POINT
  5
49E0
330
1228
100
AcDbEntity
  8
DEFPOINTS
 62
     0
100
AcDbPoint
 10
100.4511600140654
 20
217.0966255209554
 30
0.0
  0
POINT
  5
49E1
330
1228
100
AcDbEntity
  8
DEFPOINTS
 62
     0
100
AcDbPoint
 10
100.6170562508447
 20
161.0966255209554
 30
0.0
  0
POINT
  5
49E2
330
1228
100
AcDbEntity
  8
DEFPOINTS
 62
     0
100
AcDbPoint
 10
47.22905045713035
 20
161.0966255209554
 30
0.0
  0
ENDBLK
  5
1233
330
1228
100
AcDbEntity
  8
0
100
AcDbBlockEnd
  0
BLOCK
  5
1558
330
1557
100
AcDbEntity
  8
0
100
AcDbBlockBegin
  2
Spannbacke
 70
     0
 10
0.0
 20
0.0
 30
0.0
  3
Spannbacke
  1

  0
LINE
  5
3458
330
1557
100
AcDbEntity
  8
KONTUR
100
AcDbLine
 10
40.85817977260421
 20
127.2474102111005
 30
0.0
 11
70.27820161753203
 21
127.2474102111005
 31
0.0
  0
LINE
  5
3459
330
1557
100
AcDbEntity
  8
KONTUR
100
AcDbLine
 10
40.85817977260421
 20
125.7140690111005
 30
0.0
 11
65.39820161753204
 21
125.7140690111005
 31
0.0
  0
LINE
  5
345A
330
1557
100
AcDbEntity
  8
KONTUR
100
AcDbLine
 10
65.80632188738002
 20
110.7474102111005
 30
0.0
 11
40.85817977260425
 21
119.5820106840778
 31
0.0
  0
LINE
  5
345B
330
1557
100
AcDbEntity
  8
KONTUR
100
AcDbLine
 10
65.39820161753207
 20
111.4565092068157
 30
0.0
 11
40.85817977260421
 21
120.1465867124137
 31
0.0
  0
LINE
  5
345C
330
1557
100
AcDbEntity
  8
KONTUR
100
AcDbLine
 10
65.39820161753204
 20
113.9047434853013
 30
0.0
 11
40.85817977260425
 21
122.5948209908993
 31
0.0
  0
LINE
  5
345D
330
1557
100
AcDbEntity
  8
KONTUR
100
AcDbLine
 10
40.85817977260421
 20
119.5820106840779
 30
0.0
 11
40.85817977260425
 21
127.2474102111005
 31
0.0
  0
LINE
  5
345E
330
1557
100
AcDbEntity
  8
KONTUR
100
AcDbLine
 10
70.27820161753204
 20
125.7140690111005
 30
0.0
 11
70.85818622826329
 21
125.1340844003692
 31
0.0
  0
LINE
  5
345F
330
1557
100
AcDbEntity
  8
KONTUR
100
AcDbLine
 10
68.39820561633252
 20
110.7474102111005
 30
0.0
 11
68.39820561633252
 21
126.2974102111005
 31
0.0
  0
LINE
  5
3460
330
1557
100
AcDbEntity
  8
KONTUR
100
AcDbLine
 10
70.27820161753209
 20
110.7474102111005
 30
0.0
 11
70.27820161753204
 21
127.2474102111005
 31
0.0
1001
ACAD
1000
ASC_BOUNDS
1002
{
1070
    19
1002
}
  0
LINE
  5
3461
330
1557
100
AcDbEntity
  8
KONTUR
100
AcDbLine
 10
70.85818622826329
 20
111.3273948218317
 30
0.0
 11
70.85818622826329
 21
126.6674256003692
 31
0.0
  0
LINE
  5
3462
330
1557
100
AcDbEntity
  8
KONTUR
100
AcDbLine
 10
65.39820161753207
 20
110.8919331784799
 30
0.0
 11
65.39820161753204
 21
126.2974102111005
 31
0.0
1001
ACAD
1000
ASC_BOUNDS
1002
{
1070
    19
1002
}
  0
LINE
  5
3463
330
1557
100
AcDbEntity
  8
KONTUR
100
AcDbLine
 10
70.27820161753209
 20
110.7474102111005
 30
0.0
 11
70.85818622826329
 21
111.3273948218317
 31
0.0
  0
LINE
  5
3464
330
1557
100
AcDbEntity
  8
KONTUR
100
AcDbLine
 10
65.80632188737999
 20
110.7474102111005
 30
0.0
 11
70.27820161753211
 21
110.7474102111005
 31
0.0
  0
LINE
  5
3465
330
1557
100
AcDbEntity
  8
KONTUR
100
AcDbLine
 10
70.27820161753204
 20
127.2474102111005
 30
0.0
 11
70.85818622826329
 21
126.6674256003692
 31
0.0
  0
LINE
  5
3466
330
1557
100
AcDbEntity
  8
KONTUR
100
AcDbLine
 10
68.39820561633252
 20
126.2974102111005
 30
0.0
 11
65.39820161753207
 21
126.2974102111005
 31
0.0
  0
LINE
  5
3467
330
1557
100
AcDbEntity
  8
KONTUR
100
AcDbLine
 10
68.39820561633252
 20
125.7140690111005
 30
0.0
 11
70.27820161753203
 21
125.7140690111005
 31
0.0
  0
ENDBLK
  5
1559
330
1557
100
AcDbEntity
  8
0
100
AcDbBlockEnd
  0
BLOCK
  5
1E68
330
1E33
100
AcDbEntity
  8
0
100
AcDbBlockBegin
  2
Stueckliste1
 70
     2
 10
0.0
 20
0.0
 30
0.0
  3
Stueckliste1
  1

  0
LINE
  5
1E7C
330
1E33
100
AcDbEntity
  8
RAHMEN
 62
     1
100
AcDbLine
 10
0.0
 20
5.0
 30
0.0
 11
-185.0
 21
5.0
 31
0.0
  0
LINE
  5
1E7D
330
1E33
100
AcDbEntity
  8
RAHMEN
 62
     1
100
AcDbLine
 10
0.0
 20
0.0
 30
0.0
 11
-185.0
 21
0.0
 31
0.0
  0
LINE
  5
1E7E
330
1E33
100
AcDbEntity
  8
HILFSLINIEN
 62
     5
100
AcDbLine
 10
-0.0000402299779694
 20
55.75
 30
0.0
 11
-20.00004022997797
 21
55.75
 31
0.0
  0
LINE
  5
1E7F
330
1E33
100
AcDbEntity
  8
HILFSLINIEN
 62
     5
100
AcDbLine
 10
-0.0000402299779694
 20
60.75
 30
0.0
 11
-20.00004022997797
 21
60.75
 31
0.0
  0
LINE
  5
1E80
330
1E33
100
AcDbEntity
  8
HILFSLINIEN
 62
     5
100
AcDbLine
 10
-150.0000402299779
 20
60.75
 30
0.0
 11
-185.0000402299779
 21
60.75
 31
0.0
  0
LINE
  5
1E81
330
1E33
100
AcDbEntity
  8
HILFSLINIEN
 62
     5
100
AcDbLine
 10
-140.0000402299779
 20
60.75
 30
0.0
 11
-150.0000402299779
 21
60.75
 31
0.0
  0
LINE
  5
1E82
330
1E33
100
AcDbEntity
  8
HILFSLINIEN
 62
     5
100
AcDbLine
 10
-70.00004022997797
 20
60.74999999999999
 30
0.0
 11
-140.0000402299779
 21
60.75
 31
0.0
  0
LINE
  5
1E83
330
1E33
100
AcDbEntity
  8
HILFSLINIEN
 62
     5
100
AcDbLine
 10
-50.00004022997797
 20
60.74999999999999
 30
0.0
 11
-70.00004022997797
 21
60.75
 31
0.0
  0
LINE
  5
1E84
330
1E33
100
AcDbEntity
  8
HILFSLINIEN
 62
     5
100
AcDbLine
 10
-40.00004022997797
 20
60.74999999999999
 30
0.0
 11
-50.00004022997797
 21
60.75
 31
0.0
  0
LINE
  5
1E85
330
1E33
100
AcDbEntity
  8
HILFSLINIEN
 62
     5
100
AcDbLine
 10
-20.00004022997797
 20
60.75
 30
0.0
 11
-40.00004022997797
 21
60.75
 31
0.0
  0
LINE
  5
1E86
330
1E33
100
AcDbEntity
  8
HILFSLINIEN
 62
     5
100
AcDbLine
 10
-150.0000402299779
 20
55.75
 30
0.0
 11
-185.0000402299779
 21
55.75
 31
0.0
  0
LINE
  5
1E87
330
1E33
100
AcDbEntity
  8
HILFSLINIEN
 62
     5
100
AcDbLine
 10
-140.0000402299779
 20
55.75
 30
0.0
 11
-150.0000402299779
 21
55.75
 31
0.0
  0
LINE
  5
1E88
330
1E33
100
AcDbEntity
  8
HILFSLINIEN
 62
     5
100
AcDbLine
 10
-70.00004022997797
 20
55.75
 30
0.0
 11
-140.0000402299779
 21
55.75
 31
0.0
  0
LINE
  5
1E89
330
1E33
100
AcDbEntity
  8
HILFSLINIEN
 62
     5
100
AcDbLine
 10
-40.00004022997798
 20
55.75000000000001
 30
0.0
 11
-50.6537323585501
 21
55.75
 31
0.0
  0
LINE
  5
1E8A
330
1E33
100
AcDbEntity
  8
HILFSLINIEN
 62
     5
100
AcDbLine
 10
-20.00004022997797
 20
55.75
 30
0.0
 11
-40.00004022997797
 21
55.75
 31
0.0
  0
LINE
  5
1E8B
330
1E33
100
AcDbEntity
  8
HILFSLINIEN
100
AcDbLine
 10
-70.00004022997797
 20
55.75
 30
0.0
 11
-50.00004022997797
 21
55.75
 31
0.0
  0
ATTDEF
  5
1E8C
330
1E33
100
AcDbEntity
  8
TEXT
100
AcDbText
 10
-167.499959770022
 20
0.75
 30
0.0
 40
3.5
  1

 41
0.65
  7
ROMAND
 72
     1
 11
-167.499959770022
 21
0.75
 31
0.0
100
AcDbAttributeDefinition
  3
Pos.-Art.-Nr.
  2
1
 70
     0
  0
ATTDEF
  5
1E8D
330
1E33
100
AcDbEntity
  8
TEXT
100
AcDbText
 10
-143.363259770022
 20
0.7663999999999973
 30
0.0
 40
3.5
  1

 41
0.65
  7
ROMAND
 72
     2
 11
-143.363259770022
 21
0.7663999999999973
 31
0.0
100
AcDbAttributeDefinition
  3
Teil
  2
2
 70
     0
  0
ATTDEF
  5
1E8E
330
1E33
100
AcDbEntity
  8
TEXT
100
AcDbText
 10
-137.738259770022
 20
0.7663999999999973
 30
0.0
 40
3.5
  1

 41
0.65
  7
ROMAND
100
AcDbAttributeDefinition
  3
Benennung
  2
3
 70
     0
  0
ATTDEF
  5
1E8F
330
1E33
100
AcDbEntity
  8
TEXT
100
AcDbText
 10
-69.65235977002203
 20
0.7663999999999973
 30
0.0
 40
3.5
  1

 41
0.65
  7
ROMAND
100
AcDbAttributeDefinition
  3
Zeichn.-Nr.
  2
4
 70
     0
  0
ATTDEF
  5
1E90
330
1E33
100
AcDbEntity
  8
TEXT
100
AcDbText
 10
-45.32685977002203
 20
0.75
 30
0.0
 40
3.5
  1

 41
0.65
  7
ROMAND
 72
     1
 11
-45.32685977002203
 21
0.75
 31
0.0
100
AcDbAttributeDefinition
  3
Stück
  2
5
 70
     0
  0
ATTDEF
  5
1E91
330
1E33
100
AcDbEntity
  8
TEXT
100
AcDbText
 10
-39.97885977002204
 20
0.7663999999999973
 30
0.0
 40
3.5
  1

 41
0.65
  7
ROMAND
100
AcDbAttributeDefinition
  3
Werkstoff
  2
6
 70
     0
  0
ATTDEF
  5
1E92
330
1E33
100
AcDbEntity
  8
TEXT
100
AcDbText
 10
-19.35545977002203
 20
0.7663999999999973
 30
0.0
 40
3.5
  1

 41
0.6
  7
ROMAND
100
AcDbAttributeDefinition
  3
Rohmaß
  2
7
 70
     0
  0
LINE
  5
1E93
330
1E33
100
AcDbEntity
  8
RAHMEN
 62
     1
100
AcDbLine
 10
-185.0
 20
0.0
 30
0.0
 11
-184.9999999999999
 21
5.000149453426585
 31
0.0
  0
LINE
  5
1E94
330
1E33
100
AcDbEntity
  8
RAHMEN
 62
     1
100
AcDbLine
 10
-150.0
 20
0.0
 30
0.0
 11
-150.0
 21
5.0
 31
0.0
  0
LINE
  5
1E95
330
1E33
100
AcDbEntity
  8
RAHMEN
 62
     1
100
AcDbLine
 10
-140.0
 20
0.0
 30
0.0
 11
-140.0
 21
5.0
 31
0.0
  0
LINE
  5
1E96
330
1E33
100
AcDbEntity
  8
RAHMEN
 62
     1
100
AcDbLine
 10
-70.0
 20
0.0
 30
0.0
 11
-70.0
 21
5.0
 31
0.0
  0
LINE
  5
1E97
330
1E33
100
AcDbEntity
  8
RAHMEN
 62
     1
100
AcDbLine
 10
-50.0
 20
0.0
 30
0.0
 11
-50.0
 21
5.0
 31
0.0
  0
LINE
  5
1E98
330
1E33
100
AcDbEntity
  8
RAHMEN
 62
     1
100
AcDbLine
 10
-40.0
 20
0.0
 30
0.0
 11
-40.0
 21
5.0
 31
0.0
  0
LINE
  5
1E99
330
1E33
100
AcDbEntity
  8
RAHMEN
 62
     1
100
AcDbLine
 10
-20.0
 20
0.0
 30
0.0
 11
-20.0
 21
5.0
 31
0.0
  0
LINE
  5
1E9A
330
1E33
100
AcDbEntity
  8
RAHMEN
 62
     1
100
AcDbLine
 10
0.0
 20
0.0
 30
0.0
 11
0.0
 21
5.0
 31
0.0
  0
LINE
  5
1E9B
330
1E33
100
AcDbEntity
  8
HILFSLINIEN
 62
     5
100
AcDbLine
 10
-70.00004022997797
 20
65.75
 30
0.0
 11
-140.0000402299779
 21
65.75
 31
0.0
  0
LINE
  5
1E9C
330
1E33
100
AcDbEntity
  8
HILFSLINIEN
 62
     5
100
AcDbLine
 10
-150.0000402299779
 20
65.75
 30
0.0
 11
-185.0000402299779
 21
65.75
 31
0.0
  0
LINE
  5
1E9D
330
1E33
100
AcDbEntity
  8
HILFSLINIEN
 62
     5
100
AcDbLine
 10
-140.0000402299779
 20
65.75
 30
0.0
 11
-150.0000402299779
 21
65.75
 31
0.0
  0
LINE
  5
1E9E
330
1E33
100
AcDbEntity
  8
HILFSLINIEN
 62
     5
100
AcDbLine
 10
-40.00004022997797
 20
65.75
 30
0.0
 11
-50.00004022997797
 21
65.75
 31
0.0
  0
LINE
  5
1E9F
330
1E33
100
AcDbEntity
  8
HILFSLINIEN
 62
     5
100
AcDbLine
 10
-50.00004022997797
 20
65.75
 30
0.0
 11
-70.00004022997797
 21
65.75
 31
0.0
  0
LINE
  5
1EA0
330
1E33
100
AcDbEntity
  8
HILFSLINIEN
 62
     5
100
AcDbLine
 10
-0.0000402299779694
 20
65.75
 30
0.0
 11
-20.00004022997797
 21
65.75
 31
0.0
  0
LINE
  5
1EA1
330
1E33
100
AcDbEntity
  8
HILFSLINIEN
 62
     5
100
AcDbLine
 10
-20.00004022997797
 20
65.75
 30
0.0
 11
-40.00004022997797
 21
65.75
 31
0.0
  0
LINE
  5
1EA2
330
1E33
100
AcDbEntity
  8
HILFSLINIEN
 62
     5
100
AcDbLine
 10
-70.00004022997797
 20
70.75
 30
0.0
 11
-140.0000402299779
 21
70.75
 31
0.0
  0
LINE
  5
1EA3
330
1E33
100
AcDbEntity
  8
HILFSLINIEN
 62
     5
100
AcDbLine
 10
-150.0000402299779
 20
70.75
 30
0.0
 11
-185.0000402299779
 21
70.75
 31
0.0
  0
LINE
  5
1EA4
330
1E33
100
AcDbEntity
  8
HILFSLINIEN
 62
     5
100
AcDbLine
 10
-140.0000402299779
 20
70.75
 30
0.0
 11
-150.0000402299779
 21
70.75
 31
0.0
  0
LINE
  5
1EA5
330
1E33
100
AcDbEntity
  8
HILFSLINIEN
 62
     5
100
AcDbLine
 10
-40.00004022997797
 20
70.75
 30
0.0
 11
-50.00004022997797
 21
70.75
 31
0.0
  0
LINE
  5
1EA6
330
1E33
100
AcDbEntity
  8
HILFSLINIEN
 62
     5
100
AcDbLine
 10
-50.00004022997797
 20
70.75
 30
0.0
 11
-70.00004022997797
 21
70.75
 31
0.0
  0
LINE
  5
1EA7
330
1E33
100
AcDbEntity
  8
HILFSLINIEN
 62
     5
100
AcDbLine
 10
-0.0000402299779694
 20
70.75
 30
0.0
 11
-20.00004022997797
 21
70.75
 31
0.0
  0
LINE
  5
1EA8
330
1E33
100
AcDbEntity
  8
HILFSLINIEN
 62
     5
100
AcDbLine
 10
-20.00004022997797
 20
70.75
 30
0.0
 11
-40.00004022997797
 21
70.75
 31
0.0
  0
LINE
  5
1EA9
330
1E33
100
AcDbEntity
  8
HILFSLINIEN
 62
     5
100
AcDbLine
 10
-70.00004022997797
 20
75.75
 30
0.0
 11
-140.0000402299779
 21
75.75
 31
0.0
  0
LINE
  5
1EAA
330
1E33
100
AcDbEntity
  8
HILFSLINIEN
 62
     5
100
AcDbLine
 10
-150.0000402299779
 20
75.75
 30
0.0
 11
-185.0000402299779
 21
75.75
 31
0.0
  0
LINE
  5
1EAB
330
1E33
100
AcDbEntity
  8
HILFSLINIEN
 62
     5
100
AcDbLine
 10
-140.0000402299779
 20
75.75
 30
0.0
 11
-150.0000402299779
 21
75.75
 31
0.0
  0
LINE
  5
1EAC
330
1E33
100
AcDbEntity
  8
HILFSLINIEN
 62
     5
100
AcDbLine
 10
-40.00004022997797
 20
75.75
 30
0.0
 11
-50.00004022997797
 21
75.75
 31
0.0
  0
LINE
  5
1EAD
330
1E33
100
AcDbEntity
  8
HILFSLINIEN
 62
     5
100
AcDbLine
 10
-50.00004022997797
 20
75.75
 30
0.0
 11
-70.00004022997797
 21
75.75
 31
0.0
  0
LINE
  5
1EAE
330
1E33
100
AcDbEntity
  8
HILFSLINIEN
 62
     5
100
AcDbLine
 10
-0.0000402299779694
 20
75.75
 30
0.0
 11
-20.00004022997797
 21
75.75
 31
0.0
  0
LINE
  5
1EAF
330
1E33
100
AcDbEntity
  8
HILFSLINIEN
 62
     5
100
AcDbLine
 10
-20.00004022997797
 20
75.75
 30
0.0
 11
-40.00004022997797
 21
75.75
 31
0.0
  0
ENDBLK
  5
1E69
330
1E33
100
AcDbEntity
  8
0
100
AcDbBlockEnd
  0
BLOCK
  5
39D6
330
39CC
100
AcDbEntity
  8
0
100
AcDbBlockBegin
  2
*D9
 70
     1
 10
0.0
 20
0.0
 30
0.0
  3
*D9
  1

  0
LINE
  5
4DFA
330
39CC
100
AcDbEntity
  8
BEMASSUNG
 62
     0
370
    -2
100
AcDbLine
 10
268.3011600140657
 20
206.5757632696494
 30
0.0
 11
268.3011600140657
 21
271.721508067075
 31
0.0
  0
LINE
  5
4DFB
330
39CC
100
AcDbEntity
  8
BEMASSUNG
 62
     0
370
    -2
100
AcDbLine
 10
80.45116001406546
 20
209.5427904105987
 30
0.0
 11
80.45116001406546
 21
271.721508067075
 31
0.0
  0
LINE
  5
4DFC
330
39CC
100
AcDbEntity
  8
BEMASSUNG
 62
     0
370
    -2
100
AcDbLine
 10
264.8011600140657
 20
269.721508067075
 30
0.0
 11
83.95116001406547
 21
269.721508067075
 31
0.0
  0
MTEXT
  5
4DFD
330
39CC
100
AcDbEntity
  8
BEMASSUNG
 62
     0
100
AcDbMText
 10
171.5030634298152
 20
274.1132096325639
 30
0.0
 40
3.5
 41
0.0
 71
     5
 72
     1
  1
\A1;187.85
  7
ROMANS
 73
     1
 44
1.0
1001
ACAD
1000
MTEXTBEGIN
1070
    73
1070
     1
1070
    44
1040
1.0
1070
    74
1070
     0
1000
MTEXTEND
  0
SOLID
  5
4DFE
330
39CC
100
AcDbEntity
  8
BEMASSUNG
 62
     0
100
AcDbTrace
 10
264.8011600140657
 20
270.3048414004083
 30
0.0
 11
264.8011600140657
 21
269.1381747337417
 31
0.0
 12
268.3011600140657
 22
269.721508067075
 32
0.0
 13
268.3011600140657
 23
269.721508067075
 33
0.0
  0
SOLID
  5
4DFF
330
39CC
100
AcDbEntity
  8
BEMASSUNG
 62
     0
100
AcDbTrace
 10
83.95116001406547
 20
270.3048414004083
 30
0.0
 11
83.95116001406547
 21
269.1381747337417
 31
0.0
 12
80.45116001406546
 22
269.721508067075
 32
0.0
 13
80.45116001406546
 23
269.721508067075
 33
0.0
  0
POINT
  5
4E00
330
39CC
100
AcDbEntity
  8
DEFPOINTS
 62
     0
100
AcDbPoint
 10
268.3011600140657
 20
206.0757632696494
 30
0.0
  0
POINT
  5
4E01
330
39CC
100
AcDbEntity
  8
DEFPOINTS
 62
     0
100
AcDbPoint
 10
80.45116001406546
 20
209.0427904105987
 30
0.0
  0
POINT
  5
4E02
330
39CC
100
AcDbEntity
  8
DEFPOINTS
 62
     0
100
AcDbPoint
 10
80.45116001406546
 20
269.721508067075
 30
0.0
  0
ENDBLK
  5
39D7
330
39CC
100
AcDbEntity
  8
0
100
AcDbBlockEnd
  0
BLOCK
  5
39E3
330
39D9
100
AcDbEntity
  8
0
100
AcDbBlockBegin
  2
*D10
 70
     1
 10
0.0
 20
0.0
 30
0.0
  3
*D10
  1

  0
LINE
  5
4E1E
330
39D9
100
AcDbEntity
  8
BEMASSUNG
 62
     0
370
    -2
100
AcDbLine
 10
80.45116001406546
 20
209.5427904105987
 30
0.0
 11
80.45116001406546
 21
261.6571926133777
 31
0.0
  0
LINE
  5
4E1F
330
39D9
100
AcDbEntity
  8
BEMASSUNG
 62
     0
370
    -2
100
AcDbLine
 10
166.5511600140656
 20
224.5216255209554
 30
0.0
 11
166.5511600140656
 21
261.6571926133777
 31
0.0
  0
LINE
  5
4E20
330
39D9
100
AcDbEntity
  8
BEMASSUNG
 62
     0
370
    -2
100
AcDbLine
 10
83.95116001406547
 20
259.6571926133777
 30
0.0
 11
163.0511600140656
 21
259.6571926133777
 31
0.0
  0
SOLID
  5
4E21
330
39D9
100
AcDbEntity
  8
BEMASSUNG
 62
     0
100
AcDbTrace
 10
83.95116001406547
 20
260.240525946711
 30
0.0
 11
83.95116001406547
 21
259.0738592800444
 31
0.0
 12
80.45116001406546
 22
259.6571926133777
 32
0.0
 13
80.45116001406546
 23
259.6571926133777
 33
0.0
  0
SOLID
  5
4E22
330
39D9
100
AcDbEntity
  8
BEMASSUNG
 62
     0
100
AcDbTrace
 10
163.0511600140656
 20
260.240525946711
 30
0.0
 11
163.0511600140656
 21
259.0738592800444
 31
0.0
 12
166.5511600140656
 22
259.6571926133777
 32
0.0
 13
166.5511600140656
 23
259.6571926133777
 33
0.0
  0
MTEXT
  5
4E23
330
39D9
100
AcDbEntity
  8
BEMASSUNG
 62
     0
100
AcDbMText
 10
123.5011600140655
 20
263.4071926133777
 30
0.0
 40
3.5
 41
0.0
 71
     5
 72
     1
  1
\A1;86.1
  7
ROMANS
 73
     1
 44
1.0
1001
ACAD
1000
MTEXTBEGIN
1070
    73
1070
     1
1070
    44
1040
1.0
1070
    74
1070
     0
1000
MTEXTEND
  0
POINT
  5
4E24
330
39D9
100
AcDbEntity
  8
DEFPOINTS
 62
     0
100
AcDbPoint
 10
80.45116001406546
 20
209.0427904105987
 30
0.0
  0
POINT
  5
4E25
330
39D9
100
AcDbEntity
  8
DEFPOINTS
 62
     0
100
AcDbPoint
 10
166.5511600140656
 20
224.0216255209555
 30
0.0
  0
POINT
  5
4E26
330
39D9
100
AcDbEntity
  8
DEFPOINTS
 62
     0
100
AcDbPoint
 10
166.5511600140656
 20
259.6571926133777
 30
0.0
  0
ENDBLK
  5
39E4
330
39D9
100
AcDbEntity
  8
0
100
AcDbBlockEnd
  0
BLOCK
  5
39F0
330
39E6
100
AcDbEntity
  8
0
100
AcDbBlockBegin
  2
*D11
 70
     1
 10
0.0
 20
0.0
 30
0.0
  3
*D11
  1

  0
LINE
  5
4E15
330
39E6
100
AcDbEntity
  8
BEMASSUNG
 62
     0
370
    -2
100
AcDbLine
 10
80.45116001406546
 20
209.5427904105987
 30
0.0
 11
80.45116001406546
 21
271.721508067075
 31
0.0
  0
LINE
  5
4E16
330
39E6
100
AcDbEntity
  8
BEMASSUNG
 62
     0
370
    -2
100
AcDbLine
 10
67.71113417033714
 20
188.4799667209553
 30
0.0
 11
67.71113417033714
 21
271.721508067075
 31
0.0
  0
LINE
  5
4E17
330
39E6
100
AcDbEntity
  8
BEMASSUNG
 62
     0
370
    -2
100
AcDbLine
 10
76.95116001406545
 20
269.721508067075
 30
0.0
 11
71.21113417033715
 21
269.721508067075
 31
0.0
  0
MTEXT
  5
4E18
330
39E6
100
AcDbEntity
  8
BEMASSUNG
 62
     0
100
AcDbMText
 10
56.52029773488948
 20
269.721508067075
 30
0.0
 40
3.5
 41
0.0
 71
     5
 72
     1
  1
\A1;(ca.12.7)
  7
ROMANS
 73
     1
 44
1.0
1001
ACAD
1000
MTEXTBEGIN
1070
    73
1070
     1
1070
    44
1040
1.0
1070
    74
1070
     0
1000
MTEXTEND
  0
SOLID
  5
4E19
330
39E6
100
AcDbEntity
  8
BEMASSUNG
 62
     0
100
AcDbTrace
 10
76.95116001406545
 20
270.3048414004083
 30
0.0
 11
76.95116001406545
 21
269.1381747337417
 31
0.0
 12
80.45116001406546
 22
269.721508067075
 32
0.0
 13
80.45116001406546
 23
269.721508067075
 33
0.0
  0
SOLID
  5
4E1A
330
39E6
100
AcDbEntity
  8
BEMASSUNG
 62
     0
100
AcDbTrace
 10
71.21113417033715
 20
270.3048414004083
 30
0.0
 11
71.21113417033715
 21
269.1381747337417
 31
0.0
 12
67.71113417033714
 22
269.721508067075
 32
0.0
 13
67.71113417033714
 23
269.721508067075
 33
0.0
  0
POINT
  5
4E1B
330
39E6
100
AcDbEntity
  8
DEFPOINTS
 62
     0
100
AcDbPoint
 10
80.45116001406546
 20
209.0427904105987
 30
0.0
  0
POINT
  5
4E1C
330
39E6
100
AcDbEntity
  8
DEFPOINTS
 62
     0
100
AcDbPoint
 10
67.71113417033714
 20
187.9799667209553
 30
0.0
  0
POINT
  5
4E1D
330
39E6
100
AcDbEntity
  8
DEFPOINTS
 62
     0
100
AcDbPoint
 10
67.71113417033714
 20
269.721508067075
 30
0.0
  0
ENDBLK
  5
39F1
330
39E6
100
AcDbEntity
  8
0
100
AcDbBlockEnd
  0
BLOCK
  5
3A45
330
3A3B
100
AcDbEntity
  8
0
100
AcDbBlockBegin
  2
*D12
 70
     1
 10
0.0
 20
0.0
 30
0.0
  3
*D12
  1

  0
LINE
  5
4DE7
330
3A3B
100
AcDbEntity
  8
BEMASSUNG
 62
     0
370
    -2
100
AcDbLine
 10
67.71113417033714
 20
189.5966255209552
 30
0.0
 11
67.71113417033714
 21
281.9688114893801
 31
0.0
  0
LINE
  5
4DE8
330
3A3B
100
AcDbEntity
  8
BEMASSUNG
 62
     0
370
    -2
100
AcDbLine
 10
268.3011600140657
 20
206.5757632696494
 30
0.0
 11
268.3011600140657
 21
281.9688114893801
 31
0.0
  0
LINE
  5
4DE9
330
3A3B
100
AcDbEntity
  8
BEMASSUNG
 62
     0
370
    -2
100
AcDbLine
 10
71.21113417033715
 20
279.9688114893801
 30
0.0
 11
264.8011600140657
 21
279.9688114893801
 31
0.0
  0
SOLID
  5
4DEA
330
3A3B
100
AcDbEntity
  8
BEMASSUNG
 62
     0
100
AcDbTrace
 10
71.21113417033715
 20
280.5521448227134
 30
0.0
 11
71.21113417033715
 21
279.3854781560467
 31
0.0
 12
67.71113417033714
 22
279.9688114893801
 32
0.0
 13
67.71113417033714
 23
279.9688114893801
 33
0.0
  0
SOLID
  5
4DEB
330
3A3B
100
AcDbEntity
  8
BEMASSUNG
 62
     0
100
AcDbTrace
 10
264.8011600140657
 20
280.5521448227134
 30
0.0
 11
264.8011600140657
 21
279.3854781560467
 31
0.0
 12
268.3011600140657
 22
279.9688114893801
 32
0.0
 13
268.3011600140657
 23
279.9688114893801
 33
0.0
  0
MTEXT
  5
4DEC
330
3A3B
100
AcDbEntity
  8
BEMASSUNG
 62
     0
100
AcDbMText
 10
168.0061470922014
 20
283.7188114893801
 30
0.0
 40
3.5
 41
0.0
 71
     5
 72
     1
  1
\A1;200.6
  7
ROMANS
 73
     1
 44
1.0
1001
ACAD
1000
MTEXTBEGIN
1070
    73
1070
     1
1070
    44
1040
1.0
1070
    74
1070
     0
1000
MTEXTEND
  0
POINT
  5
4DED
330
3A3B
100
AcDbEntity
  8
DEFPOINTS
 62
     0
100
AcDbPoint
 10
67.71113417033714
 20
189.0966255209552
 30
0.0
  0
POINT
  5
4DEE
330
3A3B
100
AcDbEntity
  8
DEFPOINTS
 62
     0
100
AcDbPoint
 10
268.3011600140657
 20
206.0757632696494
 30
0.0
  0
POINT
  5
4DEF
330
3A3B
100
AcDbEntity
  8
DEFPOINTS
 62
     0
100
AcDbPoint
 10
268.3011600140657
 20
279.9688114893801
 30
0.0
  0
ENDBLK
  5
3A46
330
3A3B
100
AcDbEntity
  8
0
100
AcDbBlockEnd
  0
BLOCK
  5
3E23
330
3E1E
100
AcDbEntity
  8
0
100
AcDbBlockBegin
  2
*X13
 70
     1
 10
0.0
 20
0.0
 30
0.0
  3
*X13
  1

  0
LINE
  5
3E1F
330
3E1E
100
AcDbEntity
  8
0
 62
     0
100
AcDbLine
 10
329.6443624061183
 20
211.8650816943516
 30
0.0
 11
329.644308101265
 21
211.8651359992049
 31
0.0
  0
LINE
  5
3E20
330
3E1E
100
AcDbEntity
  8
0
 62
     0
100
AcDbLine
 10
329.6443624061183
 20
212.7631073064585
 30
0.0
 11
329.644308101265
 21
212.7631616113118
 31
0.0
  0
LINE
  5
3E21
330
3E1E
100
AcDbEntity
  8
0
 62
     0
100
AcDbLine
 10
329.6443624061183
 20
213.6611329185654
 30
0.0
 11
329.644308101265
 21
213.6611872234188
 31
0.0
  0
LINE
  5
3E22
330
3E1E
100
AcDbEntity
  8
0
 62
     0
100
AcDbLine
 10
329.6443624061183
 20
214.5591585306723
 30
0.0
 11
329.644308101265
 21
214.5592128355256
 31
0.0
  0
ENDBLK
  5
3E24
330
3E1E
100
AcDbEntity
  8
0
100
AcDbBlockEnd
  0
BLOCK
  5
3E2A
330
3E25
100
AcDbEntity
  8
0
100
AcDbBlockBegin
  2
*X14
 70
     1
 10
0.0
 20
0.0
 30
0.0
  3
*X14
  1

  0
LINE
  5
3E26
330
3E25
100
AcDbEntity
  8
0
 62
     0
100
AcDbLine
 10
329.6443624061183
 20
211.8650816943516
 30
0.0
 11
329.6443385314452
 21
211.8651055690246
 31
0.0
  0
LINE
  5
3E27
330
3E25
100
AcDbEntity
  8
0
 62
     0
100
AcDbLine
 10
329.6443624061183
 20
212.7631073064585
 30
0.0
 11
329.6443385314452
 21
212.7631311811316
 31
0.0
  0
LINE
  5
3E28
330
3E25
100
AcDbEntity
  8
0
 62
     0
100
AcDbLine
 10
329.6443624061183
 20
213.6611329185654
 30
0.0
 11
329.6443385314452
 21
213.6611567932386
 31
0.0
  0
LINE
  5
3E29
330
3E25
100
AcDbEntity
  8
0
 62
     0
100
AcDbLine
 10
329.6443624061183
 20
214.5591585306723
 30
0.0
 11
329.6443385314452
 21
214.5591824053453
 31
0.0
  0
ENDBLK
  5
3E2B
330
3E25
100
AcDbEntity
  8
0
100
AcDbBlockEnd
  0
BLOCK
  5
3E2E
330
3E2C
100
AcDbEntity
  8
0
100
AcDbBlockBegin
  2
*X15
 70
     1
 10
0.0
 20
0.0
 30
0.0
  3
*X15
  1

  0
LINE
  5
3E2D
330
3E2C
100
AcDbEntity
  8
0
 62
     0
100
AcDbLine
 10
329.6443624061183
 20
213.6611329185653
 30
0.0
 11
329.6443385314453
 21
213.6611567932384
 31
0.0
  0
ENDBLK
  5
3E2F
330
3E2C
100
AcDbEntity
  8
0
100
AcDbBlockEnd
  0
BLOCK
  5
502A
330
5020
100
AcDbEntity
  8
0
100
AcDbBlockBegin
  2
*D16
 70
     1
 10
0.0
 20
0.0
 30
0.0
  3
*D16
  1

  0
LINE
  5
5129
330
5020
100
AcDbEntity
  8
2
 62
     0
370
    -2
100
AcDbLine
 10
0.0
 20
0.5
 30
0.0
 11
0.0000000000000047
 21
76.95931428205746
 31
0.0
  0
LINE
  5
512A
330
5020
100
AcDbEntity
  8
2
 62
     0
370
    -2
100
AcDbLine
 10
86.10000000356661
 20
20.44616488464329
 30
0.0
 11
86.10000000356661
 21
76.95931428205746
 31
0.0
  0
LINE
  5
512B
330
5020
100
AcDbEntity
  8
2
 62
     0
370
    -2
100
AcDbLine
 10
3.500000000000003
 20
74.95931428205746
 30
0.0
 11
82.6000000035666
 21
74.95931428205746
 31
0.0
  0
SOLID
  5
512C
330
5020
100
AcDbEntity
  8
2
 62
     0
100
AcDbTrace
 10
3.500000000000003
 20
75.54264761539076
 30
0.0
 11
3.500000000000003
 21
74.37598094872412
 31
0.0
 12
0.0000000000000046
 22
74.95931428205746
 32
0.0
 13
0.0000000000000046
 23
74.95931428205746
 33
0.0
  0
SOLID
  5
512D
330
5020
100
AcDbEntity
  8
2
 62
     0
100
AcDbTrace
 10
82.6000000035666
 20
75.54264761539076
 30
0.0
 11
82.6000000035666
 21
74.37598094872412
 31
0.0
 12
86.10000000356661
 22
74.95931428205746
 32
0.0
 13
86.10000000356661
 23
74.95931428205746
 33
0.0
  0
MTEXT
  5
512E
330
5020
100
AcDbEntity
  8
2
 62
     0
100
AcDbMText
 10
43.05000000178328
 20
78.70931428205746
 30
0.0
 40
3.5
 41
0.0
 71
     5
 72
     1
  1
\A1;86.1
  7
ROMANS
 73
     1
 44
1.0
1001
ACAD
1000
MTEXTBEGIN
1070
    73
1070
     1
1070
    44
1040
1.0
1070
    74
1070
     0
1000
MTEXTEND
  0
POINT
  5
512F
330
5020
100
AcDbEntity
  8
DEFPOINTS
 62
     0
100
AcDbPoint
 10
0.0
 20
0.0
 30
0.0
  0
POINT
  5
5130
330
5020
100
AcDbEntity
  8
DEFPOINTS
 62
     0
100
AcDbPoint
 10
86.10000000356661
 20
19.94616488464329
 30
0.0
  0
POINT
  5
5131
330
5020
100
AcDbEntity
  8
DEFPOINTS
 62
     0
100
AcDbPoint
 10
86.10000000356661
 20
74.95931428205746
 30
0.0
  0
ENDBLK
  5
502B
330
5020
100
AcDbEntity
  8
0
100
AcDbBlockEnd
  0
BLOCK
  5
5074
330
506A
100
AcDbEntity
  8
0
100
AcDbBlockBegin
  2
*D17
 70
     1
 10
0.0
 20
0.0
 30
0.0
  3
*D17
  1

  0
LINE
  5
5132
330
506A
100
AcDbEntity
  8
2
 62
     0
370
    -2
100
AcDbLine
 10
66.43410376322112
 20
28.0
 30
0.0
 11
128.6183719135335
 21
27.99999999999998
 31
0.0
  0
LINE
  5
5133
330
506A
100
AcDbEntity
  8
2
 62
     0
370
    -2
100
AcDbLine
 10
66.43410376322112
 20
-28.00000000000023
 30
0.0
 11
128.6183719135335
 21
-28.00000000000025
 31
0.0
  0
LINE
  5
5134
330
506A
100
AcDbEntity
  8
2
 62
     0
370
    -2
100
AcDbLine
 10
126.6183719135336
 20
24.49999999999998
 30
0.0
 11
126.6183719135336
 21
-24.50000000000025
 31
0.0
  0
SOLID
  5
5135
330
506A
100
AcDbEntity
  8
2
 62
     0
100
AcDbTrace
 10
126.0350385802002
 20
24.49999999999998
 30
0.0
 11
127.2017052468669
 21
24.49999999999998
 31
0.0
 12
126.6183719135336
 22
27.99999999999998
 32
0.0
 13
126.6183719135336
 23
27.99999999999998
 33
0.0
  0
SOLID
  5
5136
330
506A
100
AcDbEntity
  8
2
 62
     0
100
AcDbTrace
 10
126.0350385802002
 20
-24.50000000000025
 30
0.0
 11
127.2017052468669
 21
-24.50000000000025
 31
0.0
 12
126.6183719135336
 22
-28.00000000000025
 32
0.0
 13
126.6183719135336
 23
-28.00000000000025
 33
0.0
  0
MTEXT
  5
5137
330
506A
100
AcDbEntity
  8
2
 62
     0
100
AcDbMText
 10
122.8683719135335
 20
-0.0000000000001103
 30
0.0
 40
3.5
 41
0.0
 71
     5
 72
     1
  1
\A1;%%c56
  7
ROMANS
 11
0.0000000000000001
 21
1.0
 31
0.0
 73
     1
 44
1.0
1001
ACAD
1000
MTEXTBEGIN
1070
    73
1070
     1
1070
    44
1040
1.0
1070
    74
1070
     0
1000
MTEXTEND
  0
POINT
  5
5138
330
506A
100
AcDbEntity
  8
DEFPOINTS
 62
     0
100
AcDbPoint
 10
65.93410376322111
 20
28.0
 30
0.0
  0
POINT
  5
5139
330
506A
100
AcDbEntity
  8
DEFPOINTS
 62
     0
100
AcDbPoint
 10
65.93410376322111
 20
-28.00000000000023
 30
0.0
  0
POINT
  5
513A
330
506A
100
AcDbEntity
  8
DEFPOINTS
 62
     0
100
AcDbPoint
 10
126.6183719135336
 20
-28.00000000000025
 30
0.0
  0
ENDBLK
  5
5075
330
506A
100
AcDbEntity
  8
0
100
AcDbBlockEnd
  0
BLOCK
  5
5167
330
5166
100
AcDbEntity
  8
0
100
AcDbBlockBegin
  2
*X18
 70
     1
 10
0.0
 20
0.0
 30
0.0
  3
*X18
  1

  0
LINE
  5
5168
330
5166
100
AcDbEntity
  8
0
 62
     0
100
AcDbLine
 10
87.50000000000005
 20
206.4883936041663
 30
0.0
 11
90.50000000000002
 21
209.4883936041663
 31
0.0
  0
LINE
  5
5169
330
5166
100
AcDbEntity
  8
0
 62
     0
100
AcDbLine
 10
87.50000000000005
 20
208.7334576344336
 30
0.0
 11
90.50000000000002
 21
211.7334576344336
 31
0.0
  0
LINE
  5
516A
330
5166
100
AcDbEntity
  8
0
 62
     0
100
AcDbLine
 10
87.50000000000005
 20
210.9785216647008
 30
0.0
 11
93.20261525912343
 21
216.6811369238243
 31
0.0
  0
LINE
  5
516B
330
5166
100
AcDbEntity
  8
0
 62
     0
100
AcDbLine
 10
87.50000000000005
 20
213.2235856949681
 30
0.0
 11
94.43352055508976
 21
220.1571062500579
 31
0.0
  0
LINE
  5
516C
330
5166
100
AcDbEntity
  8
0
 62
     0
100
AcDbLine
 10
87.50000000000005
 20
215.4686497252354
 30
0.0
 11
95.6644258510561
 21
223.6330755762915
 31
0.0
  0
LINE
  5
516D
330
5166
100
AcDbEntity
  8
0
 62
     0
100
AcDbLine
 10
87.50000000000005
 20
217.7137137555027
 30
0.0
 11
96.89533114702243
 21
227.1090449025252
 31
0.0
  0
LINE
  5
516E
330
5166
100
AcDbEntity
  8
0
 62
     0
100
AcDbLine
 10
87.50000000000005
 20
219.95877778577
 30
0.0
 11
98.12623644298881
 21
230.5850142287588
 31
0.0
  0
LINE
  5
516F
330
5166
100
AcDbEntity
  8
0
 62
     0
100
AcDbLine
 10
88.68100792547712
 20
223.3848497415144
 30
0.0
 11
99.3571417389551
 21
234.0609835549924
 31
0.0
  0
LINE
  5
5170
330
5166
100
AcDbEntity
  8
0
 62
     0
100
AcDbLine
 10
89.91191322144345
 20
226.860819067748
 30
0.0
 11
100.5880470349214
 21
237.536952881226
 31
0.0
  0
LINE
  5
5171
330
5166
100
AcDbEntity
  8
0
 62
     0
100
AcDbLine
 10
91.14281851740981
 20
230.3367883939817
 30
0.0
 11
99.8412260824012
 21
239.035195958973
 31
0.0
  0
LINE
  5
5172
330
5166
100
AcDbEntity
  8
0
 62
     0
100
AcDbLine
 10
99.84122608240122
 20
239.0351959589731
 30
0.0
 11
100.7122805124011
 21
239.906250388973
 31
0.0
  0
LINE
  5
5173
330
5166
100
AcDbEntity
  8
0
 62
     0
100
AcDbLine
 10
92.37372381337612
 20
233.8127577202152
 30
0.0
 11
97.5961620521339
 21
239.035195958973
 31
0.0
  0
LINE
  5
5174
330
5166
100
AcDbEntity
  8
0
 62
     0
100
AcDbLine
 10
97.5961620521339
 20
239.0351959589731
 30
0.0
 11
98.46721648213385
 21
239.906250388973
 31
0.0
  0
LINE
  5
5175
330
5166
100
AcDbEntity
  8
0
 62
     0
100
AcDbLine
 10
93.60462910934243
 20
237.2887270464488
 30
0.0
 11
95.35109802186658
 21
239.035195958973
 31
0.0
  0
LINE
  5
5176
330
5166
100
AcDbEntity
  8
0
 62
     0
100
AcDbLine
 10
95.35109802186658
 20
239.035195958973
 30
0.0
 11
96.22215245186657
 21
239.906250388973
 31
0.0
  0
LINE
  5
5177
330
5166
100
AcDbEntity
  8
0
 62
     0
100
AcDbLine
 10
87.50000000000005
 20
204.243329573899
 30
0.0
 11
90.50000000000002
 21
207.2433295738989
 31
0.0
  0
LINE
  5
5178
330
5166
100
AcDbEntity
  8
0
 62
     0
100
AcDbLine
 10
87.50000000000005
 20
201.9982655436317
 30
0.0
 11
90.5
 21
204.9982655436317
 31
0.0
  0
LINE
  5
5179
330
5166
100
AcDbEntity
  8
0
 62
     0
100
AcDbLine
 10
87.50000000000005
 20
199.7532015133644
 30
0.0
 11
91.07499999999999
 21
203.3282015133644
 31
0.0
  0
LINE
  5
517A
330
5166
100
AcDbEntity
  8
0
 62
     0
100
AcDbLine
 10
87.50000000000005
 20
197.5081374830971
 30
0.0
 11
91.07499999999999
 21
201.0831374830972
 31
0.0
  0
LINE
  5
517B
330
5166
100
AcDbEntity
  8
0
 62
     0
100
AcDbLine
 10
87.50000000000005
 20
195.2630734528298
 30
0.0
 11
91.07499999999999
 21
198.8380734528298
 31
0.0
  0
LINE
  5
517C
330
5166
100
AcDbEntity
  8
0
 62
     0
100
AcDbLine
 10
87.50000000000005
 20
193.0180094225624
 30
0.0
 11
91.07499999999999
 21
196.5930094225625
 31
0.0
  0
LINE
  5
517D
330
5166
100
AcDbEntity
  8
0
 62
     0
100
AcDbLine
 10
88.01665249833893
 20
191.289597890634
 30
0.0
 11
91.07499999999999
 21
194.3479453922953
 31
0.0
  0
LINE
  5
517E
330
5166
100
AcDbEntity
  8
0
 62
     0
100
AcDbLine
 10
89.87836902694503
 20
190.906250388973
 30
0.0
 11
90.16615099908008
 21
191.194032361108
 31
0.0
  0
ENDBLK
  5
517F
330
5166
100
AcDbEntity
  8
0
100
AcDbBlockEnd
  0
BLOCK
  5
5181
330
5180
100
AcDbEntity
  8
0
100
AcDbBlockBegin
  2
*X19
 70
     1
 10
0.0
 20
0.0
 30
0.0
  3
*X19
  1

  0
LINE
  5
5182
330
5180
100
AcDbEntity
  8
0
 62
     0
100
AcDbLine
 10
112.5
 20
193.3223050896223
 30
0.0
 11
137.5
 21
218.3223050896224
 31
0.0
  0
LINE
  5
5183
330
5180
100
AcDbEntity
  8
0
 62
     0
100
AcDbLine
 10
112.5
 20
195.5673691198896
 30
0.0
 11
136.9824171228732
 21
220.0497862427629
 31
0.0
  0
LINE
  5
5184
330
5180
100
AcDbEntity
  8
0
 62
     0
100
AcDbLine
 10
112.5
 20
197.8124331501568
 30
0.0
 11
134.7373530926059
 21
220.0497862427629
 31
0.0
  0
LINE
  5
5185
330
5180
100
AcDbEntity
  8
0
 62
     0
100
AcDbLine
 10
112.5
 20
200.0574971804242
 30
0.0
 11
132.4922890623386
 21
220.0497862427629
 31
0.0
  0
LINE
  5
5186
330
5180
100
AcDbEntity
  8
0
 62
     0
100
AcDbLine
 10
112.5
 20
202.3025612106915
 30
0.0
 11
130.2472250320714
 21
220.0497862427629
 31
0.0
  0
LINE
  5
5187
330
5180
100
AcDbEntity
  8
0
 62
     0
100
AcDbLine
 10
112.5
 20
204.5476252409588
 30
0.0
 11
128.0021610018041
 21
220.0497862427629
 31
0.0
  0
LINE
  5
5188
330
5180
100
AcDbEntity
  8
0
 62
     0
100
AcDbLine
 10
112.5
 20
206.7926892712261
 30
0.0
 11
125.7570969715368
 21
220.0497862427629
 31
0.0
  0
LINE
  5
5189
330
5180
100
AcDbEntity
  8
0
 62
     0
100
AcDbLine
 10
112.5
 20
209.0377533014934
 30
0.0
 11
123.5120329412695
 21
220.0497862427629
 31
0.0
  0
LINE
  5
518A
330
5180
100
AcDbEntity
  8
0
 62
     0
100
AcDbLine
 10
112.5
 20
211.2828173317607
 30
0.0
 11
121.2669689110022
 21
220.0497862427629
 31
0.0
  0
LINE
  5
518B
330
5180
100
AcDbEntity
  8
0
 62
     0
100
AcDbLine
 10
112.5
 20
213.527881362028
 30
0.0
 11
119.021904880735
 21
220.0497862427629
 31
0.0
  0
LINE
  5
518C
330
5180
100
AcDbEntity
  8
0
 62
     0
100
AcDbLine
 10
112.5
 20
215.7729453922952
 30
0.0
 11
116.7768408504677
 21
220.0497862427629
 31
0.0
  0
LINE
  5
518D
330
5180
100
AcDbEntity
  8
0
 62
     0
100
AcDbLine
 10
112.5
 20
218.0180094225625
 30
0.0
 11
114.5317768202004
 21
220.0497862427629
 31
0.0
  0
LINE
  5
518E
330
5180
100
AcDbEntity
  8
0
 62
     0
100
AcDbLine
 10
113.229009329618
 20
191.8062503889731
 30
0.0
 11
137.5
 21
216.0772410593551
 31
0.0
  0
LINE
  5
518F
330
5180
100
AcDbEntity
  8
0
 62
     0
100
AcDbLine
 10
115.4740733598853
 20
191.8062503889731
 30
0.0
 11
137.5
 21
213.8321770290878
 31
0.0
  0
LINE
  5
5190
330
5180
100
AcDbEntity
  8
0
 62
     0
100
AcDbLine
 10
117.7191373901526
 20
191.8062503889731
 30
0.0
 11
137.5
 21
211.5871129988205
 31
0.0
  0
LINE
  5
5191
330
5180
100
AcDbEntity
  8
0
 62
     0
100
AcDbLine
 10
119.9642014204199
 20
191.8062503889731
 30
0.0
 11
137.5
 21
209.3420489685532
 31
0.0
  0
LINE
  5
5192
330
5180
100
AcDbEntity
  8
0
 62
     0
100
AcDbLine
 10
122.2092654506871
 20
191.8062503889731
 30
0.0
 11
137.5
 21
207.0969849382859
 31
0.0
  0
LINE
  5
5193
330
5180
100
AcDbEntity
  8
0
 62
     0
100
AcDbLine
 10
124.4543294809544
 20
191.8062503889731
 30
0.0
 11
137.5
 21
204.8519209080187
 31
0.0
  0
LINE
  5
5194
330
5180
100
AcDbEntity
  8
0
 62
     0
100
AcDbLine
 10
126.6993935112217
 20
191.8062503889731
 30
0.0
 11
137.5
 21
202.6068568777513
 31
0.0
  0
LINE
  5
5195
330
5180
100
AcDbEntity
  8
0
 62
     0
100
AcDbLine
 10
128.944457541489
 20
191.8062503889731
 30
0.0
 11
137.5
 21
200.3617928474841
 31
0.0
  0
LINE
  5
5196
330
5180
100
AcDbEntity
  8
0
 62
     0
100
AcDbLine
 10
131.1895215717563
 20
191.8062503889731
 30
0.0
 11
137.5
 21
198.1167288172168
 31
0.0
  0
LINE
  5
5197
330
5180
100
AcDbEntity
  8
0
 62
     0
100
AcDbLine
 10
133.4345856020236
 20
191.8062503889731
 30
0.0
 11
137.5
 21
195.8716647869495
 31
0.0
  0
LINE
  5
5198
330
5180
100
AcDbEntity
  8
0
 62
     0
100
AcDbLine
 10
135.6796496322909
 20
191.806250388973
 30
0.0
 11
137.5
 21
193.6266007566822
 31
0.0
  0
LINE
  5
5199
330
5180
100
AcDbEntity
  8
0
 62
     0
100
AcDbLine
 10
137.5
 20
192.5244124492913
 30
0.0
 11
112.5
 21
217.5244124492913
 31
0.0
  0
LINE
  5
519A
330
5180
100
AcDbEntity
  8
0
 62
     0
100
AcDbLine
 10
135.9730980300509
 20
191.8062503889731
 30
0.0
 11
112.5
 21
215.279348419024
 31
0.0
  0
LINE
  5
519B
330
5180
100
AcDbEntity
  8
0
 62
     0
100
AcDbLine
 10
133.7280339997836
 20
191.8062503889731
 30
0.0
 11
112.5
 21
213.0342843887568
 31
0.0
  0
LINE
  5
519C
330
5180
100
AcDbEntity
  8
0
 62
     0
100
AcDbLine
 10
131.4829699695164
 20
191.8062503889731
 30
0.0
 11
112.5
 21
210.7892203584894
 31
0.0
  0
LINE
  5
519D
330
5180
100
AcDbEntity
  8
0
 62
     0
100
AcDbLine
 10
129.2379059392491
 20
191.8062503889731
 30
0.0
 11
112.5
 21
208.5441563282222
 31
0.0
  0
LINE
  5
519E
330
5180
100
AcDbEntity
  8
0
 62
     0
100
AcDbLine
 10
126.9928419089818
 20
191.8062503889731
 30
0.0
 11
112.5
 21
206.2990922979548
 31
0.0
  0
LINE
  5
519F
330
5180
100
AcDbEntity
  8
0
 62
     0
100
AcDbLine
 10
124.7477778787145
 20
191.8062503889731
 30
0.0
 11
112.5
 21
204.0540282676876
 31
0.0
  0
LINE
  5
51A0
330
5180
100
AcDbEntity
  8
0
 62
     0
100
AcDbLine
 10
122.5027138484472
 20
191.8062503889731
 30
0.0
 11
112.5
 21
201.8089642374202
 31
0.0
  0
LINE
  5
51A1
330
5180
100
AcDbEntity
  8
0
 62
     0
100
AcDbLine
 10
120.2576498181799
 20
191.8062503889731
 30
0.0
 11
112.5
 21
199.563900207153
 31
0.0
  0
LINE
  5
51A2
330
5180
100
AcDbEntity
  8
0
 62
     0
100
AcDbLine
 10
118.0125857879126
 20
191.8062503889731
 30
0.0
 11
112.5
 21
197.3188361768857
 31
0.0
  0
LINE
  5
51A3
330
5180
100
AcDbEntity
  8
0
 62
     0
100
AcDbLine
 10
115.7675217576454
 20
191.8062503889731
 30
0.0
 11
112.5
 21
195.0737721466184
 31
0.0
  0
LINE
  5
51A4
330
5180
100
AcDbEntity
  8
0
 62
     0
100
AcDbLine
 10
113.522457727378
 20
191.8062503889731
 30
0.0
 11
112.5
 21
192.8287081163511
 31
0.0
  0
LINE
  5
51A5
330
5180
100
AcDbEntity
  8
0
 62
     0
100
AcDbLine
 10
137.5
 20
194.7694764795585
 30
0.0
 11
112.5
 21
219.7694764795586
 31
0.0
  0
LINE
  5
51A6
330
5180
100
AcDbEntity
  8
0
 62
     0
100
AcDbLine
 10
137.5
 20
197.0145405098259
 30
0.0
 11
114.464754267063
 21
220.0497862427629
 31
0.0
  0
LINE
  5
51A7
330
5180
100
AcDbEntity
  8
0
 62
     0
100
AcDbLine
 10
137.5
 20
199.2596045400931
 30
0.0
 11
116.7098182973302
 21
220.0497862427629
 31
0.0
  0
LINE
  5
51A8
330
5180
100
AcDbEntity
  8
0
 62
     0
100
AcDbLine
 10
137.5
 20
201.5046685703604
 30
0.0
 11
118.9548823275975
 21
220.0497862427629
 31
0.0
  0
LINE
  5
51A9
330
5180
100
AcDbEntity
  8
0
 62
     0
100
AcDbLine
 10
137.5
 20
203.7497326006277
 30
0.0
 11
121.1999463578648
 21
220.0497862427629
 31
0.0
  0
LINE
  5
51AA
330
5180
100
AcDbEntity
  8
0
 62
     0
100
AcDbLine
 10
137.5
 20
205.994796630895
 30
0.0
 11
123.4450103881321
 21
220.0497862427629
 31
0.0
  0
LINE
  5
51AB
330
5180
100
AcDbEntity
  8
0
 62
     0
100
AcDbLine
 10
137.5
 20
208.2398606611624
 30
0.0
 11
125.6900744183994
 21
220.0497862427629
 31
0.0
  0
LINE
  5
51AC
330
5180
100
AcDbEntity
  8
0
 62
     0
100
AcDbLine
 10
137.5
 20
210.4849246914296
 30
0.0
 11
127.9351384486667
 21
220.0497862427629
 31
0.0
  0
LINE
  5
51AD
330
5180
100
AcDbEntity
  8
0
 62
     0
100
AcDbLine
 10
137.5
 20
212.7299887216969
 30
0.0
 11
130.180202478934
 21
220.0497862427629
 31
0.0
  0
LINE
  5
51AE
330
5180
100
AcDbEntity
  8
0
 62
     0
100
AcDbLine
 10
137.5
 20
214.9750527519642
 30
0.0
 11
132.4252665092013
 21
220.0497862427629
 31
0.0
  0
LINE
  5
51AF
330
5180
100
AcDbEntity
  8
0
 62
     0
100
AcDbLine
 10
137.5
 20
217.2201167822314
 30
0.0
 11
134.6703305394685
 21
220.0497862427629
 31
0.0
  0
LINE
  5
51B0
330
5180
100
AcDbEntity
  8
0
 62
     0
100
AcDbLine
 10
137.5
 20
219.4651808124987
 30
0.0
 11
136.9153945697358
 21
220.0497862427628
 31
0.0
  0
ENDBLK
  5
51B1
330
5180
100
AcDbEntity
  8
0
100
AcDbBlockEnd
  0
BLOCK
  5
51B3
330
51B2
100
AcDbEntity
  8
0
100
AcDbBlockBegin
  2
*X20
 70
     1
 10
0.0
 20
0.0
 30
0.0
  3
*X20
  1

  0
LINE
  5
51B4
330
51B2
100
AcDbEntity
  8
0
 62
     0
100
AcDbLine
 10
157.0836995718602
 20
196.147813698511
 30
0.0
 11
158.0838087428635
 21
197.1479228695143
 31
0.0
  0
LINE
  5
51B5
330
51B2
100
AcDbEntity
  8
0
 62
     0
100
AcDbLine
 10
155.9081024068318
 20
196.319254951643
 30
0.0
 11
157.6720199103079
 21
198.0831724551191
 31
0.0
  0
LINE
  5
51B6
330
51B2
100
AcDbEntity
  8
0
 62
     0
100
AcDbLine
 10
154.7325052418034
 20
196.4906962047749
 30
0.0
 11
156.4964227452795
 21
198.254613708251
 31
0.0
  0
LINE
  5
51B7
330
51B2
100
AcDbEntity
  8
0
 62
     0
100
AcDbLine
 10
153.556908076775
 20
196.6621374579069
 30
0.0
 11
155.3208255802511
 21
198.426054961383
 31
0.0
  0
LINE
  5
51B8
330
51B2
100
AcDbEntity
  8
0
 62
     0
100
AcDbLine
 10
152.3813109117465
 20
196.8335787110388
 30
0.0
 11
154.1452284152226
 21
198.5974962145149
 31
0.0
  0
LINE
  5
51B9
330
51B2
100
AcDbEntity
  8
0
 62
     0
100
AcDbLine
 10
151.2057137467181
 20
197.0050199641708
 30
0.0
 11
151.239401092705
 21
197.0387073101576
 31
0.0
  0
LINE
  5
51BA
330
51B2
100
AcDbEntity
  8
0
 62
     0
100
AcDbLine
 10
151.239401092705
 20
197.0387073101577
 30
0.0
 11
152.9696312501942
 21
198.7689374676469
 31
0.0
  0
LINE
  5
51BB
330
51B2
100
AcDbEntity
  8
0
 62
     0
100
AcDbLine
 10
150.0301165816896
 20
197.1764612173027
 30
0.0
 11
151.239401092705
 21
198.385745728318
 31
0.0
  0
LINE
  5
51BC
330
51B2
100
AcDbEntity
  8
0
 62
     0
100
AcDbLine
 10
151.239401092705
 20
198.385745728318
 30
0.0
 11
151.7940340851659
 21
198.9403787207788
 31
0.0
  0
LINE
  5
51BD
330
51B2
100
AcDbEntity
  8
0
 62
     0
100
AcDbLine
 10
149.239401092705
 20
197.7327841464784
 30
0.0
 11
150.6184369201374
 21
199.1118199739109
 31
0.0
  0
LINE
  5
51BE
330
51B2
100
AcDbEntity
  8
0
 62
     0
100
AcDbLine
 10
150.6184369201374
 20
199.1118199739109
 30
0.0
 11
151.239401092705
 21
199.7327841464784
 31
0.0
  0
LINE
  5
51BF
330
51B2
100
AcDbEntity
  8
0
 62
     0
100
AcDbLine
 10
149.239401092705
 20
199.0798225646388
 30
0.0
 11
149.442839755109
 21
199.2832612270428
 31
0.0
  0
LINE
  5
51C0
330
51B2
100
AcDbEntity
  8
0
 62
     0
100
AcDbLine
 10
149.442839755109
 20
199.2832612270428
 30
0.0
 11
151.239401092705
 21
201.0798225646388
 31
0.0
  0
LINE
  5
51C1
330
51B2
100
AcDbEntity
  8
0
 62
     0
100
AcDbLine
 10
149.239401092705
 20
200.4268609827992
 30
0.0
 11
151.239401092705
 21
202.4268609827992
 31
0.0
  0
LINE
  5
51C2
330
51B2
100
AcDbEntity
  8
0
 62
     0
100
AcDbLine
 10
149.239401092705
 20
201.7738994009596
 30
0.0
 11
151.1116367290535
 21
203.6461350373081
 31
0.0
  0
LINE
  5
51C3
330
51B2
100
AcDbEntity
  8
0
 62
     0
100
AcDbLine
 10
149.239401092705
 20
203.1209378191199
 30
0.0
 11
149.7645983108931
 21
203.6461350373081
 31
0.0
  0
LINE
  5
51C4
330
51B2
100
AcDbEntity
  8
0
 62
     0
100
AcDbLine
 10
149.239401092705
 20
151.9334779290258
 30
0.0
 11
150.3027695924509
 21
152.9968464287716
 31
0.0
  0
LINE
  5
51C5
330
51B2
100
AcDbEntity
  8
0
 62
     0
100
AcDbLine
 10
149.239401092705
 20
150.5864395108654
 30
0.0
 11
149.5135593824772
 21
150.8605978006375
 31
0.0
  0
LINE
  5
51C6
330
51B2
100
AcDbEntity
  8
0
 62
     0
100
AcDbLine
 10
151.239401092705
 20
152.5864395108653
 30
0.0
 11
151.8797901794064
 21
153.2268285975668
 31
0.0
  0
LINE
  5
51C7
330
51B2
100
AcDbEntity
  8
0
 62
     0
100
AcDbLine
 10
149.5135593824771
 20
150.8605978006375
 30
0.0
 11
151.239401092705
 21
152.5864395108653
 31
0.0
  0
LINE
  5
51C8
330
51B2
100
AcDbEntity
  8
0
 62
     0
100
AcDbLine
 10
149.239401092705
 20
149.239401092705
 30
0.0
 11
151.0905799694326
 21
151.0905799694326
 31
0.0
  0
LINE
  5
51C9
330
51B2
100
AcDbEntity
  8
0
 62
     0
100
AcDbLine
 10
151.239401092705
 20
151.239401092705
 30
0.0
 11
153.4568107663618
 21
153.4568107663618
 31
0.0
  0
LINE
  5
51CA
330
51B2
100
AcDbEntity
  8
0
 62
     0
100
AcDbLine
 10
151.0905799694326
 20
151.0905799694326
 30
0.0
 11
151.239401092705
 21
151.239401092705
 31
0.0
  0
LINE
  5
51CB
330
51B2
100
AcDbEntity
  8
0
 62
     0
100
AcDbLine
 10
149.239401092705
 20
147.8923626745446
 30
0.0
 11
151.239401092705
 21
149.8923626745446
 31
0.0
  0
LINE
  5
51CC
330
51B2
100
AcDbEntity
  8
0
 62
     0
100
AcDbLine
 10
152.667600556388
 20
151.3205621382276
 30
0.0
 11
155.0338313533172
 21
153.6867929351568
 31
0.0
  0
LINE
  5
51CD
330
51B2
100
AcDbEntity
  8
0
 62
     0
100
AcDbLine
 10
149.239401092705
 20
146.5453242563842
 30
0.0
 11
151.239401092705
 21
148.5453242563842
 31
0.0
  0
LINE
  5
51CE
330
51B2
100
AcDbEntity
  8
0
 62
     0
100
AcDbLine
 10
154.2446211433435
 20
151.5505443070227
 30
0.0
 11
156.6108519402726
 21
153.9167751039518
 31
0.0
  0
LINE
  5
51CF
330
51B2
100
AcDbEntity
  8
0
 62
     0
100
AcDbLine
 10
150.5285238147552
 20
146.487408560274
 30
0.0
 11
151.239401092705
 21
147.1982858382239
 31
0.0
  0
LINE
  5
51D0
330
51B2
100
AcDbEntity
  8
0
 62
     0
100
AcDbLine
 10
155.8216417302988
 20
151.7805264758177
 30
0.0
 11
158.0838087428636
 21
154.0426934883825
 31
0.0
  0
LINE
  5
51D1
330
51B2
100
AcDbEntity
  8
0
 62
     0
100
AcDbLine
 10
157.3986623172542
 20
152.0105086446128
 30
0.0
 11
158.0838087428636
 21
152.6956550702221
 31
0.0
  0
ENDBLK
  5
51D2
330
51B2
100
AcDbEntity
  8
0
100
AcDbBlockEnd
  0
BLOCK
  5
54FC
330
54FB
100
AcDbEntity
  8
0
100
AcDbBlockBegin
  2
*X21
 70
     1
 10
0.0
 20
0.0
 30
0.0
  3
*X21
  1

  0
LINE
  5
54FD
330
54FB
100
AcDbEntity
  8
0
 62
     0
100
AcDbLine
 10
87.50000000000005
 20
206.4883936041663
 30
0.0
 11
90.50000000000002
 21
209.4883936041663
 31
0.0
  0
LINE
  5
54FE
330
54FB
100
AcDbEntity
  8
0
 62
     0
100
AcDbLine
 10
87.50000000000005
 20
208.7334576344336
 30
0.0
 11
90.50000000000002
 21
211.7334576344336
 31
0.0
  0
LINE
  5
54FF
330
54FB
100
AcDbEntity
  8
0
 62
     0
100
AcDbLine
 10
87.50000000000005
 20
210.9785216647008
 30
0.0
 11
93.20261525912343
 21
216.6811369238243
 31
0.0
  0
LINE
  5
5500
330
54FB
100
AcDbEntity
  8
0
 62
     0
100
AcDbLine
 10
87.50000000000005
 20
213.2235856949681
 30
0.0
 11
94.43352055508976
 21
220.1571062500579
 31
0.0
  0
LINE
  5
5501
330
54FB
100
AcDbEntity
  8
0
 62
     0
100
AcDbLine
 10
87.50000000000005
 20
215.4686497252354
 30
0.0
 11
95.6644258510561
 21
223.6330755762915
 31
0.0
  0
LINE
  5
5502
330
54FB
100
AcDbEntity
  8
0
 62
     0
100
AcDbLine
 10
87.50000000000005
 20
217.7137137555027
 30
0.0
 11
96.89533114702243
 21
227.1090449025252
 31
0.0
  0
LINE
  5
5503
330
54FB
100
AcDbEntity
  8
0
 62
     0
100
AcDbLine
 10
87.50000000000005
 20
219.95877778577
 30
0.0
 11
98.12623644298881
 21
230.5850142287588
 31
0.0
  0
LINE
  5
5504
330
54FB
100
AcDbEntity
  8
0
 62
     0
100
AcDbLine
 10
88.68100792547712
 20
223.3848497415144
 30
0.0
 11
99.3571417389551
 21
234.0609835549924
 31
0.0
  0
LINE
  5
5505
330
54FB
100
AcDbEntity
  8
0
 62
     0
100
AcDbLine
 10
89.91191322144345
 20
226.860819067748
 30
0.0
 11
100.5880470349214
 21
237.536952881226
 31
0.0
  0
LINE
  5
5506
330
54FB
100
AcDbEntity
  8
0
 62
     0
100
AcDbLine
 10
91.14281851740981
 20
230.3367883939817
 30
0.0
 11
99.8412260824012
 21
239.035195958973
 31
0.0
  0
LINE
  5
5507
330
54FB
100
AcDbEntity
  8
0
 62
     0
100
AcDbLine
 10
99.84122608240122
 20
239.0351959589731
 30
0.0
 11
100.7122805124011
 21
239.906250388973
 31
0.0
  0
LINE
  5
5508
330
54FB
100
AcDbEntity
  8
0
 62
     0
100
AcDbLine
 10
92.37372381337612
 20
233.8127577202152
 30
0.0
 11
97.5961620521339
 21
239.035195958973
 31
0.0
  0
LINE
  5
5509
330
54FB
100
AcDbEntity
  8
0
 62
     0
100
AcDbLine
 10
97.5961620521339
 20
239.0351959589731
 30
0.0
 11
98.46721648213385
 21
239.906250388973
 31
0.0
  0
LINE
  5
550A
330
54FB
100
AcDbEntity
  8
0
 62
     0
100
AcDbLine
 10
93.60462910934243
 20
237.2887270464488
 30
0.0
 11
95.35109802186658
 21
239.035195958973
 31
0.0
  0
LINE
  5
550B
330
54FB
100
AcDbEntity
  8
0
 62
     0
100
AcDbLine
 10
95.35109802186658
 20
239.035195958973
 30
0.0
 11
96.22215245186657
 21
239.906250388973
 31
0.0
  0
LINE
  5
550C
330
54FB
100
AcDbEntity
  8
0
 62
     0
100
AcDbLine
 10
87.50000000000005
 20
204.243329573899
 30
0.0
 11
90.50000000000002
 21
207.2433295738989
 31
0.0
  0
LINE
  5
550D
330
54FB
100
AcDbEntity
  8
0
 62
     0
100
AcDbLine
 10
87.50000000000005
 20
201.9982655436317
 30
0.0
 11
90.5
 21
204.9982655436317
 31
0.0
  0
LINE
  5
550E
330
54FB
100
AcDbEntity
  8
0
 62
     0
100
AcDbLine
 10
87.50000000000005
 20
199.7532015133644
 30
0.0
 11
91.07499999999999
 21
203.3282015133644
 31
0.0
  0
LINE
  5
550F
330
54FB
100
AcDbEntity
  8
0
 62
     0
100
AcDbLine
 10
87.50000000000005
 20
197.5081374830971
 30
0.0
 11
91.07499999999999
 21
201.0831374830972
 31
0.0
  0
LINE
  5
5510
330
54FB
100
AcDbEntity
  8
0
 62
     0
100
AcDbLine
 10
87.50000000000005
 20
195.2630734528298
 30
0.0
 11
91.07499999999999
 21
198.8380734528298
 31
0.0
  0
LINE
  5
5511
330
54FB
100
AcDbEntity
  8
0
 62
     0
100
AcDbLine
 10
87.50000000000005
 20
193.0180094225624
 30
0.0
 11
91.07499999999999
 21
196.5930094225625
 31
0.0
  0
LINE
  5
5512
330
54FB
100
AcDbEntity
  8
0
 62
     0
100
AcDbLine
 10
88.01665249833893
 20
191.289597890634
 30
0.0
 11
91.07499999999999
 21
194.3479453922953
 31
0.0
  0
LINE
  5
5513
330
54FB
100
AcDbEntity
  8
0
 62
     0
100
AcDbLine
 10
89.87836902694503
 20
190.906250388973
 30
0.0
 11
90.16615099908008
 21
191.194032361108
 31
0.0
  0
ENDBLK
  5
5514
330
54FB
100
AcDbEntity
  8
0
100
AcDbBlockEnd
  0
BLOCK
  5
5516
330
5515
100
AcDbEntity
  8
0
100
AcDbBlockBegin
  2
*X22
 70
     1
 10
0.0
 20
0.0
 30
0.0
  3
*X22
  1

  0
LINE
  5
5517
330
5515
100
AcDbEntity
  8
0
 62
     0
100
AcDbLine
 10
112.5
 20
193.3223050896223
 30
0.0
 11
137.5
 21
218.3223050896224
 31
0.0
  0
LINE
  5
5518
330
5515
100
AcDbEntity
  8
0
 62
     0
100
AcDbLine
 10
112.5
 20
195.5673691198896
 30
0.0
 11
136.9824171228732
 21
220.0497862427629
 31
0.0
  0
LINE
  5
5519
330
5515
100
AcDbEntity
  8
0
 62
     0
100
AcDbLine
 10
112.5
 20
197.8124331501568
 30
0.0
 11
134.7373530926059
 21
220.0497862427629
 31
0.0
  0
LINE
  5
551A
330
5515
100
AcDbEntity
  8
0
 62
     0
100
AcDbLine
 10
112.5
 20
200.0574971804242
 30
0.0
 11
132.4922890623386
 21
220.0497862427629
 31
0.0
  0
LINE
  5
551B
330
5515
100
AcDbEntity
  8
0
 62
     0
100
AcDbLine
 10
112.5
 20
202.3025612106915
 30
0.0
 11
130.2472250320714
 21
220.0497862427629
 31
0.0
  0
LINE
  5
551C
330
5515
100
AcDbEntity
  8
0
 62
     0
100
AcDbLine
 10
112.5
 20
204.5476252409588
 30
0.0
 11
128.0021610018041
 21
220.0497862427629
 31
0.0
  0
LINE
  5
551D
330
5515
100
AcDbEntity
  8
0
 62
     0
100
AcDbLine
 10
112.5
 20
206.7926892712261
 30
0.0
 11
125.7570969715368
 21
220.0497862427629
 31
0.0
  0
LINE
  5
551E
330
5515
100
AcDbEntity
  8
0
 62
     0
100
AcDbLine
 10
112.5
 20
209.0377533014934
 30
0.0
 11
123.5120329412695
 21
220.0497862427629
 31
0.0
  0
LINE
  5
551F
330
5515
100
AcDbEntity
  8
0
 62
     0
100
AcDbLine
 10
112.5
 20
211.2828173317607
 30
0.0
 11
121.2669689110022
 21
220.0497862427629
 31
0.0
  0
LINE
  5
5520
330
5515
100
AcDbEntity
  8
0
 62
     0
100
AcDbLine
 10
112.5
 20
213.527881362028
 30
0.0
 11
119.021904880735
 21
220.0497862427629
 31
0.0
  0
LINE
  5
5521
330
5515
100
AcDbEntity
  8
0
 62
     0
100
AcDbLine
 10
112.5
 20
215.7729453922952
 30
0.0
 11
116.7768408504677
 21
220.0497862427629
 31
0.0
  0
LINE
  5
5522
330
5515
100
AcDbEntity
  8
0
 62
     0
100
AcDbLine
 10
112.5
 20
218.0180094225625
 30
0.0
 11
114.5317768202004
 21
220.0497862427629
 31
0.0
  0
LINE
  5
5523
330
5515
100
AcDbEntity
  8
0
 62
     0
100
AcDbLine
 10
113.229009329618
 20
191.8062503889731
 30
0.0
 11
137.5
 21
216.0772410593551
 31
0.0
  0
LINE
  5
5524
330
5515
100
AcDbEntity
  8
0
 62
     0
100
AcDbLine
 10
115.4740733598853
 20
191.8062503889731
 30
0.0
 11
137.5
 21
213.8321770290878
 31
0.0
  0
LINE
  5
5525
330
5515
100
AcDbEntity
  8
0
 62
     0
100
AcDbLine
 10
117.7191373901526
 20
191.8062503889731
 30
0.0
 11
137.5
 21
211.5871129988205
 31
0.0
  0
LINE
  5
5526
330
5515
100
AcDbEntity
  8
0
 62
     0
100
AcDbLine
 10
119.9642014204199
 20
191.8062503889731
 30
0.0
 11
137.5
 21
209.3420489685532
 31
0.0
  0
LINE
  5
5527
330
5515
100
AcDbEntity
  8
0
 62
     0
100
AcDbLine
 10
122.2092654506871
 20
191.8062503889731
 30
0.0
 11
137.5
 21
207.0969849382859
 31
0.0
  0
LINE
  5
5528
330
5515
100
AcDbEntity
  8
0
 62
     0
100
AcDbLine
 10
124.4543294809544
 20
191.8062503889731
 30
0.0
 11
137.5
 21
204.8519209080187
 31
0.0
  0
LINE
  5
5529
330
5515
100
AcDbEntity
  8
0
 62
     0
100
AcDbLine
 10
126.6993935112217
 20
191.8062503889731
 30
0.0
 11
137.5
 21
202.6068568777513
 31
0.0
  0
LINE
  5
552A
330
5515
100
AcDbEntity
  8
0
 62
     0
100
AcDbLine
 10
128.944457541489
 20
191.8062503889731
 30
0.0
 11
137.5
 21
200.3617928474841
 31
0.0
  0
LINE
  5
552B
330
5515
100
AcDbEntity
  8
0
 62
     0
100
AcDbLine
 10
131.1895215717563
 20
191.8062503889731
 30
0.0
 11
137.5
 21
198.1167288172168
 31
0.0
  0
LINE
  5
552C
330
5515
100
AcDbEntity
  8
0
 62
     0
100
AcDbLine
 10
133.4345856020236
 20
191.8062503889731
 30
0.0
 11
137.5
 21
195.8716647869495
 31
0.0
  0
LINE
  5
552D
330
5515
100
AcDbEntity
  8
0
 62
     0
100
AcDbLine
 10
135.6796496322909
 20
191.806250388973
 30
0.0
 11
137.5
 21
193.6266007566822
 31
0.0
  0
LINE
  5
552E
330
5515
100
AcDbEntity
  8
0
 62
     0
100
AcDbLine
 10
137.5
 20
192.5244124492913
 30
0.0
 11
112.5
 21
217.5244124492913
 31
0.0
  0
LINE
  5
552F
330
5515
100
AcDbEntity
  8
0
 62
     0
100
AcDbLine
 10
135.9730980300509
 20
191.8062503889731
 30
0.0
 11
112.5
 21
215.279348419024
 31
0.0
  0
LINE
  5
5530
330
5515
100
AcDbEntity
  8
0
 62
     0
100
AcDbLine
 10
133.7280339997836
 20
191.8062503889731
 30
0.0
 11
112.5
 21
213.0342843887568
 31
0.0
  0
LINE
  5
5531
330
5515
100
AcDbEntity
  8
0
 62
     0
100
AcDbLine
 10
131.4829699695164
 20
191.8062503889731
 30
0.0
 11
112.5
 21
210.7892203584894
 31
0.0
  0
LINE
  5
5532
330
5515
100
AcDbEntity
  8
0
 62
     0
100
AcDbLine
 10
129.2379059392491
 20
191.8062503889731
 30
0.0
 11
112.5
 21
208.5441563282222
 31
0.0
  0
LINE
  5
5533
330
5515
100
AcDbEntity
  8
0
 62
     0
100
AcDbLine
 10
126.9928419089818
 20
191.8062503889731
 30
0.0
 11
112.5
 21
206.2990922979548
 31
0.0
  0
LINE
  5
5534
330
5515
100
AcDbEntity
  8
0
 62
     0
100
AcDbLine
 10
124.7477778787145
 20
191.8062503889731
 30
0.0
 11
112.5
 21
204.0540282676876
 31
0.0
  0
LINE
  5
5535
330
5515
100
AcDbEntity
  8
0
 62
     0
100
AcDbLine
 10
122.5027138484472
 20
191.8062503889731
 30
0.0
 11
112.5
 21
201.8089642374202
 31
0.0
  0
LINE
  5
5536
330
5515
100
AcDbEntity
  8
0
 62
     0
100
AcDbLine
 10
120.2576498181799
 20
191.8062503889731
 30
0.0
 11
112.5
 21
199.563900207153
 31
0.0
  0
LINE
  5
5537
330
5515
100
AcDbEntity
  8
0
 62
     0
100
AcDbLine
 10
118.0125857879126
 20
191.8062503889731
 30
0.0
 11
112.5
 21
197.3188361768857
 31
0.0
  0
LINE
  5
5538
330
5515
100
AcDbEntity
  8
0
 62
     0
100
AcDbLine
 10
115.7675217576454
 20
191.8062503889731
 30
0.0
 11
112.5
 21
195.0737721466184
 31
0.0
  0
LINE
  5
5539
330
5515
100
AcDbEntity
  8
0
 62
     0
100
AcDbLine
 10
113.522457727378
 20
191.8062503889731
 30
0.0
 11
112.5
 21
192.8287081163511
 31
0.0
  0
LINE
  5
553A
330
5515
100
AcDbEntity
  8
0
 62
     0
100
AcDbLine
 10
137.5
 20
194.7694764795585
 30
0.0
 11
112.5
 21
219.7694764795586
 31
0.0
  0
LINE
  5
553B
330
5515
100
AcDbEntity
  8
0
 62
     0
100
AcDbLine
 10
137.5
 20
197.0145405098259
 30
0.0
 11
114.464754267063
 21
220.0497862427629
 31
0.0
  0
LINE
  5
553C
330
5515
100
AcDbEntity
  8
0
 62
     0
100
AcDbLine
 10
137.5
 20
199.2596045400931
 30
0.0
 11
116.7098182973302
 21
220.0497862427629
 31
0.0
  0
LINE
  5
553D
330
5515
100
AcDbEntity
  8
0
 62
     0
100
AcDbLine
 10
137.5
 20
201.5046685703604
 30
0.0
 11
118.9548823275975
 21
220.0497862427629
 31
0.0
  0
LINE
  5
553E
330
5515
100
AcDbEntity
  8
0
 62
     0
100
AcDbLine
 10
137.5
 20
203.7497326006277
 30
0.0
 11
121.1999463578648
 21
220.0497862427629
 31
0.0
  0
LINE
  5
553F
330
5515
100
AcDbEntity
  8
0
 62
     0
100
AcDbLine
 10
137.5
 20
205.994796630895
 30
0.0
 11
123.4450103881321
 21
220.0497862427629
 31
0.0
  0
LINE
  5
5540
330
5515
100
AcDbEntity
  8
0
 62
     0
100
AcDbLine
 10
137.5
 20
208.2398606611624
 30
0.0
 11
125.6900744183994
 21
220.0497862427629
 31
0.0
  0
LINE
  5
5541
330
5515
100
AcDbEntity
  8
0
 62
     0
100
AcDbLine
 10
137.5
 20
210.4849246914296
 30
0.0
 11
127.9351384486667
 21
220.0497862427629
 31
0.0
  0
LINE
  5
5542
330
5515
100
AcDbEntity
  8
0
 62
     0
100
AcDbLine
 10
137.5
 20
212.7299887216969
 30
0.0
 11
130.180202478934
 21
220.0497862427629
 31
0.0
  0
LINE
  5
5543
330
5515
100
AcDbEntity
  8
0
 62
     0
100
AcDbLine
 10
137.5
 20
214.9750527519642
 30
0.0
 11
132.4252665092013
 21
220.0497862427629
 31
0.0
  0
LINE
  5
5544
330
5515
100
AcDbEntity
  8
0
 62
     0
100
AcDbLine
 10
137.5
 20
217.2201167822314
 30
0.0
 11
134.6703305394685
 21
220.0497862427629
 31
0.0
  0
LINE
  5
5545
330
5515
100
AcDbEntity
  8
0
 62
     0
100
AcDbLine
 10
137.5
 20
219.4651808124987
 30
0.0
 11
136.9153945697358
 21
220.0497862427628
 31
0.0
  0
ENDBLK
  5
5546
330
5515
100
AcDbEntity
  8
0
100
AcDbBlockEnd
  0
BLOCK
  5
5548
330
5547
100
AcDbEntity
  8
0
100
AcDbBlockBegin
  2
*D23
 70
     1
 10
0.0
 20
0.0
 30
0.0
  3
*D23
  1

  0
LINE
  5
5549
330
5547
100
AcDbEntity
  8
BEMASSUNG
 62
     0
370
    -2
100
AcDbLine
 10
146.9511600140659
 20
213.5966255209554
 30
0.0
 11
146.9511600140659
 21
228.8824089920131
 31
0.0
  0
LINE
  5
554A
330
5547
100
AcDbEntity
  8
BEMASSUNG
 62
     0
370
    -2
100
AcDbLine
 10
147.4511793874305
 20
213.5966736992535
 30
0.0
 11
147.4511793874305
 21
228.8824089920131
 31
0.0
  0
LINE
  5
554B
330
5547
100
AcDbEntity
  8
BEMASSUNG
 62
     0
370
    -2
100
AcDbLine
 10
143.4511600140659
 20
226.8824089920131
 30
0.0
 11
139.9511600140659
 21
226.8824089920131
 31
0.0
  0
LINE
  5
554C
330
5547
100
AcDbEntity
  8
BEMASSUNG
 62
     0
370
    -2
100
AcDbLine
 10
150.9511793874305
 20
226.8824089920131
 30
0.0
 11
154.4511793874305
 21
226.8824089920131
 31
0.0
  0
MTEXT
  5
554D
330
5547
100
AcDbEntity
  8
BEMASSUNG
 62
     0
100
AcDbMText
 10
142.115232623536
 20
231.7913159526496
 30
0.0
 40
3.5
 41
0.0
 71
     5
 72
     1
  1
\A1;0.5
  7
ROMANS
 73
     1
 44
1.0
1001
ACAD
1000
MTEXTBEGIN
1070
    73
1070
     1
1070
    44
1040
1.0
1070
    74
1070
     0
1000
MTEXTEND
  0
LINE
  5
554E
330
5547
100
AcDbEntity
  8
BEMASSUNG
 62
     0
370
    -2
100
AcDbLine
 10
146.9511600140659
 20
226.8824089920131
 30
0.0
 11
147.4511793874305
 21
226.8824089920131
 31
0.0
  0
SOLID
  5
554F
330
5547
100
AcDbEntity
  8
BEMASSUNG
 62
     0
100
AcDbTrace
 10
143.4511600140659
 20
227.4657423253465
 30
0.0
 11
143.4511600140659
 21
226.2990756586797
 31
0.0
 12
146.9511600140659
 22
226.8824089920131
 32
0.0
 13
146.9511600140659
 23
226.8824089920131
 33
0.0
  0
SOLID
  5
5550
330
5547
100
AcDbEntity
  8
BEMASSUNG
 62
     0
100
AcDbTrace
 10
150.9511793874305
 20
227.4657423253465
 30
0.0
 11
150.9511793874305
 21
226.2990756586797
 31
0.0
 12
147.4511793874305
 22
226.8824089920131
 32
0.0
 13
147.4511793874305
 23
226.8824089920131
 33
0.0
  0
POINT
  5
5551
330
5547
100
AcDbEntity
  8
DEFPOINTS
 62
     0
100
AcDbPoint
 10
146.9511600140659
 20
213.0966255209554
 30
0.0
  0
POINT
  5
5552
330
5547
100
AcDbEntity
  8
DEFPOINTS
 62
     0
100
AcDbPoint
 10
147.4511793874305
 20
213.0966736992535
 30
0.0
  0
POINT
  5
5553
330
5547
100
AcDbEntity
  8
DEFPOINTS
 62
     0
100
AcDbPoint
 10
147.4511793874305
 20
226.8824089920131
 30
0.0
  0
ENDBLK
  5
5554
330
5547
100
AcDbEntity
  8
0
100
AcDbBlockEnd
  0
BLOCK
  5
5556
330
5555
100
AcDbEntity
  8
0
100
AcDbBlockBegin
  2
*X24
 70
     1
 10
0.0
 20
0.0
 30
0.0
  3
*X24
  1

  0
LINE
  5
5557
330
5555
100
AcDbEntity
  8
0
 62
     0
100
AcDbLine
 10
157.0836995718602
 20
196.147813698511
 30
0.0
 11
158.0838087428635
 21
197.1479228695143
 31
0.0
  0
LINE
  5
5558
330
5555
100
AcDbEntity
  8
0
 62
     0
100
AcDbLine
 10
155.9081024068318
 20
196.319254951643
 30
0.0
 11
157.6720199103079
 21
198.0831724551191
 31
0.0
  0
LINE
  5
5559
330
5555
100
AcDbEntity
  8
0
 62
     0
100
AcDbLine
 10
154.7325052418034
 20
196.4906962047749
 30
0.0
 11
156.4964227452795
 21
198.254613708251
 31
0.0
  0
LINE
  5
555A
330
5555
100
AcDbEntity
  8
0
 62
     0
100
AcDbLine
 10
153.556908076775
 20
196.6621374579069
 30
0.0
 11
155.3208255802511
 21
198.426054961383
 31
0.0
  0
LINE
  5
555B
330
5555
100
AcDbEntity
  8
0
 62
     0
100
AcDbLine
 10
152.3813109117465
 20
196.8335787110388
 30
0.0
 11
154.1452284152226
 21
198.5974962145149
 31
0.0
  0
LINE
  5
555C
330
5555
100
AcDbEntity
  8
0
 62
     0
100
AcDbLine
 10
151.2057137467181
 20
197.0050199641708
 30
0.0
 11
151.239401092705
 21
197.0387073101576
 31
0.0
  0
LINE
  5
555D
330
5555
100
AcDbEntity
  8
0
 62
     0
100
AcDbLine
 10
151.239401092705
 20
197.0387073101577
 30
0.0
 11
152.9696312501942
 21
198.7689374676469
 31
0.0
  0
LINE
  5
555E
330
5555
100
AcDbEntity
  8
0
 62
     0
100
AcDbLine
 10
150.0301165816896
 20
197.1764612173027
 30
0.0
 11
151.239401092705
 21
198.385745728318
 31
0.0
  0
LINE
  5
555F
330
5555
100
AcDbEntity
  8
0
 62
     0
100
AcDbLine
 10
151.239401092705
 20
198.385745728318
 30
0.0
 11
151.7940340851659
 21
198.9403787207788
 31
0.0
  0
LINE
  5
5560
330
5555
100
AcDbEntity
  8
0
 62
     0
100
AcDbLine
 10
149.239401092705
 20
197.7327841464784
 30
0.0
 11
150.6184369201374
 21
199.1118199739109
 31
0.0
  0
LINE
  5
5561
330
5555
100
AcDbEntity
  8
0
 62
     0
100
AcDbLine
 10
150.6184369201374
 20
199.1118199739109
 30
0.0
 11
151.239401092705
 21
199.7327841464784
 31
0.0
  0
LINE
  5
5562
330
5555
100
AcDbEntity
  8
0
 62
     0
100
AcDbLine
 10
149.239401092705
 20
199.0798225646388
 30
0.0
 11
149.442839755109
 21
199.2832612270428
 31
0.0
  0
LINE
  5
5563
330
5555
100
AcDbEntity
  8
0
 62
     0
100
AcDbLine
 10
149.442839755109
 20
199.2832612270428
 30
0.0
 11
151.239401092705
 21
201.0798225646388
 31
0.0
  0
LINE
  5
5564
330
5555
100
AcDbEntity
  8
0
 62
     0
100
AcDbLine
 10
149.239401092705
 20
200.4268609827992
 30
0.0
 11
151.239401092705
 21
202.4268609827992
 31
0.0
  0
LINE
  5
5565
330
5555
100
AcDbEntity
  8
0
 62
     0
100
AcDbLine
 10
149.239401092705
 20
201.7738994009596
 30
0.0
 11
151.1116367290535
 21
203.6461350373081
 31
0.0
  0
LINE
  5
5566
330
5555
100
AcDbEntity
  8
0
 62
     0
100
AcDbLine
 10
149.239401092705
 20
203.1209378191199
 30
0.0
 11
149.7645983108931
 21
203.6461350373081
 31
0.0
  0
LINE
  5
5567
330
5555
100
AcDbEntity
  8
0
 62
     0
100
AcDbLine
 10
149.239401092705
 20
151.9334779290258
 30
0.0
 11
150.3027695924509
 21
152.9968464287716
 31
0.0
  0
LINE
  5
5568
330
5555
100
AcDbEntity
  8
0
 62
     0
100
AcDbLine
 10
149.239401092705
 20
150.5864395108654
 30
0.0
 11
149.5135593824772
 21
150.8605978006375
 31
0.0
  0
LINE
  5
5569
330
5555
100
AcDbEntity
  8
0
 62
     0
100
AcDbLine
 10
151.239401092705
 20
152.5864395108653
 30
0.0
 11
151.8797901794064
 21
153.2268285975668
 31
0.0
  0
LINE
  5
556A
330
5555
100
AcDbEntity
  8
0
 62
     0
100
AcDbLine
 10
149.5135593824771
 20
150.8605978006375
 30
0.0
 11
151.239401092705
 21
152.5864395108653
 31
0.0
  0
LINE
  5
556B
330
5555
100
AcDbEntity
  8
0
 62
     0
100
AcDbLine
 10
149.239401092705
 20
149.239401092705
 30
0.0
 11
151.0905799694326
 21
151.0905799694326
 31
0.0
  0
LINE
  5
556C
330
5555
100
AcDbEntity
  8
0
 62
     0
100
AcDbLine
 10
151.239401092705
 20
151.239401092705
 30
0.0
 11
153.4568107663618
 21
153.4568107663618
 31
0.0
  0
LINE
  5
556D
330
5555
100
AcDbEntity
  8
0
 62
     0
100
AcDbLine
 10
151.0905799694326
 20
151.0905799694326
 30
0.0
 11
151.239401092705
 21
151.239401092705
 31
0.0
  0
LINE
  5
556E
330
5555
100
AcDbEntity
  8
0
 62
     0
100
AcDbLine
 10
149.239401092705
 20
147.8923626745446
 30
0.0
 11
151.239401092705
 21
149.8923626745446
 31
0.0
  0
LINE
  5
556F
330
5555
100
AcDbEntity
  8
0
 62
     0
100
AcDbLine
 10
152.667600556388
 20
151.3205621382276
 30
0.0
 11
155.0338313533172
 21
153.6867929351568
 31
0.0
  0
LINE
  5
5570
330
5555
100
AcDbEntity
  8
0
 62
     0
100
AcDbLine
 10
149.239401092705
 20
146.5453242563842
 30
0.0
 11
151.239401092705
 21
148.5453242563842
 31
0.0
  0
LINE
  5
5571
330
5555
100
AcDbEntity
  8
0
 62
     0
100
AcDbLine
 10
154.2446211433435
 20
151.5505443070227
 30
0.0
 11
156.6108519402726
 21
153.9167751039518
 31
0.0
  0
LINE
  5
5572
330
5555
100
AcDbEntity
  8
0
 62
     0
100
AcDbLine
 10
150.5285238147552
 20
146.487408560274
 30
0.0
 11
151.239401092705
 21
147.1982858382239
 31
0.0
  0
LINE
  5
5573
330
5555
100
AcDbEntity
  8
0
 62
     0
100
AcDbLine
 10
155.8216417302988
 20
151.7805264758177
 30
0.0
 11
158.0838087428636
 21
154.0426934883825
 31
0.0
  0
LINE
  5
5574
330
5555
100
AcDbEntity
  8
0
 62
     0
100
AcDbLine
 10
157.3986623172542
 20
152.0105086446128
 30
0.0
 11
158.0838087428636
 21
152.6956550702221
 31
0.0
  0
ENDBLK
  5
5575
330
5555
100
AcDbEntity
  8
0
100
AcDbBlockEnd
  0
BLOCK
  5
58A6
330
589A
100
AcDbEntity
  8
0
100
AcDbBlockBegin
  2
*D25
 70
     1
 10
0.0
 20
0.0
 30
0.0
  3
*D25
  1

  0
LINE
  5
58A8
330
589A
100
AcDbEntity
  8
BEMASSUNG
 62
     0
370
    -2
100
AcDbLine
 10
142.9996009446113
 20
212.1221216671643
 30
0.0
 11
142.9996009446113
 21
232.3168120988586
 31
0.0
  0
LINE
  5
58A9
330
589A
100
AcDbEntity
  8
BEMASSUNG
 62
     0
370
    -2
100
AcDbLine
 10
143.499620317976
 20
212.1221698454625
 30
0.0
 11
143.499620317976
 21
232.3168120988586
 31
0.0
  0
LINE
  5
58AA
330
589A
100
AcDbEntity
  8
BEMASSUNG
 62
     0
370
    -2
100
AcDbLine
 10
146.999620317976
 20
230.3168120988586
 30
0.0
 11
150.499620317976
 21
230.3168120988586
 31
0.0
  0
LINE
  5
58AB
330
589A
100
AcDbEntity
  8
BEMASSUNG
 62
     0
370
    -2
100
AcDbLine
 10
139.4996009446113
 20
230.3168120988586
 30
0.0
 11
126.4996009446113
 21
230.3168120988586
 31
0.0
  0
LINE
  5
58AC
330
589A
100
AcDbEntity
  8
BEMASSUNG
 62
     0
370
    -2
100
AcDbLine
 10
143.499620317976
 20
230.3168120988586
 30
0.0
 11
142.9996009446113
 21
230.3168120988586
 31
0.0
  0
SOLID
  5
58AD
330
589A
100
AcDbEntity
  8
BEMASSUNG
 62
     0
100
AcDbTrace
 10
146.999620317976
 20
230.9001454321919
 30
0.0
 11
146.999620317976
 21
229.7334787655252
 31
0.0
 12
143.499620317976
 22
230.3168120988586
 32
0.0
 13
143.499620317976
 23
230.3168120988586
 33
0.0
  0
SOLID
  5
58AE
330
589A
100
AcDbEntity
  8
BEMASSUNG
 62
     0
100
AcDbTrace
 10
139.4996009446113
 20
230.9001454321919
 30
0.0
 11
139.4996009446113
 21
229.7334787655252
 31
0.0
 12
142.9996009446113
 22
230.3168120988586
 32
0.0
 13
142.9996009446113
 23
230.3168120988586
 33
0.0
  0
MTEXT
  5
58AF
330
589A
100
AcDbEntity
  8
BEMASSUNG
 62
     0
100
AcDbMText
 10
131.2496009446113
 20
234.0668120988586
 30
0.0
 40
3.5
 41
0.0
 71
     5
 72
     1
  1
\A1;0.5
  7
ROMANS
 73
     1
 44
1.0
1001
ACAD
1000
MTEXTBEGIN
1070
    73
1070
     1
1070
    44
1040
1.0
1070
    74
1070
     0
1000
MTEXTEND
  0
POINT
  5
58B0
330
589A
100
AcDbEntity
  8
DEFPOINTS
 62
     0
100
AcDbPoint
 10
142.9996009446113
 20
211.6221216671644
 30
0.0
  0
POINT
  5
58B1
330
589A
100
AcDbEntity
  8
DEFPOINTS
 62
     0
100
AcDbPoint
 10
143.499620317976
 20
211.6221698454625
 30
0.0
  0
POINT
  5
58B2
330
589A
100
AcDbEntity
  8
DEFPOINTS
 62
     0
100
AcDbPoint
 10
143.499620317976
 20
230.3168120988586
 30
0.0
  0
ENDBLK
  5
58A7
330
589A
100
AcDbEntity
  8
0
100
AcDbBlockEnd
  0
BLOCK
  5
58B5
330
58B3
100
AcDbEntity
  8
0
100
AcDbBlockBegin
  2
A$C69932470
 70
     0
 10
0.0
 20
0.0
 30
0.0
  3
A$C69932470
  1

  0
INSERT
  5
58B4
330
58B3
100
AcDbEntity
  8
HILFSLINIEN1
100
AcDbBlockReference
  2
Spannbacke
 10
-76.95065668249242
 20
-115.902676173406
 30
0.0
  0
ENDBLK
  5
58B6
330
58B3
100
AcDbEntity
  8
0
100
AcDbBlockEnd
  0
BLOCK
  5
58DC
330
58DA
100
AcDbEntity
  8
0
100
AcDbBlockBegin
  2
A$C167B21A6
 70
     0
 10
0.0
 20
0.0
 30
0.0
  3
A$C167B21A6
  1

  0
INSERT
  5
58DB
330
58DA
100
AcDbEntity
  8
HILFSLINIEN1
100
AcDbBlockReference
  2
Spannbacke
 10
-76.95065668249242
 20
-115.902676173406
 30
0.0
  0
ENDBLK
  5
58DD
330
58DA
100
AcDbEntity
  8
0
100
AcDbBlockEnd
  0
BLOCK
  5
5B2D
330
5B23
100
AcDbEntity
  8
0
100
AcDbBlockBegin
  2
*D28
 70
     1
 10
0.0
 20
0.0
 30
0.0
  3
*D28
  1

  0
LINE
  5
5C18
330
5B23
100
AcDbEntity
  8
2
 62
     0
370
    -2
100
AcDbLine
 10
85.80001937693156
 20
17.55574053485071
 30
0.0
 11
85.80001937693156
 21
54.48508690933015
 31
0.0
  0
LINE
  5
5C19
330
5B23
100
AcDbEntity
  8
2
 62
     0
370
    -2
100
AcDbLine
 10
0.0
 20
0.5
 30
0.0
 11
0.0000000000000033
 21
54.48508690933015
 31
0.0
  0
LINE
  5
5C1A
330
5B23
100
AcDbEntity
  8
2
 62
     0
370
    -2
100
AcDbLine
 10
82.30001937693156
 20
52.48508690933014
 30
0.0
 11
3.500000000000003
 21
52.48508690933014
 31
0.0
  0
SOLID
  5
5C1B
330
5B23
100
AcDbEntity
  8
2
 62
     0
100
AcDbTrace
 10
82.30001937693156
 20
53.06842024266348
 30
0.0
 11
82.30001937693156
 21
51.90175357599681
 31
0.0
 12
85.80001937693156
 22
52.48508690933014
 32
0.0
 13
85.80001937693156
 23
52.48508690933014
 33
0.0
  0
SOLID
  5
5C1C
330
5B23
100
AcDbEntity
  8
2
 62
     0
100
AcDbTrace
 10
3.500000000000003
 20
53.06842024266348
 30
0.0
 11
3.500000000000003
 21
51.90175357599681
 31
0.0
 12
0.0000000000000032
 22
52.48508690933014
 32
0.0
 13
0.0000000000000032
 23
52.48508690933014
 33
0.0
  0
MTEXT
  5
5C1D
330
5B23
100
AcDbEntity
  8
2
 62
     0
100
AcDbMText
 10
42.90000968846578
 20
56.23508690933014
 30
0.0
 40
3.5
 41
0.0
 71
     5
 72
     1
  1
\A1;86
  7
ROMANS
 73
     1
 44
1.0
1001
ACAD
1000
MTEXTBEGIN
1070
    73
1070
     1
1070
    44
1040
1.0
1070
    74
1070
     0
1000
MTEXTEND
  0
POINT
  5
5C1E
330
5B23
100
AcDbEntity
  8
DEFPOINTS
 62
     0
100
AcDbPoint
 10
85.80001937693156
 20
17.05574053485071
 30
0.0
  0
POINT
  5
5C1F
330
5B23
100
AcDbEntity
  8
DEFPOINTS
 62
     0
100
AcDbPoint
 10
0.0
 20
0.0
 30
0.0
  0
POINT
  5
5C20
330
5B23
100
AcDbEntity
  8
DEFPOINTS
 62
     0
100
AcDbPoint
 10
0.0000000000000032
 20
52.48508690933014
 30
0.0
  0
ENDBLK
  5
5B2E
330
5B23
100
AcDbEntity
  8
0
100
AcDbBlockEnd
  0
BLOCK
  5
5B3A
330
5B30
100
AcDbEntity
  8
0
100
AcDbBlockBegin
  2
*D29
 70
     1
 10
0.0
 20
0.0
 30
0.0
  3
*D29
  1

  0
LINE
  5
5B93
330
5B30
100
AcDbEntity
  8
2
 62
     0
370
    -2
100
AcDbLine
 10
66.443555227155
 20
-24.99999999999989
 30
0.0
 11
121.418222275173
 21
-24.99999999999991
 31
0.0
  0
LINE
  5
5B94
330
5B30
100
AcDbEntity
  8
2
 62
     0
370
    -2
100
AcDbLine
 10
66.44355522715506
 20
25.00000000000011
 30
0.0
 11
121.418222275173
 21
25.0000000000001
 31
0.0
  0
LINE
  5
5B95
330
5B30
100
AcDbEntity
  8
2
 62
     0
370
    -2
100
AcDbLine
 10
119.418222275173
 20
-21.4999999999999
 30
0.0
 11
119.418222275173
 21
21.5000000000001
 31
0.0
  0
SOLID
  5
5B96
330
5B30
100
AcDbEntity
  8
2
 62
     0
100
AcDbTrace
 10
118.8348889418396
 20
-21.4999999999999
 30
0.0
 11
120.0015556085063
 21
-21.49999999999991
 31
0.0
 12
119.418222275173
 22
-24.9999999999999
 32
0.0
 13
119.418222275173
 23
-24.9999999999999
 33
0.0
  0
SOLID
  5
5B97
330
5B30
100
AcDbEntity
  8
2
 62
     0
100
AcDbTrace
 10
118.8348889418396
 20
21.5000000000001
 30
0.0
 11
120.0015556085063
 21
21.5000000000001
 31
0.0
 12
119.418222275173
 22
25.0000000000001
 32
0.0
 13
119.418222275173
 23
25.0000000000001
 33
0.0
  0
MTEXT
  5
5B98
330
5B30
100
AcDbEntity
  8
2
 62
     0
100
AcDbMText
 10
115.6682222751729
 20
0.0000000000001175
 30
0.0
 40
3.5
 41
0.0
 71
     5
 72
     1
  1
\A1;%%c50
  7
ROMANS
 11
0.0000000000000001
 21
1.0
 31
0.0
 73
     1
 44
1.0
1001
ACAD
1000
MTEXTBEGIN
1070
    73
1070
     1
1070
    44
1040
1.0
1070
    74
1070
     0
1000
MTEXTEND
  0
POINT
  5
5B99
330
5B30
100
AcDbEntity
  8
DEFPOINTS
 62
     0
100
AcDbPoint
 10
65.943555227155
 20
-24.99999999999989
 30
0.0
  0
POINT
  5
5B9A
330
5B30
100
AcDbEntity
  8
DEFPOINTS
 62
     0
100
AcDbPoint
 10
65.94355522715506
 20
25.00000000000011
 30
0.0
  0
POINT
  5
5B9B
330
5B30
100
AcDbEntity
  8
DEFPOINTS
 62
     0
100
AcDbPoint
 10
119.418222275173
 20
25.0000000000001
 30
0.0
  0
ENDBLK
  5
5B3B
330
5B30
100
AcDbEntity
  8
0
100
AcDbBlockEnd
  0
BLOCK
  5
5BC7
330
5BBD
100
AcDbEntity
  8
0
100
AcDbBlockBegin
  2
*D30
 70
     1
 10
0.0
 20
0.0
 30
0.0
  3
*D30
  1

  0
LINE
  5
5C21
330
5BBD
100
AcDbEntity
  8
2
 62
     0
370
    -2
100
AcDbLine
 10
0.0
 20
0.4999999999999893
 30
0.0
 11
0.0000000000000041
 21
66.69428252943532
 31
0.0
  0
LINE
  5
5C22
330
5BBD
100
AcDbEntity
  8
2
 62
     0
370
    -2
100
AcDbLine
 10
98.30001937445672
 20
7.114376696995584
 30
0.0
 11
98.30001937445672
 21
66.69428252943532
 31
0.0
  0
LINE
  5
5C23
330
5BBD
100
AcDbEntity
  8
2
 62
     0
370
    -2
100
AcDbLine
 10
3.500000000000003
 20
64.69428252943533
 30
0.0
 11
94.8000193744567
 21
64.69428252943533
 31
0.0
  0
SOLID
  5
5C24
330
5BBD
100
AcDbEntity
  8
2
 62
     0
100
AcDbTrace
 10
3.500000000000003
 20
65.27761586276866
 30
0.0
 11
3.500000000000003
 21
64.11094919610199
 31
0.0
 12
0.000000000000004
 22
64.69428252943533
 32
0.0
 13
0.000000000000004
 23
64.69428252943533
 33
0.0
  0
SOLID
  5
5C25
330
5BBD
100
AcDbEntity
  8
2
 62
     0
100
AcDbTrace
 10
94.8000193744567
 20
65.27761586276866
 30
0.0
 11
94.8000193744567
 21
64.11094919610199
 31
0.0
 12
98.30001937445672
 22
64.69428252943533
 32
0.0
 13
98.30001937445672
 23
64.69428252943533
 33
0.0
  0
MTEXT
  5
5C26
330
5BBD
100
AcDbEntity
  8
2
 62
     0
100
AcDbMText
 10
49.15000968722836
 20
68.44428252943533
 30
0.0
 40
3.5
 41
0.0
 71
     5
 72
     1
  1
\A1;ca 98.5
  7
ROMANS
 73
     1
 44
1.0
1001
ACAD
1000
MTEXTBEGIN
1070
    73
1070
     1
1070
    44
1040
1.0
1070
    74
1070
     0
1000
MTEXTEND
  0
POINT
  5
5C27
330
5BBD
100
AcDbEntity
  8
DEFPOINTS
 62
     0
100
AcDbPoint
 10
0.0
 20
-0.0000000000000107
 30
0.0
  0
POINT
  5
5C28
330
5BBD
100
AcDbEntity
  8
DEFPOINTS
 62
     0
100
AcDbPoint
 10
98.30001937445672
 20
6.614376696995584
 30
0.0
  0
POINT
  5
5C29
330
5BBD
100
AcDbEntity
  8
DEFPOINTS
 62
     0
100
AcDbPoint
 10
98.30001937445672
 20
64.69428252943533
 30
0.0
  0
ENDBLK
  5
5BC8
330
5BBD
100
AcDbEntity
  8
0
100
AcDbBlockEnd
  0
ENDSEC
  0
SECTION
  2
ENTITIES
  0
LINE
  5
5954
330
18
100
AcDbEntity
  8
1
100
AcDbLine
 10
1.600000000000022
 20
-22.458332257639
 30
0.0
 11
-67.37316827158577
 21
-12.39974522397924
 31
0.0
  0
LINE
  5
5955
330
18
100
AcDbEntity
  8
1
100
AcDbLine
 10
1.600000000000022
 20
22.45833440875185
 30
0.0
 11
-67.37316827158577
 21
12.39974737509209
 31
0.0
  0
LINE
  5
595B
330
18
100
AcDbEntity
  8
1
100
AcDbLine
 10
7.117671517457949
 20
31.77500107555645
 30
0.0
 11
3.200000000000044
 21
31.77500107555645
 31
0.0
  0
LINE
  5
595C
330
18
100
AcDbEntity
  8
1
100
AcDbLine
 10
7.117671517457949
 20
-31.77499892444359
 30
0.0
 11
3.200000000000044
 21
-31.77499892444359
 31
0.0
  0
LINE
  5
5964
330
18
100
AcDbEntity
  8
1
100
AcDbLine
 10
21.30000000000013
 20
-23.99995182170173
 30
0.0
 11
21.30000000000007
 21
24.00004817829827
 31
0.0
  0
LINE
  5
5966
330
18
100
AcDbEntity
  8
1
100
AcDbLine
 10
19.60000000000008
 20
-23.99995182170176
 30
0.0
 11
21.3000193733651
 21
-23.99995182170173
 31
0.0
  0
LINE
  5
5967
330
18
100
AcDbEntity
  8
1
100
AcDbLine
 10
19.10000000000002
 20
-31.77499892444359
 30
0.0
 11
19.10000000000008
 21
-24.49995182170176
 31
0.0
  0
LINE
  5
5968
330
18
100
AcDbEntity
  8
1
100
AcDbLine
 10
12.97500000000002
 20
-28.12499892444362
 30
0.0
 11
15.08232848254215
 21
-31.77499892444359
 31
0.0
  0
LINE
  5
5969
330
18
100
AcDbEntity
  8
1
100
AcDbLine
 10
19.10000000000002
 20
-31.77499892444359
 30
0.0
 11
15.08232848254215
 21
-31.77499892444359
 31
0.0
  0
LINE
  5
596A
330
18
100
AcDbEntity
  8
1
100
AcDbLine
 10
9.225000000000024
 20
-28.12499892444359
 30
0.0
 11
7.117671517457949
 21
-31.77499892444359
 31
0.0
  0
LINE
  5
596B
330
18
100
AcDbEntity
  8
1
100
AcDbLine
 10
12.97500000000002
 20
-28.12499892444362
 30
0.0
 11
9.225000000000024
 21
-28.12499892444359
 31
0.0
  0
ARC
  5
596D
330
18
100
AcDbEntity
  8
1
100
AcDbCircle
 10
19.60000000000008
 20
-24.49995182170176
 30
0.0
 40
0.5
100
AcDbArc
 50
90.00000000000083
 51
180.0
1001
ACAD
1000
ASC_BOUNDS
1002
{
1070
    19
1005
0
1002
}
  0
LINE
  5
5970
330
18
100
AcDbEntity
  8
1
100
AcDbLine
 10
19.60000000000002
 20
24.0000481782983
 30
0.0
 11
21.3000193733651
 21
24.00004817829827
 31
0.0
  0
LINE
  5
5972
330
18
100
AcDbEntity
  8
1
100
AcDbLine
 10
12.97500000000002
 20
28.12500107555647
 30
0.0
 11
15.08232848254215
 21
31.77500107555645
 31
0.0
  0
LINE
  5
5973
330
18
100
AcDbEntity
  8
1
100
AcDbLine
 10
19.10000000000002
 20
31.77500107555645
 30
0.0
 11
19.10000000000002
 21
24.5000481782983
 31
0.0
  0
ARC
  5
5975
330
18
100
AcDbEntity
  8
1
100
AcDbCircle
 10
19.60000000000002
 20
24.5000481782983
 30
0.0
 40
0.5
100
AcDbArc
 50
180.0
 51
269.9999999999992
1001
ACAD
1000
ASC_BOUNDS
1002
{
1070
    19
1005
0
1002
}
  0
LINE
  5
5976
330
18
100
AcDbEntity
  8
1
100
AcDbLine
 10
19.10000000000002
 20
31.77500107555645
 30
0.0
 11
15.08232848254215
 21
31.77500107555645
 31
0.0
  0
LINE
  5
5979
330
18
100
AcDbEntity
  8
1
100
AcDbLine
 10
9.225000000000024
 20
28.12500107555644
 30
0.0
 11
7.117671517457949
 21
31.77500107555645
 31
0.0
  0
LINE
  5
597A
330
18
100
AcDbEntity
  8
1
100
AcDbLine
 10
12.97500000000002
 20
28.12500107555647
 30
0.0
 11
9.225000000000024
 21
28.12500107555644
 31
0.0
  0
LINE
  5
5981
330
18
100
AcDbEntity
  8
1
100
AcDbLine
 10
3.200000000000044
 20
-31.77499892444359
 30
0.0
 11
3.199999999999988
 21
-22.09999892444361
 31
0.0
  0
LINE
  5
5982
330
18
100
AcDbEntity
  8
1
100
AcDbLine
 10
3.200000000000044
 20
-22.09999892444361
 30
0.0
 11
1.600000000000022
 21
-22.09999892444361
 31
0.0
  0
LINE
  5
5983
330
18
100
AcDbEntity
  8
1
100
AcDbLine
 10
1.600000000000022
 20
-22.458332257639
 30
0.0
 11
1.600000000000022
 21
-22.09999892444361
 31
0.0
  0
LINE
  5
5999
330
18
100
AcDbEntity
  8
1
100
AcDbLine
 10
3.200000000000044
 20
31.77500107555645
 30
0.0
 11
3.199999999999988
 21
22.10000107555647
 31
0.0
  0
LINE
  5
599A
330
18
100
AcDbEntity
  8
1
100
AcDbLine
 10
3.200000000000044
 20
22.10000107555647
 30
0.0
 11
1.600000000000022
 21
22.10000107555647
 31
0.0
  0
LINE
  5
599B
330
18
100
AcDbEntity
  8
1
100
AcDbLine
 10
1.600000000000022
 20
22.45833440875185
 30
0.0
 11
1.600000000000022
 21
22.10000107555647
 31
0.0
  0
LINE
  5
599C
330
18
100
AcDbEntity
  8
1
100
AcDbLine
 10
-68.39999999999992
 20
11.21230779780154
 30
0.0
 11
-68.39999999999995
 21
0.0000010755564404
 31
0.0
  0
LINE
  5
599D
330
18
100
AcDbEntity
  8
1
100
AcDbLine
 10
-68.39999999999992
 20
-11.21230564668869
 30
0.0
 11
-68.39999999999995
 21
0.0000010755564119
 31
0.0
  0
ARC
  5
599E
330
18
100
AcDbEntity
  8
1
100
AcDbCircle
 10
-67.19999999999993
 20
-11.21230564668869
 30
0.0
 40
1.199999999999999
100
AcDbArc
 50
180.0
 51
261.7028550349997
  0
ARC
  5
599F
330
18
100
AcDbEntity
  8
1
100
AcDbCircle
 10
-67.19999999999993
 20
11.21230779780154
 30
0.0
 40
1.199999999999999
100
AcDbArc
 50
98.29714496500031
 51
180.0
  0
LINE
  5
59AC
330
18
100
AcDbEntity
  8
1
100
AcDbLine
 10
-68.39999999999995
 20
10.50000107555638
 30
0.0
 11
-68.39999999999998
 21
-10.49999892444361
 31
0.0
  0
LINE
  5
59BA
330
18
100
AcDbEntity
  8
1
100
AcDbLine
 10
36.80001937336476
 20
-23.99999999999989
 30
0.0
 11
28.80001937336539
 21
-23.99999999999989
 31
0.0
  0
LINE
  5
59CB
330
18
100
AcDbEntity
  8
1
100
AcDbLine
 10
28.80001937336533
 20
-20.89999999999986
 30
0.0
 11
23.80001937336533
 21
-20.89999999999986
 31
0.0
  0
LINE
  5
59CC
330
18
100
AcDbEntity
  8
1
100
AcDbLine
 10
28.80001937336539
 20
-23.99999999999989
 30
0.0
 11
28.80001937336539
 21
-20.89999999999986
 31
0.0
  0
LINE
  5
59D6
330
18
100
AcDbEntity
  8
1
100
AcDbLine
 10
23.80001937336539
 20
-23.99999999999989
 30
0.0
 11
23.80001937336533
 21
-20.89999999999986
 31
0.0
  0
LINE
  5
59D7
330
18
100
AcDbEntity
  8
1
100
AcDbLine
 10
21.8000193733655
 20
-23.99999999999989
 30
0.0
 11
21.80001937336539
 21
-19.99999999999988
 31
0.0
  0
LINE
  5
59D8
330
18
100
AcDbEntity
  8
1
100
AcDbLine
 10
23.80001937336544
 20
-23.99999999999989
 30
0.0
 11
21.8000193733655
 21
-23.99999999999989
 31
0.0
  0
LINE
  5
59DB
330
18
100
AcDbEntity
  8
1
100
AcDbLine
 10
21.80001937336539
 20
-19.99999999999988
 30
0.0
 11
21.30000000000007
 21
-19.9999999999999
 31
0.0
  0
LINE
  5
59E0
330
18
100
AcDbEntity
  8
1
100
AcDbLine
 10
21.80001937336476
 20
20.00000000000011
 30
0.0
 11
21.80001937336476
 21
24.00000000000011
 31
0.0
1001
ACAD
1000
ASC_BOUNDS
1002
{
1070
    19
1002
}
  0
LINE
  5
59E5
330
18
100
AcDbEntity
  8
1
100
AcDbLine
 10
36.80001937336476
 20
24.00000000000011
 30
0.0
 11
28.80001937336476
 21
24.00000000000011
 31
0.0
  0
LINE
  5
59E7
330
18
100
AcDbEntity
  8
1
100
AcDbLine
 10
28.80001937336482
 20
20.90000000000015
 30
0.0
 11
23.80001937336482
 21
20.90000000000015
 31
0.0
  0
LINE
  5
59E8
330
18
100
AcDbEntity
  8
1
100
AcDbLine
 10
28.80001937336482
 20
20.90000000000009
 30
0.0
 11
28.80001937336476
 21
24.00000000000017
 31
0.0
1001
ACAD
1000
ASC_BOUNDS
1002
{
1070
    19
1002
}
  0
LINE
  5
59EC
330
18
100
AcDbEntity
  8
1
100
AcDbLine
 10
23.80001937336482
 20
20.90000000000015
 30
0.0
 11
23.80001937336476
 21
24.00000000000011
 31
0.0
1001
ACAD
1000
ASC_BOUNDS
1002
{
1070
    19
1002
}
  0
LINE
  5
59EE
330
18
100
AcDbEntity
  8
1
100
AcDbLine
 10
21.80001937336476
 20
20.00000000000011
 30
0.0
 11
21.30000000000007
 21
20.00000000000011
 31
0.0
  0
LINE
  5
59EF
330
18
100
AcDbEntity
  8
1
100
AcDbLine
 10
23.80001937336476
 20
24.00000000000011
 30
0.0
 11
21.80001937336476
 21
24.00000000000011
 31
0.0
  0
LINE
  5
5A23
330
18
100
AcDbEntity
  8
1
100
AcDbLine
 10
65.94355522715506
 20
25.00000000000011
 30
0.0
 11
37.70001937336508
 21
25.00000000000011
 31
0.0
1001
ACAD
1000
ASC_BOUNDS
1002
{
1070
    19
1002
}
  0
LINE
  5
5A26
330
18
100
AcDbEntity
  8
1
100
AcDbLine
 10
65.943555227155
 20
-24.99999999999989
 30
0.0
 11
37.70001937336508
 21
-24.99999999999989
 31
0.0
  0
LINE
  5
5A28
330
18
100
AcDbEntity
  8
1
100
AcDbLine
 10
85.80001937693142
 20
-17.05574053485071
 30
0.0
 11
85.80001937336504
 21
17.05574053985077
 31
0.0
  0
LINE
  5
5A2A
330
18
100
AcDbEntity
  8
1
100
AcDbLine
 10
84.92896494336504
 20
-18.2769138123852
 30
0.0
 11
65.943555227155
 21
-24.99999999999989
 31
0.0
  0
LINE
  5
5A2D
330
18
100
AcDbEntity
  8
1
100
AcDbLine
 10
84.92896494336504
 20
-18.2769138123852
 30
0.0
 11
85.80001937693142
 21
-17.05574053485071
 31
0.0
  0
LINE
  5
5A37
330
18
100
AcDbEntity
  8
1
100
AcDbLine
 10
84.92896494336511
 20
18.27691381238526
 30
0.0
 11
65.943555227155
 21
25.00000000000011
 31
0.0
1001
ACAD
1000
ASC_BOUNDS
1002
{
1070
    19
1002
}
  0
LINE
  5
5A38
330
18
100
AcDbEntity
  8
1
100
AcDbLine
 10
84.9289649433652
 20
18.2769138123852
 30
0.0
 11
85.80001937693156
 21
17.05574053485071
 31
0.0
  0
LINE
  5
5A3C
330
18
100
AcDbEntity
  8
1
100
AcDbLine
 10
36.8000193733651
 20
-24.09999999999991
 30
0.0
 11
37.70001937336508
 21
-24.99999999999989
 31
0.0
  0
LINE
  5
5A3E
330
18
100
AcDbEntity
  8
1
100
AcDbLine
 10
36.8000193733651
 20
24.10000000000008
 30
0.0
 11
37.70001937336508
 21
25.00000000000011
 31
0.0
  0
LINE
  5
5A90
330
18
100
AcDbEntity
  8
SK4
100
AcDbLine
 10
100.8400402189842
 20
-0.0000000000000284
 30
0.0
 11
-73.39999999999992
 21
0.0
 31
0.0
  0
LINE
  5
5A95
330
18
100
AcDbEntity
  8
1
100
AcDbLine
 10
36.8000193733651
 20
24.10000000000008
 30
0.0
 11
36.8000193733651
 21
-24.09999999999991
 31
0.0
  0
LINE
  5
5B0D
330
18
100
AcDbEntity
  8
1
100
AcDbLine
 10
85.80001937630262
 20
-11.04085885297573
 30
0.0
 11
98.30001937514825
 21
-6.614376696750754
 31
0.0
  0
LINE
  5
5B0F
330
18
100
AcDbEntity
  8
1
100
AcDbLine
 10
98.30001937514825
 20
-6.614376696750754
 30
0.0
 11
98.30001937514825
 21
-0.0000000000000292
 31
0.0
  0
LINE
  5
5B1F
330
18
100
AcDbEntity
  8
1
100
AcDbLine
 10
85.80001937399391
 20
11.04085885379322
 30
0.0
 11
98.30001937514825
 21
6.614376696750694
 31
0.0
  0
LINE
  5
5B20
330
18
100
AcDbEntity
  8
1
100
AcDbLine
 10
98.30001937514825
 20
6.614376696750694
 30
0.0
 11
98.30001937514825
 21
-0.0000000000000292
 31
0.0
  0
DIMENSION
  5
5B22
330
18
100
AcDbEntity
  8
2
100
AcDbDimension
  2
*D28
 10
0.0000000000000032
 20
52.48508690933014
 30
0.0
 11
42.90000968846578
 21
56.23508690933014
 31
0.0
 70
    32
 71
     5
 42
85.80001937693156
  3
STANDARD
100
AcDbAlignedDimension
 13
85.80001937693156
 23
17.05574053485071
 33
0.0
 14
0.0
 24
0.0
 34
0.0
100
AcDbRotatedDimension
1001
ACAD
1000
DSTYLE
1002
{
1070
   271
1070
     0
1002
}
  0
DIMENSION
  5
5B2F
330
18
100
AcDbEntity
  8
2
100
AcDbDimension
  2
*D29
 10
119.418222275173
 20
25.0000000000001
 30
0.0
 11
115.6682222751729
 21
0.0000000000001175
 31
0.0
 70
    32
  1
%%c<>
 71
     5
 42
50.0
  3
STANDARD
100
AcDbAlignedDimension
 13
65.943555227155
 23
-24.99999999999989
 33
0.0
 14
65.94355522715506
 24
25.00000000000011
 34
0.0
 50
90.0
100
AcDbRotatedDimension
  0
DIMENSION
  5
5BBC
330
18
100
AcDbEntity
  8
2
100
AcDbDimension
  2
*D30
 10
98.30001937445672
 20
64.69428252943533
 30
0.0
 11
49.15000968722836
 21
68.44428252943533
 31
0.0
 70
    32
  1
ca 98.5
 71
     5
 42
98.30001937445672
  3
STANDARD
100
AcDbAlignedDimension
 13
0.0
 23
-0.0000000000000107
 33
0.0
 14
98.30001937445672
 24
6.614376696995584
 34
0.0
100
AcDbRotatedDimension
1001
ACAD
1000
DSTYLE
1002
{
1070
   271
1070
     1
1002
}
  0
ENDSEC
  0
SECTION
  2
OBJECTS
  0
DICTIONARY
  5
C
330
0
100
AcDbDictionary
281
     1
  3
ACAD_COLOR
350
4F46
  3
ACAD_GROUP
350
D
  3
ACAD_LAYOUT
350
766
  3
ACAD_MATERIAL
350
4F45
  3
ACAD_MLINESTYLE
350
E
  3
ACAD_PLOTSETTINGS
350
767
  3
ACAD_PLOTSTYLENAME
350
764
  3
ACAD_TABLESTYLE
350
4F47
  3
ACDBHEADERROUNDTRIPXREC
350
5C37
  3
AcDbVariableDictionary
350
1F78
  0
DICTIONARY
  5
5016
330
2
100
AcDbDictionary
280
     1
281
     1
  3
ACAD_LAYERFILTERS
360
501C
  3
ACLYDICTIONARY
360
501B
  0
DICTIONARY
  5
4FB3
330
18
100
AcDbDictionary
280
     1
281
     1
  3
ACAD_SORTENTS
360
4FB4
  0
DICTIONARY
  5
4F46
102
{ACAD_REACTORS
330
C
102
}
330
C
100
AcDbDictionary
281
     1
  0
DICTIONARY
  5
D
102
{ACAD_REACTORS
330
C
102
}
330
C
100
AcDbDictionary
281
     1
  0
DICTIONARY
  5
766
102
{ACAD_REACTORS
330
C
102
}
330
C
100
AcDbDictionary
281
     1
  3
Layout1
350
769
  3
Model
350
768
  0
DICTIONARY
  5
4F45
102
{ACAD_REACTORS
330
C
102
}
330
C
100
AcDbDictionary
281
     1
  0
DICTIONARY
  5
E
102
{ACAD_REACTORS
330
C
102
}
330
C
100
AcDbDictionary
281
     1
  3
STANDARD
350
1B
  0
DICTIONARY
  5
767
102
{ACAD_REACTORS
330
C
102
}
330
C
100
AcDbDictionary
281
     1
  0
ACDBDICTIONARYWDFLT
  5
764
102
{ACAD_REACTORS
330
C
102
}
330
C
100
AcDbDictionary
281
     1
  3
Normal
350
765
100
AcDbDictionaryWithDefault
340
765
  0
DICTIONARY
  5
4F47
102
{ACAD_REACTORS
330
C
102
}
330
C
100
AcDbDictionary
281
     1
  3
Standard
350
4F48
  0
DICTIONARY
  5
5C37
102
{ACAD_REACTORS
330
C
102
}
330
C
100
AcDbDictionary
281
     1
  0
DICTIONARY
  5
1F78
102
{ACAD_REACTORS
330
C
102
}
330
C
100
AcDbDictionary
281
     1
  3
CTABLESTYLE
350
4F4D
  3
DIMASSOC
350
4F4E
  3
PROJECTNAME
350
4F4F
  3
SORTENTS
350
1F79
  0
DICTIONARY
  5
501C
102
{ACAD_REACTORS
330
5016
102
}
330
5016
100
AcDbDictionary
281
     1
  0
DICTIONARY
  5
501B
102
{ACAD_REACTORS
330
5016
102
}
330
5016
100
AcDbDictionary
281
     1
1001
ACAD
1000
<All
  0
SORTENTSTABLE
  5
4FB4
102
{ACAD_REACTORS
330
4FB3
102
}
330
4FB3
100
AcDbSortentsTable
330
18
331
5976
  5
5976
331
5964
  5
5964
331
5975
  5
5975
331
5973
  5
5973
331
5972
  5
5972
331
5A3E
  5
5A3E
331
5970
  5
5970
331
5B0F
  5
5B0F
331
5A3C
  5
5A3C
331
595C
  5
595C
331
5B0D
  5
5B0D
331
595B
  5
595B
331
5BBC
  5
5BBC
331
5A38
  5
5A38
331
5A37
  5
5A37
331
5955
  5
5955
331
5954
  5
5954
331
5B2F
  5
5B2F
331
5A95
  5
5A95
331
59EF
  5
59EF
331
59EE
  5
59EE
331
59EC
  5
59EC
331
5A90
  5
5A90
331
5A2D
  5
5A2D
331
5A2A
  5
5A2A
331
59E8
  5
59E8
331
59E7
  5
59E7
331
5A28
  5
5A28
331
59E5
  5
59E5
331
5B22
  5
5B22
331
5A26
  5
5A26
331
59CC
  5
59CC
331
59CB
  5
59CB
331
5B20
  5
5B20
331
5A23
  5
5A23
331
599F
  5
599F
331
599E
  5
599E
331
59E0
  5
59E0
331
599D
  5
599D
331
599C
  5
599C
331
599B
  5
599B
331
599A
  5
599A
331
5999
  5
5999
331
59DB
  5
59DB
331
59BA
  5
59BA
331
59D8
  5
59D8
331
59D7
  5
59D7
331
59D6
  5
59D6
331
5983
  5
5983
331
59AC
  5
59AC
331
5982
  5
5982
331
5981
  5
5981
331
596D
  5
596D
331
596B
  5
596B
331
596A
  5
596A
331
5969
  5
5969
331
5968
  5
5968
331
597A
  5
597A
331
5979
  5
5979
331
5967
  5
5967
331
5B1F
  5
5B1F
331
5966
  5
5966
  0
LAYOUT
  5
769
102
{ACAD_XDICTIONARY
360
5C3A
102
}
102
{ACAD_REACTORS
330
766
102
}
330
766
100
AcDbPlotSettings
  1

  2
C:\Programme\AutoCAD LT 2000i Deu\plotters\HP LJ 6L.pc3
  4

  6

 40
0.0
 41
0.0
 42
0.0
 43
0.0
 44
0.0
 45
0.0
 46
0.0
 47
0.0
 48
0.0
 49
0.0
140
0.0
141
0.0
142
1.0
143
1.0
 70
   688
 72
     0
 73
     0
 74
     5
  7

 75
    16
147
1.0
148
0.0
149
0.0
100
AcDbLayout
  1
Layout1
 70
     1
 71
     1
 10
0.0
 20
0.0
 11
12.0
 21
9.0
 12
0.0
 22
0.0
 32
0.0
 14
1.000000000000000E+20
 24
1.000000000000000E+20
 34
1.000000000000000E+20
 15
-1.000000000000000E+20
 25
-1.000000000000000E+20
 35
-1.000000000000000E+20
146
0.0
 13
0.0
 23
0.0
 33
0.0
 16
1.0
 26
0.0
 36
0.0
 17
0.0
 27
1.0
 37
0.0
 76
     0
330
15
  0
LAYOUT
  5
768
102
{ACAD_XDICTIONARY
360
5C38
102
}
102
{ACAD_REACTORS
330
766
102
}
330
766
100
AcDbPlotSettings
  1

  2
\\ALB-NTSERVER\Plotter A2
  4
User619
  6

 40
0.0
 41
0.0
 42
0.0
 43
0.0
 44
297.0
 45
420.0
 46
0.0
 47
0.0
 48
0.0
 49
0.0
140
0.0
141
0.0
142
1.0
143
1.0
 70
 28336
 72
     1
 73
     1
 74
     2
  7
SW.ctb
 75
    16
147
1.0
148
0.0
149
0.0
100
AcDbLayout
  1
Model
 70
     1
 71
     0
 10
0.0
 20
0.0
 11
12.0
 21
9.0
 12
0.0
 22
0.0
 32
0.0
 14
0.0
 24
0.0
 34
0.0
 15
0.0
 25
0.0
 35
0.0
146
0.0
 13
0.0
 23
0.0
 33
0.0
 16
1.0
 26
0.0
 36
0.0
 17
0.0
 27
1.0
 37
0.0
 76
     0
330
18
  0
MLINESTYLE
  5
1B
102
{ACAD_REACTORS
330
E
102
}
330
E
100
AcDbMlineStyle
  2
STANDARD
 70
     0
  3

 62
     0
 51
90.0
 52
90.0
 71
     2
 49
0.5
 62
   256
  6
BYLAYER
 49
-0.5
 62
   256
  6
BYLAYER
  0
ACDBPLACEHOLDER
  5
765
102
{ACAD_REACTORS
330
764
102
}
330
764
  0
TABLESTYLE
  5
4F48
102
{ACAD_REACTORS
330
4F47
102
}
330
4F47
100
AcDbTableStyle
  3
Standard
 70
     0
 71
     0
 40
0.06
 41
0.06
280
     0
281
     0
  7
STANDARD
140
0.18
170
     2
 62
     0
 63
     7
283
     0
274
    -2
284
     1
 64
     0
275
    -2
285
     1
 65
     0
276
    -2
286
     1
 66
     0
277
    -2
287
     1
 67
     0
278
    -2
288
     1
 68
     0
279
    -2
289
     1
 69
     0
  7
STANDARD
140
0.25
170
     5
 62
     0
 63
     7
283
     0
274
    -2
284
     1
 64
     0
275
    -2
285
     1
 65
     0
276
    -2
286
     1
 66
     0
277
    -2
287
     1
 67
     0
278
    -2
288
     1
 68
     0
279
    -2
289
     1
 69
     0
  7
STANDARD
140
0.18
170
     5
 62
     0
 63
     7
283
     0
274
    -2
284
     1
 64
     0
275
    -2
285
     1
 65
     0
276
    -2
286
     1
 66
     0
277
    -2
287
     1
 67
     0
278
    -2
288
     1
 68
     0
279
    -2
289
     1
 69
     0
  0
DICTIONARYVAR
  5
4F4D
102
{ACAD_REACTORS
330
1F78
102
}
330
1F78
100
DictionaryVariables
280
     0
  1
STANDARD
  0
DICTIONARYVAR
  5
4F4E
102
{ACAD_REACTORS
330
1F78
102
}
330
1F78
100
DictionaryVariables
280
     0
  1
1
  0
DICTIONARYVAR
  5
4F4F
102
{ACAD_REACTORS
330
1F78
102
}
330
1F78
100
DictionaryVariables
280
     0
  1

  0
DICTIONARYVAR
  5
1F79
102
{ACAD_REACTORS
330
1F78
102
}
330
1F78
100
DictionaryVariables
280
     0
  1
96
  0
DICTIONARY
  5
5C3A
330
769
100
AcDbDictionary
280
     1
281
     1
  3
ACAD_XREC_ROUNDTRIP
360
5C3B
  0
DICTIONARY
  5
5C38
330
768
100
AcDbDictionary
280
     1
281
     1
  3
ACAD_XREC_ROUNDTRIP
360
5C39
  0
XRECORD
  5
5C3B
102
{ACAD_REACTORS
330
5C3A
102
}
330
5C3A
100
AcDbXrecord
280
     1
102
SHADEPLOT
 70
     0
102
SHADEPLOTRESLEVEL
 70
     2
102
SHADEPLOTCUSTOMDPI
 70
   300
  0
XRECORD
  5
5C39
102
{ACAD_REACTORS
330
5C38
102
}
330
5C38
100
AcDbXrecord
280
     1
102
SHADEPLOT
 70
     0
102
SHADEPLOTRESLEVEL
 70
     2
102
SHADEPLOTCUSTOMDPI
 70
   300
  0
ENDSEC
  0
EOF
