  0
SECTION
  2
HEADER
  9
$ACADVER
  1
AC1015
  9
$ACADMAINTVER
 70
    20
  9
$DWGCODEPAGE
  3
ANSI_1252
  9
$INSBASE
 10
0.0
 20
0.0
 30
0.0
  9
$EXTMIN
 10
-2.000389497773255
 20
-12.01885871214438
 30
-0.0000000349181948
  9
$EXTMAX
 10
65.04022925030245
 20
44.60960847510295
 30
0.0000000814935747
  9
$LIMMIN
 10
0.0
 20
0.0
  9
$LIMMAX
 10
210.0
 20
297.0
  9
$ORTHOMODE
 70
     0
  9
$REGENMODE
 70
     1
  9
$FILLMODE
 70
     1
  9
$QTEXTMODE
 70
     0
  9
$MIRRTEXT
 70
     1
  9
$LTSCALE
 40
1.0
  9
$ATTMODE
 70
     1
  9
$TEXTSIZE
 40
3.5
  9
$TRACEWID
 40
0.05
  9
$TEXTSTYLE
  7
ROMANS
  9
$CLAYER
  8
SK2
  9
$CELTYPE
  6
ByLayer
  9
$CECOLOR
 62
   256
  9
$CELTSCALE
 40
1.0
  9
$DISPSILH
 70
     0
  9
$DIMSCALE
 40
1.0
  9
$DIMASZ
 40
3.5
  9
$DIMEXO
 40
0.5
  9
$DIMDLI
 40
10.0
  9
$DIMRND
 40
0.0
  9
$DIMDLE
 40
0.0
  9
$DIMEXE
 40
1.5
  9
$DIMTP
 40
0.0
  9
$DIMTM
 40
0.000000001
  9
$DIMTXT
 40
3.5
  9
$DIMCEN
 40
0.5
  9
$DIMTSZ
 40
0.0
  9
$DIMTOL
 70
     0
  9
$DIMLIM
 70
     0
  9
$DIMTIH
 70
     0
  9
$DIMTOH
 70
     0
  9
$DIMSE1
 70
     0
  9
$DIMSE2
 70
     0
  9
$DIMTAD
 70
     1
  9
$DIMZIN
 70
     8
  9
$DIMBLK
  1

  9
$DIMASO
 70
     1
  9
$DIMSHO
 70
     1
  9
$DIMPOST
  1

  9
$DIMAPOST
  1

  9
$DIMALT
 70
     0
  9
$DIMALTD
 70
     2
  9
$DIMALTF
 40
25.4
  9
$DIMLFAC
 40
1.0
  9
$DIMTOFL
 70
     1
  9
$DIMTVP
 40
0.0
  9
$DIMTIX
 70
     0
  9
$DIMSOXD
 70
     0
  9
$DIMSAH
 70
     0
  9
$DIMBLK1
  1

  9
$DIMBLK2
  1

  9
$DIMSTYLE
  2
STANDARD
  9
$DIMCLRD
 70
     0
  9
$DIMCLRE
 70
     0
  9
$DIMCLRT
 70
     0
  9
$DIMTFAC
 40
0.7
  9
$DIMGAP
 40
1.5
  9
$DIMJUST
 70
     0
  9
$DIMSD1
 70
     0
  9
$DIMSD2
 70
     0
  9
$DIMTOLJ
 70
     1
  9
$DIMTZIN
 70
     0
  9
$DIMALTZ
 70
     0
  9
$DIMALTTZ
 70
     0
  9
$DIMUPT
 70
     0
  9
$DIMDEC
 70
     4
  9
$DIMTDEC
 70
     4
  9
$DIMALTU
 70
     2
  9
$DIMALTTD
 70
     2
  9
$DIMTXSTY
  7
STANDARD
  9
$DIMAUNIT
 70
     0
  9
$DIMADEC
 70
     0
  9
$DIMALTRND
 40
0.0
  9
$DIMAZIN
 70
     0
  9
$DIMDSEP
 70
    46
  9
$DIMATFIT
 70
     3
  9
$DIMFRAC
 70
     0
  9
$DIMLDRBLK
  1

  9
$DIMLUNIT
 70
     2
  9
$DIMLWD
 70
    -2
  9
$DIMLWE
 70
    -2
  9
$DIMTMOVE
 70
     0
  9
$LUNITS
 70
     2
  9
$LUPREC
 70
     8
  9
$SKETCHINC
 40
0.1
  9
$FILLETRAD
 40
0.0
  9
$AUNITS
 70
     0
  9
$AUPREC
 70
     8
  9
$MENU
  1
acad
  9
$ELEVATION
 40
0.0
  9
$PELEVATION
 40
0.0
  9
$THICKNESS
 40
0.0
  9
$LIMCHECK
 70
     0
  9
$CHAMFERA
 40
0.0
  9
$CHAMFERB
 40
0.0
  9
$CHAMFERC
 40
0.0
  9
$CHAMFERD
 40
0.0
  9
$SKPOLY
 70
     0
  9
$TDCREATE
 40
2454323.503322408
  9
$TDUCREATE
 40
2454323.419989074
  9
$TDUPDATE
 40
2455818.684101806
  9
$TDUUPDATE
 40
2455818.600768472
  9
$TDINDWG
 40
0.0399920718
  9
$TDUSRTIMER
 40
0.0399001968
  9
$USRTIMER
 70
     1
  9
$ANGBASE
 50
0.0
  9
$ANGDIR
 70
     0
  9
$PDMODE
 70
     0
  9
$PDSIZE
 40
0.0
  9
$PLINEWID
 40
0.0
  9
$SPLFRAME
 70
     0
  9
$SPLINETYPE
 70
     6
  9
$SPLINESEGS
 70
     8
  9
$HANDSEED
  5
1BD7
  9
$SURFTAB1
 70
     6
  9
$SURFTAB2
 70
     6
  9
$SURFTYPE
 70
     6
  9
$SURFU
 70
     6
  9
$SURFV
 70
     6
  9
$UCSBASE
  2

  9
$UCSNAME
  2

  9
$UCSORG
 10
0.0
 20
0.0
 30
0.0
  9
$UCSXDIR
 10
1.0
 20
0.0
 30
0.0
  9
$UCSYDIR
 10
0.0
 20
1.0
 30
0.0
  9
$UCSORTHOREF
  2

  9
$UCSORTHOVIEW
 70
     0
  9
$UCSORGTOP
 10
0.0
 20
0.0
 30
0.0
  9
$UCSORGBOTTOM
 10
0.0
 20
0.0
 30
0.0
  9
$UCSORGLEFT
 10
0.0
 20
0.0
 30
0.0
  9
$UCSORGRIGHT
 10
0.0
 20
0.0
 30
0.0
  9
$UCSORGFRONT
 10
0.0
 20
0.0
 30
0.0
  9
$UCSORGBACK
 10
0.0
 20
0.0
 30
0.0
  9
$PUCSBASE
  2

  9
$PUCSNAME
  2

  9
$PUCSORG
 10
0.0
 20
0.0
 30
0.0
  9
$PUCSXDIR
 10
1.0
 20
0.0
 30
0.0
  9
$PUCSYDIR
 10
0.0
 20
1.0
 30
0.0
  9
$PUCSORTHOREF
  2

  9
$PUCSORTHOVIEW
 70
     0
  9
$PUCSORGTOP
 10
0.0
 20
0.0
 30
0.0
  9
$PUCSORGBOTTOM
 10
0.0
 20
0.0
 30
0.0
  9
$PUCSORGLEFT
 10
0.0
 20
0.0
 30
0.0
  9
$PUCSORGRIGHT
 10
0.0
 20
0.0
 30
0.0
  9
$PUCSORGFRONT
 10
0.0
 20
0.0
 30
0.0
  9
$PUCSORGBACK
 10
0.0
 20
0.0
 30
0.0
  9
$USERI1
 70
     0
  9
$USERI2
 70
     0
  9
$USERI3
 70
     0
  9
$USERI4
 70
     0
  9
$USERI5
 70
     0
  9
$USERR1
 40
0.0
  9
$USERR2
 40
0.0
  9
$USERR3
 40
0.0
  9
$USERR4
 40
0.0
  9
$USERR5
 40
0.0
  9
$WORLDVIEW
 70
     1
  9
$SHADEDGE
 70
     3
  9
$SHADEDIF
 70
    70
  9
$TILEMODE
 70
     1
  9
$MAXACTVP
 70
    16
  9
$PINSBASE
 10
0.0
 20
0.0
 30
0.0
  9
$PLIMCHECK
 70
     0
  9
$PEXTMIN
 10
1.000000000000000E+20
 20
1.000000000000000E+20
 30
1.000000000000000E+20
  9
$PEXTMAX
 10
-1.000000000000000E+20
 20
-1.000000000000000E+20
 30
-1.000000000000000E+20
  9
$PLIMMIN
 10
0.0
 20
0.0
  9
$PLIMMAX
 10
12.0
 20
9.0
  9
$UNITMODE
 70
     0
  9
$VISRETAIN
 70
     0
  9
$PLINEGEN
 70
     0
  9
$PSLTSCALE
 70
     1
  9
$TREEDEPTH
 70
  3020
  9
$CMLSTYLE
  2
Standard
  9
$CMLJUST
 70
     0
  9
$CMLSCALE
 40
1.0
  9
$PROXYGRAPHICS
 70
     1
  9
$MEASUREMENT
 70
     0
  9
$CELWEIGHT
370
    -1
  9
$ENDCAPS
280
     0
  9
$JOINSTYLE
280
     0
  9
$LWDISPLAY
290
     0
  9
$INSUNITS
 70
     0
  9
$HYPERLINKBASE
  1

  9
$STYLESHEET
  1

  9
$XEDIT
290
     1
  9
$CEPSNTYPE
380
     0
  9
$PSTYLEMODE
290
     1
  9
$FINGERPRINTGUID
  2
{53D6B4C2-38C6-4C35-A0AF-C68A5008A5ED}
  9
$VERSIONGUID
  2
{A0813FF6-3402-46EF-9670-A71435F085E9}
  9
$EXTNAMES
290
     1
  9
$PSVPSCALE
 40
0.0
  9
$OLESTARTUP
290
     0
  0
ENDSEC
  0
SECTION
  2
CLASSES
  0
CLASS
  1
ACDBDICTIONARYWDFLT
  2
AcDbDictionaryWithDefault
  3
ObjectDBX Classes
 90
        0
280
     0
281
     0
  0
CLASS
  1
TABLESTYLE
  2
AcDbTableStyle
  3
ObjectDBX Classes
 90
     2047
280
     0
281
     0
  0
CLASS
  1
DICTIONARYVAR
  2
AcDbDictionaryVar
  3
ObjectDBX Classes
 90
        0
280
     0
281
     0
  0
CLASS
  1
ACDBPLACEHOLDER
  2
AcDbPlaceHolder
  3
ObjectDBX Classes
 90
        0
280
     0
281
     0
  0
CLASS
  1
LAYOUT
  2
AcDbLayout
  3
ObjectDBX Classes
 90
        0
280
     0
281
     0
  0
CLASS
  1
SORTENTSTABLE
  2
AcDbSortentsTable
  3
ObjectDBX Classes
 90
        0
280
     0
281
     0
  0
ENDSEC
  0
SECTION
  2
TABLES
  0
TABLE
  2
VPORT
  5
1B0A
330
0
100
AcDbSymbolTable
 70
     3
  0
VPORT
  5
1BD1
330
1B0A
100
AcDbSymbolTableRecord
100
AcDbViewportTableRecord
  2
*Active
 70
     0
 10
0.0
 20
0.0
 11
1.0
 21
1.0
 12
103.9998052511133
 22
142.4905706439278
 13
0.0
 23
0.0
 14
1.0
 24
1.0
 15
10.0
 25
10.0
 16
0.0
 26
0.0
 36
1.0
 17
0.0
 27
0.0
 37
0.0
 40
311.226136274374
 41
2.166865315852204
 42
50.0
 43
0.0
 44
0.0
 50
0.0
 51
0.0
 71
     0
 72
   100
 73
     1
 74
     0
 75
     0
 76
     1
 77
     0
 78
     0
281
     0
 65
     0
110
0.0
120
0.0
130
0.0
111
1.0
121
0.0
131
0.0
112
0.0
122
1.0
132
0.0
 79
     0
146
0.0
  0
ENDTAB
  0
TABLE
  2
LTYPE
  5
1B07
330
0
100
AcDbSymbolTable
 70
     5
  0
LTYPE
  5
1B15
330
1B07
100
AcDbSymbolTableRecord
100
AcDbLinetypeTableRecord
  2
ByBlock
 70
     0
  3

 72
    65
 73
     0
 40
0.0
  0
LTYPE
  5
1B16
330
1B07
100
AcDbSymbolTableRecord
100
AcDbLinetypeTableRecord
  2
ByLayer
 70
     0
  3

 72
    65
 73
     0
 40
0.0
  0
LTYPE
  5
1B17
330
1B07
100
AcDbSymbolTableRecord
100
AcDbLinetypeTableRecord
  2
CONTINUOUS
 70
     0
  3
Durchgezogene Linie
 72
    65
 73
     0
 40
0.0
  0
LTYPE
  5
1B2B
330
1B07
100
AcDbSymbolTableRecord
100
AcDbLinetypeTableRecord
  2
MITTE2
 70
     0
  3
___ _ ___ _ ___ _ ___ _ ___ _ ___ _ ___ _ ___ _
 72
    65
 73
     4
 40
28.575
 49
19.05
 74
     0
 49
-3.174999999999998
 74
     0
 49
3.174999999999998
 74
     0
 49
-3.174999999999998
 74
     0
  0
LTYPE
  5
1B2C
330
1B07
100
AcDbSymbolTableRecord
100
AcDbLinetypeTableRecord
  2
VERDECKT2
 70
     0
  3
_ _ _ _ _ _ _ _ _ _ _ _ _ _ _ _ _ _ _ _ _ _ _ _
 72
    65
 73
     2
 40
4.762499999999998
 49
3.174999999999998
 74
     0
 49
-1.587499999999999
 74
     0
  0
LTYPE
  5
1B2D
330
1B07
100
AcDbSymbolTableRecord
100
AcDbLinetypeTableRecord
  2
PHANTOMX2
 70
     0
  3
Phantom (2x) ____________    ____    ____   _
 72
    65
 73
     6
 40
127.0
 49
63.5
 74
     0
 49
-12.7
 74
     0
 49
12.7
 74
     0
 49
-12.7
 74
     0
 49
12.7
 74
     0
 49
-12.7
 74
     0
  0
LTYPE
  5
1B2E
330
1B07
100
AcDbSymbolTableRecord
100
AcDbLinetypeTableRecord
  2
ACAD_ISO10W100
 70
     0
  3
ISO Strichpunktlinie __ . __ . __ . __ . __ . _
 72
    65
 73
     4
 40
18.0
 49
12.0
 74
     0
 49
-3.0
 74
     0
 49
0.0
 74
     0
 49
-3.0
 74
     0
  0
ENDTAB
  0
TABLE
  2
LAYER
  5
1B04
330
0
100
AcDbSymbolTable
 70
    13
  0
LAYER
  5
1B12
330
1B04
100
AcDbSymbolTableRecord
100
AcDbLayerTableRecord
  2
0
 70
     0
 62
     7
  6
CONTINUOUS
370
    -3
390
1B11
  0
LAYER
  5
1B28
330
1B04
100
AcDbSymbolTableRecord
100
AcDbLayerTableRecord
  2
SK2
 70
     0
 62
     7
  6
CONTINUOUS
370
    -3
390
1B11
  0
LAYER
  5
1B2F
330
1B04
100
AcDbSymbolTableRecord
100
AcDbLayerTableRecord
  2
RAHMEN
 70
     0
 62
     7
  6
CONTINUOUS
370
    -3
390
1B11
  0
LAYER
  5
1B30
330
1B04
100
AcDbSymbolTableRecord
100
AcDbLayerTableRecord
  2
KONTUR
 70
     0
 62
     1
  6
CONTINUOUS
370
    -3
390
1B11
  0
LAYER
  5
1B31
330
1B04
100
AcDbSymbolTableRecord
100
AcDbLayerTableRecord
  2
GEWINDE
 70
     0
 62
     2
  6
CONTINUOUS
370
    -3
390
1B11
  0
LAYER
  5
1B32
330
1B04
100
AcDbSymbolTableRecord
100
AcDbLayerTableRecord
  2
TEXT
 70
     0
 62
     2
  6
CONTINUOUS
370
    -3
390
1B11
  0
LAYER
  5
1B33
330
1B04
100
AcDbSymbolTableRecord
100
AcDbLayerTableRecord
  2
SCHRAFFUR
 70
     0
 62
     6
  6
CONTINUOUS
370
    -3
390
1B11
  0
LAYER
  5
1B34
330
1B04
100
AcDbSymbolTableRecord
100
AcDbLayerTableRecord
  2
MITTELLINIEN
 70
     0
 62
     7
  6
MITTE2
370
    -3
390
1B11
  0
LAYER
  5
1B35
330
1B04
100
AcDbSymbolTableRecord
100
AcDbLayerTableRecord
  2
HILFSLINIEN
 70
     0
 62
     5
  6
CONTINUOUS
370
    -3
390
1B11
  0
LAYER
  5
1B36
330
1B04
100
AcDbSymbolTableRecord
100
AcDbLayerTableRecord
  2
DEFPOINTS
 70
     0
 62
     7
  6
CONTINUOUS
290
     0
370
    -3
390
1B11
  0
LAYER
  5
1B37
330
1B04
100
AcDbSymbolTableRecord
100
AcDbLayerTableRecord
  2
HILFSLINIEN1
 70
     0
 62
     8
  6
CONTINUOUS
370
    -3
390
1B11
  0
LAYER
  5
1B38
330
1B04
100
AcDbSymbolTableRecord
100
AcDbLayerTableRecord
  2
1
 70
     0
 62
     4
  6
CONTINUOUS
370
    -3
390
1B11
  0
LAYER
  5
1B39
330
1B04
100
AcDbSymbolTableRecord
100
AcDbLayerTableRecord
  2
SK4
 70
     0
 62
     2
  6
ACAD_ISO10W100
370
    -3
390
1B11
  0
ENDTAB
  0
TABLE
  2
STYLE
  5
1B05
330
0
100
AcDbSymbolTable
 70
     4
  0
STYLE
  5
1B13
330
1B05
100
AcDbSymbolTableRecord
100
AcDbTextStyleTableRecord
  2
STANDARD
 70
     0
 40
0.0
 41
1.0
 50
0.0
 71
     0
 42
5.0
  3
txt
  4

  0
STYLE
  5
1B29
330
1B05
100
AcDbSymbolTableRecord
100
AcDbTextStyleTableRecord
  2
ROMANS
 70
     0
 40
0.0
 41
0.75
 50
0.0
 71
     0
 42
3.5
  3
romans
  4

  0
STYLE
  5
1B3A
330
1B05
100
AcDbSymbolTableRecord
100
AcDbTextStyleTableRecord
  2
ROMAND
 70
     0
 40
0.0
 41
0.75
 50
0.0
 71
     0
 42
3.5
  3
romand
  4

  0
STYLE
  5
1B3B
330
1B05
100
AcDbSymbolTableRecord
100
AcDbTextStyleTableRecord
  2

 70
     1
 40
0.0
 41
1.0
 50
0.0
 71
     0
 42
3.5
  3
ltypeshp.shx
  4

  0
ENDTAB
  0
TABLE
  2
VIEW
  5
1B08
330
0
100
AcDbSymbolTable
 70
     0
  0
ENDTAB
  0
TABLE
  2
UCS
  5
1B09
330
0
100
AcDbSymbolTable
 70
     0
  0
ENDTAB
  0
TABLE
  2
APPID
  5
1B0B
330
0
100
AcDbSymbolTable
 70
     4
  0
APPID
  5
1B14
330
1B0B
100
AcDbSymbolTableRecord
100
AcDbRegAppTableRecord
  2
ACAD
 70
     0
  0
APPID
  5
1B3C
330
1B0B
100
AcDbSymbolTableRecord
100
AcDbRegAppTableRecord
  2
ACAD_PSEXT
 70
     0
  0
APPID
  5
1B3D
330
1B0B
100
AcDbSymbolTableRecord
100
AcDbRegAppTableRecord
  2
ACAECLAYERSTANDARD
 70
     0
  0
APPID
  5
1B3E
330
1B0B
100
AcDbSymbolTableRecord
100
AcDbRegAppTableRecord
  2
ACAD_DSTYLE_DIMTEXT_FILL
 70
     0
  0
ENDTAB
  0
TABLE
  2
DIMSTYLE
  5
1B0C
330
0
100
AcDbSymbolTable
 70
     2
100
AcDbDimStyleTable
 71
     1
340
1B3F
  0
DIMSTYLE
105
1B3F
102
{ACAD_REACTORS
330
19E7
330
1A01
330
1A0E
102
}
330
1B0C
100
AcDbSymbolTableRecord
100
AcDbDimStyleTableRecord
  2
STANDARD
 70
     0
 41
3.5
 42
0.5
 43
10.0
 44
1.5
 48
0.000000001
 73
     0
 74
     0
 77
     1
 78
     8
140
3.5
141
0.5
146
0.7
147
1.5
172
     1
271
     8
272
     8
279
     2
284
     8
285
     8
286
     8
340
1B29
  0
DIMSTYLE
105
1B40
330
1B0C
100
AcDbSymbolTableRecord
100
AcDbDimStyleTableRecord
  2
STANDARD$4
 70
     0
 41
3.5
 42
0.5
 43
10.0
 44
1.5
 48
0.000000001
 73
     0
 77
     1
 78
     8
140
3.5
141
0.5
146
0.7
147
1.5
172
     1
271
     8
272
     8
279
     2
284
     8
285
     8
286
     8
340
1B29
  0
ENDTAB
  0
TABLE
  2
BLOCK_RECORD
  5
1B03
330
0
100
AcDbSymbolTable
 70
    46
  0
BLOCK_RECORD
  5
1B24
102
{ACAD_XDICTIONARY
360
1BC3
102
}
330
1B03
100
AcDbSymbolTableRecord
100
AcDbBlockTableRecord
  2
*Model_Space
340
1B27
  0
BLOCK_RECORD
  5
1B20
330
1B03
100
AcDbSymbolTableRecord
100
AcDbBlockTableRecord
  2
*Paper_Space
340
1B23
  0
BLOCK_RECORD
  5
1B45
330
1B03
100
AcDbSymbolTableRecord
100
AcDbBlockTableRecord
  2
$MODEL_SPACE
340
0
  0
BLOCK_RECORD
  5
1B47
330
1B03
100
AcDbSymbolTableRecord
100
AcDbBlockTableRecord
  2
$PAPER_SPACE
340
0
  0
BLOCK_RECORD
  5
1B49
330
1B03
100
AcDbSymbolTableRecord
100
AcDbBlockTableRecord
  2
A3
340
0
  0
BLOCK_RECORD
  5
1B4B
330
1B03
100
AcDbSymbolTableRecord
100
AcDbBlockTableRecord
  2
KOPF2
340
0
  0
BLOCK_RECORD
  5
1B4D
330
1B03
100
AcDbSymbolTableRecord
100
AcDbBlockTableRecord
  2
KOPF4
340
0
  0
BLOCK_RECORD
  5
1B4F
330
1B03
100
AcDbSymbolTableRecord
100
AcDbBlockTableRecord
  2
ZEICHNUNGS-KOPF1-APRIL-05
340
0
  0
BLOCK_RECORD
  5
1B51
330
1B03
100
AcDbSymbolTableRecord
100
AcDbBlockTableRecord
  2
A3-APRIL-05
340
0
  0
BLOCK_RECORD
  5
1B53
330
1B03
100
AcDbSymbolTableRecord
100
AcDbBlockTableRecord
  2
AENDERUNGS-KOPF1-_1-6_-APR
340
0
  0
BLOCK_RECORD
  5
1B55
330
1B03
100
AcDbSymbolTableRecord
100
AcDbBlockTableRecord
  2
A2-APRIL-05
340
0
  0
BLOCK_RECORD
  5
1B57
330
1B03
100
AcDbSymbolTableRecord
100
AcDbBlockTableRecord
  2
A4-APRIL-05
340
0
  0
BLOCK_RECORD
  5
1B59
330
1B03
100
AcDbSymbolTableRecord
100
AcDbBlockTableRecord
  2
AENDERUNGS-KOPF1-_1-6_
340
0
  0
BLOCK_RECORD
  5
1B5B
330
1B03
100
AcDbSymbolTableRecord
100
AcDbBlockTableRecord
  2
AENDERUNGS-KOPF1-_1-6_-A4-
340
0
  0
BLOCK_RECORD
  5
1B5D
330
1B03
100
AcDbSymbolTableRecord
100
AcDbBlockTableRecord
  2
AENDERUNGS-KOPF1-_1-4_-A4-
340
0
  0
BLOCK_RECORD
  5
1B5F
330
1B03
100
AcDbSymbolTableRecord
100
AcDbBlockTableRecord
  2
A$C12D2
340
0
102
{BLKREFS
331
F3B
102
}
  0
BLOCK_RECORD
  5
1B61
330
1B03
100
AcDbSymbolTableRecord
100
AcDbBlockTableRecord
  2
A$CB2B4
340
0
  0
BLOCK_RECORD
  5
1B63
330
1B03
100
AcDbSymbolTableRecord
100
AcDbBlockTableRecord
  2
*U15
340
0
  0
BLOCK_RECORD
  5
1B65
330
1B03
100
AcDbSymbolTableRecord
100
AcDbBlockTableRecord
  2
*D16
340
0
  0
BLOCK_RECORD
  5
1B67
330
1B03
100
AcDbSymbolTableRecord
100
AcDbBlockTableRecord
  2
*U17
340
0
102
{BLKREFS
331
1332
102
}
  0
BLOCK_RECORD
  5
1B69
330
1B03
100
AcDbSymbolTableRecord
100
AcDbBlockTableRecord
  2
*D18
340
0
  0
BLOCK_RECORD
  5
1B6B
330
1B03
100
AcDbSymbolTableRecord
100
AcDbBlockTableRecord
  2
*U19
340
0
102
{BLKREFS
331
133B
102
}
  0
BLOCK_RECORD
  5
1B6D
330
1B03
100
AcDbSymbolTableRecord
100
AcDbBlockTableRecord
  2
*D20
340
0
  0
BLOCK_RECORD
  5
1B6F
330
1B03
100
AcDbSymbolTableRecord
100
AcDbBlockTableRecord
  2
*U21
340
0
102
{BLKREFS
331
13E4
102
}
  0
BLOCK_RECORD
  5
1B71
330
1B03
100
AcDbSymbolTableRecord
100
AcDbBlockTableRecord
  2
*X22
340
0
  0
BLOCK_RECORD
  5
1B73
330
1B03
100
AcDbSymbolTableRecord
100
AcDbBlockTableRecord
  2
*X23
340
0
  0
BLOCK_RECORD
  5
1B75
330
1B03
100
AcDbSymbolTableRecord
100
AcDbBlockTableRecord
  2
*X24
340
0
  0
BLOCK_RECORD
  5
1B77
330
1B03
100
AcDbSymbolTableRecord
100
AcDbBlockTableRecord
  2
*X25
340
0
  0
BLOCK_RECORD
  5
1B79
330
1B03
100
AcDbSymbolTableRecord
100
AcDbBlockTableRecord
  2
*X26
340
0
  0
BLOCK_RECORD
  5
1B7B
330
1B03
100
AcDbSymbolTableRecord
100
AcDbBlockTableRecord
  2
*X27
340
0
  0
BLOCK_RECORD
  5
1B7D
330
1B03
100
AcDbSymbolTableRecord
100
AcDbBlockTableRecord
  2
*X28
340
0
  0
BLOCK_RECORD
  5
1B7F
330
1B03
100
AcDbSymbolTableRecord
100
AcDbBlockTableRecord
  2
*D29
340
0
  0
BLOCK_RECORD
  5
1B81
330
1B03
100
AcDbSymbolTableRecord
100
AcDbBlockTableRecord
  2
*D30
340
0
  0
BLOCK_RECORD
  5
1B83
330
1B03
100
AcDbSymbolTableRecord
100
AcDbBlockTableRecord
  2
*D31
340
0
  0
BLOCK_RECORD
  5
1B85
330
1B03
100
AcDbSymbolTableRecord
100
AcDbBlockTableRecord
  2
*X32
340
0
  0
BLOCK_RECORD
  5
1B87
330
1B03
100
AcDbSymbolTableRecord
100
AcDbBlockTableRecord
  2
*D33
340
0
  0
BLOCK_RECORD
  5
1B89
330
1B03
100
AcDbSymbolTableRecord
100
AcDbBlockTableRecord
  2
*D34
340
0
  0
BLOCK_RECORD
  5
1B8B
330
1B03
100
AcDbSymbolTableRecord
100
AcDbBlockTableRecord
  2
*D35
340
0
  0
BLOCK_RECORD
  5
1B8D
330
1B03
100
AcDbSymbolTableRecord
100
AcDbBlockTableRecord
  2
*D36
340
0
  0
BLOCK_RECORD
  5
1B8F
330
1B03
100
AcDbSymbolTableRecord
100
AcDbBlockTableRecord
  2
*D37
340
0
  0
BLOCK_RECORD
  5
1B91
330
1B03
100
AcDbSymbolTableRecord
100
AcDbBlockTableRecord
  2
*U38
340
0
102
{BLKREFS
331
19FB
102
}
  0
BLOCK_RECORD
  5
1B93
330
1B03
100
AcDbSymbolTableRecord
100
AcDbBlockTableRecord
  2
*D39
340
0
  0
BLOCK_RECORD
  5
1B95
330
1B03
100
AcDbSymbolTableRecord
100
AcDbBlockTableRecord
  2
*U40
340
0
102
{BLKREFS
331
1A08
102
}
  0
BLOCK_RECORD
  5
1B97
330
1B03
100
AcDbSymbolTableRecord
100
AcDbBlockTableRecord
  2
*D41
340
0
  0
BLOCK_RECORD
  5
1B99
330
1B03
100
AcDbSymbolTableRecord
100
AcDbBlockTableRecord
  2
*U42
340
0
102
{BLKREFS
331
1A20
102
}
  0
BLOCK_RECORD
  5
1B9B
330
1B03
100
AcDbSymbolTableRecord
100
AcDbBlockTableRecord
  2
*D43
340
0
  0
BLOCK_RECORD
  5
1B9E
330
1B03
100
AcDbSymbolTableRecord
100
AcDbBlockTableRecord
  2
*D44
340
0
  0
BLOCK_RECORD
  5
1BC5
330
1B03
100
AcDbSymbolTableRecord
100
AcDbBlockTableRecord
  2
*D45
340
0
  0
ENDTAB
  0
ENDSEC
  0
SECTION
  2
BLOCKS
  0
BLOCK
  5
1B25
330
1B24
100
AcDbEntity
  8
0
100
AcDbBlockBegin
  2
*Model_Space
 70
     0
 10
0.0
 20
0.0
 30
0.0
  3
*Model_Space
  1

  0
ENDBLK
  5
1B26
330
1B24
100
AcDbEntity
  8
0
100
AcDbBlockEnd
  0
BLOCK
  5
1B21
330
1B20
100
AcDbEntity
 67
     1
  8
0
100
AcDbBlockBegin
  2
*Paper_Space
 70
     0
 10
0.0
 20
0.0
 30
0.0
  3
*Paper_Space
  1

  0
ENDBLK
  5
1B22
330
1B20
100
AcDbEntity
 67
     1
  8
0
100
AcDbBlockEnd
  0
BLOCK
  5
1B46
330
1B45
100
AcDbEntity
  8
0
100
AcDbBlockBegin
  2
$MODEL_SPACE
 70
     0
 10
0.0
 20
0.0
 30
0.0
  3
$MODEL_SPACE
  1

  0
ENDBLK
  5
1A6A
330
1B45
100
AcDbEntity
  8
0
100
AcDbBlockEnd
  0
BLOCK
  5
1B48
330
1B47
100
AcDbEntity
  8
0
100
AcDbBlockBegin
  2
$PAPER_SPACE
 70
     0
 10
0.0
 20
0.0
 30
0.0
  3
$PAPER_SPACE
  1

  0
ENDBLK
  5
1A66
330
1B47
100
AcDbEntity
  8
0
100
AcDbBlockEnd
  0
BLOCK
  5
1B4A
330
1B49
100
AcDbEntity
  8
0
100
AcDbBlockBegin
  2
A3
 70
     0
 10
0.0
 20
0.0
 30
0.0
  3
A3
  1

  0
LINE
  5
4E
330
1B49
100
AcDbEntity
  8
RAHMEN
100
AcDbLine
 10
0.0
 20
0.0
 30
0.0
 11
420.0
 21
0.0
 31
0.0
  0
LINE
  5
4F
330
1B49
100
AcDbEntity
  8
RAHMEN
100
AcDbLine
 10
420.0
 20
0.0
 30
0.0
 11
420.0
 21
297.0
 31
0.0
  0
LINE
  5
50
330
1B49
100
AcDbEntity
  8
RAHMEN
100
AcDbLine
 10
420.0
 20
297.0
 30
0.0
 11
0.0
 21
297.0
 31
0.0
  0
LINE
  5
51
330
1B49
100
AcDbEntity
  8
RAHMEN
100
AcDbLine
 10
0.0
 20
297.0
 30
0.0
 11
0.0
 21
0.0
 31
0.0
  0
LINE
  5
52
330
1B49
100
AcDbEntity
  8
0
100
AcDbLine
 10
0.0
 20
0.0
 30
0.0
 11
0.0
 21
0.0
 31
0.0
  0
LINE
  5
53
330
1B49
100
AcDbEntity
  8
RAHMEN
 62
     1
100
AcDbLine
 10
20.0
 20
5.0
 30
0.0
 11
415.0
 21
5.0
 31
0.0
  0
LINE
  5
54
330
1B49
100
AcDbEntity
  8
RAHMEN
 62
     1
100
AcDbLine
 10
415.0
 20
5.0
 30
0.0
 11
415.0
 21
292.0
 31
0.0
  0
LINE
  5
55
330
1B49
100
AcDbEntity
  8
RAHMEN
 62
     1
100
AcDbLine
 10
415.0
 20
292.0
 30
0.0
 11
20.0
 21
292.0
 31
0.0
  0
LINE
  5
56
330
1B49
100
AcDbEntity
  8
RAHMEN
 62
     1
100
AcDbLine
 10
20.0
 20
292.0
 30
0.0
 11
20.0
 21
5.0
 31
0.0
  0
LINE
  5
57
330
1B49
100
AcDbEntity
  8
0
100
AcDbLine
 10
20.0
 20
5.0
 30
0.0
 11
20.0
 21
5.0
 31
0.0
  0
LINE
  5
58
330
1B49
100
AcDbEntity
  8
RAHMEN
100
AcDbLine
 10
230.0
 20
0.0
 30
0.0
 11
230.0
 21
5.0
 31
0.0
  0
LINE
  5
59
330
1B49
100
AcDbEntity
  8
RAHMEN
100
AcDbLine
 10
230.0
 20
292.0
 30
0.0
 11
230.0
 21
297.0
 31
0.0
  0
LINE
  5
5A
330
1B49
100
AcDbEntity
  8
RAHMEN
100
AcDbLine
 10
125.0
 20
0.0
 30
0.0
 11
125.0
 21
5.0
 31
0.0
  0
LINE
  5
5B
330
1B49
100
AcDbEntity
  8
RAHMEN
100
AcDbLine
 10
125.0
 20
292.0
 30
0.0
 11
125.0
 21
297.0
 31
0.0
  0
ENDBLK
  5
5C
330
1B49
100
AcDbEntity
  8
0
100
AcDbBlockEnd
  0
BLOCK
  5
1B4C
330
1B4B
100
AcDbEntity
  8
0
100
AcDbBlockBegin
  2
KOPF2
 70
     2
 10
0.0
 20
0.0
 30
0.0
  3
KOPF2
  1

  0
LINE
  5
5E
330
1B4B
100
AcDbEntity
  8
0
100
AcDbLine
 10
0.0
 20
297.0
 30
0.0
 11
0.0
 21
0.0
 31
0.0
  0
LINE
  5
5F
330
1B4B
100
AcDbEntity
  8
0
100
AcDbLine
 10
0.0
 20
0.0
 30
0.0
 11
0.0
 21
0.0
 31
0.0
  0
LINE
  5
60
330
1B4B
100
AcDbEntity
  8
RAHMEN
100
AcDbLine
 10
0.0
 20
148.5
 30
0.0
 11
4.080403395846737
 21
148.5
 31
0.0
  0
LINE
  5
61
330
1B4B
100
AcDbEntity
  8
HILFSLINIEN
100
AcDbLine
 10
18.75
 20
0.0
 30
0.0
 11
18.75
 21
2.0
 31
0.0
  0
LINE
  5
62
330
1B4B
100
AcDbEntity
  8
HILFSLINIEN
100
AcDbLine
 10
18.75
 20
2.0
 30
0.0
 11
15.0
 21
2.0
 31
0.0
  0
CIRCLE
  5
63
330
1B4B
100
AcDbEntity
  8
TEXT
100
AcDbCircle
 10
16.875
 20
2.0
 30
0.0
 40
1.7
  0
LINE
  5
64
330
1B4B
100
AcDbEntity
  8
HILFSLINIEN
100
AcDbLine
 10
13.75
 20
0.0
 30
0.0
 11
13.75
 21
2.0
 31
0.0
  0
LINE
  5
65
330
1B4B
100
AcDbEntity
  8
HILFSLINIEN
100
AcDbLine
 10
13.75
 20
2.0
 30
0.0
 11
10.0
 21
2.0
 31
0.0
  0
CIRCLE
  5
66
330
1B4B
100
AcDbEntity
  8
TEXT
100
AcDbCircle
 10
11.875
 20
2.0
 30
0.0
 40
1.7
  0
LINE
  5
67
330
1B4B
100
AcDbEntity
  8
HILFSLINIEN
100
AcDbLine
 10
8.75
 20
0.0
 30
0.0
 11
8.75
 21
2.0
 31
0.0
  0
LINE
  5
68
330
1B4B
100
AcDbEntity
  8
HILFSLINIEN
100
AcDbLine
 10
8.75
 20
2.0
 30
0.0
 11
5.0
 21
2.0
 31
0.0
  0
CIRCLE
  5
69
330
1B4B
100
AcDbEntity
  8
TEXT
100
AcDbCircle
 10
6.875
 20
2.0
 30
0.0
 40
1.7
  0
TEXT
  5
6A
330
1B4B
100
AcDbEntity
  8
TEXT
100
AcDbText
 10
7.875
 20
1.392857142857142
 30
0.0
 40
2.0
  1
1
 50
90.0
 41
0.75
  7
ROMANS
 72
     4
 11
6.875
 21
2.0
 31
0.0
100
AcDbText
  0
TEXT
  5
6B
330
1B4B
100
AcDbEntity
  8
TEXT
100
AcDbText
 10
12.875
 20
1.285714285714285
 30
0.0
 40
2.0
  1
2
 50
90.0
 41
0.75
  7
ROMANS
 72
     4
 11
11.875
 21
2.0
 31
0.0
100
AcDbText
  0
TEXT
  5
6C
330
1B4B
100
AcDbEntity
  8
TEXT
100
AcDbText
 10
17.875
 20
1.285714285714285
 30
0.0
 40
2.0
  1
3
 50
90.0
 41
0.75
  7
ROMANS
 72
     4
 11
16.875
 21
2.0
 31
0.0
100
AcDbText
  0
LINE
  5
6D
330
1B4B
100
AcDbEntity
  8
HILFSLINIEN
100
AcDbLine
 10
18.75
 20
207.0
 30
0.0
 11
18.75
 21
209.0
 31
0.0
  0
LINE
  5
6E
330
1B4B
100
AcDbEntity
  8
HILFSLINIEN
100
AcDbLine
 10
18.75
 20
209.0
 30
0.0
 11
15.0
 21
209.0
 31
0.0
  0
CIRCLE
  5
6F
330
1B4B
100
AcDbEntity
  8
TEXT
100
AcDbCircle
 10
16.875
 20
209.0
 30
0.0
 40
1.7
  0
LINE
  5
70
330
1B4B
100
AcDbEntity
  8
HILFSLINIEN
100
AcDbLine
 10
13.75
 20
207.0
 30
0.0
 11
13.75
 21
209.0
 31
0.0
  0
LINE
  5
71
330
1B4B
100
AcDbEntity
  8
HILFSLINIEN
100
AcDbLine
 10
13.75
 20
209.0
 30
0.0
 11
10.0
 21
209.0
 31
0.0
  0
CIRCLE
  5
72
330
1B4B
100
AcDbEntity
  8
TEXT
100
AcDbCircle
 10
11.875
 20
209.0
 30
0.0
 40
1.7
  0
LINE
  5
73
330
1B4B
100
AcDbEntity
  8
HILFSLINIEN
100
AcDbLine
 10
8.75
 20
207.0
 30
0.0
 11
8.75
 21
209.0
 31
0.0
  0
LINE
  5
74
330
1B4B
100
AcDbEntity
  8
HILFSLINIEN
100
AcDbLine
 10
8.75
 20
209.0
 30
0.0
 11
5.0
 21
209.0
 31
0.0
  0
CIRCLE
  5
75
330
1B4B
100
AcDbEntity
  8
TEXT
100
AcDbCircle
 10
6.875
 20
209.0
 30
0.0
 40
1.7
  0
TEXT
  5
76
330
1B4B
100
AcDbEntity
  8
TEXT
100
AcDbText
 10
7.875
 20
208.25
 30
0.0
 40
2.0
  1
4
 50
90.0
 41
0.75
  7
ROMANS
 72
     4
 11
6.875
 21
209.0
 31
0.0
100
AcDbText
  0
TEXT
  5
77
330
1B4B
100
AcDbEntity
  8
TEXT
100
AcDbText
 10
12.875
 20
208.2857142857143
 30
0.0
 40
2.0
  1
5
 50
90.0
 41
0.75
  7
ROMANS
 72
     4
 11
11.875
 21
209.0
 31
0.0
100
AcDbText
  0
TEXT
  5
78
330
1B4B
100
AcDbEntity
  8
TEXT
100
AcDbText
 10
17.875
 20
208.25
 30
0.0
 40
2.0
  1
6
 50
90.0
 41
0.75
  7
ROMANS
 72
     4
 11
16.875
 21
209.0
 31
0.0
100
AcDbText
  0
LINE
  5
79
330
1B4B
100
AcDbEntity
  8
HILFSLINIEN
100
AcDbLine
 10
3.75
 20
0.0
 30
0.0
 11
3.75
 21
4.5
 31
0.0
  0
LINE
  5
7A
330
1B4B
100
AcDbEntity
  8
HILFSLINIEN
100
AcDbLine
 10
3.75
 20
4.5
 30
0.0
 11
18.75
 21
4.5
 31
0.0
  0
LINE
  5
7B
330
1B4B
100
AcDbEntity
  8
HILFSLINIEN
100
AcDbLine
 10
18.75
 20
60.0
 30
0.0
 11
18.75
 21
61.0
 31
0.0
  0
LINE
  5
7C
330
1B4B
100
AcDbEntity
  8
HILFSLINIEN
100
AcDbLine
 10
18.75
 20
61.0
 30
0.0
 11
3.75
 21
61.0
 31
0.0
  0
LINE
  5
7D
330
1B4B
100
AcDbEntity
  8
HILFSLINIEN
100
AcDbLine
 10
18.75
 20
75.0
 30
0.0
 11
18.75
 21
76.0
 31
0.0
  0
LINE
  5
7E
330
1B4B
100
AcDbEntity
  8
HILFSLINIEN
100
AcDbLine
 10
18.75
 20
76.0
 30
0.0
 11
3.75
 21
76.0
 31
0.0
  0
LINE
  5
7F
330
1B4B
100
AcDbEntity
  8
HILFSLINIEN
100
AcDbLine
 10
18.75
 20
207.0
 30
0.0
 11
18.75
 21
211.5
 31
0.0
  0
LINE
  5
80
330
1B4B
100
AcDbEntity
  8
HILFSLINIEN
100
AcDbLine
 10
18.75
 20
211.5
 30
0.0
 11
3.75
 21
211.5
 31
0.0
  0
LINE
  5
81
330
1B4B
100
AcDbEntity
  8
HILFSLINIEN
100
AcDbLine
 10
18.75
 20
267.0
 30
0.0
 11
18.75
 21
268.0
 31
0.0
  0
LINE
  5
82
330
1B4B
100
AcDbEntity
  8
HILFSLINIEN
100
AcDbLine
 10
18.75
 20
268.0
 30
0.0
 11
3.75
 21
268.0
 31
0.0
  0
LINE
  5
83
330
1B4B
100
AcDbEntity
  8
HILFSLINIEN
100
AcDbLine
 10
18.75
 20
282.0
 30
0.0
 11
18.75
 21
283.0
 31
0.0
  0
LINE
  5
84
330
1B4B
100
AcDbEntity
  8
HILFSLINIEN
100
AcDbLine
 10
18.75
 20
283.0
 30
0.0
 11
3.75
 21
283.0
 31
0.0
  0
LINE
  5
85
330
1B4B
100
AcDbEntity
  8
0
100
AcDbLine
 10
0.0
 20
297.0
 30
0.0
 11
0.0
 21
0.0
 31
0.0
  0
LINE
  5
86
330
1B4B
100
AcDbEntity
  8
HILFSLINIEN
100
AcDbLine
 10
3.75
 20
0.0
 30
0.0
 11
3.75
 21
60.0
 31
0.0
  0
LINE
  5
87
330
1B4B
100
AcDbEntity
  8
HILFSLINIEN
100
AcDbLine
 10
8.75
 20
0.0
 30
0.0
 11
8.75
 21
60.0
 31
0.0
  0
LINE
  5
88
330
1B4B
100
AcDbEntity
  8
HILFSLINIEN
100
AcDbLine
 10
13.75
 20
0.0
 30
0.0
 11
13.75
 21
60.0
 31
0.0
  0
LINE
  5
89
330
1B4B
100
AcDbEntity
  8
HILFSLINIEN
100
AcDbLine
 10
18.75
 20
0.0
 30
0.0
 11
18.75
 21
60.0
 31
0.0
  0
LINE
  5
8A
330
1B4B
100
AcDbEntity
  8
HILFSLINIEN
100
AcDbLine
 10
3.75
 20
0.0
 30
0.0
 11
3.75
 21
60.0
 31
0.0
  0
LINE
  5
8B
330
1B4B
100
AcDbEntity
  8
HILFSLINIEN
100
AcDbLine
 10
8.75
 20
0.0
 30
0.0
 11
8.75
 21
60.0
 31
0.0
  0
LINE
  5
8C
330
1B4B
100
AcDbEntity
  8
HILFSLINIEN
100
AcDbLine
 10
13.75
 20
0.0
 30
0.0
 11
13.75
 21
60.0
 31
0.0
  0
LINE
  5
8D
330
1B4B
100
AcDbEntity
  8
HILFSLINIEN
100
AcDbLine
 10
18.75
 20
0.0
 30
0.0
 11
18.75
 21
60.0
 31
0.0
  0
LINE
  5
8E
330
1B4B
100
AcDbEntity
  8
HILFSLINIEN
100
AcDbLine
 10
5.0
 20
0.0
 30
0.0
 11
4.25
 21
0.0
 31
0.0
  0
LINE
  5
8F
330
1B4B
100
AcDbEntity
  8
HILFSLINIEN
100
AcDbLine
 10
5.0
 20
0.0
 30
0.0
 11
3.75
 21
0.0
 31
0.0
  0
LINE
  5
90
330
1B4B
100
AcDbEntity
  8
HILFSLINIEN
100
AcDbLine
 10
5.0
 20
0.0
 30
0.0
 11
4.25
 21
0.0
 31
0.0
  0
LINE
  5
91
330
1B4B
100
AcDbEntity
  8
HILFSLINIEN
100
AcDbLine
 10
5.0
 20
0.0
 30
0.0
 11
3.75
 21
0.0
 31
0.0
  0
LINE
  5
92
330
1B4B
100
AcDbEntity
  8
0
100
AcDbLine
 10
0.0
 20
0.0
 30
0.0
 11
0.0
 21
0.0
 31
0.0
  0
TEXT
  5
93
330
1B4B
100
AcDbEntity
  8
TEXT
100
AcDbText
 10
3.749999999999999
 20
23.70535714285714
 30
0.0
 40
2.5
  1
Änderung
 50
90.0
 41
0.75
  7
ROMANS
 72
     1
 11
3.75
 21
30.0
 31
0.0
100
AcDbText
  0
LINE
  5
94
330
1B4B
100
AcDbEntity
  8
0
100
AcDbLine
 10
20.0
 20
5.0
 30
0.0
 11
20.0
 21
5.0
 31
0.0
  0
LINE
  5
95
330
1B4B
100
AcDbEntity
  8
RAHMEN
100
AcDbLine
 10
0.0
 20
148.5
 30
0.0
 11
4.080403395846737
 21
148.5
 31
0.0
  0
LINE
  5
96
330
1B4B
100
AcDbEntity
  8
HILFSLINIEN
100
AcDbLine
 10
3.75
 20
75.0
 30
0.0
 11
3.75
 21
90.0
 31
0.0
  0
LINE
  5
97
330
1B4B
100
AcDbEntity
  8
HILFSLINIEN
100
AcDbLine
 10
8.75
 20
75.0
 30
0.0
 11
8.75
 21
90.0
 31
0.0
  0
TEXT
  5
98
330
1B4B
100
AcDbEntity
  8
TEXT
100
AcDbText
 10
3.749999999999999
 20
78.48214285714286
 30
0.0
 40
2.5
  1
Name
 50
90.0
 41
0.75
  7
ROMANS
 72
     1
 11
3.75
 21
82.5
 31
0.0
100
AcDbText
  0
LINE
  5
99
330
1B4B
100
AcDbEntity
  8
HILFSLINIEN
100
AcDbLine
 10
3.75
 20
75.0
 30
0.0
 11
3.75
 21
90.0
 31
0.0
  0
LINE
  5
9A
330
1B4B
100
AcDbEntity
  8
HILFSLINIEN
100
AcDbLine
 10
8.75
 20
75.0
 30
0.0
 11
8.75
 21
90.0
 31
0.0
  0
LINE
  5
9B
330
1B4B
100
AcDbEntity
  8
HILFSLINIEN
100
AcDbLine
 10
3.75
 20
60.0
 30
0.0
 11
3.75
 21
75.0
 31
0.0
  0
LINE
  5
9C
330
1B4B
100
AcDbEntity
  8
HILFSLINIEN
100
AcDbLine
 10
8.75
 20
60.0
 30
0.0
 11
8.75
 21
75.0
 31
0.0
  0
TEXT
  5
9D
330
1B4B
100
AcDbEntity
  8
TEXT
100
AcDbText
 10
3.749999999999999
 20
62.99107142857143
 30
0.0
 40
2.5
  1
Datum
 50
90.0
 41
0.75
  7
ROMANS
 72
     1
 11
3.75
 21
67.5
 31
0.0
100
AcDbText
  0
LINE
  5
9E
330
1B4B
100
AcDbEntity
  8
HILFSLINIEN
100
AcDbLine
 10
3.75
 20
60.0
 30
0.0
 11
3.75
 21
75.0
 31
0.0
  0
LINE
  5
9F
330
1B4B
100
AcDbEntity
  8
HILFSLINIEN
100
AcDbLine
 10
8.75
 20
60.0
 30
0.0
 11
8.75
 21
75.0
 31
0.0
  0
LINE
  5
A0
330
1B4B
100
AcDbEntity
  8
HILFSLINIEN
100
AcDbLine
 10
13.75
 20
75.0
 30
0.0
 11
13.75
 21
90.0
 31
0.0
  0
LINE
  5
A1
330
1B4B
100
AcDbEntity
  8
HILFSLINIEN
100
AcDbLine
 10
18.75
 20
75.0
 30
0.0
 11
18.75
 21
90.0
 31
0.0
  0
LINE
  5
A2
330
1B4B
100
AcDbEntity
  8
HILFSLINIEN
100
AcDbLine
 10
13.75
 20
75.0
 30
0.0
 11
13.75
 21
90.0
 31
0.0
  0
LINE
  5
A3
330
1B4B
100
AcDbEntity
  8
HILFSLINIEN
100
AcDbLine
 10
18.75
 20
75.0
 30
0.0
 11
18.75
 21
90.0
 31
0.0
  0
LINE
  5
A4
330
1B4B
100
AcDbEntity
  8
HILFSLINIEN
100
AcDbLine
 10
13.75
 20
60.0
 30
0.0
 11
13.75
 21
75.0
 31
0.0
  0
LINE
  5
A5
330
1B4B
100
AcDbEntity
  8
HILFSLINIEN
100
AcDbLine
 10
18.75
 20
60.0
 30
0.0
 11
18.75
 21
75.0
 31
0.0
  0
LINE
  5
A6
330
1B4B
100
AcDbEntity
  8
HILFSLINIEN
100
AcDbLine
 10
13.75
 20
60.0
 30
0.0
 11
13.75
 21
75.0
 31
0.0
  0
LINE
  5
A7
330
1B4B
100
AcDbEntity
  8
HILFSLINIEN
100
AcDbLine
 10
18.75
 20
60.0
 30
0.0
 11
18.75
 21
75.0
 31
0.0
  0
TEXT
  5
A8
330
1B4B
100
AcDbEntity
  8
TEXT
100
AcDbText
 10
3.749999999999999
 20
230.7053571428571
 30
0.0
 40
2.5
  1
Änderung
 50
90.0
 41
0.75
  7
ROMANS
 72
     1
 11
3.75
 21
237.0
 31
0.0
100
AcDbText
  0
LINE
  5
A9
330
1B4B
100
AcDbEntity
  8
HILFSLINIEN
100
AcDbLine
 10
18.75
 20
207.0
 30
0.0
 11
18.75
 21
267.0
 31
0.0
  0
LINE
  5
AA
330
1B4B
100
AcDbEntity
  8
HILFSLINIEN
100
AcDbLine
 10
13.75
 20
207.0
 30
0.0
 11
13.75
 21
267.0
 31
0.0
  0
LINE
  5
AB
330
1B4B
100
AcDbEntity
  8
HILFSLINIEN
100
AcDbLine
 10
8.75
 20
207.0
 30
0.0
 11
8.75
 21
267.0
 31
0.0
  0
LINE
  5
AC
330
1B4B
100
AcDbEntity
  8
HILFSLINIEN
100
AcDbLine
 10
3.75
 20
207.0
 30
0.0
 11
3.75
 21
267.0
 31
0.0
  0
LINE
  5
AD
330
1B4B
100
AcDbEntity
  8
HILFSLINIEN
100
AcDbLine
 10
5.0
 20
207.0
 30
0.0
 11
3.75
 21
207.0
 31
0.0
  0
LINE
  5
AE
330
1B4B
100
AcDbEntity
  8
HILFSLINIEN
100
AcDbLine
 10
5.0
 20
207.0
 30
0.0
 11
4.25
 21
207.0
 31
0.0
  0
TEXT
  5
AF
330
1B4B
100
AcDbEntity
  8
TEXT
100
AcDbText
 10
3.749999999999999
 20
285.4821428571428
 30
0.0
 40
2.5
  1
Name
 50
90.0
 41
0.75
  7
ROMANS
 72
     1
 11
3.75
 21
289.5
 31
0.0
100
AcDbText
  0
LINE
  5
B0
330
1B4B
100
AcDbEntity
  8
HILFSLINIEN
100
AcDbLine
 10
8.75
 20
282.0
 30
0.0
 11
8.75
 21
297.0
 31
0.0
  0
LINE
  5
B1
330
1B4B
100
AcDbEntity
  8
HILFSLINIEN
100
AcDbLine
 10
3.75
 20
282.0
 30
0.0
 11
3.75
 21
297.0
 31
0.0
  0
TEXT
  5
B2
330
1B4B
100
AcDbEntity
  8
TEXT
100
AcDbText
 10
3.749999999999999
 20
269.9910714285715
 30
0.0
 40
2.5
  1
Datum
 50
90.0
 41
0.75
  7
ROMANS
 72
     1
 11
3.75
 21
274.5
 31
0.0
100
AcDbText
  0
LINE
  5
B3
330
1B4B
100
AcDbEntity
  8
HILFSLINIEN
100
AcDbLine
 10
8.75
 20
267.0
 30
0.0
 11
8.75
 21
282.0
 31
0.0
  0
LINE
  5
B4
330
1B4B
100
AcDbEntity
  8
HILFSLINIEN
100
AcDbLine
 10
3.75
 20
267.0
 30
0.0
 11
3.75
 21
282.0
 31
0.0
  0
LINE
  5
B5
330
1B4B
100
AcDbEntity
  8
HILFSLINIEN
100
AcDbLine
 10
18.75
 20
282.0
 30
0.0
 11
18.75
 21
297.0
 31
0.0
  0
LINE
  5
B6
330
1B4B
100
AcDbEntity
  8
HILFSLINIEN
100
AcDbLine
 10
13.75
 20
282.0
 30
0.0
 11
13.75
 21
297.0
 31
0.0
  0
LINE
  5
B7
330
1B4B
100
AcDbEntity
  8
HILFSLINIEN
100
AcDbLine
 10
18.75
 20
267.0
 30
0.0
 11
18.75
 21
282.0
 31
0.0
  0
LINE
  5
B8
330
1B4B
100
AcDbEntity
  8
HILFSLINIEN
100
AcDbLine
 10
13.75
 20
267.0
 30
0.0
 11
13.75
 21
282.0
 31
0.0
  0
LINE
  5
B9
330
1B4B
100
AcDbEntity
  8
0
100
AcDbLine
 10
0.0
 20
297.0
 30
0.0
 11
0.0
 21
0.0
 31
0.0
  0
LINE
  5
BA
330
1B4B
100
AcDbEntity
  8
RAHMEN
100
AcDbLine
 10
0.0
 20
90.0
 30
0.0
 11
0.0
 21
0.0
 31
0.0
  0
LINE
  5
BB
330
1B4B
100
AcDbEntity
  8
RAHMEN
100
AcDbLine
 10
0.0
 20
0.0
 30
0.0
 11
0.0
 21
90.0
 31
0.0
  0
LINE
  5
BC
330
1B4B
100
AcDbEntity
  8
RAHMEN
100
AcDbLine
 10
5.0
 20
0.0
 30
0.0
 11
5.0
 21
90.0
 31
0.0
  0
LINE
  5
BD
330
1B4B
100
AcDbEntity
  8
RAHMEN
100
AcDbLine
 10
10.0
 20
0.0
 30
0.0
 11
10.0
 21
90.0
 31
0.0
  0
LINE
  5
BE
330
1B4B
100
AcDbEntity
  8
RAHMEN
100
AcDbLine
 10
15.0
 20
0.0
 30
0.0
 11
15.0
 21
90.0
 31
0.0
  0
LINE
  5
BF
330
1B4B
100
AcDbEntity
  8
RAHMEN
100
AcDbLine
 10
0.0
 20
0.0
 30
0.0
 11
20.0
 21
0.0
 31
0.0
  0
LINE
  5
C0
330
1B4B
100
AcDbEntity
  8
RAHMEN
100
AcDbLine
 10
0.0
 20
0.0
 30
0.0
 11
5.0
 21
0.0
 31
0.0
  0
LINE
  5
C1
330
1B4B
100
AcDbEntity
  8
0
100
AcDbLine
 10
0.0
 20
0.0
 30
0.0
 11
0.0
 21
0.0
 31
0.0
  0
LINE
  5
C2
330
1B4B
100
AcDbEntity
  8
0
100
AcDbLine
 10
20.0
 20
5.0
 30
0.0
 11
20.0
 21
5.0
 31
0.0
  0
LINE
  5
C3
330
1B4B
100
AcDbEntity
  8
RAHMEN
100
AcDbLine
 10
0.0
 20
90.0
 30
0.0
 11
20.0
 21
90.0
 31
0.0
  0
LINE
  5
C4
330
1B4B
100
AcDbEntity
  8
RAHMEN
100
AcDbLine
 10
0.0
 20
60.0
 30
0.0
 11
20.0
 21
60.0
 31
0.0
  0
LINE
  5
C5
330
1B4B
100
AcDbEntity
  8
RAHMEN
100
AcDbLine
 10
0.0
 20
75.0
 30
0.0
 11
20.0
 21
75.0
 31
0.0
  0
LINE
  5
C6
330
1B4B
100
AcDbEntity
  8
RAHMEN
100
AcDbLine
 10
0.0
 20
148.5
 30
0.0
 11
7.544638271345935
 21
148.5
 31
0.0
  0
LINE
  5
C7
330
1B4B
100
AcDbEntity
  8
RAHMEN
100
AcDbLine
 10
15.0
 20
207.0
 30
0.0
 11
15.0
 21
297.0
 31
0.0
  0
LINE
  5
C8
330
1B4B
100
AcDbEntity
  8
RAHMEN
100
AcDbLine
 10
10.0
 20
207.0
 30
0.0
 11
10.0
 21
297.0
 31
0.0
  0
LINE
  5
C9
330
1B4B
100
AcDbEntity
  8
RAHMEN
100
AcDbLine
 10
5.0
 20
207.0
 30
0.0
 11
5.0
 21
297.0
 31
0.0
  0
LINE
  5
CA
330
1B4B
100
AcDbEntity
  8
RAHMEN
100
AcDbLine
 10
0.0
 20
207.0
 30
0.0
 11
0.0
 21
297.0
 31
0.0
  0
LINE
  5
CB
330
1B4B
100
AcDbEntity
  8
RAHMEN
100
AcDbLine
 10
0.0
 20
297.0
 30
0.0
 11
0.0
 21
207.0
 31
0.0
  0
LINE
  5
CC
330
1B4B
100
AcDbEntity
  8
RAHMEN
100
AcDbLine
 10
0.0
 20
207.0
 30
0.0
 11
20.0
 21
207.0
 31
0.0
  0
LINE
  5
CD
330
1B4B
100
AcDbEntity
  8
RAHMEN
100
AcDbLine
 10
0.0
 20
207.0
 30
0.0
 11
5.0
 21
207.0
 31
0.0
  0
LINE
  5
CE
330
1B4B
100
AcDbEntity
  8
RAHMEN
100
AcDbLine
 10
0.0
 20
282.0
 30
0.0
 11
20.0
 21
282.0
 31
0.0
  0
LINE
  5
CF
330
1B4B
100
AcDbEntity
  8
RAHMEN
100
AcDbLine
 10
0.0
 20
267.0
 30
0.0
 11
20.0
 21
267.0
 31
0.0
  0
LINE
  5
D0
330
1B4B
100
AcDbEntity
  8
RAHMEN
100
AcDbLine
 10
0.0
 20
297.0
 30
0.0
 11
20.0
 21
297.0
 31
0.0
  0
ATTDEF
  5
D1
330
1B4B
100
AcDbEntity
  8
TEXT
100
AcDbText
 10
8.75
 20
4.5
 30
0.0
 40
2.5
  1

 50
90.0
 41
0.75
  7
ROMANS
100
AcDbAttributeDefinition
  3
1-Änderung-Text
  2
1
 70
     0
  0
ATTDEF
  5
D2
330
1B4B
100
AcDbEntity
  8
TEXT
100
AcDbText
 10
8.75
 20
61.0
 30
0.0
 40
2.5
  1

 50
90.0
 41
0.75
  7
ROMANS
100
AcDbAttributeDefinition
  3
1-Änderung-Datum
  2
2
 70
     0
  0
ATTDEF
  5
D3
330
1B4B
100
AcDbEntity
  8
TEXT
100
AcDbText
 10
8.75
 20
76.0
 30
0.0
 40
2.5
  1

 50
90.0
 41
0.75
  7
ROMANS
100
AcDbAttributeDefinition
  3
1-Änderung-Name
  2
3
 70
     0
  0
ATTDEF
  5
D4
330
1B4B
100
AcDbEntity
  8
TEXT
100
AcDbText
 10
13.75
 20
4.5
 30
0.0
 40
2.5
  1

 50
90.0
 41
0.75
  7
ROMANS
100
AcDbAttributeDefinition
  3
2-Änderung-Text
  2
4
 70
     0
  0
ATTDEF
  5
D5
330
1B4B
100
AcDbEntity
  8
TEXT
100
AcDbText
 10
13.75
 20
61.0
 30
0.0
 40
2.5
  1

 50
90.0
 41
0.75
  7
ROMANS
100
AcDbAttributeDefinition
  3
2-Änderung-Datum
  2
5
 70
     0
  0
ATTDEF
  5
D6
330
1B4B
100
AcDbEntity
  8
TEXT
100
AcDbText
 10
13.75
 20
76.0
 30
0.0
 40
2.5
  1

 50
90.0
 41
0.75
  7
ROMANS
100
AcDbAttributeDefinition
  3
2-Änderung-Name
  2
6
 70
     0
  0
ATTDEF
  5
D7
330
1B4B
100
AcDbEntity
  8
TEXT
100
AcDbText
 10
18.75
 20
4.5
 30
0.0
 40
2.5
  1

 50
90.0
 41
0.75
  7
ROMANS
100
AcDbAttributeDefinition
  3
3-Änderung-Text
  2
7
 70
     0
  0
ATTDEF
  5
D8
330
1B4B
100
AcDbEntity
  8
TEXT
100
AcDbText
 10
18.75
 20
61.0
 30
0.0
 40
2.5
  1

 50
90.0
 41
0.75
  7
ROMANS
100
AcDbAttributeDefinition
  3
3-Änderung-Datum
  2
8
 70
     0
  0
ATTDEF
  5
D9
330
1B4B
100
AcDbEntity
  8
TEXT
100
AcDbText
 10
18.75
 20
76.0
 30
0.0
 40
2.5
  1

 50
90.0
 41
0.75
  7
ROMANS
100
AcDbAttributeDefinition
  3
3-Änderung-Name
  2
9
 70
     0
  0
ATTDEF
  5
DA
330
1B4B
100
AcDbEntity
  8
TEXT
100
AcDbText
 10
8.75
 20
211.5
 30
0.0
 40
2.5
  1

 50
90.0
 41
0.75
  7
ROMANS
100
AcDbAttributeDefinition
  3
4-Änderung-Text
  2
10
 70
     0
  0
ATTDEF
  5
DB
330
1B4B
100
AcDbEntity
  8
TEXT
100
AcDbText
 10
8.75
 20
268.0
 30
0.0
 40
2.5
  1

 50
90.0
 41
0.75
  7
ROMANS
100
AcDbAttributeDefinition
  3
4-Änderung-Datum
  2
11
 70
     0
  0
ATTDEF
  5
DC
330
1B4B
100
AcDbEntity
  8
TEXT
100
AcDbText
 10
8.75
 20
283.0
 30
0.0
 40
2.5
  1

 50
90.0
 41
0.75
  7
ROMANS
100
AcDbAttributeDefinition
  3
4-Änderung-Name
  2
12
 70
     0
  0
ATTDEF
  5
DD
330
1B4B
100
AcDbEntity
  8
TEXT
100
AcDbText
 10
13.75
 20
211.5
 30
0.0
 40
2.5
  1

 50
90.0
 41
0.75
  7
ROMANS
100
AcDbAttributeDefinition
  3
5-Änderung-Text
  2
13
 70
     0
  0
ATTDEF
  5
DE
330
1B4B
100
AcDbEntity
  8
TEXT
100
AcDbText
 10
13.75
 20
268.0
 30
0.0
 40
2.5
  1

 50
90.0
 41
0.75
  7
ROMANS
100
AcDbAttributeDefinition
  3
5-Änderung-Datum
  2
14
 70
     0
  0
ATTDEF
  5
DF
330
1B4B
100
AcDbEntity
  8
TEXT
100
AcDbText
 10
13.75
 20
283.0
 30
0.0
 40
2.5
  1

 50
90.0
 41
0.75
  7
ROMANS
100
AcDbAttributeDefinition
  3
5-Änderung-Name
  2
15
 70
     0
  0
ATTDEF
  5
E0
330
1B4B
100
AcDbEntity
  8
TEXT
100
AcDbText
 10
18.75
 20
211.5
 30
0.0
 40
2.5
  1

 50
90.0
 41
0.75
  7
ROMANS
100
AcDbAttributeDefinition
  3
6-Änderung-Text
  2
16
 70
     0
  0
ATTDEF
  5
E1
330
1B4B
100
AcDbEntity
  8
TEXT
100
AcDbText
 10
18.75
 20
268.0
 30
0.0
 40
2.5
  1

 50
90.0
 41
0.75
  7
ROMANS
100
AcDbAttributeDefinition
  3
6-Änderung-Datum
  2
17
 70
     0
  0
ATTDEF
  5
E2
330
1B4B
100
AcDbEntity
  8
TEXT
100
AcDbText
 10
18.75
 20
283.0
 30
0.0
 40
2.5
  1

 50
90.0
 41
0.75
  7
ROMANS
100
AcDbAttributeDefinition
  3
6-Änderung-Name
  2
18
 70
     0
  0
LINE
  5
E3
330
1B4B
100
AcDbEntity
  8
HILFSLINIEN
100
AcDbLine
 10
20.0
 20
297.0
 30
0.0
 11
20.0
 21
0.0
 31
0.0
  0
LINE
  5
E4
330
1B4B
100
AcDbEntity
  8
HILFSLINIEN
100
AcDbLine
 10
0.0
 20
183.5
 30
0.0
 11
20.0
 21
183.5
 31
0.0
  0
LINE
  5
E5
330
1B4B
100
AcDbEntity
  8
HILFSLINIEN
100
AcDbLine
 10
0.0
 20
113.5
 30
0.0
 11
20.0
 21
113.5
 31
0.0
  0
TEXT
  5
E6
330
1B4B
100
AcDbEntity
  8
TEXT
100
AcDbText
 10
9.847940365286088
 20
113.5
 30
0.0
 40
1.8
  1
Diese Unterlagen bleiben unser Eigentum. Vervielfältigungen, Anfertigungen
 50
90.0
 41
0.6727073036792984
  7
ROMANS
 72
     5
 11
9.847940365286088
 21
183.5
 31
0.0
100
AcDbText
  0
TEXT
  5
E7
330
1B4B
100
AcDbEntity
  8
TEXT
100
AcDbText
 10
12.7622260795718
 20
113.5
 30
0.0
 40
1.8
  1
von Aufzeichnungen bezüglich des Inhaltes, die Weitergabe, auch des In-
 50
90.0
 41
0.6721536351165966
  7
ROMANS
 72
     5
 11
12.7622260795718
 21
183.5
 31
0.0
100
AcDbText
  0
TEXT
  5
E8
330
1B4B
100
AcDbEntity
  8
TEXT
100
AcDbText
 10
15.67651179385752
 20
113.5
 30
0.0
 40
1.8
  1
haltes an Dritte, sowie Verwertung des Inhaltes durch den Empfänger oder
 50
90.0
 41
0.6564844587352626
  7
ROMANS
 72
     5
 11
15.67651179385752
 21
183.5
 31
0.0
100
AcDbText
  0
TEXT
  5
E9
330
1B4B
100
AcDbEntity
  8
TEXT
100
AcDbText
 10
18.59079750814321
 20
113.5
 30
0.0
 40
1.8
  1
auf dessen Vermittlung durch Dritte, sind unzulässig und strafbar.
 50
90.0
 41
0.7451338199513363
  7
ROMANS
 72
     5
 11
18.59079750814321
 21
183.5
 31
0.0
100
AcDbText
  0
LINE
  5
EA
330
1B4B
100
AcDbEntity
  8
HILFSLINIEN
100
AcDbLine
 10
9.871991918659212
 20
113.4923292010233
 30
0.0
 11
9.871991918659212
 21
183.5399722751536
 31
0.0
  0
LINE
  5
EB
330
1B4B
100
AcDbEntity
  8
RAHMEN
100
AcDbLine
 10
20.0
 20
0.0
 30
0.0
 11
20.0
 21
5.0
 31
0.0
  0
LINE
  5
EC
330
1B4B
100
AcDbEntity
  8
RAHMEN
100
AcDbLine
 10
20.0
 20
297.0
 30
0.0
 11
20.0
 21
292.0
 31
0.0
  0
ENDBLK
  5
ED
330
1B4B
100
AcDbEntity
  8
0
100
AcDbBlockEnd
  0
BLOCK
  5
1B4E
330
1B4D
100
AcDbEntity
  8
0
100
AcDbBlockBegin
  2
KOPF4
 70
     2
 10
0.0
 20
0.0
 30
0.0
  3
KOPF4
  1

  0
LINE
  5
33E
330
1B4D
100
AcDbEntity
  8
RAHMEN
 62
     1
100
AcDbLine
 10
-140.0000402299779
 20
25.0
 30
0.0
 11
-185.0000402299779
 21
25.0
 31
0.0
  0
LINE
  5
33F
330
1B4D
100
AcDbEntity
  8
RAHMEN
 62
     1
100
AcDbLine
 10
-140.0000402299779
 20
30.0
 30
0.0
 11
-185.0000402299779
 21
30.0
 31
0.0
  0
LINE
  5
340
330
1B4D
100
AcDbEntity
  8
RAHMEN
 62
     1
100
AcDbLine
 10
-0.0000402299779694
 20
55.0
 30
0.0
 11
-185.0000402299779
 21
55.0
 31
0.0
  0
LINE
  5
341
330
1B4D
100
AcDbEntity
  8
RAHMEN
 62
     1
100
AcDbLine
 10
-0.0000402299779694
 20
50.0
 30
0.0
 11
-185.0000402299779
 21
50.0
 31
0.0
  0
LINE
  5
342
330
1B4D
100
AcDbEntity
  8
RAHMEN
 62
     1
100
AcDbLine
 10
-0.0000402299779694
 20
45.0
 30
0.0
 11
-185.0000402299779
 21
45.0
 31
0.0
  0
LINE
  5
343
330
1B4D
100
AcDbEntity
  8
RAHMEN
 62
     1
100
AcDbLine
 10
-0.0000402299779694
 20
40.0
 30
0.0
 11
-185.0000402299779
 21
40.0
 31
0.0
  0
LINE
  5
344
330
1B4D
100
AcDbEntity
  8
RAHMEN
 62
     1
100
AcDbLine
 10
-79.19579999999998
 20
20.0
 30
0.0
 11
-185.0000402299779
 21
20.0
 31
0.0
  0
LINE
  5
345
330
1B4D
100
AcDbEntity
  8
RAHMEN
 62
     1
100
AcDbLine
 10
-185.0000402299779
 20
0.0
 30
0.0
 11
-79.19579999999998
 21
0.0
 31
0.0
  0
LINE
  5
346
330
1B4D
100
AcDbEntity
  8
RAHMEN
 62
     1
100
AcDbLine
 10
-183.1958
 20
55.0
 30
0.0
 11
-0.0000402299779694
 21
55.0
 31
0.0
  0
LINE
  5
347
330
1B4D
100
AcDbEntity
  8
RAHMEN
 62
     1
100
AcDbLine
 10
-183.1958
 20
0.0
 30
0.0
 11
-0.0000402299779694
 21
0.0
 31
0.0
  0
LINE
  5
348
330
1B4D
100
AcDbEntity
  8
RAHMEN
 62
     1
100
AcDbLine
 10
-70.00004022997794
 20
15.0
 30
0.0
 11
-185.0000402299779
 21
15.0
 31
0.0
  0
LINE
  5
349
330
1B4D
100
AcDbEntity
  8
RAHMEN
 62
     1
100
AcDbLine
 10
-70.00004022997794
 20
20.0
 30
0.0
 11
-185.0000402299779
 21
20.0
 31
0.0
  0
LINE
  5
34A
330
1B4D
100
AcDbEntity
  8
RAHMEN
 62
     1
100
AcDbLine
 10
-185.0000402299779
 20
0.0
 30
0.0
 11
-185.0000402299779
 21
55.0
 31
0.0
  0
LINE
  5
34B
330
1B4D
100
AcDbEntity
  8
RAHMEN
 62
     1
100
AcDbLine
 10
-185.0000402299779
 20
0.0
 30
0.0
 11
-183.1958
 21
0.0
 31
0.0
  0
LINE
  5
34C
330
1B4D
100
AcDbEntity
  8
RAHMEN
 62
     1
100
AcDbLine
 10
-183.1958
 20
0.0
 30
0.0
 11
-183.1958
 21
0.0
 31
0.0
  0
LINE
  5
34D
330
1B4D
100
AcDbEntity
  8
RAHMEN
 62
     1
100
AcDbLine
 10
-175.1958
 20
10.0
 30
0.0
 11
-175.1958
 21
25.0
 31
0.0
  0
LINE
  5
34E
330
1B4D
100
AcDbEntity
  8
RAHMEN
 62
     1
100
AcDbLine
 10
-59.19579999999999
 20
20.0
 30
0.0
 11
-0.0000402299779694
 21
20.0
 31
0.0
  0
LINE
  5
34F
330
1B4D
100
AcDbEntity
  8
HILFSLINIEN
 62
     5
100
AcDbLine
 10
-140.0000402299779
 20
30.0
 30
0.0
 11
-0.0000402299779694
 21
30.0
 31
0.0
  0
LINE
  5
350
330
1B4D
100
AcDbEntity
  8
HILFSLINIEN
 62
     5
100
AcDbLine
 10
-142.5000402299779
 20
2.5
 30
0.0
 11
-142.5000402299779
 21
10.0
 31
0.0
  0
LINE
  5
351
330
1B4D
100
AcDbEntity
  8
RAHMEN
 62
     1
100
AcDbLine
 10
-157.1958
 20
10.0
 30
0.0
 11
-157.1958
 21
25.0
 31
0.0
  0
LINE
  5
352
330
1B4D
100
AcDbEntity
  8
RAHMEN
 62
     1
100
AcDbLine
 10
-150.0000402299779
 20
40.0
 30
0.0
 11
-150.0000402299779
 21
55.0
 31
0.0
  0
LINE
  5
353
330
1B4D
100
AcDbEntity
  8
RAHMEN
 62
     1
100
AcDbLine
 10
-140.0000402299779
 20
10.0
 30
0.0
 11
-140.0000402299779
 21
55.0
 31
0.0
  0
LINE
  5
354
330
1B4D
100
AcDbEntity
  8
HILFSLINIEN
 62
     5
100
AcDbLine
 10
-112.5000402299779
 20
10.0
 30
0.0
 11
-112.5000402299779
 21
2.5
 31
0.0
  0
LINE
  5
355
330
1B4D
100
AcDbEntity
  8
RAHMEN
 62
     1
100
AcDbLine
 10
-70.00004022997794
 20
0.0
 30
0.0
 11
-70.00004022997797
 21
20.0
 31
0.0
  0
LINE
  5
356
330
1B4D
100
AcDbEntity
  8
RAHMEN
 62
     1
100
AcDbLine
 10
-79.19579999999998
 20
0.0
 30
0.0
 11
-59.19579999999999
 21
0.0
 31
0.0
  0
LINE
  5
357
330
1B4D
100
AcDbEntity
  8
RAHMEN
 62
     1
100
AcDbLine
 10
-59.19579999999999
 20
20.0
 30
0.0
 11
-79.19579999999998
 21
20.0
 31
0.0
  0
LINE
  5
358
330
1B4D
100
AcDbEntity
  8
RAHMEN
 62
     1
100
AcDbLine
 10
-70.00004022997797
 20
40.0
 30
0.0
 11
-70.00004022997797
 21
55.0
 31
0.0
  0
LINE
  5
359
330
1B4D
100
AcDbEntity
  8
RAHMEN
 62
     1
100
AcDbLine
 10
-50.00004022997794
 20
0.0000000000000355
 30
0.0
 11
-50.00004022997797
 21
20.00000000000003
 31
0.0
  0
LINE
  5
35A
330
1B4D
100
AcDbEntity
  8
RAHMEN
 62
     1
100
AcDbLine
 10
-50.00004022997797
 20
40.0
 30
0.0
 11
-50.00004022997797
 21
55.0
 31
0.0
  0
LINE
  5
35B
330
1B4D
100
AcDbEntity
  8
RAHMEN
 62
     1
100
AcDbLine
 10
-40.00004022997797
 20
40.0
 30
0.0
 11
-40.00004022997797
 21
55.0
 31
0.0
  0
LINE
  5
35C
330
1B4D
100
AcDbEntity
  8
RAHMEN
 62
     1
100
AcDbLine
 10
-0.0000402299779694
 20
0.0
 30
0.0
 11
-0.0000402299779694
 21
55.0
 31
0.0
  0
LINE
  5
35D
330
1B4D
100
AcDbEntity
  8
RAHMEN
 62
     1
100
AcDbLine
 10
-20.00004022997797
 20
40.0
 30
0.0
 11
-20.00004022997797
 21
55.0
 31
0.0
  0
LINE
  5
35E
330
1B4D
100
AcDbEntity
  8
HILFSLINIEN
 62
     5
100
AcDbLine
 10
-0.0000402299779694
 20
45.75
 30
0.0
 11
-20.00004022997797
 21
45.75
 31
0.0
  0
LINE
  5
35F
330
1B4D
100
AcDbEntity
  8
HILFSLINIEN
 62
     5
100
AcDbLine
 10
-0.0000402299779694
 20
50.75
 30
0.0
 11
-20.00004022997797
 21
50.75
 31
0.0
  0
LINE
  5
360
330
1B4D
100
AcDbEntity
  8
HILFSLINIEN
 62
     5
100
AcDbLine
 10
-140.0000402299779
 20
32.5
 30
0.0
 11
-185.0000402299779
 21
32.5
 31
0.0
  0
LINE
  5
361
330
1B4D
100
AcDbEntity
  8
HILFSLINIEN
 62
     5
100
AcDbLine
 10
-140.0000402299779
 20
22.0
 30
0.0
 11
-0.0000402299779694
 21
22.0
 31
0.0
  0
LINE
  5
362
330
1B4D
100
AcDbEntity
  8
RAHMEN
 62
     1
100
AcDbLine
 10
-70.00004022997794
 20
10.0
 30
0.0
 11
-185.0000402299779
 21
10.0
 31
0.0
  0
LINE
  5
363
330
1B4D
100
AcDbEntity
  8
HILFSLINIEN
 62
     5
100
AcDbLine
 10
-0.0000402299779694
 20
2.499999999999999
 30
0.0
 11
-50.00004022997794
 21
2.499999999999999
 31
0.0
  0
LINE
  5
364
330
1B4D
100
AcDbEntity
  8
HILFSLINIEN
 62
     5
100
AcDbLine
 10
-0.0000402299779694
 20
41.0
 30
0.0
 11
-185.0000402299779
 21
41.0
 31
0.0
  0
LINE
  5
365
330
1B4D
100
AcDbEntity
  8
HILFSLINIEN
 62
     5
100
AcDbLine
 10
-140.0000402299779
 20
26.0
 30
0.0
 11
-185.0000402299779
 21
26.0
 31
0.0
  0
LINE
  5
366
330
1B4D
100
AcDbEntity
  8
HILFSLINIEN
 62
     5
100
AcDbLine
 10
-140.0000402299779
 20
21.0
 30
0.0
 11
-185.0000402299779
 21
21.0
 31
0.0
  0
LINE
  5
367
330
1B4D
100
AcDbEntity
  8
HILFSLINIEN
 62
     5
100
AcDbLine
 10
-0.0000402299779694
 20
16.00000000000001
 30
0.0
 11
-140.0000402299779
 21
16.0
 31
0.0
  0
LINE
  5
368
330
1B4D
100
AcDbEntity
  8
HILFSLINIEN
 62
     5
100
AcDbLine
 10
-70.00004022997796
 20
11.00000000000001
 30
0.0
 11
-140.0000402299779
 21
11.0
 31
0.0
  0
LINE
  5
369
330
1B4D
100
AcDbEntity
  8
HILFSLINIEN
 62
     5
100
AcDbLine
 10
-140.0000402299779
 20
10.75
 30
0.0
 11
-157.1958
 21
10.75
 31
0.0
  0
LINE
  5
36A
330
1B4D
100
AcDbEntity
  8
HILFSLINIEN
 62
     5
100
AcDbLine
 10
-175.1958
 20
16.0
 30
0.0
 11
-185.0000402299779
 21
16.0
 31
0.0
  0
LINE
  5
36B
330
1B4D
100
AcDbEntity
  8
HILFSLINIEN
 62
     5
100
AcDbLine
 10
-175.1958
 20
11.0
 30
0.0
 11
-185.0000402299779
 21
11.0
 31
0.0
  0
LINE
  5
36C
330
1B4D
100
AcDbEntity
  8
HILFSLINIEN
 62
     5
100
AcDbLine
 10
-140.0000402299779
 20
15.75
 30
0.0
 11
-157.1958
 21
15.75
 31
0.0
  0
TEXT
  5
36D
330
1B4D
100
AcDbEntity
  8
TEXT
100
AcDbText
 10
-178.3544303916816
 20
41.08052227112436
 30
0.0
 40
2.5
  1
Artikel-Nummer
 41
0.75
  7
ROMANS
 72
     1
 11
-167.1044303916816
 21
41.08052227112436
 31
0.0
100
AcDbText
  0
TEXT
  5
36E
330
1B4D
100
AcDbEntity
  8
TEXT
100
AcDbText
 10
-147.1932643448926
 20
41.08052227112436
 30
0.0
 40
2.5
  1
Teil
 41
0.75
  7
ROMANS
 72
     1
 11
-145.0950500591783
 21
41.08052227112436
 31
0.0
100
AcDbText
  0
TEXT
  5
36F
330
1B4D
100
AcDbEntity
  8
TEXT
100
AcDbText
 10
-174.4901878787306
 20
25.97728905893306
 30
0.0
 40
2.5
  1
Artikel-Nummer
 41
0.75
  7
ROMANS
 72
     1
 11
-163.2401878787306
 21
25.97728905893306
 31
0.0
100
AcDbText
  0
TEXT
  5
370
330
1B4D
100
AcDbEntity
  8
TEXT
100
AcDbText
 10
-171.1093269294519
 20
20.94287798820262
 30
0.0
 40
2.5
  1
Datum
 41
0.75
  7
ROMANS
 72
     1
 11
-166.6003983580233
 21
20.94287798820262
 31
0.0
100
AcDbText
  0
TEXT
  5
371
330
1B4D
100
AcDbEntity
  8
TEXT
100
AcDbText
 10
-152.8091390371002
 20
20.94287798820262
 30
0.0
 40
2.5
  1
Name
 41
0.75
  7
ROMANS
 72
     1
 11
-148.7912818942431
 21
20.94287798820262
 31
0.0
100
AcDbText
  0
TEXT
  5
372
330
1B4D
100
AcDbEntity
  8
TEXT
100
AcDbText
 10
-184.0734942356386
 20
16.07628075171095
 30
0.0
 40
2.5
  1
Gez.:
 41
0.75
  7
ROMANS
100
AcDbText
  0
TEXT
  5
373
330
1B4D
100
AcDbEntity
  8
TEXT
100
AcDbText
 10
-183.9054843273598
 20
11.0418696809805
 30
0.0
 40
2.5
  1
Gepr.:
 41
0.75
  7
ROMANS
100
AcDbText
  0
TEXT
  5
374
330
1B4D
100
AcDbEntity
  8
TEXT
100
AcDbText
 10
-139.0466702729225
 20
11.0418696809805
 30
0.0
 40
2.5
  1
Ersatz für:
 41
0.75
  7
ROMANS
100
AcDbText
  0
TEXT
  5
375
330
1B4D
100
AcDbEntity
  8
TEXT
100
AcDbText
 10
-138.8786603646438
 20
16.07628075171095
 30
0.0
 40
2.5
  1
Nicht tolerierte Maße nach DIN 7168-m
 41
0.75
  7
ROMANS
100
AcDbText
  0
TEXT
  5
376
330
1B4D
100
AcDbEntity
  8
TEXT
100
AcDbText
 10
-139.0294041087637
 20
2.483371168461284
 30
0.0
 40
2.5
  1
Bohrfutterfabrik
 41
0.75
  7
ROMANS
 72
     1
 11
-127.9579755373352
 21
2.483371168461284
 31
0.0
100
AcDbText
  0
TEXT
  5
377
330
1B4D
100
AcDbEntity
  8
TEXT
100
AcDbText
 10
-65.84064642411387
 20
16.07628075171095
 30
0.0
 40
2.5
  1
Maßstab
 41
0.75
  7
ROMANS
 72
     1
 11
-60.0817178526853
 21
16.07628075171095
 31
0.0
100
AcDbText
  0
TEXT
  5
378
330
1B4D
100
AcDbEntity
  8
TEXT
100
AcDbText
 10
-40.97557871727793
 20
15.90846691747219
 30
0.0
 40
2.5
  1
Zeichnungs-Nummer
 41
0.75
  7
ROMANS
 72
     1
 11
-25.97557871727794
 21
15.90846691747219
 31
0.0
100
AcDbText
  0
TEXT
  5
379
330
1B4D
100
AcDbEntity
  8
TEXT
100
AcDbText
 10
-113.7505336845391
 20
40.91270887648915
 30
0.0
 40
2.5
  1
Benennung
 41
0.75
  7
ROMANS
 72
     1
 11
-106.1166051131106
 21
40.91270887648915
 31
0.0
100
AcDbText
  0
TEXT
  5
37A
330
1B4D
100
AcDbEntity
  8
TEXT
100
AcDbText
 10
-68.88692223012085
 20
41.08052227112436
 30
0.0
 40
2.5
  1
Zeichng.-Nr.
 41
0.75
  7
ROMANS
 72
     1
 11
-59.91370794440658
 21
41.08052227112436
 31
0.0
100
AcDbText
  0
TEXT
  5
37B
330
1B4D
100
AcDbEntity
  8
TEXT
100
AcDbText
 10
-48.84469849768939
 20
41.08052227112436
 30
0.0
 40
2.5
  1
Stück
 41
0.75
  7
ROMANS
 72
     1
 11
-44.96076992626082
 21
41.08052227112436
 31
0.0
100
AcDbText
  0
TEXT
  5
37C
330
1B4D
100
AcDbEntity
  8
TEXT
100
AcDbText
 10
-37.10844604823094
 20
41.08052227112436
 30
0.0
 40
2.5
  1
Werkstoff
 41
0.75
  7
ROMANS
 72
     1
 11
-30.67987461965952
 21
41.08052227112436
 31
0.0
100
AcDbText
  0
TEXT
  5
37D
330
1B4D
100
AcDbEntity
  8
TEXT
100
AcDbText
 10
-16.02024238394536
 20
41.08052227112436
 30
0.0
 40
2.5
  1
Rohmaß
 41
0.75
  7
ROMANS
 72
     1
 11
-10.3505995268025
 21
41.08052227112436
 31
0.0
100
AcDbText
  0
TEXT
  5
37E
330
1B4D
100
AcDbEntity
  8
TEXT
 62
     1
100
AcDbText
 10
-183.6163752712799
 20
2.472465488844568
 30
0.0
 40
5.0
  1
Josef Albrecht
 41
0.75
  7
ROMAND
100
AcDbText
  0
TEXT
  5
37F
330
1B4D
100
AcDbEntity
  8
TEXT
 62
     1
100
AcDbText
 10
-113.9761284192554
 20
2.472465488844568
 30
0.0
 40
5.0
  1
73249 Wernau
 41
0.75
  7
ROMAND
100
AcDbText
  0
LINE
  5
380
330
1B4D
100
AcDbEntity
  8
HILFSLINIEN
100
AcDbLine
 10
-70.00004022997796
 20
11.00000000000001
 30
0.0
 11
-50.00004022997796
 21
11.00000000000004
 31
0.0
  0
LINE
  5
381
330
1B4D
100
AcDbEntity
  8
HILFSLINIEN
 62
     5
100
AcDbLine
 10
-50.00004022997794
 20
2.499999999999999
 30
0.0
 11
-70.00004022997794
 21
2.499999999999999
 31
0.0
  0
LINE
  5
382
330
1B4D
100
AcDbEntity
  8
HILFSLINIEN
 62
     5
100
AcDbLine
 10
-70.00004022997794
 20
2.499999999999999
 30
0.0
 11
-185.0000402299779
 21
2.5
 31
0.0
  0
LINE
  5
383
330
1B4D
100
AcDbEntity
  8
HILFSLINIEN
 62
     5
100
AcDbLine
 10
-150.0000402299779
 20
50.75
 30
0.0
 11
-185.0000402299779
 21
50.75
 31
0.0
  0
LINE
  5
384
330
1B4D
100
AcDbEntity
  8
HILFSLINIEN
 62
     5
100
AcDbLine
 10
-140.0000402299779
 20
50.75
 30
0.0
 11
-150.0000402299779
 21
50.75
 31
0.0
  0
LINE
  5
385
330
1B4D
100
AcDbEntity
  8
HILFSLINIEN
 62
     5
100
AcDbLine
 10
-70.00004022997797
 20
50.74999999999999
 30
0.0
 11
-140.0000402299779
 21
50.75
 31
0.0
  0
LINE
  5
386
330
1B4D
100
AcDbEntity
  8
HILFSLINIEN
 62
     5
100
AcDbLine
 10
-50.00004022997797
 20
50.74999999999999
 30
0.0
 11
-70.00004022997797
 21
50.75
 31
0.0
  0
LINE
  5
387
330
1B4D
100
AcDbEntity
  8
HILFSLINIEN
 62
     5
100
AcDbLine
 10
-40.00004022997797
 20
50.74999999999999
 30
0.0
 11
-50.00004022997797
 21
50.75
 31
0.0
  0
LINE
  5
388
330
1B4D
100
AcDbEntity
  8
HILFSLINIEN
 62
     5
100
AcDbLine
 10
-20.00004022997797
 20
50.75
 30
0.0
 11
-40.00004022997797
 21
50.75
 31
0.0
  0
LINE
  5
389
330
1B4D
100
AcDbEntity
  8
HILFSLINIEN
 62
     5
100
AcDbLine
 10
-150.0000402299779
 20
45.75
 30
0.0
 11
-185.0000402299779
 21
45.75
 31
0.0
  0
LINE
  5
38A
330
1B4D
100
AcDbEntity
  8
HILFSLINIEN
 62
     5
100
AcDbLine
 10
-140.0000402299779
 20
45.75
 30
0.0
 11
-150.0000402299779
 21
45.75
 31
0.0
  0
LINE
  5
38B
330
1B4D
100
AcDbEntity
  8
HILFSLINIEN
 62
     5
100
AcDbLine
 10
-70.00004022997797
 20
45.75
 30
0.0
 11
-140.0000402299779
 21
45.75
 31
0.0
  0
LINE
  5
38C
330
1B4D
100
AcDbEntity
  8
HILFSLINIEN
 62
     5
100
AcDbLine
 10
-40.00004022997798
 20
45.75000000000001
 30
0.0
 11
-50.6537323585501
 21
45.75
 31
0.0
  0
LINE
  5
38D
330
1B4D
100
AcDbEntity
  8
HILFSLINIEN
 62
     5
100
AcDbLine
 10
-20.00004022997797
 20
45.75
 30
0.0
 11
-40.00004022997797
 21
45.75
 31
0.0
  0
LINE
  5
38E
330
1B4D
100
AcDbEntity
  8
HILFSLINIEN
100
AcDbLine
 10
-70.00004022997797
 20
45.75
 30
0.0
 11
-50.00004022997797
 21
45.75
 31
0.0
  0
LINE
  5
38F
330
1B4D
100
AcDbEntity
  8
HILFSLINIEN
 62
     5
100
AcDbLine
 10
-157.1958
 20
15.75
 30
0.0
 11
-175.1958
 21
15.75
 31
0.0
  0
LINE
  5
390
330
1B4D
100
AcDbEntity
  8
HILFSLINIEN
 62
     5
100
AcDbLine
 10
-157.1958
 20
10.75
 30
0.0
 11
-175.1958
 21
10.75
 31
0.0
  0
ATTDEF
  5
391
330
1B4D
100
AcDbEntity
  8
TEXT
 62
     1
100
AcDbText
 10
-70.0
 20
30.0
 30
0.0
 40
7.5
  1

 41
0.75
  7
ROMAND
 72
     1
 11
-70.0
 21
30.0
 31
0.0
100
AcDbAttributeDefinition
  3
Zeichn.-Name(29Z)
  2
1
 70
     0
  0
ATTDEF
  5
392
330
1B4D
100
AcDbEntity
  8
TEXT
 62
     1
100
AcDbText
 10
-70.0
 20
22.0
 30
0.0
 40
5.0
  1

 41
0.75
  7
ROMAND
 72
     1
 11
-70.0
 21
22.0
 31
0.0
100
AcDbAttributeDefinition
  3
Zusatzinfo(40Z)
  2
2
 70
     0
  0
ATTDEF
  5
393
330
1B4D
100
AcDbEntity
  8
TEXT
 62
     1
100
AcDbText
 10
-25.0
 20
2.5
 30
0.0
 40
7.5
  1

 41
0.75
  7
ROMAND
 72
     1
 11
-25.0
 21
2.5
 31
0.0
100
AcDbAttributeDefinition
  3
Zeichn.-Nummer
  2
3
 70
     0
  0
ATTDEF
  5
394
330
1B4D
100
AcDbEntity
  8
TEXT
 62
     1
100
AcDbText
 10
-162.5
 20
32.5
 30
0.0
 40
5.0
  1

 41
0.65
  7
ROMAND
 72
     1
 11
-162.5
 21
32.5
 31
0.0
100
AcDbAttributeDefinition
  3
Art.-Nummer
  2
4
 70
     0
  0
ATTDEF
  5
395
330
1B4D
100
AcDbEntity
  8
TEXT
 62
     1
100
AcDbText
 10
-60.0
 20
2.5
 30
0.0
 40
7.5
  1

 41
0.75
  7
ROMAND
 72
     1
 11
-60.0
 21
2.5
 31
0.0
100
AcDbAttributeDefinition
  3
Maßstab 1
  2
5
 70
     0
  0
ATTDEF
  5
396
330
1B4D
100
AcDbEntity
  8
TEXT
100
AcDbText
 10
-60.0
 20
11.0
 30
0.0
 40
3.5
  1

 41
0.75
  7
ROMAND
 72
     1
 11
-60.0
 21
11.0
 31
0.0
100
AcDbAttributeDefinition
  3
Maßstab 2
  2
6
 70
     0
  0
ATTDEF
  5
397
330
1B4D
100
AcDbEntity
  8
TEXT
100
AcDbText
 10
-166.1958
 20
15.75
 30
0.0
 40
3.5
  1

 41
0.75
  7
ROMAND
 72
     1
 11
-166.1958
 21
15.75
 31
0.0
100
AcDbAttributeDefinition
  3
Gez.Datum(6Z)
  2
7
 70
     0
  0
ATTDEF
  5
398
330
1B4D
100
AcDbEntity
  8
TEXT
100
AcDbText
 10
-148.5979
 20
15.75
 30
0.0
 40
3.5
  1

 41
0.75
  7
ROMAND
 72
     1
 11
-148.5979
 21
15.75
 31
0.0
100
AcDbAttributeDefinition
  3
Gez.Name(Kurzz.)
  2
8
 70
     0
  0
ATTDEF
  5
399
330
1B4D
100
AcDbEntity
  8
TEXT
100
AcDbText
 10
-166.1958
 20
10.75
 30
0.0
 40
3.5
  1

 41
0.75
  7
ROMAND
 72
     1
 11
-166.1958
 21
10.75
 31
0.0
100
AcDbAttributeDefinition
  3
Gepr.Datum(6Z)
  2
9
 70
     0
  0
ATTDEF
  5
39A
330
1B4D
100
AcDbEntity
  8
TEXT
100
AcDbText
 10
-148.5979
 20
10.75
 30
0.0
 40
3.5
  1

 41
0.75
  7
ROMAND
 72
     1
 11
-148.5979
 21
10.75
 31
0.0
100
AcDbAttributeDefinition
  3
Gepr.Name(Kurzz.)
  2
10
 70
     0
  0
ATTDEF
  5
39B
330
1B4D
100
AcDbEntity
  8
TEXT
100
AcDbText
 10
-121.2618
 20
11.1168
 30
0.0
 40
2.5
  1

 41
0.75
  7
ROMAND
100
AcDbAttributeDefinition
  3
Ersatz für
  2
11
 70
     0
  0
ATTDEF
  5
39C
330
1B4D
100
AcDbEntity
  8
TEXT
100
AcDbText
 10
-167.5
 20
45.75
 30
0.0
 40
3.5
  1

 41
0.65
  7
ROMAND
 72
     1
 11
-167.5
 21
45.75
 31
0.0
100
AcDbAttributeDefinition
  3
Pos.-Art.-Nr.
  2
12
 70
     0
  0
ATTDEF
  5
39D
330
1B4D
100
AcDbEntity
  8
TEXT
100
AcDbText
 10
-143.3633
 20
45.7664
 30
0.0
 40
3.5
  1

 41
0.65
  7
ROMAND
 72
     2
 11
-143.3633
 21
45.7664
 31
0.0
100
AcDbAttributeDefinition
  3
Teil
  2
13
 70
     0
  0
ATTDEF
  5
39E
330
1B4D
100
AcDbEntity
  8
TEXT
100
AcDbText
 10
-137.7383
 20
45.7664
 30
0.0
 40
3.5
  1

 41
0.65
  7
ROMAND
100
AcDbAttributeDefinition
  3
Benennung
  2
14
 70
     0
  0
ATTDEF
  5
39F
330
1B4D
100
AcDbEntity
  8
TEXT
100
AcDbText
 10
-69.6524
 20
45.7664
 30
0.0
 40
3.5
  1

 41
0.65
  7
ROMAND
100
AcDbAttributeDefinition
  3
Zeichn.-Nr.
  2
15
 70
     0
  0
ATTDEF
  5
3A0
330
1B4D
100
AcDbEntity
  8
TEXT
100
AcDbText
 10
-45.3269
 20
45.75
 30
0.0
 40
3.5
  1

 41
0.65
  7
ROMAND
 72
     1
 11
-45.3269
 21
45.75
 31
0.0
100
AcDbAttributeDefinition
  3
Stück
  2
16
 70
     0
  0
ATTDEF
  5
3A1
330
1B4D
100
AcDbEntity
  8
TEXT
100
AcDbText
 10
-39.9789
 20
45.7664
 30
0.0
 40
3.5
  1

 41
0.65
  7
ROMAND
100
AcDbAttributeDefinition
  3
Werkstoff
  2
17
 70
     0
  0
ATTDEF
  5
3A2
330
1B4D
100
AcDbEntity
  8
TEXT
100
AcDbText
 10
-19.3555
 20
45.7664
 30
0.0
 40
3.5
  1

 41
0.6
  7
ROMAND
100
AcDbAttributeDefinition
  3
Rohmaß
  2
18
 70
     0
  0
TEXT
  5
3A3
330
1B4D
100
AcDbEntity
  8
TEXT
100
AcDbText
 10
-183.8076187041216
 20
20.45208064093261
 30
0.0
 40
3.5
  1
CAD
 41
0.75
  7
ROMAND
100
AcDbText
  0
ATTDEF
  5
3A4
330
1B4D
100
AcDbEntity
  8
TEXT
100
AcDbText
 10
-167.5
 20
50.75
 30
0.0
 40
3.5
  1

 41
0.65
  7
ROMAND
 72
     1
 11
-167.5
 21
50.75
 31
0.0
100
AcDbAttributeDefinition
  3
Pos.-Art.-Nr.
  2
19
 70
     0
  0
ATTDEF
  5
3A5
330
1B4D
100
AcDbEntity
  8
TEXT
100
AcDbText
 10
-143.3633
 20
50.75
 30
0.0
 40
3.5
  1

 41
0.65
  7
ROMAND
 72
     2
 11
-143.3633
 21
50.75
 31
0.0
100
AcDbAttributeDefinition
  3
Teil
  2
20
 70
     0
  0
ATTDEF
  5
3A6
330
1B4D
100
AcDbEntity
  8
TEXT
100
AcDbText
 10
-137.7383
 20
50.8276
 30
0.0
 40
3.5
  1

 41
0.65
  7
ROMAND
100
AcDbAttributeDefinition
  3
Benennung
  2
21
 70
     0
  0
ATTDEF
  5
3A7
330
1B4D
100
AcDbEntity
  8
TEXT
100
AcDbText
 10
-69.6524
 20
50.8276
 30
0.0
 40
3.5
  1

 41
0.65
  7
ROMAND
100
AcDbAttributeDefinition
  3
Zeichng.-Nr.
  2
22
 70
     0
  0
ATTDEF
  5
3A8
330
1B4D
100
AcDbEntity
  8
TEXT
100
AcDbText
 10
-45.3269
 20
50.8276
 30
0.0
 40
3.5
  1

 41
0.65
  7
ROMAND
 72
     1
 11
-45.3269
 21
50.8276
 31
0.0
100
AcDbAttributeDefinition
  3
Stück
  2
23
 70
     0
  0
ATTDEF
  5
3A9
330
1B4D
100
AcDbEntity
  8
TEXT
100
AcDbText
 10
-39.9789
 20
50.8276
 30
0.0
 40
3.5
  1

 41
0.65
  7
ROMAND
100
AcDbAttributeDefinition
  3
Werkstoff
  2
24
 70
     0
  0
ATTDEF
  5
3AA
330
1B4D
100
AcDbEntity
  8
TEXT
100
AcDbText
 10
-19.3555
 20
50.8276
 30
0.0
 40
3.5
  1

 41
0.6
  7
ROMAND
100
AcDbAttributeDefinition
  3
Rohmaß
  2
25
 70
     0
  0
ENDBLK
  5
3AC
330
1B4D
100
AcDbEntity
  8
0
100
AcDbBlockEnd
  0
BLOCK
  5
1B50
330
1B4F
100
AcDbEntity
  8
0
100
AcDbBlockBegin
  2
ZEICHNUNGS-KOPF1-APRIL-05
 70
     2
 10
0.0
 20
0.0
 30
0.0
  3
ZEICHNUNGS-KOPF1-APRIL-05
  1

  0
LINE
  5
81F
330
1B4F
100
AcDbEntity
  8
RAHMEN
 62
     1
100
AcDbLine
 10
-140.0000402299779
 20
25.0
 30
0.0
 11
-185.0000402299779
 21
25.0
 31
0.0
  0
LINE
  5
820
330
1B4F
100
AcDbEntity
  8
RAHMEN
 62
     1
100
AcDbLine
 10
-140.0000402299779
 20
30.0
 30
0.0
 11
-185.0000402299779
 21
30.0
 31
0.0
  0
LINE
  5
821
330
1B4F
100
AcDbEntity
  8
RAHMEN
 62
     1
100
AcDbLine
 10
-0.0000402299779694
 20
55.0
 30
0.0
 11
-185.0000402299779
 21
55.0
 31
0.0
  0
LINE
  5
822
330
1B4F
100
AcDbEntity
  8
RAHMEN
 62
     1
100
AcDbLine
 10
-0.0000402299779694
 20
50.0
 30
0.0
 11
-185.0000402299779
 21
50.0
 31
0.0
  0
LINE
  5
823
330
1B4F
100
AcDbEntity
  8
RAHMEN
 62
     1
100
AcDbLine
 10
-0.0000402299779694
 20
45.0
 30
0.0
 11
-185.0000402299779
 21
45.0
 31
0.0
  0
LINE
  5
824
330
1B4F
100
AcDbEntity
  8
RAHMEN
 62
     1
100
AcDbLine
 10
-0.0000402299779694
 20
40.0
 30
0.0
 11
-185.0000402299779
 21
40.0
 31
0.0
  0
LINE
  5
825
330
1B4F
100
AcDbEntity
  8
RAHMEN
 62
     1
100
AcDbLine
 10
-79.19579999999998
 20
20.0
 30
0.0
 11
-185.0000402299779
 21
20.0
 31
0.0
  0
LINE
  5
826
330
1B4F
100
AcDbEntity
  8
RAHMEN
 62
     1
100
AcDbLine
 10
-185.0000402299779
 20
0.0
 30
0.0
 11
-79.19579999999998
 21
0.0
 31
0.0
  0
LINE
  5
827
330
1B4F
100
AcDbEntity
  8
RAHMEN
 62
     1
100
AcDbLine
 10
-183.1958
 20
55.0
 30
0.0
 11
-0.0000402299779694
 21
55.0
 31
0.0
  0
LINE
  5
828
330
1B4F
100
AcDbEntity
  8
RAHMEN
 62
     1
100
AcDbLine
 10
-183.1958
 20
0.0
 30
0.0
 11
-0.0000402299779694
 21
0.0
 31
0.0
  0
LINE
  5
829
330
1B4F
100
AcDbEntity
  8
RAHMEN
 62
     1
100
AcDbLine
 10
-73.00004022997796
 20
15.0
 30
0.0
 11
-185.0000402299779
 21
15.0
 31
0.0
  0
LINE
  5
82A
330
1B4F
100
AcDbEntity
  8
RAHMEN
 62
     1
100
AcDbLine
 10
-70.00004022997794
 20
20.0
 30
0.0
 11
-185.0000402299779
 21
20.0
 31
0.0
  0
LINE
  5
82B
330
1B4F
100
AcDbEntity
  8
RAHMEN
 62
     1
100
AcDbLine
 10
-185.0000402299779
 20
0.0
 30
0.0
 11
-185.0000402299779
 21
55.0
 31
0.0
  0
LINE
  5
82C
330
1B4F
100
AcDbEntity
  8
RAHMEN
 62
     1
100
AcDbLine
 10
-185.0000402299779
 20
0.0
 30
0.0
 11
-183.1958
 21
0.0
 31
0.0
  0
LINE
  5
82D
330
1B4F
100
AcDbEntity
  8
RAHMEN
 62
     1
100
AcDbLine
 10
-183.1958
 20
0.0
 30
0.0
 11
-183.1958
 21
0.0
 31
0.0
  0
LINE
  5
82E
330
1B4F
100
AcDbEntity
  8
RAHMEN
 62
     1
100
AcDbLine
 10
-175.1958
 20
10.0
 30
0.0
 11
-175.1958
 21
25.0
 31
0.0
  0
LINE
  5
82F
330
1B4F
100
AcDbEntity
  8
RAHMEN
 62
     1
100
AcDbLine
 10
-59.19579999999999
 20
20.0
 30
0.0
 11
-0.0000402299779694
 21
20.0
 31
0.0
  0
LINE
  5
830
330
1B4F
100
AcDbEntity
  8
HILFSLINIEN
 62
     5
100
AcDbLine
 10
-140.0000402299779
 20
30.0
 30
0.0
 11
-0.0000402299779694
 21
30.0
 31
0.0
  0
LINE
  5
831
330
1B4F
100
AcDbEntity
  8
HILFSLINIEN
 62
     5
100
AcDbLine
 10
-142.5000402299779
 20
2.5
 30
0.0
 11
-142.5000402299779
 21
10.0
 31
0.0
  0
LINE
  5
832
330
1B4F
100
AcDbEntity
  8
RAHMEN
 62
     1
100
AcDbLine
 10
-157.1958
 20
10.0
 30
0.0
 11
-157.1958
 21
25.0
 31
0.0
  0
LINE
  5
833
330
1B4F
100
AcDbEntity
  8
RAHMEN
 62
     1
100
AcDbLine
 10
-150.0000402299779
 20
40.0
 30
0.0
 11
-150.0000402299779
 21
55.0
 31
0.0
  0
LINE
  5
834
330
1B4F
100
AcDbEntity
  8
RAHMEN
 62
     1
100
AcDbLine
 10
-140.0000402299779
 20
10.0
 30
0.0
 11
-140.0000402299779
 21
55.0
 31
0.0
  0
LINE
  5
835
330
1B4F
100
AcDbEntity
  8
HILFSLINIEN
 62
     5
100
AcDbLine
 10
-112.5000402299779
 20
10.0
 30
0.0
 11
-112.5000402299779
 21
2.5
 31
0.0
  0
LINE
  5
836
330
1B4F
100
AcDbEntity
  8
RAHMEN
 62
     1
100
AcDbLine
 10
-73.00004022997794
 20
0.0
 30
0.0
 11
-73.00004022997796
 21
20.0
 31
0.0
  0
LINE
  5
837
330
1B4F
100
AcDbEntity
  8
RAHMEN
 62
     1
100
AcDbLine
 10
-79.19579999999998
 20
0.0
 30
0.0
 11
-59.19579999999999
 21
0.0
 31
0.0
  0
LINE
  5
838
330
1B4F
100
AcDbEntity
  8
RAHMEN
 62
     1
100
AcDbLine
 10
-59.19579999999999
 20
20.0
 30
0.0
 11
-79.19579999999998
 21
20.0
 31
0.0
  0
LINE
  5
839
330
1B4F
100
AcDbEntity
  8
RAHMEN
 62
     1
100
AcDbLine
 10
-70.00004022997797
 20
40.0
 30
0.0
 11
-70.00004022997797
 21
55.0
 31
0.0
  0
LINE
  5
83A
330
1B4F
100
AcDbEntity
  8
RAHMEN
 62
     1
100
AcDbLine
 10
-58.00004022997794
 20
0.0000000000000355
 30
0.0
 11
-58.00004022997796
 21
20.00000000000003
 31
0.0
  0
LINE
  5
83B
330
1B4F
100
AcDbEntity
  8
RAHMEN
 62
     1
100
AcDbLine
 10
-50.00004022997797
 20
40.0
 30
0.0
 11
-50.00004022997797
 21
55.0
 31
0.0
  0
LINE
  5
83C
330
1B4F
100
AcDbEntity
  8
RAHMEN
 62
     1
100
AcDbLine
 10
-40.00004022997797
 20
40.0
 30
0.0
 11
-40.00004022997797
 21
55.0
 31
0.0
  0
LINE
  5
83D
330
1B4F
100
AcDbEntity
  8
RAHMEN
 62
     1
100
AcDbLine
 10
-0.0000402299779694
 20
0.0
 30
0.0
 11
-0.0000402299779694
 21
55.0
 31
0.0
  0
LINE
  5
83E
330
1B4F
100
AcDbEntity
  8
RAHMEN
 62
     1
100
AcDbLine
 10
-20.00004022997797
 20
40.0
 30
0.0
 11
-20.00004022997797
 21
55.0
 31
0.0
  0
LINE
  5
83F
330
1B4F
100
AcDbEntity
  8
HILFSLINIEN
 62
     5
100
AcDbLine
 10
-0.0000402299779694
 20
45.75
 30
0.0
 11
-20.00004022997797
 21
45.75
 31
0.0
  0
LINE
  5
840
330
1B4F
100
AcDbEntity
  8
HILFSLINIEN
 62
     5
100
AcDbLine
 10
-0.0000402299779694
 20
50.75
 30
0.0
 11
-20.00004022997797
 21
50.75
 31
0.0
  0
LINE
  5
841
330
1B4F
100
AcDbEntity
  8
HILFSLINIEN
 62
     5
100
AcDbLine
 10
-140.0000402299779
 20
32.5
 30
0.0
 11
-185.0000402299779
 21
32.5
 31
0.0
  0
LINE
  5
842
330
1B4F
100
AcDbEntity
  8
HILFSLINIEN
 62
     5
100
AcDbLine
 10
-140.0000402299779
 20
22.0
 30
0.0
 11
-0.0000402299779694
 21
22.0
 31
0.0
  0
LINE
  5
843
330
1B4F
100
AcDbEntity
  8
RAHMEN
 62
     1
100
AcDbLine
 10
-73.00004022997796
 20
10.0
 30
0.0
 11
-185.0000402299779
 21
10.0
 31
0.0
  0
LINE
  5
844
330
1B4F
100
AcDbEntity
  8
HILFSLINIEN
 62
     5
100
AcDbLine
 10
-0.0000402299779694
 20
2.499999999999999
 30
0.0
 11
-50.00004022997794
 21
2.499999999999999
 31
0.0
  0
LINE
  5
845
330
1B4F
100
AcDbEntity
  8
HILFSLINIEN
 62
     5
100
AcDbLine
 10
-0.0000402299779694
 20
41.0
 30
0.0
 11
-185.0000402299779
 21
41.0
 31
0.0
  0
LINE
  5
846
330
1B4F
100
AcDbEntity
  8
HILFSLINIEN
 62
     5
100
AcDbLine
 10
-140.0000402299779
 20
26.0
 30
0.0
 11
-185.0000402299779
 21
26.0
 31
0.0
  0
LINE
  5
847
330
1B4F
100
AcDbEntity
  8
HILFSLINIEN
 62
     5
100
AcDbLine
 10
-140.0000402299779
 20
21.0
 30
0.0
 11
-185.0000402299779
 21
21.0
 31
0.0
  0
LINE
  5
848
330
1B4F
100
AcDbEntity
  8
HILFSLINIEN
 62
     5
100
AcDbLine
 10
-0.0000402299779694
 20
16.00000000000001
 30
0.0
 11
-140.0000402299779
 21
16.0
 31
0.0
  0
LINE
  5
849
330
1B4F
100
AcDbEntity
  8
HILFSLINIEN
 62
     5
100
AcDbLine
 10
-70.00004022997796
 20
11.00000000000001
 30
0.0
 11
-140.0000402299779
 21
11.0
 31
0.0
  0
LINE
  5
84A
330
1B4F
100
AcDbEntity
  8
HILFSLINIEN
 62
     5
100
AcDbLine
 10
-140.0000402299779
 20
10.75
 30
0.0
 11
-157.1958
 21
10.75
 31
0.0
  0
LINE
  5
84B
330
1B4F
100
AcDbEntity
  8
HILFSLINIEN
 62
     5
100
AcDbLine
 10
-175.1958
 20
16.0
 30
0.0
 11
-185.0000402299779
 21
16.0
 31
0.0
  0
LINE
  5
84C
330
1B4F
100
AcDbEntity
  8
HILFSLINIEN
 62
     5
100
AcDbLine
 10
-175.1958
 20
11.0
 30
0.0
 11
-185.0000402299779
 21
11.0
 31
0.0
  0
LINE
  5
84D
330
1B4F
100
AcDbEntity
  8
HILFSLINIEN
 62
     5
100
AcDbLine
 10
-140.0000402299779
 20
15.75
 30
0.0
 11
-157.1958
 21
15.75
 31
0.0
  0
TEXT
  5
84E
330
1B4F
100
AcDbEntity
  8
TEXT
100
AcDbText
 10
-178.3544303916816
 20
41.08052227112436
 30
0.0
 40
2.5
  1
Artikel-Nummer
 41
0.75
  7
ROMANS
 72
     1
 11
-167.1044303916816
 21
41.08052227112436
 31
0.0
100
AcDbText
  0
TEXT
  5
84F
330
1B4F
100
AcDbEntity
  8
TEXT
100
AcDbText
 10
-147.1932643448926
 20
41.08052227112436
 30
0.0
 40
2.5
  1
Teil
 41
0.75
  7
ROMANS
 72
     1
 11
-145.0950500591783
 21
41.08052227112436
 31
0.0
100
AcDbText
  0
TEXT
  5
850
330
1B4F
100
AcDbEntity
  8
TEXT
100
AcDbText
 10
-174.4901878787306
 20
25.97728905893306
 30
0.0
 40
2.5
  1
Artikel-Nummer
 41
0.75
  7
ROMANS
 72
     1
 11
-163.2401878787306
 21
25.97728905893306
 31
0.0
100
AcDbText
  0
TEXT
  5
851
330
1B4F
100
AcDbEntity
  8
TEXT
100
AcDbText
 10
-171.1093269294519
 20
20.94287798820262
 30
0.0
 40
2.5
  1
Datum
 41
0.75
  7
ROMANS
 72
     1
 11
-166.6003983580233
 21
20.94287798820262
 31
0.0
100
AcDbText
  0
TEXT
  5
852
330
1B4F
100
AcDbEntity
  8
TEXT
100
AcDbText
 10
-152.8091390371002
 20
20.94287798820262
 30
0.0
 40
2.5
  1
Name
 41
0.75
  7
ROMANS
 72
     1
 11
-148.7912818942431
 21
20.94287798820262
 31
0.0
100
AcDbText
  0
TEXT
  5
853
330
1B4F
100
AcDbEntity
  8
TEXT
100
AcDbText
 10
-184.0734942356386
 20
16.07628075171095
 30
0.0
 40
2.5
  1
Gez.:
 41
0.75
  7
ROMANS
100
AcDbText
  0
TEXT
  5
854
330
1B4F
100
AcDbEntity
  8
TEXT
100
AcDbText
 10
-183.9054843273598
 20
11.0418696809805
 30
0.0
 40
2.5
  1
Gepr.:
 41
0.75
  7
ROMANS
100
AcDbText
  0
TEXT
  5
855
330
1B4F
100
AcDbEntity
  8
TEXT
100
AcDbText
 10
-139.0466702729225
 20
11.0418696809805
 30
0.0
 40
2.5
  1
Ersatz für:
 41
0.75
  7
ROMANS
100
AcDbText
  0
TEXT
  5
856
330
1B4F
100
AcDbEntity
  8
TEXT
100
AcDbText
 10
-138.8786603646438
 20
16.07628075171095
 30
0.0
 40
2.5
  1
Nicht tolerierte Maße nach DIN 7168-m
 41
0.75
  7
ROMANS
100
AcDbText
  0
TEXT
  5
857
330
1B4F
100
AcDbEntity
  8
TEXT
100
AcDbText
 10
-141.0294041087638
 20
2.483371168461284
 30
0.0
 40
2.5
  1
Bohrfutterfabrik
 41
0.75
  7
ROMANS
 72
     1
 11
-129.9579755373352
 21
2.483371168461284
 31
0.0
100
AcDbText
  0
TEXT
  5
858
330
1B4F
100
AcDbEntity
  8
TEXT
100
AcDbText
 10
-71.34064642411388
 20
16.07628075171095
 30
0.0
 40
2.5
  1
Maßstab
 41
0.75
  7
ROMANS
 72
     1
 11
-65.58171785268531
 21
16.07628075171095
 31
0.0
100
AcDbText
  0
TEXT
  5
859
330
1B4F
100
AcDbEntity
  8
TEXT
100
AcDbText
 10
-48.97557871727793
 20
15.90846691747219
 30
0.0
 40
2.5
  1
Zeichnungs-Nummer
 41
0.75
  7
ROMANS
 72
     1
 11
-33.97557871727794
 21
15.90846691747219
 31
0.0
100
AcDbText
  0
TEXT
  5
85A
330
1B4F
100
AcDbEntity
  8
TEXT
100
AcDbText
 10
-113.7505336845391
 20
40.91270887648915
 30
0.0
 40
2.5
  1
Benennung
 41
0.75
  7
ROMANS
 72
     1
 11
-106.1166051131106
 21
40.91270887648915
 31
0.0
100
AcDbText
  0
TEXT
  5
85B
330
1B4F
100
AcDbEntity
  8
TEXT
100
AcDbText
 10
-68.88692223012085
 20
41.08052227112436
 30
0.0
 40
2.5
  1
Zeichng.-Nr.
 41
0.75
  7
ROMANS
 72
     1
 11
-59.91370794440658
 21
41.08052227112436
 31
0.0
100
AcDbText
  0
TEXT
  5
85C
330
1B4F
100
AcDbEntity
  8
TEXT
100
AcDbText
 10
-48.84469849768939
 20
41.08052227112436
 30
0.0
 40
2.5
  1
Stück
 41
0.75
  7
ROMANS
 72
     1
 11
-44.96076992626082
 21
41.08052227112436
 31
0.0
100
AcDbText
  0
TEXT
  5
85D
330
1B4F
100
AcDbEntity
  8
TEXT
100
AcDbText
 10
-37.10844604823094
 20
41.08052227112436
 30
0.0
 40
2.5
  1
Werkstoff
 41
0.75
  7
ROMANS
 72
     1
 11
-30.67987461965952
 21
41.08052227112436
 31
0.0
100
AcDbText
  0
TEXT
  5
85E
330
1B4F
100
AcDbEntity
  8
TEXT
100
AcDbText
 10
-16.02024238394536
 20
41.08052227112436
 30
0.0
 40
2.5
  1
Rohmaß
 41
0.75
  7
ROMANS
 72
     1
 11
-10.3505995268025
 21
41.08052227112436
 31
0.0
100
AcDbText
  0
TEXT
  5
85F
330
1B4F
100
AcDbEntity
  8
TEXT
 62
     1
100
AcDbText
 10
-184.6163752712799
 20
2.472465488844568
 30
0.0
 40
5.0
  1
Josef Albrecht
 41
0.75
  7
ROMAND
100
AcDbText
  0
TEXT
  5
860
330
1B4F
100
AcDbEntity
  8
TEXT
 62
     1
100
AcDbText
 10
-116.9761284192554
 20
2.472465488844568
 30
0.0
 40
5.0
  1
73249 Wernau
 41
0.75
  7
ROMAND
100
AcDbText
  0
LINE
  5
861
330
1B4F
100
AcDbEntity
  8
HILFSLINIEN
100
AcDbLine
 10
-70.00004022997796
 20
11.00000000000001
 30
0.0
 11
-50.00004022997796
 21
11.00000000000004
 31
0.0
  0
LINE
  5
862
330
1B4F
100
AcDbEntity
  8
HILFSLINIEN
 62
     5
100
AcDbLine
 10
-50.00004022997794
 20
2.499999999999999
 30
0.0
 11
-70.00004022997794
 21
2.499999999999999
 31
0.0
  0
LINE
  5
863
330
1B4F
100
AcDbEntity
  8
HILFSLINIEN
 62
     5
100
AcDbLine
 10
-70.00004022997794
 20
2.499999999999999
 30
0.0
 11
-185.0000402299779
 21
2.5
 31
0.0
  0
LINE
  5
864
330
1B4F
100
AcDbEntity
  8
HILFSLINIEN
 62
     5
100
AcDbLine
 10
-150.0000402299779
 20
50.75
 30
0.0
 11
-185.0000402299779
 21
50.75
 31
0.0
  0
LINE
  5
865
330
1B4F
100
AcDbEntity
  8
HILFSLINIEN
 62
     5
100
AcDbLine
 10
-140.0000402299779
 20
50.75
 30
0.0
 11
-150.0000402299779
 21
50.75
 31
0.0
  0
LINE
  5
866
330
1B4F
100
AcDbEntity
  8
HILFSLINIEN
 62
     5
100
AcDbLine
 10
-70.00004022997797
 20
50.74999999999999
 30
0.0
 11
-140.0000402299779
 21
50.75
 31
0.0
  0
LINE
  5
867
330
1B4F
100
AcDbEntity
  8
HILFSLINIEN
 62
     5
100
AcDbLine
 10
-50.00004022997797
 20
50.74999999999999
 30
0.0
 11
-70.00004022997797
 21
50.75
 31
0.0
  0
LINE
  5
868
330
1B4F
100
AcDbEntity
  8
HILFSLINIEN
 62
     5
100
AcDbLine
 10
-40.00004022997797
 20
50.74999999999999
 30
0.0
 11
-50.00004022997797
 21
50.75
 31
0.0
  0
LINE
  5
869
330
1B4F
100
AcDbEntity
  8
HILFSLINIEN
 62
     5
100
AcDbLine
 10
-20.00004022997797
 20
50.75
 30
0.0
 11
-40.00004022997797
 21
50.75
 31
0.0
  0
LINE
  5
86A
330
1B4F
100
AcDbEntity
  8
HILFSLINIEN
 62
     5
100
AcDbLine
 10
-150.0000402299779
 20
45.75
 30
0.0
 11
-185.0000402299779
 21
45.75
 31
0.0
  0
LINE
  5
86B
330
1B4F
100
AcDbEntity
  8
HILFSLINIEN
 62
     5
100
AcDbLine
 10
-140.0000402299779
 20
45.75
 30
0.0
 11
-150.0000402299779
 21
45.75
 31
0.0
  0
LINE
  5
86C
330
1B4F
100
AcDbEntity
  8
HILFSLINIEN
 62
     5
100
AcDbLine
 10
-70.00004022997797
 20
45.75
 30
0.0
 11
-140.0000402299779
 21
45.75
 31
0.0
  0
LINE
  5
86D
330
1B4F
100
AcDbEntity
  8
HILFSLINIEN
 62
     5
100
AcDbLine
 10
-40.00004022997798
 20
45.75000000000001
 30
0.0
 11
-50.6537323585501
 21
45.75
 31
0.0
  0
LINE
  5
86E
330
1B4F
100
AcDbEntity
  8
HILFSLINIEN
 62
     5
100
AcDbLine
 10
-20.00004022997797
 20
45.75
 30
0.0
 11
-40.00004022997797
 21
45.75
 31
0.0
  0
LINE
  5
86F
330
1B4F
100
AcDbEntity
  8
HILFSLINIEN
100
AcDbLine
 10
-70.00004022997797
 20
45.75
 30
0.0
 11
-50.00004022997797
 21
45.75
 31
0.0
  0
LINE
  5
870
330
1B4F
100
AcDbEntity
  8
HILFSLINIEN
 62
     5
100
AcDbLine
 10
-157.1958
 20
15.75
 30
0.0
 11
-175.1958
 21
15.75
 31
0.0
  0
LINE
  5
871
330
1B4F
100
AcDbEntity
  8
HILFSLINIEN
 62
     5
100
AcDbLine
 10
-157.1958
 20
10.75
 30
0.0
 11
-175.1958
 21
10.75
 31
0.0
  0
ATTDEF
  5
872
330
1B4F
100
AcDbEntity
  8
TEXT
 62
     1
100
AcDbText
 10
-70.0
 20
30.0
 30
0.0
 40
7.5
  1

 41
0.75
  7
ROMAND
 72
     1
 11
-70.0
 21
30.0
 31
0.0
100
AcDbAttributeDefinition
  3
Zeichn.-Name(29Z)
  2
1
 70
     0
  0
ATTDEF
  5
873
330
1B4F
100
AcDbEntity
  8
TEXT
 62
     1
100
AcDbText
 10
-70.0
 20
22.0
 30
0.0
 40
5.0
  1

 41
0.75
  7
ROMAND
 72
     1
 11
-70.0
 21
22.0
 31
0.0
100
AcDbAttributeDefinition
  3
Zusatzinfo(40Z)
  2
2
 70
     0
  0
ATTDEF
  5
874
330
1B4F
100
AcDbEntity
  8
TEXT
 62
     1
100
AcDbText
 10
-33.0
 20
2.5
 30
0.0
 40
7.5
  1

 41
0.75
  7
ROMAND
 72
     1
 11
-33.0
 21
2.5
 31
0.0
100
AcDbAttributeDefinition
  3
Zeichn.-Nummer
  2
3
 70
     0
  0
ATTDEF
  5
875
330
1B4F
100
AcDbEntity
  8
TEXT
 62
     1
100
AcDbText
 10
-162.5
 20
32.5
 30
0.0
 40
5.0
  1

 41
0.65
  7
ROMAND
 72
     1
 11
-162.5
 21
32.5
 31
0.0
100
AcDbAttributeDefinition
  3
Art.-Nummer
  2
4
 70
     0
  0
ATTDEF
  5
876
330
1B4F
100
AcDbEntity
  8
TEXT
 62
     1
100
AcDbText
 10
-65.5
 20
2.5
 30
0.0
 40
7.5
  1

 41
0.75
  7
ROMAND
 72
     1
 11
-65.5
 21
2.5
 31
0.0
100
AcDbAttributeDefinition
  3
Maßstab 1
  2
2:1
 70
     0
  0
ATTDEF
  5
877
330
1B4F
100
AcDbEntity
  8
TEXT
100
AcDbText
 10
-65.5
 20
11.0
 30
0.0
 40
3.5
  1

 41
0.75
  7
ROMAND
 72
     1
 11
-65.5
 21
11.0
 31
0.0
100
AcDbAttributeDefinition
  3
Maßstab 2
  2
6
 70
     0
  0
ATTDEF
  5
878
330
1B4F
100
AcDbEntity
  8
TEXT
100
AcDbText
 10
-166.1958
 20
15.75
 30
0.0
 40
3.5
  1

 41
0.75
  7
ROMAND
 72
     1
 11
-166.1958
 21
15.75
 31
0.0
100
AcDbAttributeDefinition
  3
Gez.Datum(6Z)
  2
7
 70
     0
  0
ATTDEF
  5
879
330
1B4F
100
AcDbEntity
  8
TEXT
100
AcDbText
 10
-148.5979
 20
15.75
 30
0.0
 40
3.5
  1

 41
0.75
  7
ROMAND
 72
     1
 11
-148.5979
 21
15.75
 31
0.0
100
AcDbAttributeDefinition
  3
Gez.Name(Kurzz.)
  2
8
 70
     0
  0
ATTDEF
  5
87A
330
1B4F
100
AcDbEntity
  8
TEXT
100
AcDbText
 10
-166.1958
 20
10.75
 30
0.0
 40
3.5
  1

 41
0.75
  7
ROMAND
 72
     1
 11
-166.1958
 21
10.75
 31
0.0
100
AcDbAttributeDefinition
  3
Gepr.Datum(6Z)
  2
9
 70
     0
  0
ATTDEF
  5
87B
330
1B4F
100
AcDbEntity
  8
TEXT
100
AcDbText
 10
-148.5979
 20
10.75
 30
0.0
 40
3.5
  1

 41
0.75
  7
ROMAND
 72
     1
 11
-148.5979
 21
10.75
 31
0.0
100
AcDbAttributeDefinition
  3
Gepr.Name(Kurzz.)
  2
10
 70
     0
  0
ATTDEF
  5
87C
330
1B4F
100
AcDbEntity
  8
TEXT
100
AcDbText
 10
-121.2618
 20
11.1168
 30
0.0
 40
2.5
  1

 41
0.75
  7
ROMAND
100
AcDbAttributeDefinition
  3
Ersatz für
  2
11
 70
     0
  0
ATTDEF
  5
87D
330
1B4F
100
AcDbEntity
  8
TEXT
100
AcDbText
 10
-167.5
 20
45.75
 30
0.0
 40
3.5
  1

 41
0.65
  7
ROMAND
 72
     1
 11
-167.5
 21
45.75
 31
0.0
100
AcDbAttributeDefinition
  3
Pos.-Art.-Nr.
  2
12
 70
     0
  0
ATTDEF
  5
87E
330
1B4F
100
AcDbEntity
  8
TEXT
100
AcDbText
 10
-143.3633
 20
45.7664
 30
0.0
 40
3.5
  1

 41
0.65
  7
ROMAND
 72
     2
 11
-143.3633
 21
45.7664
 31
0.0
100
AcDbAttributeDefinition
  3
Teil
  2
13
 70
     0
  0
ATTDEF
  5
87F
330
1B4F
100
AcDbEntity
  8
TEXT
100
AcDbText
 10
-137.7383
 20
45.7664
 30
0.0
 40
3.5
  1

 41
0.65
  7
ROMAND
100
AcDbAttributeDefinition
  3
Benennung
  2
14
 70
     0
  0
ATTDEF
  5
880
330
1B4F
100
AcDbEntity
  8
TEXT
100
AcDbText
 10
-69.6524
 20
45.7664
 30
0.0
 40
3.5
  1

 41
0.65
  7
ROMAND
100
AcDbAttributeDefinition
  3
Zeichn.-Nr.
  2
15
 70
     0
  0
ATTDEF
  5
881
330
1B4F
100
AcDbEntity
  8
TEXT
100
AcDbText
 10
-45.3269
 20
45.75
 30
0.0
 40
3.5
  1

 41
0.65
  7
ROMAND
 72
     1
 11
-45.3269
 21
45.75
 31
0.0
100
AcDbAttributeDefinition
  3
Stück
  2
16
 70
     0
  0
ATTDEF
  5
882
330
1B4F
100
AcDbEntity
  8
TEXT
100
AcDbText
 10
-39.9789
 20
45.7664
 30
0.0
 40
3.5
  1

 41
0.65
  7
ROMAND
100
AcDbAttributeDefinition
  3
Werkstoff
  2
17
 70
     0
  0
ATTDEF
  5
883
330
1B4F
100
AcDbEntity
  8
TEXT
100
AcDbText
 10
-19.3555
 20
45.7664
 30
0.0
 40
3.5
  1

 41
0.6
  7
ROMAND
100
AcDbAttributeDefinition
  3
Rohmaß
  2
18
 70
     0
  0
TEXT
  5
884
330
1B4F
100
AcDbEntity
  8
TEXT
100
AcDbText
 10
-183.8076187041216
 20
20.45208064093261
 30
0.0
 40
3.5
  1
CAD
 41
0.75
  7
ROMAND
100
AcDbText
  0
ATTDEF
  5
885
330
1B4F
100
AcDbEntity
  8
TEXT
100
AcDbText
 10
-167.5
 20
50.75
 30
0.0
 40
3.5
  1

 41
0.65
  7
ROMAND
 72
     1
 11
-167.5
 21
50.75
 31
0.0
100
AcDbAttributeDefinition
  3
Pos.-Art.-Nr.
  2
19
 70
     0
  0
ATTDEF
  5
886
330
1B4F
100
AcDbEntity
  8
TEXT
100
AcDbText
 10
-143.3633
 20
50.75
 30
0.0
 40
3.5
  1

 41
0.65
  7
ROMAND
 72
     2
 11
-143.3633
 21
50.75
 31
0.0
100
AcDbAttributeDefinition
  3
Teil
  2
20
 70
     0
  0
ATTDEF
  5
887
330
1B4F
100
AcDbEntity
  8
TEXT
100
AcDbText
 10
-137.7383
 20
50.8276
 30
0.0
 40
3.5
  1

 41
0.65
  7
ROMAND
100
AcDbAttributeDefinition
  3
Benennung
  2
21
 70
     0
  0
ATTDEF
  5
888
330
1B4F
100
AcDbEntity
  8
TEXT
100
AcDbText
 10
-69.6524
 20
50.8276
 30
0.0
 40
3.5
  1

 41
0.65
  7
ROMAND
100
AcDbAttributeDefinition
  3
Zeichng.-Nr.
  2
22
 70
     0
  0
ATTDEF
  5
889
330
1B4F
100
AcDbEntity
  8
TEXT
100
AcDbText
 10
-45.3269
 20
50.8276
 30
0.0
 40
3.5
  1

 41
0.65
  7
ROMAND
 72
     1
 11
-45.3269
 21
50.8276
 31
0.0
100
AcDbAttributeDefinition
  3
Stück
  2
23
 70
     0
  0
ATTDEF
  5
88A
330
1B4F
100
AcDbEntity
  8
TEXT
100
AcDbText
 10
-39.9789
 20
50.8276
 30
0.0
 40
3.5
  1

 41
0.65
  7
ROMAND
100
AcDbAttributeDefinition
  3
Werkstoff
  2
24
 70
     0
  0
ATTDEF
  5
88B
330
1B4F
100
AcDbEntity
  8
TEXT
100
AcDbText
 10
-19.3555
 20
50.8276
 30
0.0
 40
3.5
  1

 41
0.6
  7
ROMAND
100
AcDbAttributeDefinition
  3
Rohmaß
  2
25
 70
     0
  0
LINE
  5
88C
330
1B4F
100
AcDbEntity
  8
RAHMEN
 62
     1
100
AcDbLine
 10
-8.000040229977937
 20
0.0000000000001066
 30
0.0
 11
-8.000040229977969
 21
20.00000000000011
 31
0.0
  0
LINE
  5
88D
330
1B4F
100
AcDbEntity
  8
RAHMEN
 62
     1
100
AcDbLine
 10
-8.000040229977955
 20
10.0
 30
0.0
 11
-0.0000402299779694
 21
10.0
 31
0.0
  0
TEXT
  5
88E
330
1B4F
100
AcDbEntity
  8
TEXT
100
AcDbText
 10
-7.132066093341332
 20
16.07628075171095
 30
0.0
 40
2.5
  1
Blatt
 41
0.75
  7
ROMANS
 72
     1
 11
-3.828494664769904
 21
16.07628075171095
 31
0.0
100
AcDbText
  0
TEXT
  5
88F
330
1B4F
100
AcDbEntity
  8
TEXT
100
AcDbText
 10
-6.658712932013695
 20
4.116519058859505
 30
0.0
 40
2.5
  1
A  
 41
0.75
  7
ROMANS
 72
     1
 11
-3.980141503442267
 21
4.116519058859505
 31
0.0
100
AcDbText
  0
ATTDEF
  5
890
330
1B4F
100
AcDbEntity
  8
TEXT
100
AcDbText
 10
-4.000040229977956
 20
12.10218727492742
 30
0.0
 40
2.5
  1

 41
0.75
  7
ROMANS
 72
     1
 11
-4.000040229977956
 21
12.10218727492742
 31
0.0
100
AcDbAttributeDefinition
  3
Blatt
  2
1(1)
 70
     0
  0
ATTDEF
  5
891
330
1B4F
100
AcDbEntity
  8
TEXT
100
AcDbText
 10
-1.50004022997796
 20
4.102187274927413
 30
0.0
 40
2.5
  1

 41
0.75
  7
ROMANS
 72
     2
 11
-1.50004022997796
 21
4.102187274927413
 31
0.0
100
AcDbAttributeDefinition
  3
Bl.
  2
4
 70
     0
  0
ENDBLK
  5
801
330
1B4F
100
AcDbEntity
  8
0
100
AcDbBlockEnd
  0
BLOCK
  5
1B52
330
1B51
100
AcDbEntity
  8
0
100
AcDbBlockBegin
  2
A3-APRIL-05
 70
     0
 10
0.0
 20
0.0
 30
0.0
  3
A3-APRIL-05
  1

  0
LINE
  5
8B1
330
1B51
100
AcDbEntity
  8
RAHMEN
100
AcDbLine
 10
0.0
 20
0.0
 30
0.0
 11
420.0
 21
0.0
 31
0.0
  0
LINE
  5
8B2
330
1B51
100
AcDbEntity
  8
RAHMEN
100
AcDbLine
 10
420.0
 20
0.0
 30
0.0
 11
420.0
 21
297.0
 31
0.0
  0
LINE
  5
8B3
330
1B51
100
AcDbEntity
  8
RAHMEN
100
AcDbLine
 10
420.0
 20
297.0
 30
0.0
 11
0.0
 21
297.0
 31
0.0
  0
LINE
  5
8B4
330
1B51
100
AcDbEntity
  8
RAHMEN
100
AcDbLine
 10
0.0
 20
297.0
 30
0.0
 11
0.0
 21
0.0
 31
0.0
  0
LINE
  5
8B5
330
1B51
100
AcDbEntity
  8
0
100
AcDbLine
 10
0.0
 20
0.0
 30
0.0
 11
0.0
 21
0.0
 31
0.0
  0
LINE
  5
8B6
330
1B51
100
AcDbEntity
  8
RAHMEN
 62
     1
100
AcDbLine
 10
25.0
 20
5.0
 30
0.0
 11
415.0
 21
5.0
 31
0.0
  0
LINE
  5
8B7
330
1B51
100
AcDbEntity
  8
RAHMEN
 62
     1
100
AcDbLine
 10
415.0
 20
5.0
 30
0.0
 11
415.0
 21
292.0
 31
0.0
  0
LINE
  5
8B8
330
1B51
100
AcDbEntity
  8
RAHMEN
 62
     1
100
AcDbLine
 10
415.0
 20
292.0
 30
0.0
 11
25.0
 21
292.0
 31
0.0
  0
LINE
  5
8B9
330
1B51
100
AcDbEntity
  8
RAHMEN
 62
     1
100
AcDbLine
 10
25.0
 20
292.0
 30
0.0
 11
25.0
 21
5.0
 31
0.0
  0
LINE
  5
8BA
330
1B51
100
AcDbEntity
  8
0
100
AcDbLine
 10
25.0
 20
5.0
 30
0.0
 11
25.0
 21
5.0
 31
0.0
  0
LINE
  5
8BB
330
1B51
100
AcDbEntity
  8
RAHMEN
100
AcDbLine
 10
230.0
 20
0.0
 30
0.0
 11
230.0
 21
5.0
 31
0.0
  0
LINE
  5
8BC
330
1B51
100
AcDbEntity
  8
RAHMEN
100
AcDbLine
 10
230.0
 20
292.0
 30
0.0
 11
230.0
 21
297.0
 31
0.0
  0
LINE
  5
8BD
330
1B51
100
AcDbEntity
  8
RAHMEN
100
AcDbLine
 10
125.0
 20
0.0
 30
0.0
 11
125.0
 21
5.0
 31
0.0
  0
LINE
  5
8BE
330
1B51
100
AcDbEntity
  8
RAHMEN
100
AcDbLine
 10
125.0
 20
292.0
 30
0.0
 11
125.0
 21
297.0
 31
0.0
  0
ENDBLK
  5
8C0
330
1B51
100
AcDbEntity
  8
0
100
AcDbBlockEnd
  0
BLOCK
  5
1B54
330
1B53
100
AcDbEntity
  8
0
100
AcDbBlockBegin
  2
AENDERUNGS-KOPF1-_1-6_-APR
 70
     2
 10
0.0
 20
0.0
 30
0.0
  3
AENDERUNGS-KOPF1-_1-6_-APR
  1

  0
LINE
  5
99F
330
1B53
100
AcDbEntity
  8
RAHMEN
100
AcDbLine
 10
0.0
 20
297.0
 30
0.0
 11
0.0
 21
0.0
 31
0.0
  0
LINE
  5
9A0
330
1B53
100
AcDbEntity
  8
0
100
AcDbLine
 10
5.0
 20
5.0
 30
0.0
 11
5.0
 21
5.0
 31
0.0
  0
LINE
  5
9A1
330
1B53
100
AcDbEntity
  8
HILFSLINIEN
100
AcDbLine
 10
18.75
 20
0.0
 30
0.0
 11
18.75
 21
2.0
 31
0.0
  0
LINE
  5
9A2
330
1B53
100
AcDbEntity
  8
HILFSLINIEN
100
AcDbLine
 10
18.75
 20
2.0
 30
0.0
 11
15.0
 21
2.0
 31
0.0
  0
CIRCLE
  5
9A3
330
1B53
100
AcDbEntity
  8
TEXT
100
AcDbCircle
 10
21.875
 20
7.0
 30
0.0
 40
1.7
  0
LINE
  5
9A4
330
1B53
100
AcDbEntity
  8
HILFSLINIEN
100
AcDbLine
 10
13.75
 20
0.0
 30
0.0
 11
13.75
 21
2.0
 31
0.0
  0
LINE
  5
9A5
330
1B53
100
AcDbEntity
  8
HILFSLINIEN
100
AcDbLine
 10
13.75
 20
2.0
 30
0.0
 11
10.0
 21
2.0
 31
0.0
  0
CIRCLE
  5
9A6
330
1B53
100
AcDbEntity
  8
TEXT
100
AcDbCircle
 10
16.875
 20
7.0
 30
0.0
 40
1.7
  0
LINE
  5
9A7
330
1B53
100
AcDbEntity
  8
HILFSLINIEN
100
AcDbLine
 10
8.75
 20
0.0
 30
0.0
 11
8.75
 21
2.0
 31
0.0
  0
LINE
  5
9A8
330
1B53
100
AcDbEntity
  8
HILFSLINIEN
100
AcDbLine
 10
8.75
 20
2.0
 30
0.0
 11
5.0
 21
2.0
 31
0.0
  0
CIRCLE
  5
9A9
330
1B53
100
AcDbEntity
  8
TEXT
100
AcDbCircle
 10
11.875
 20
7.0
 30
0.0
 40
1.7
  0
TEXT
  5
9AA
330
1B53
100
AcDbEntity
  8
TEXT
100
AcDbText
 10
12.875
 20
6.392857142857143
 30
0.0
 40
2.0
  1
1
 50
90.0
 41
0.75
  7
ROMANS
 72
     4
 11
11.875
 21
7.0
 31
0.0
100
AcDbText
  0
TEXT
  5
9AB
330
1B53
100
AcDbEntity
  8
TEXT
100
AcDbText
 10
17.875
 20
6.285714285714285
 30
0.0
 40
2.0
  1
2
 50
90.0
 41
0.75
  7
ROMANS
 72
     4
 11
16.875
 21
7.0
 31
0.0
100
AcDbText
  0
TEXT
  5
9AC
330
1B53
100
AcDbEntity
  8
TEXT
100
AcDbText
 10
22.875
 20
6.285714285714285
 30
0.0
 40
2.0
  1
3
 50
90.0
 41
0.75
  7
ROMANS
 72
     4
 11
21.875
 21
7.0
 31
0.0
100
AcDbText
  0
LINE
  5
9AD
330
1B53
100
AcDbEntity
  8
HILFSLINIEN
100
AcDbLine
 10
18.75
 20
207.0
 30
0.0
 11
18.75
 21
209.0
 31
0.0
  0
LINE
  5
9AE
330
1B53
100
AcDbEntity
  8
HILFSLINIEN
100
AcDbLine
 10
18.75
 20
209.0
 30
0.0
 11
15.0
 21
209.0
 31
0.0
  0
CIRCLE
  5
9AF
330
1B53
100
AcDbEntity
  8
TEXT
100
AcDbCircle
 10
21.875
 20
204.0
 30
0.0
 40
1.7
  0
LINE
  5
9B0
330
1B53
100
AcDbEntity
  8
HILFSLINIEN
100
AcDbLine
 10
13.75
 20
207.0
 30
0.0
 11
13.75
 21
209.0
 31
0.0
  0
LINE
  5
9B1
330
1B53
100
AcDbEntity
  8
HILFSLINIEN
100
AcDbLine
 10
13.75
 20
209.0
 30
0.0
 11
10.0
 21
209.0
 31
0.0
  0
CIRCLE
  5
9B2
330
1B53
100
AcDbEntity
  8
TEXT
100
AcDbCircle
 10
16.875
 20
204.0
 30
0.0
 40
1.7
  0
LINE
  5
9B3
330
1B53
100
AcDbEntity
  8
HILFSLINIEN
100
AcDbLine
 10
8.75
 20
207.0
 30
0.0
 11
8.75
 21
209.0
 31
0.0
  0
LINE
  5
9B4
330
1B53
100
AcDbEntity
  8
HILFSLINIEN
100
AcDbLine
 10
8.75
 20
209.0
 30
0.0
 11
5.0
 21
209.0
 31
0.0
  0
CIRCLE
  5
9B5
330
1B53
100
AcDbEntity
  8
TEXT
100
AcDbCircle
 10
11.875
 20
204.0
 30
0.0
 40
1.7
  0
TEXT
  5
9B6
330
1B53
100
AcDbEntity
  8
TEXT
100
AcDbText
 10
12.875
 20
203.25
 30
0.0
 40
2.0
  1
4
 50
90.0
 41
0.75
  7
ROMANS
 72
     4
 11
11.875
 21
204.0
 31
0.0
100
AcDbText
  0
TEXT
  5
9B7
330
1B53
100
AcDbEntity
  8
TEXT
100
AcDbText
 10
17.875
 20
203.2857142857143
 30
0.0
 40
2.0
  1
5
 50
90.0
 41
0.75
  7
ROMANS
 72
     4
 11
16.875
 21
204.0
 31
0.0
100
AcDbText
  0
TEXT
  5
9B8
330
1B53
100
AcDbEntity
  8
TEXT
100
AcDbText
 10
22.875
 20
203.25
 30
0.0
 40
2.0
  1
6
 50
90.0
 41
0.75
  7
ROMANS
 72
     4
 11
21.875
 21
204.0
 31
0.0
100
AcDbText
  0
LINE
  5
9B9
330
1B53
100
AcDbEntity
  8
HILFSLINIEN
100
AcDbLine
 10
3.75
 20
0.0
 30
0.0
 11
3.75
 21
4.5
 31
0.0
  0
LINE
  5
9BA
330
1B53
100
AcDbEntity
  8
HILFSLINIEN
100
AcDbLine
 10
3.75
 20
4.5
 30
0.0
 11
18.75
 21
4.5
 31
0.0
  0
LINE
  5
9BB
330
1B53
100
AcDbEntity
  8
HILFSLINIEN
100
AcDbLine
 10
18.75
 20
60.0
 30
0.0
 11
18.75
 21
61.0
 31
0.0
  0
LINE
  5
9BC
330
1B53
100
AcDbEntity
  8
HILFSLINIEN
100
AcDbLine
 10
18.75
 20
61.0
 30
0.0
 11
3.75
 21
61.0
 31
0.0
  0
LINE
  5
9BD
330
1B53
100
AcDbEntity
  8
HILFSLINIEN
100
AcDbLine
 10
18.75
 20
75.0
 30
0.0
 11
18.75
 21
76.0
 31
0.0
  0
LINE
  5
9BE
330
1B53
100
AcDbEntity
  8
HILFSLINIEN
100
AcDbLine
 10
18.75
 20
76.0
 30
0.0
 11
3.75
 21
76.0
 31
0.0
  0
LINE
  5
9BF
330
1B53
100
AcDbEntity
  8
HILFSLINIEN
100
AcDbLine
 10
18.75
 20
207.0
 30
0.0
 11
18.75
 21
211.5
 31
0.0
  0
LINE
  5
9C0
330
1B53
100
AcDbEntity
  8
HILFSLINIEN
100
AcDbLine
 10
18.75
 20
211.5
 30
0.0
 11
3.75
 21
211.5
 31
0.0
  0
LINE
  5
9C1
330
1B53
100
AcDbEntity
  8
HILFSLINIEN
100
AcDbLine
 10
18.75
 20
267.0
 30
0.0
 11
18.75
 21
268.0
 31
0.0
  0
LINE
  5
9C2
330
1B53
100
AcDbEntity
  8
HILFSLINIEN
100
AcDbLine
 10
18.75
 20
268.0
 30
0.0
 11
3.75
 21
268.0
 31
0.0
  0
LINE
  5
9C3
330
1B53
100
AcDbEntity
  8
HILFSLINIEN
100
AcDbLine
 10
18.75
 20
282.0
 30
0.0
 11
18.75
 21
283.0
 31
0.0
  0
LINE
  5
9C4
330
1B53
100
AcDbEntity
  8
HILFSLINIEN
100
AcDbLine
 10
18.75
 20
283.0
 30
0.0
 11
3.75
 21
283.0
 31
0.0
  0
LINE
  5
9C5
330
1B53
100
AcDbEntity
  8
HILFSLINIEN
100
AcDbLine
 10
3.75
 20
0.0
 30
0.0
 11
3.75
 21
60.0
 31
0.0
  0
LINE
  5
9C6
330
1B53
100
AcDbEntity
  8
HILFSLINIEN
100
AcDbLine
 10
8.75
 20
0.0
 30
0.0
 11
8.75
 21
60.0
 31
0.0
  0
LINE
  5
9C7
330
1B53
100
AcDbEntity
  8
HILFSLINIEN
100
AcDbLine
 10
13.75
 20
0.0
 30
0.0
 11
13.75
 21
60.0
 31
0.0
  0
LINE
  5
9C8
330
1B53
100
AcDbEntity
  8
HILFSLINIEN
100
AcDbLine
 10
18.75
 20
0.0
 30
0.0
 11
18.75
 21
60.0
 31
0.0
  0
LINE
  5
9C9
330
1B53
100
AcDbEntity
  8
HILFSLINIEN
100
AcDbLine
 10
3.75
 20
0.0
 30
0.0
 11
3.75
 21
60.0
 31
0.0
  0
LINE
  5
9CA
330
1B53
100
AcDbEntity
  8
HILFSLINIEN
100
AcDbLine
 10
8.75
 20
0.0
 30
0.0
 11
8.75
 21
60.0
 31
0.0
  0
LINE
  5
9CB
330
1B53
100
AcDbEntity
  8
HILFSLINIEN
100
AcDbLine
 10
13.75
 20
0.0
 30
0.0
 11
13.75
 21
60.0
 31
0.0
  0
LINE
  5
9CC
330
1B53
100
AcDbEntity
  8
HILFSLINIEN
100
AcDbLine
 10
18.75
 20
0.0
 30
0.0
 11
18.75
 21
60.0
 31
0.0
  0
LINE
  5
9CD
330
1B53
100
AcDbEntity
  8
HILFSLINIEN
100
AcDbLine
 10
5.0
 20
0.0
 30
0.0
 11
4.25
 21
0.0
 31
0.0
  0
LINE
  5
9CE
330
1B53
100
AcDbEntity
  8
HILFSLINIEN
100
AcDbLine
 10
5.0
 20
0.0
 30
0.0
 11
3.75
 21
0.0
 31
0.0
  0
LINE
  5
9CF
330
1B53
100
AcDbEntity
  8
HILFSLINIEN
100
AcDbLine
 10
5.0
 20
0.0
 30
0.0
 11
4.25
 21
0.0
 31
0.0
  0
LINE
  5
9D0
330
1B53
100
AcDbEntity
  8
HILFSLINIEN
100
AcDbLine
 10
5.0
 20
0.0
 30
0.0
 11
3.75
 21
0.0
 31
0.0
  0
LINE
  5
9D1
330
1B53
100
AcDbEntity
  8
0
100
AcDbLine
 10
5.0
 20
5.0
 30
0.0
 11
5.0
 21
5.0
 31
0.0
  0
TEXT
  5
9D2
330
1B53
100
AcDbEntity
  8
TEXT
100
AcDbText
 10
8.75
 20
28.70535714285714
 30
0.0
 40
2.5
  1
Änderung
 50
90.0
 41
0.75
  7
ROMANS
 72
     1
 11
8.75
 21
35.0
 31
0.0
100
AcDbText
  0
LINE
  5
9D3
330
1B53
100
AcDbEntity
  8
0
100
AcDbLine
 10
25.0
 20
10.0
 30
0.0
 11
25.0
 21
10.0
 31
0.0
  0
LINE
  5
9D4
330
1B53
100
AcDbEntity
  8
HILFSLINIEN
100
AcDbLine
 10
3.75
 20
75.0
 30
0.0
 11
3.75
 21
90.0
 31
0.0
  0
LINE
  5
9D5
330
1B53
100
AcDbEntity
  8
HILFSLINIEN
100
AcDbLine
 10
8.75
 20
75.0
 30
0.0
 11
8.75
 21
90.0
 31
0.0
  0
TEXT
  5
9D6
330
1B53
100
AcDbEntity
  8
TEXT
100
AcDbText
 10
8.75
 20
83.48214285714286
 30
0.0
 40
2.5
  1
Name
 50
90.0
 41
0.75
  7
ROMANS
 72
     1
 11
8.75
 21
87.5
 31
0.0
100
AcDbText
  0
LINE
  5
9D7
330
1B53
100
AcDbEntity
  8
HILFSLINIEN
100
AcDbLine
 10
3.75
 20
75.0
 30
0.0
 11
3.75
 21
90.0
 31
0.0
  0
LINE
  5
9D8
330
1B53
100
AcDbEntity
  8
HILFSLINIEN
100
AcDbLine
 10
8.75
 20
75.0
 30
0.0
 11
8.75
 21
90.0
 31
0.0
  0
LINE
  5
9D9
330
1B53
100
AcDbEntity
  8
HILFSLINIEN
100
AcDbLine
 10
3.75
 20
60.0
 30
0.0
 11
3.75
 21
75.0
 31
0.0
  0
LINE
  5
9DA
330
1B53
100
AcDbEntity
  8
HILFSLINIEN
100
AcDbLine
 10
8.75
 20
60.0
 30
0.0
 11
8.75
 21
75.0
 31
0.0
  0
TEXT
  5
9DB
330
1B53
100
AcDbEntity
  8
TEXT
100
AcDbText
 10
8.75
 20
67.99107142857143
 30
0.0
 40
2.5
  1
Datum
 50
90.0
 41
0.75
  7
ROMANS
 72
     1
 11
8.75
 21
72.5
 31
0.0
100
AcDbText
  0
LINE
  5
9DC
330
1B53
100
AcDbEntity
  8
HILFSLINIEN
100
AcDbLine
 10
3.75
 20
60.0
 30
0.0
 11
3.75
 21
75.0
 31
0.0
  0
LINE
  5
9DD
330
1B53
100
AcDbEntity
  8
HILFSLINIEN
100
AcDbLine
 10
8.75
 20
60.0
 30
0.0
 11
8.75
 21
75.0
 31
0.0
  0
LINE
  5
9DE
330
1B53
100
AcDbEntity
  8
HILFSLINIEN
100
AcDbLine
 10
13.75
 20
75.0
 30
0.0
 11
13.75
 21
90.0
 31
0.0
  0
LINE
  5
9DF
330
1B53
100
AcDbEntity
  8
HILFSLINIEN
100
AcDbLine
 10
18.75
 20
75.0
 30
0.0
 11
18.75
 21
90.0
 31
0.0
  0
LINE
  5
9E0
330
1B53
100
AcDbEntity
  8
HILFSLINIEN
100
AcDbLine
 10
13.75
 20
75.0
 30
0.0
 11
13.75
 21
90.0
 31
0.0
  0
LINE
  5
9E1
330
1B53
100
AcDbEntity
  8
HILFSLINIEN
100
AcDbLine
 10
18.75
 20
75.0
 30
0.0
 11
18.75
 21
90.0
 31
0.0
  0
LINE
  5
9E2
330
1B53
100
AcDbEntity
  8
HILFSLINIEN
100
AcDbLine
 10
13.75
 20
60.0
 30
0.0
 11
13.75
 21
75.0
 31
0.0
  0
LINE
  5
9E3
330
1B53
100
AcDbEntity
  8
HILFSLINIEN
100
AcDbLine
 10
18.75
 20
60.0
 30
0.0
 11
18.75
 21
75.0
 31
0.0
  0
LINE
  5
9E4
330
1B53
100
AcDbEntity
  8
HILFSLINIEN
100
AcDbLine
 10
13.75
 20
60.0
 30
0.0
 11
13.75
 21
75.0
 31
0.0
  0
LINE
  5
9E5
330
1B53
100
AcDbEntity
  8
HILFSLINIEN
100
AcDbLine
 10
18.75
 20
60.0
 30
0.0
 11
18.75
 21
75.0
 31
0.0
  0
TEXT
  5
9E6
330
1B53
100
AcDbEntity
  8
TEXT
100
AcDbText
 10
8.75
 20
225.7053571428571
 30
0.0
 40
2.5
  1
Änderung
 50
90.0
 41
0.75
  7
ROMANS
 72
     1
 11
8.75
 21
232.0
 31
0.0
100
AcDbText
  0
LINE
  5
9E7
330
1B53
100
AcDbEntity
  8
HILFSLINIEN
100
AcDbLine
 10
18.75
 20
207.0
 30
0.0
 11
18.75
 21
267.0
 31
0.0
  0
LINE
  5
9E8
330
1B53
100
AcDbEntity
  8
HILFSLINIEN
100
AcDbLine
 10
13.75
 20
207.0
 30
0.0
 11
13.75
 21
267.0
 31
0.0
  0
LINE
  5
9E9
330
1B53
100
AcDbEntity
  8
HILFSLINIEN
100
AcDbLine
 10
8.75
 20
207.0
 30
0.0
 11
8.75
 21
267.0
 31
0.0
  0
LINE
  5
9EA
330
1B53
100
AcDbEntity
  8
HILFSLINIEN
100
AcDbLine
 10
3.75
 20
207.0
 30
0.0
 11
3.75
 21
267.0
 31
0.0
  0
LINE
  5
9EB
330
1B53
100
AcDbEntity
  8
HILFSLINIEN
100
AcDbLine
 10
5.0
 20
207.0
 30
0.0
 11
3.75
 21
207.0
 31
0.0
  0
LINE
  5
9EC
330
1B53
100
AcDbEntity
  8
HILFSLINIEN
100
AcDbLine
 10
5.0
 20
207.0
 30
0.0
 11
4.25
 21
207.0
 31
0.0
  0
TEXT
  5
9ED
330
1B53
100
AcDbEntity
  8
TEXT
100
AcDbText
 10
8.75
 20
280.4821428571429
 30
0.0
 40
2.5
  1
Name
 50
90.0
 41
0.75
  7
ROMANS
 72
     1
 11
8.75
 21
284.5
 31
0.0
100
AcDbText
  0
LINE
  5
9EE
330
1B53
100
AcDbEntity
  8
HILFSLINIEN
100
AcDbLine
 10
8.75
 20
282.0
 30
0.0
 11
8.75
 21
297.0
 31
0.0
  0
LINE
  5
9EF
330
1B53
100
AcDbEntity
  8
HILFSLINIEN
100
AcDbLine
 10
3.75
 20
282.0
 30
0.0
 11
3.75
 21
297.0
 31
0.0
  0
TEXT
  5
9F0
330
1B53
100
AcDbEntity
  8
TEXT
100
AcDbText
 10
8.75
 20
264.9910714285714
 30
0.0
 40
2.5
  1
Datum
 50
90.0
 41
0.75
  7
ROMANS
 72
     1
 11
8.75
 21
269.5
 31
0.0
100
AcDbText
  0
LINE
  5
9F1
330
1B53
100
AcDbEntity
  8
HILFSLINIEN
100
AcDbLine
 10
8.75
 20
267.0
 30
0.0
 11
8.75
 21
282.0
 31
0.0
  0
LINE
  5
9F2
330
1B53
100
AcDbEntity
  8
HILFSLINIEN
100
AcDbLine
 10
3.75
 20
267.0
 30
0.0
 11
3.75
 21
282.0
 31
0.0
  0
LINE
  5
9F3
330
1B53
100
AcDbEntity
  8
HILFSLINIEN
100
AcDbLine
 10
18.75
 20
282.0
 30
0.0
 11
18.75
 21
297.0
 31
0.0
  0
LINE
  5
9F4
330
1B53
100
AcDbEntity
  8
HILFSLINIEN
100
AcDbLine
 10
13.75
 20
282.0
 30
0.0
 11
13.75
 21
297.0
 31
0.0
  0
LINE
  5
9F5
330
1B53
100
AcDbEntity
  8
HILFSLINIEN
100
AcDbLine
 10
18.75
 20
267.0
 30
0.0
 11
18.75
 21
282.0
 31
0.0
  0
LINE
  5
9F6
330
1B53
100
AcDbEntity
  8
HILFSLINIEN
100
AcDbLine
 10
13.75
 20
267.0
 30
0.0
 11
13.75
 21
282.0
 31
0.0
  0
LINE
  5
9F7
330
1B53
100
AcDbEntity
  8
RAHMEN
100
AcDbLine
 10
5.0
 20
95.0
 30
0.0
 11
5.0
 21
5.0
 31
0.0
  0
LINE
  5
9F8
330
1B53
100
AcDbEntity
  8
RAHMEN
100
AcDbLine
 10
5.0
 20
5.0
 30
0.0
 11
5.0
 21
95.0
 31
0.0
  0
LINE
  5
9F9
330
1B53
100
AcDbEntity
  8
RAHMEN
100
AcDbLine
 10
10.0
 20
5.0
 30
0.0
 11
10.0
 21
95.0
 31
0.0
  0
LINE
  5
9FA
330
1B53
100
AcDbEntity
  8
RAHMEN
100
AcDbLine
 10
15.0
 20
5.0
 30
0.0
 11
15.0
 21
95.0
 31
0.0
  0
LINE
  5
9FB
330
1B53
100
AcDbEntity
  8
RAHMEN
100
AcDbLine
 10
20.0
 20
5.0
 30
0.0
 11
20.0
 21
95.0
 31
0.0
  0
LINE
  5
9FC
330
1B53
100
AcDbEntity
  8
RAHMEN
100
AcDbLine
 10
5.0
 20
5.0
 30
0.0
 11
25.0
 21
5.0
 31
0.0
  0
LINE
  5
9FD
330
1B53
100
AcDbEntity
  8
RAHMEN
100
AcDbLine
 10
5.0
 20
5.0
 30
0.0
 11
10.0
 21
5.0
 31
0.0
  0
LINE
  5
9FE
330
1B53
100
AcDbEntity
  8
0
100
AcDbLine
 10
5.0
 20
5.0
 30
0.0
 11
5.0
 21
5.0
 31
0.0
  0
LINE
  5
9FF
330
1B53
100
AcDbEntity
  8
0
100
AcDbLine
 10
25.0
 20
10.0
 30
0.0
 11
25.0
 21
10.0
 31
0.0
  0
LINE
  5
A00
330
1B53
100
AcDbEntity
  8
RAHMEN
100
AcDbLine
 10
5.0
 20
95.0
 30
0.0
 11
25.0
 21
95.0
 31
0.0
  0
LINE
  5
A01
330
1B53
100
AcDbEntity
  8
RAHMEN
100
AcDbLine
 10
5.0
 20
65.0
 30
0.0
 11
25.0
 21
65.0
 31
0.0
  0
LINE
  5
A02
330
1B53
100
AcDbEntity
  8
RAHMEN
100
AcDbLine
 10
5.0
 20
80.0
 30
0.0
 11
25.0
 21
80.0
 31
0.0
  0
LINE
  5
A03
330
1B53
100
AcDbEntity
  8
RAHMEN
100
AcDbLine
 10
4.99999999999999
 20
148.5
 30
0.0
 11
10.62201290201812
 21
148.5
 31
0.0
  0
LINE
  5
A04
330
1B53
100
AcDbEntity
  8
RAHMEN
100
AcDbLine
 10
20.0
 20
202.0
 30
0.0
 11
20.0
 21
292.0
 31
0.0
  0
LINE
  5
A05
330
1B53
100
AcDbEntity
  8
RAHMEN
100
AcDbLine
 10
15.0
 20
202.0
 30
0.0
 11
15.0
 21
292.0
 31
0.0
  0
LINE
  5
A06
330
1B53
100
AcDbEntity
  8
RAHMEN
100
AcDbLine
 10
10.0
 20
202.0
 30
0.0
 11
10.0
 21
292.0
 31
0.0
  0
LINE
  5
A07
330
1B53
100
AcDbEntity
  8
RAHMEN
100
AcDbLine
 10
5.0
 20
202.0
 30
0.0
 11
5.0
 21
292.0
 31
0.0
  0
LINE
  5
A08
330
1B53
100
AcDbEntity
  8
RAHMEN
100
AcDbLine
 10
5.0
 20
292.0
 30
0.0
 11
5.0
 21
202.0
 31
0.0
  0
LINE
  5
A09
330
1B53
100
AcDbEntity
  8
RAHMEN
100
AcDbLine
 10
5.0
 20
202.0
 30
0.0
 11
25.0
 21
202.0
 31
0.0
  0
LINE
  5
A0A
330
1B53
100
AcDbEntity
  8
RAHMEN
100
AcDbLine
 10
5.0
 20
202.0
 30
0.0
 11
10.0
 21
202.0
 31
0.0
  0
LINE
  5
A0B
330
1B53
100
AcDbEntity
  8
RAHMEN
100
AcDbLine
 10
5.0
 20
277.0
 30
0.0
 11
25.0
 21
277.0
 31
0.0
  0
LINE
  5
A0C
330
1B53
100
AcDbEntity
  8
RAHMEN
100
AcDbLine
 10
5.0
 20
262.0
 30
0.0
 11
25.0
 21
262.0
 31
0.0
  0
LINE
  5
A0D
330
1B53
100
AcDbEntity
  8
RAHMEN
100
AcDbLine
 10
5.0
 20
292.0
 30
0.0
 11
25.0
 21
292.0
 31
0.0
  0
ATTDEF
  5
A0E
330
1B53
100
AcDbEntity
  8
TEXT
100
AcDbText
 10
13.75
 20
9.5
 30
0.0
 40
2.5
  1

 50
90.0
 41
0.75
  7
ROMANS
100
AcDbAttributeDefinition
  3
1-Änderung-Text
  2
1
 70
     0
  0
ATTDEF
  5
A0F
330
1B53
100
AcDbEntity
  8
TEXT
100
AcDbText
 10
13.75
 20
66.0
 30
0.0
 40
2.5
  1

 50
90.0
 41
0.75
  7
ROMANS
100
AcDbAttributeDefinition
  3
1-Änderung-Datum
  2
2
 70
     0
  0
ATTDEF
  5
A10
330
1B53
100
AcDbEntity
  8
TEXT
100
AcDbText
 10
13.75
 20
81.0
 30
0.0
 40
2.5
  1

 50
90.0
 41
0.75
  7
ROMANS
100
AcDbAttributeDefinition
  3
1-Änderung-Name
  2
3
 70
     0
  0
ATTDEF
  5
A11
330
1B53
100
AcDbEntity
  8
TEXT
100
AcDbText
 10
18.75
 20
9.5
 30
0.0
 40
2.5
  1

 50
90.0
 41
0.75
  7
ROMANS
100
AcDbAttributeDefinition
  3
2-Änderung-Text
  2
4
 70
     0
  0
ATTDEF
  5
A12
330
1B53
100
AcDbEntity
  8
TEXT
100
AcDbText
 10
18.75
 20
66.0
 30
0.0
 40
2.5
  1

 50
90.0
 41
0.75
  7
ROMANS
100
AcDbAttributeDefinition
  3
2-Änderung-Datum
  2
5
 70
     0
  0
ATTDEF
  5
A13
330
1B53
100
AcDbEntity
  8
TEXT
100
AcDbText
 10
18.75
 20
81.0
 30
0.0
 40
2.5
  1

 50
90.0
 41
0.75
  7
ROMANS
100
AcDbAttributeDefinition
  3
2-Änderung-Name
  2
6
 70
     0
  0
ATTDEF
  5
A14
330
1B53
100
AcDbEntity
  8
TEXT
100
AcDbText
 10
23.75
 20
9.5
 30
0.0
 40
2.5
  1

 50
90.0
 41
0.75
  7
ROMANS
100
AcDbAttributeDefinition
  3
3-Änderung-Text
  2
7
 70
     0
  0
ATTDEF
  5
A15
330
1B53
100
AcDbEntity
  8
TEXT
100
AcDbText
 10
23.75
 20
66.0
 30
0.0
 40
2.5
  1

 50
90.0
 41
0.75
  7
ROMANS
100
AcDbAttributeDefinition
  3
3-Änderung-Datum
  2
8
 70
     0
  0
ATTDEF
  5
A16
330
1B53
100
AcDbEntity
  8
TEXT
100
AcDbText
 10
23.75
 20
81.0
 30
0.0
 40
2.5
  1

 50
90.0
 41
0.75
  7
ROMANS
100
AcDbAttributeDefinition
  3
3-Änderung-Name
  2
9
 70
     0
  0
ATTDEF
  5
A17
330
1B53
100
AcDbEntity
  8
TEXT
100
AcDbText
 10
13.75
 20
206.5
 30
0.0
 40
2.5
  1

 50
90.0
 41
0.75
  7
ROMANS
100
AcDbAttributeDefinition
  3
4-Änderung-Text
  2
10
 70
     0
  0
ATTDEF
  5
A18
330
1B53
100
AcDbEntity
  8
TEXT
100
AcDbText
 10
13.75
 20
263.0
 30
0.0
 40
2.5
  1

 50
90.0
 41
0.75
  7
ROMANS
100
AcDbAttributeDefinition
  3
4-Änderung-Datum
  2
11
 70
     0
  0
ATTDEF
  5
A19
330
1B53
100
AcDbEntity
  8
TEXT
100
AcDbText
 10
13.75
 20
278.0
 30
0.0
 40
2.5
  1

 50
90.0
 41
0.75
  7
ROMANS
100
AcDbAttributeDefinition
  3
4-Änderung-Name
  2
12
 70
     0
  0
ATTDEF
  5
A1A
330
1B53
100
AcDbEntity
  8
TEXT
100
AcDbText
 10
18.75
 20
206.5
 30
0.0
 40
2.5
  1

 50
90.0
 41
0.75
  7
ROMANS
100
AcDbAttributeDefinition
  3
5-Änderung-Text
  2
13
 70
     0
  0
ATTDEF
  5
A1B
330
1B53
100
AcDbEntity
  8
TEXT
100
AcDbText
 10
18.75
 20
263.0
 30
0.0
 40
2.5
  1

 50
90.0
 41
0.75
  7
ROMANS
100
AcDbAttributeDefinition
  3
5-Änderung-Datum
  2
14
 70
     0
  0
ATTDEF
  5
A1C
330
1B53
100
AcDbEntity
  8
TEXT
100
AcDbText
 10
18.75
 20
278.0
 30
0.0
 40
2.5
  1

 50
90.0
 41
0.75
  7
ROMANS
100
AcDbAttributeDefinition
  3
5-Änderung-Name
  2
15
 70
     0
  0
ATTDEF
  5
A1D
330
1B53
100
AcDbEntity
  8
TEXT
100
AcDbText
 10
23.75
 20
206.5
 30
0.0
 40
2.5
  1

 50
90.0
 41
0.75
  7
ROMANS
100
AcDbAttributeDefinition
  3
6-Änderung-Text
  2
16
 70
     0
  0
ATTDEF
  5
A1E
330
1B53
100
AcDbEntity
  8
TEXT
100
AcDbText
 10
23.75
 20
263.0
 30
0.0
 40
2.5
  1

 50
90.0
 41
0.75
  7
ROMANS
100
AcDbAttributeDefinition
  3
6-Änderung-Datum
  2
17
 70
     0
  0
ATTDEF
  5
A1F
330
1B53
100
AcDbEntity
  8
TEXT
100
AcDbText
 10
23.75
 20
278.0
 30
0.0
 40
2.5
  1

 50
90.0
 41
0.75
  7
ROMANS
100
AcDbAttributeDefinition
  3
6-Änderung-Name
  2
18
 70
     0
  0
LINE
  5
A20
330
1B53
100
AcDbEntity
  8
HILFSLINIEN
100
AcDbLine
 10
20.0
 20
297.0
 30
0.0
 11
20.0
 21
0.0
 31
0.0
  0
LINE
  5
A21
330
1B53
100
AcDbEntity
  8
HILFSLINIEN
100
AcDbLine
 10
0.0
 20
183.5
 30
0.0
 11
20.0
 21
183.5
 31
0.0
  0
LINE
  5
A22
330
1B53
100
AcDbEntity
  8
HILFSLINIEN
100
AcDbLine
 10
0.0
 20
113.5
 30
0.0
 11
20.0
 21
113.5
 31
0.0
  0
TEXT
  5
A23
330
1B53
100
AcDbEntity
  8
TEXT
100
AcDbText
 10
14.84794036528609
 20
113.5
 30
0.0
 40
1.8
  1
Diese Unterlagen bleiben unser Eigentum. Vervielfältigungen, Anfertigungen
 50
90.0
 41
0.6727073036792984
  7
ROMANS
 72
     5
 11
14.84794036528609
 21
183.5
 31
0.0
100
AcDbText
  0
TEXT
  5
A24
330
1B53
100
AcDbEntity
  8
TEXT
100
AcDbText
 10
17.7622260795718
 20
113.5
 30
0.0
 40
1.8
  1
von Aufzeichnungen bezüglich des Inhaltes, die Weitergabe, auch des In-
 50
90.0
 41
0.6721536351165981
  7
ROMANS
 72
     5
 11
17.7622260795718
 21
183.5
 31
0.0
100
AcDbText
  0
TEXT
  5
A25
330
1B53
100
AcDbEntity
  8
TEXT
100
AcDbText
 10
20.67651179385752
 20
113.5
 30
0.0
 40
1.8
  1
haltes an Dritte, sowie Verwertung des Inhaltes durch den Empfänger oder
 50
90.0
 41
0.6564844587352625
  7
ROMANS
 72
     5
 11
20.67651179385752
 21
183.5
 31
0.0
100
AcDbText
  0
TEXT
  5
A26
330
1B53
100
AcDbEntity
  8
TEXT
100
AcDbText
 10
23.59079750814323
 20
113.5
 30
0.0
 40
1.8
  1
auf dessen Vermittlung durch Dritte, sind unzulässig und strafbar.
 50
90.0
 41
0.7451338199513363
  7
ROMANS
 72
     5
 11
23.59079750814323
 21
183.5
 31
0.0
100
AcDbText
  0
LINE
  5
A27
330
1B53
100
AcDbEntity
  8
HILFSLINIEN
100
AcDbLine
 10
9.871991918659212
 20
113.4923292010233
 30
0.0
 11
9.871991918659212
 21
183.5399722751536
 31
0.0
  0
LINE
  5
A28
330
1B53
100
AcDbEntity
  8
RAHMEN
100
AcDbLine
 10
25.0
 20
5.0
 30
0.0
 11
25.0
 21
10.0
 31
0.0
  0
LINE
  5
A29
330
1B53
100
AcDbEntity
  8
RAHMEN
100
AcDbLine
 10
25.0
 20
292.0
 30
0.0
 11
25.0
 21
287.0
 31
0.0
  0
LINE
  5
A2A
330
1B53
100
AcDbEntity
  8
RAHMEN
100
AcDbLine
 10
5.0
 20
202.0
 30
0.0
 11
4.999999999999976
 21
95.0
 31
0.0
  0
ENDBLK
  5
953
330
1B53
100
AcDbEntity
  8
0
100
AcDbBlockEnd
  0
BLOCK
  5
1B56
330
1B55
100
AcDbEntity
  8
0
100
AcDbBlockBegin
  2
A2-APRIL-05
 70
     0
 10
0.0
 20
0.0
 30
0.0
  3
A2-APRIL-05
  1

  0
LINE
  5
98B
330
1B55
100
AcDbEntity
  8
RAHMEN
100
AcDbLine
 10
0.0
 20
0.0
 30
0.0
 11
594.0
 21
0.0
 31
0.0
  0
LINE
  5
98C
330
1B55
100
AcDbEntity
  8
RAHMEN
100
AcDbLine
 10
594.0
 20
0.0
 30
0.0
 11
594.0
 21
420.0
 31
0.0
  0
LINE
  5
98D
330
1B55
100
AcDbEntity
  8
RAHMEN
100
AcDbLine
 10
594.0
 20
420.0
 30
0.0
 11
0.0
 21
420.0
 31
0.0
  0
LINE
  5
98E
330
1B55
100
AcDbEntity
  8
RAHMEN
100
AcDbLine
 10
0.0
 20
420.0
 30
0.0
 11
0.0
 21
0.0
 31
0.0
  0
LINE
  5
98F
330
1B55
100
AcDbEntity
  8
0
100
AcDbLine
 10
0.0
 20
0.0
 30
0.0
 11
0.0
 21
0.0
 31
0.0
  0
LINE
  5
990
330
1B55
100
AcDbEntity
  8
RAHMEN
 62
     1
100
AcDbLine
 10
25.0
 20
5.0
 30
0.0
 11
589.0
 21
5.0
 31
0.0
  0
LINE
  5
991
330
1B55
100
AcDbEntity
  8
RAHMEN
 62
     1
100
AcDbLine
 10
589.0
 20
5.0
 30
0.0
 11
589.0
 21
415.0
 31
0.0
  0
LINE
  5
992
330
1B55
100
AcDbEntity
  8
RAHMEN
 62
     1
100
AcDbLine
 10
589.0
 20
415.0
 30
0.0
 11
25.0
 21
415.0
 31
0.0
  0
LINE
  5
993
330
1B55
100
AcDbEntity
  8
RAHMEN
 62
     1
100
AcDbLine
 10
25.0
 20
415.0
 30
0.0
 11
25.0
 21
5.0
 31
0.0
  0
LINE
  5
994
330
1B55
100
AcDbEntity
  8
0
100
AcDbLine
 10
20.0
 20
5.0
 30
0.0
 11
20.0
 21
5.0
 31
0.0
  0
LINE
  5
995
330
1B55
100
AcDbEntity
  8
RAHMEN
100
AcDbLine
 10
402.0
 20
0.0
 30
0.0
 11
402.0
 21
5.0
 31
0.0
  0
LINE
  5
996
330
1B55
100
AcDbEntity
  8
RAHMEN
100
AcDbLine
 10
210.0
 20
0.0
 30
0.0
 11
210.0
 21
5.0
 31
0.0
  0
LINE
  5
997
330
1B55
100
AcDbEntity
  8
RAHMEN
100
AcDbLine
 10
0.0
 20
297.0
 30
0.0
 11
5.0
 21
297.0
 31
0.0
  0
LINE
  5
998
330
1B55
100
AcDbEntity
  8
RAHMEN
100
AcDbLine
 10
105.0
 20
420.0
 30
0.0
 11
105.0
 21
415.0
 31
0.0
  0
LINE
  5
999
330
1B55
100
AcDbEntity
  8
RAHMEN
100
AcDbLine
 10
210.0
 20
415.0
 30
0.0
 11
210.0
 21
420.0
 31
0.0
  0
LINE
  5
99A
330
1B55
100
AcDbEntity
  8
RAHMEN
100
AcDbLine
 10
402.0
 20
415.0
 30
0.0
 11
402.0
 21
420.0
 31
0.0
  0
LINE
  5
99B
330
1B55
100
AcDbEntity
  8
RAHMEN
100
AcDbLine
 10
589.0
 20
297.0
 30
0.0
 11
594.0
 21
297.0
 31
0.0
  0
ENDBLK
  5
99D
330
1B55
100
AcDbEntity
  8
0
100
AcDbBlockEnd
  0
BLOCK
  5
1B58
330
1B57
100
AcDbEntity
  8
0
100
AcDbBlockBegin
  2
A4-APRIL-05
 70
     0
 10
0.0
 20
0.0
 30
0.0
  3
A4-APRIL-05
  1

  0
LINE
  5
CA5
330
1B57
100
AcDbEntity
  8
RAHMEN
100
AcDbLine
 10
0.0
 20
0.0
 30
0.0
 11
210.0
 21
0.0
 31
0.0
  0
LINE
  5
CA6
330
1B57
100
AcDbEntity
  8
RAHMEN
100
AcDbLine
 10
210.0
 20
0.0
 30
0.0
 11
210.0
 21
297.0
 31
0.0
  0
LINE
  5
CA7
330
1B57
100
AcDbEntity
  8
RAHMEN
100
AcDbLine
 10
210.0
 20
297.0
 30
0.0
 11
0.0
 21
297.0
 31
0.0
  0
LINE
  5
CA8
330
1B57
100
AcDbEntity
  8
RAHMEN
100
AcDbLine
 10
0.0
 20
297.0
 30
0.0
 11
0.0
 21
0.0
 31
0.0
  0
LINE
  5
CA9
330
1B57
100
AcDbEntity
  8
0
100
AcDbLine
 10
0.0
 20
0.0
 30
0.0
 11
0.0
 21
0.0
 31
0.0
  0
LINE
  5
CAA
330
1B57
100
AcDbEntity
  8
RAHMEN
 62
     1
100
AcDbLine
 10
20.0
 20
5.0
 30
0.0
 11
205.0
 21
5.0
 31
0.0
  0
LINE
  5
CAB
330
1B57
100
AcDbEntity
  8
RAHMEN
 62
     1
100
AcDbLine
 10
205.0
 20
5.0
 30
0.0
 11
205.0
 21
292.0
 31
0.0
  0
LINE
  5
CAC
330
1B57
100
AcDbEntity
  8
RAHMEN
 62
     1
100
AcDbLine
 10
205.0
 20
292.0
 30
0.0
 11
20.0
 21
292.0
 31
0.0
  0
LINE
  5
CAD
330
1B57
100
AcDbEntity
  8
RAHMEN
 62
     1
100
AcDbLine
 10
20.0
 20
292.0
 30
0.0
 11
20.0
 21
5.0
 31
0.0
  0
ENDBLK
  5
B6C
330
1B57
100
AcDbEntity
  8
0
100
AcDbBlockEnd
  0
BLOCK
  5
1B5A
330
1B59
100
AcDbEntity
  8
0
100
AcDbBlockBegin
  2
AENDERUNGS-KOPF1-_1-6_
 70
     2
 10
0.0
 20
0.0
 30
0.0
  3
AENDERUNGS-KOPF1-_1-6_
  1

  0
LINE
  5
B70
330
1B59
100
AcDbEntity
  8
0
100
AcDbLine
 10
0.0
 20
297.0
 30
0.0
 11
0.0
 21
0.0
 31
0.0
  0
LINE
  5
B71
330
1B59
100
AcDbEntity
  8
0
100
AcDbLine
 10
0.0
 20
0.0
 30
0.0
 11
0.0
 21
0.0
 31
0.0
  0
LINE
  5
B72
330
1B59
100
AcDbEntity
  8
RAHMEN
100
AcDbLine
 10
0.0
 20
148.5
 30
0.0
 11
4.080403395846737
 21
148.5
 31
0.0
  0
LINE
  5
B73
330
1B59
100
AcDbEntity
  8
HILFSLINIEN
100
AcDbLine
 10
18.75
 20
0.0
 30
0.0
 11
18.75
 21
2.0
 31
0.0
  0
LINE
  5
B74
330
1B59
100
AcDbEntity
  8
HILFSLINIEN
100
AcDbLine
 10
18.75
 20
2.0
 30
0.0
 11
15.0
 21
2.0
 31
0.0
  0
CIRCLE
  5
B75
330
1B59
100
AcDbEntity
  8
TEXT
100
AcDbCircle
 10
16.875
 20
2.0
 30
0.0
 40
1.7
  0
LINE
  5
B76
330
1B59
100
AcDbEntity
  8
HILFSLINIEN
100
AcDbLine
 10
13.75
 20
0.0
 30
0.0
 11
13.75
 21
2.0
 31
0.0
  0
LINE
  5
B77
330
1B59
100
AcDbEntity
  8
HILFSLINIEN
100
AcDbLine
 10
13.75
 20
2.0
 30
0.0
 11
10.0
 21
2.0
 31
0.0
  0
CIRCLE
  5
B78
330
1B59
100
AcDbEntity
  8
TEXT
100
AcDbCircle
 10
11.875
 20
2.0
 30
0.0
 40
1.7
  0
LINE
  5
B79
330
1B59
100
AcDbEntity
  8
HILFSLINIEN
100
AcDbLine
 10
8.75
 20
0.0
 30
0.0
 11
8.75
 21
2.0
 31
0.0
  0
LINE
  5
B7A
330
1B59
100
AcDbEntity
  8
HILFSLINIEN
100
AcDbLine
 10
8.75
 20
2.0
 30
0.0
 11
5.0
 21
2.0
 31
0.0
  0
CIRCLE
  5
B7B
330
1B59
100
AcDbEntity
  8
TEXT
100
AcDbCircle
 10
6.875
 20
2.0
 30
0.0
 40
1.7
  0
TEXT
  5
B7C
330
1B59
100
AcDbEntity
  8
TEXT
100
AcDbText
 10
7.875
 20
1.392857142857142
 30
0.0
 40
2.0
  1
1
 50
90.0
 41
0.75
  7
ROMANS
 72
     4
 11
6.875
 21
2.0
 31
0.0
100
AcDbText
  0
TEXT
  5
B7D
330
1B59
100
AcDbEntity
  8
TEXT
100
AcDbText
 10
12.875
 20
1.285714285714285
 30
0.0
 40
2.0
  1
2
 50
90.0
 41
0.75
  7
ROMANS
 72
     4
 11
11.875
 21
2.0
 31
0.0
100
AcDbText
  0
TEXT
  5
B7E
330
1B59
100
AcDbEntity
  8
TEXT
100
AcDbText
 10
17.875
 20
1.285714285714285
 30
0.0
 40
2.0
  1
3
 50
90.0
 41
0.75
  7
ROMANS
 72
     4
 11
16.875
 21
2.0
 31
0.0
100
AcDbText
  0
LINE
  5
B7F
330
1B59
100
AcDbEntity
  8
HILFSLINIEN
100
AcDbLine
 10
18.75
 20
207.0
 30
0.0
 11
18.75
 21
209.0
 31
0.0
  0
LINE
  5
B80
330
1B59
100
AcDbEntity
  8
HILFSLINIEN
100
AcDbLine
 10
18.75
 20
209.0
 30
0.0
 11
15.0
 21
209.0
 31
0.0
  0
CIRCLE
  5
B81
330
1B59
100
AcDbEntity
  8
TEXT
100
AcDbCircle
 10
16.875
 20
209.0
 30
0.0
 40
1.7
  0
LINE
  5
B82
330
1B59
100
AcDbEntity
  8
HILFSLINIEN
100
AcDbLine
 10
13.75
 20
207.0
 30
0.0
 11
13.75
 21
209.0
 31
0.0
  0
LINE
  5
B83
330
1B59
100
AcDbEntity
  8
HILFSLINIEN
100
AcDbLine
 10
13.75
 20
209.0
 30
0.0
 11
10.0
 21
209.0
 31
0.0
  0
CIRCLE
  5
B84
330
1B59
100
AcDbEntity
  8
TEXT
100
AcDbCircle
 10
11.875
 20
209.0
 30
0.0
 40
1.7
  0
LINE
  5
B85
330
1B59
100
AcDbEntity
  8
HILFSLINIEN
100
AcDbLine
 10
8.75
 20
207.0
 30
0.0
 11
8.75
 21
209.0
 31
0.0
  0
LINE
  5
B86
330
1B59
100
AcDbEntity
  8
HILFSLINIEN
100
AcDbLine
 10
8.75
 20
209.0
 30
0.0
 11
5.0
 21
209.0
 31
0.0
  0
CIRCLE
  5
B87
330
1B59
100
AcDbEntity
  8
TEXT
100
AcDbCircle
 10
6.875
 20
209.0
 30
0.0
 40
1.7
  0
TEXT
  5
B88
330
1B59
100
AcDbEntity
  8
TEXT
100
AcDbText
 10
7.875
 20
208.25
 30
0.0
 40
2.0
  1
4
 50
90.0
 41
0.75
  7
ROMANS
 72
     4
 11
6.875
 21
209.0
 31
0.0
100
AcDbText
  0
TEXT
  5
B89
330
1B59
100
AcDbEntity
  8
TEXT
100
AcDbText
 10
12.875
 20
208.2857142857143
 30
0.0
 40
2.0
  1
5
 50
90.0
 41
0.75
  7
ROMANS
 72
     4
 11
11.875
 21
209.0
 31
0.0
100
AcDbText
  0
TEXT
  5
B8A
330
1B59
100
AcDbEntity
  8
TEXT
100
AcDbText
 10
17.875
 20
208.25
 30
0.0
 40
2.0
  1
6
 50
90.0
 41
0.75
  7
ROMANS
 72
     4
 11
16.875
 21
209.0
 31
0.0
100
AcDbText
  0
LINE
  5
B8B
330
1B59
100
AcDbEntity
  8
HILFSLINIEN
100
AcDbLine
 10
3.75
 20
0.0
 30
0.0
 11
3.75
 21
4.5
 31
0.0
  0
LINE
  5
B8C
330
1B59
100
AcDbEntity
  8
HILFSLINIEN
100
AcDbLine
 10
3.75
 20
4.5
 30
0.0
 11
18.75
 21
4.5
 31
0.0
  0
LINE
  5
B8D
330
1B59
100
AcDbEntity
  8
HILFSLINIEN
100
AcDbLine
 10
18.75
 20
60.0
 30
0.0
 11
18.75
 21
61.0
 31
0.0
  0
LINE
  5
B8E
330
1B59
100
AcDbEntity
  8
HILFSLINIEN
100
AcDbLine
 10
18.75
 20
61.0
 30
0.0
 11
3.75
 21
61.0
 31
0.0
  0
LINE
  5
B8F
330
1B59
100
AcDbEntity
  8
HILFSLINIEN
100
AcDbLine
 10
18.75
 20
75.0
 30
0.0
 11
18.75
 21
76.0
 31
0.0
  0
LINE
  5
B90
330
1B59
100
AcDbEntity
  8
HILFSLINIEN
100
AcDbLine
 10
18.75
 20
76.0
 30
0.0
 11
3.75
 21
76.0
 31
0.0
  0
LINE
  5
B91
330
1B59
100
AcDbEntity
  8
HILFSLINIEN
100
AcDbLine
 10
18.75
 20
207.0
 30
0.0
 11
18.75
 21
211.5
 31
0.0
  0
LINE
  5
B92
330
1B59
100
AcDbEntity
  8
HILFSLINIEN
100
AcDbLine
 10
18.75
 20
211.5
 30
0.0
 11
3.75
 21
211.5
 31
0.0
  0
LINE
  5
B93
330
1B59
100
AcDbEntity
  8
HILFSLINIEN
100
AcDbLine
 10
18.75
 20
267.0
 30
0.0
 11
18.75
 21
268.0
 31
0.0
  0
LINE
  5
B94
330
1B59
100
AcDbEntity
  8
HILFSLINIEN
100
AcDbLine
 10
18.75
 20
268.0
 30
0.0
 11
3.75
 21
268.0
 31
0.0
  0
LINE
  5
B95
330
1B59
100
AcDbEntity
  8
HILFSLINIEN
100
AcDbLine
 10
18.75
 20
282.0
 30
0.0
 11
18.75
 21
283.0
 31
0.0
  0
LINE
  5
B96
330
1B59
100
AcDbEntity
  8
HILFSLINIEN
100
AcDbLine
 10
18.75
 20
283.0
 30
0.0
 11
3.75
 21
283.0
 31
0.0
  0
LINE
  5
B97
330
1B59
100
AcDbEntity
  8
0
100
AcDbLine
 10
0.0
 20
297.0
 30
0.0
 11
0.0
 21
0.0
 31
0.0
  0
LINE
  5
B98
330
1B59
100
AcDbEntity
  8
HILFSLINIEN
100
AcDbLine
 10
3.75
 20
0.0
 30
0.0
 11
3.75
 21
60.0
 31
0.0
  0
LINE
  5
B99
330
1B59
100
AcDbEntity
  8
HILFSLINIEN
100
AcDbLine
 10
8.75
 20
0.0
 30
0.0
 11
8.75
 21
60.0
 31
0.0
  0
LINE
  5
B9A
330
1B59
100
AcDbEntity
  8
HILFSLINIEN
100
AcDbLine
 10
13.75
 20
0.0
 30
0.0
 11
13.75
 21
60.0
 31
0.0
  0
LINE
  5
B9B
330
1B59
100
AcDbEntity
  8
HILFSLINIEN
100
AcDbLine
 10
18.75
 20
0.0
 30
0.0
 11
18.75
 21
60.0
 31
0.0
  0
LINE
  5
B9C
330
1B59
100
AcDbEntity
  8
HILFSLINIEN
100
AcDbLine
 10
3.75
 20
0.0
 30
0.0
 11
3.75
 21
60.0
 31
0.0
  0
LINE
  5
B9D
330
1B59
100
AcDbEntity
  8
HILFSLINIEN
100
AcDbLine
 10
8.75
 20
0.0
 30
0.0
 11
8.75
 21
60.0
 31
0.0
  0
LINE
  5
B9E
330
1B59
100
AcDbEntity
  8
HILFSLINIEN
100
AcDbLine
 10
13.75
 20
0.0
 30
0.0
 11
13.75
 21
60.0
 31
0.0
  0
LINE
  5
B9F
330
1B59
100
AcDbEntity
  8
HILFSLINIEN
100
AcDbLine
 10
18.75
 20
0.0
 30
0.0
 11
18.75
 21
60.0
 31
0.0
  0
LINE
  5
BA0
330
1B59
100
AcDbEntity
  8
HILFSLINIEN
100
AcDbLine
 10
5.0
 20
0.0
 30
0.0
 11
4.25
 21
0.0
 31
0.0
  0
LINE
  5
BA1
330
1B59
100
AcDbEntity
  8
HILFSLINIEN
100
AcDbLine
 10
5.0
 20
0.0
 30
0.0
 11
3.75
 21
0.0
 31
0.0
  0
LINE
  5
BA2
330
1B59
100
AcDbEntity
  8
HILFSLINIEN
100
AcDbLine
 10
5.0
 20
0.0
 30
0.0
 11
4.25
 21
0.0
 31
0.0
  0
LINE
  5
BA3
330
1B59
100
AcDbEntity
  8
HILFSLINIEN
100
AcDbLine
 10
5.0
 20
0.0
 30
0.0
 11
3.75
 21
0.0
 31
0.0
  0
LINE
  5
BA4
330
1B59
100
AcDbEntity
  8
0
100
AcDbLine
 10
0.0
 20
0.0
 30
0.0
 11
0.0
 21
0.0
 31
0.0
  0
TEXT
  5
BA5
330
1B59
100
AcDbEntity
  8
TEXT
100
AcDbText
 10
3.749999999999999
 20
23.70535714285714
 30
0.0
 40
2.5
  1
Änderung
 50
90.0
 41
0.75
  7
ROMANS
 72
     1
 11
3.75
 21
30.0
 31
0.0
100
AcDbText
  0
LINE
  5
BA6
330
1B59
100
AcDbEntity
  8
0
100
AcDbLine
 10
20.0
 20
5.0
 30
0.0
 11
20.0
 21
5.0
 31
0.0
  0
LINE
  5
BA7
330
1B59
100
AcDbEntity
  8
RAHMEN
100
AcDbLine
 10
0.0
 20
148.5
 30
0.0
 11
4.080403395846737
 21
148.5
 31
0.0
  0
LINE
  5
BA8
330
1B59
100
AcDbEntity
  8
HILFSLINIEN
100
AcDbLine
 10
3.75
 20
75.0
 30
0.0
 11
3.75
 21
90.0
 31
0.0
  0
LINE
  5
BA9
330
1B59
100
AcDbEntity
  8
HILFSLINIEN
100
AcDbLine
 10
8.75
 20
75.0
 30
0.0
 11
8.75
 21
90.0
 31
0.0
  0
TEXT
  5
BAA
330
1B59
100
AcDbEntity
  8
TEXT
100
AcDbText
 10
3.749999999999999
 20
78.48214285714286
 30
0.0
 40
2.5
  1
Name
 50
90.0
 41
0.75
  7
ROMANS
 72
     1
 11
3.75
 21
82.5
 31
0.0
100
AcDbText
  0
LINE
  5
BAB
330
1B59
100
AcDbEntity
  8
HILFSLINIEN
100
AcDbLine
 10
3.75
 20
75.0
 30
0.0
 11
3.75
 21
90.0
 31
0.0
  0
LINE
  5
BAC
330
1B59
100
AcDbEntity
  8
HILFSLINIEN
100
AcDbLine
 10
8.75
 20
75.0
 30
0.0
 11
8.75
 21
90.0
 31
0.0
  0
LINE
  5
BAD
330
1B59
100
AcDbEntity
  8
HILFSLINIEN
100
AcDbLine
 10
3.75
 20
60.0
 30
0.0
 11
3.75
 21
75.0
 31
0.0
  0
LINE
  5
BAE
330
1B59
100
AcDbEntity
  8
HILFSLINIEN
100
AcDbLine
 10
8.75
 20
60.0
 30
0.0
 11
8.75
 21
75.0
 31
0.0
  0
TEXT
  5
BAF
330
1B59
100
AcDbEntity
  8
TEXT
100
AcDbText
 10
3.749999999999999
 20
62.99107142857143
 30
0.0
 40
2.5
  1
Datum
 50
90.0
 41
0.75
  7
ROMANS
 72
     1
 11
3.75
 21
67.5
 31
0.0
100
AcDbText
  0
LINE
  5
BB0
330
1B59
100
AcDbEntity
  8
HILFSLINIEN
100
AcDbLine
 10
3.75
 20
60.0
 30
0.0
 11
3.75
 21
75.0
 31
0.0
  0
LINE
  5
BB1
330
1B59
100
AcDbEntity
  8
HILFSLINIEN
100
AcDbLine
 10
8.75
 20
60.0
 30
0.0
 11
8.75
 21
75.0
 31
0.0
  0
LINE
  5
BB2
330
1B59
100
AcDbEntity
  8
HILFSLINIEN
100
AcDbLine
 10
13.75
 20
75.0
 30
0.0
 11
13.75
 21
90.0
 31
0.0
  0
LINE
  5
BB3
330
1B59
100
AcDbEntity
  8
HILFSLINIEN
100
AcDbLine
 10
18.75
 20
75.0
 30
0.0
 11
18.75
 21
90.0
 31
0.0
  0
LINE
  5
BB4
330
1B59
100
AcDbEntity
  8
HILFSLINIEN
100
AcDbLine
 10
13.75
 20
75.0
 30
0.0
 11
13.75
 21
90.0
 31
0.0
  0
LINE
  5
BB5
330
1B59
100
AcDbEntity
  8
HILFSLINIEN
100
AcDbLine
 10
18.75
 20
75.0
 30
0.0
 11
18.75
 21
90.0
 31
0.0
  0
LINE
  5
BB6
330
1B59
100
AcDbEntity
  8
HILFSLINIEN
100
AcDbLine
 10
13.75
 20
60.0
 30
0.0
 11
13.75
 21
75.0
 31
0.0
  0
LINE
  5
BB7
330
1B59
100
AcDbEntity
  8
HILFSLINIEN
100
AcDbLine
 10
18.75
 20
60.0
 30
0.0
 11
18.75
 21
75.0
 31
0.0
  0
LINE
  5
BB8
330
1B59
100
AcDbEntity
  8
HILFSLINIEN
100
AcDbLine
 10
13.75
 20
60.0
 30
0.0
 11
13.75
 21
75.0
 31
0.0
  0
LINE
  5
BB9
330
1B59
100
AcDbEntity
  8
HILFSLINIEN
100
AcDbLine
 10
18.75
 20
60.0
 30
0.0
 11
18.75
 21
75.0
 31
0.0
  0
TEXT
  5
BBA
330
1B59
100
AcDbEntity
  8
TEXT
100
AcDbText
 10
3.749999999999999
 20
230.7053571428571
 30
0.0
 40
2.5
  1
Änderung
 50
90.0
 41
0.75
  7
ROMANS
 72
     1
 11
3.75
 21
237.0
 31
0.0
100
AcDbText
  0
LINE
  5
BBB
330
1B59
100
AcDbEntity
  8
HILFSLINIEN
100
AcDbLine
 10
18.75
 20
207.0
 30
0.0
 11
18.75
 21
267.0
 31
0.0
  0
LINE
  5
BBC
330
1B59
100
AcDbEntity
  8
HILFSLINIEN
100
AcDbLine
 10
13.75
 20
207.0
 30
0.0
 11
13.75
 21
267.0
 31
0.0
  0
LINE
  5
BBD
330
1B59
100
AcDbEntity
  8
HILFSLINIEN
100
AcDbLine
 10
8.75
 20
207.0
 30
0.0
 11
8.75
 21
267.0
 31
0.0
  0
LINE
  5
BBE
330
1B59
100
AcDbEntity
  8
HILFSLINIEN
100
AcDbLine
 10
3.75
 20
207.0
 30
0.0
 11
3.75
 21
267.0
 31
0.0
  0
LINE
  5
BBF
330
1B59
100
AcDbEntity
  8
HILFSLINIEN
100
AcDbLine
 10
5.0
 20
207.0
 30
0.0
 11
3.75
 21
207.0
 31
0.0
  0
LINE
  5
BC0
330
1B59
100
AcDbEntity
  8
HILFSLINIEN
100
AcDbLine
 10
5.0
 20
207.0
 30
0.0
 11
4.25
 21
207.0
 31
0.0
  0
TEXT
  5
BC1
330
1B59
100
AcDbEntity
  8
TEXT
100
AcDbText
 10
3.749999999999999
 20
285.4821428571428
 30
0.0
 40
2.5
  1
Name
 50
90.0
 41
0.75
  7
ROMANS
 72
     1
 11
3.75
 21
289.5
 31
0.0
100
AcDbText
  0
LINE
  5
BC2
330
1B59
100
AcDbEntity
  8
HILFSLINIEN
100
AcDbLine
 10
8.75
 20
282.0
 30
0.0
 11
8.75
 21
297.0
 31
0.0
  0
LINE
  5
BC3
330
1B59
100
AcDbEntity
  8
HILFSLINIEN
100
AcDbLine
 10
3.75
 20
282.0
 30
0.0
 11
3.75
 21
297.0
 31
0.0
  0
TEXT
  5
BC4
330
1B59
100
AcDbEntity
  8
TEXT
100
AcDbText
 10
3.749999999999999
 20
269.9910714285715
 30
0.0
 40
2.5
  1
Datum
 50
90.0
 41
0.75
  7
ROMANS
 72
     1
 11
3.75
 21
274.5
 31
0.0
100
AcDbText
  0
LINE
  5
BC5
330
1B59
100
AcDbEntity
  8
HILFSLINIEN
100
AcDbLine
 10
8.75
 20
267.0
 30
0.0
 11
8.75
 21
282.0
 31
0.0
  0
LINE
  5
BC6
330
1B59
100
AcDbEntity
  8
HILFSLINIEN
100
AcDbLine
 10
3.75
 20
267.0
 30
0.0
 11
3.75
 21
282.0
 31
0.0
  0
LINE
  5
BC7
330
1B59
100
AcDbEntity
  8
HILFSLINIEN
100
AcDbLine
 10
18.75
 20
282.0
 30
0.0
 11
18.75
 21
297.0
 31
0.0
  0
LINE
  5
BC8
330
1B59
100
AcDbEntity
  8
HILFSLINIEN
100
AcDbLine
 10
13.75
 20
282.0
 30
0.0
 11
13.75
 21
297.0
 31
0.0
  0
LINE
  5
BC9
330
1B59
100
AcDbEntity
  8
HILFSLINIEN
100
AcDbLine
 10
18.75
 20
267.0
 30
0.0
 11
18.75
 21
282.0
 31
0.0
  0
LINE
  5
BCA
330
1B59
100
AcDbEntity
  8
HILFSLINIEN
100
AcDbLine
 10
13.75
 20
267.0
 30
0.0
 11
13.75
 21
282.0
 31
0.0
  0
LINE
  5
BCB
330
1B59
100
AcDbEntity
  8
0
100
AcDbLine
 10
0.0
 20
297.0
 30
0.0
 11
0.0
 21
0.0
 31
0.0
  0
LINE
  5
BCC
330
1B59
100
AcDbEntity
  8
RAHMEN
100
AcDbLine
 10
0.0
 20
90.0
 30
0.0
 11
0.0
 21
0.0
 31
0.0
  0
LINE
  5
BCD
330
1B59
100
AcDbEntity
  8
RAHMEN
100
AcDbLine
 10
0.0
 20
0.0
 30
0.0
 11
0.0
 21
90.0
 31
0.0
  0
LINE
  5
BCE
330
1B59
100
AcDbEntity
  8
RAHMEN
100
AcDbLine
 10
5.0
 20
0.0
 30
0.0
 11
5.0
 21
90.0
 31
0.0
  0
LINE
  5
BCF
330
1B59
100
AcDbEntity
  8
RAHMEN
100
AcDbLine
 10
10.0
 20
0.0
 30
0.0
 11
10.0
 21
90.0
 31
0.0
  0
LINE
  5
BD0
330
1B59
100
AcDbEntity
  8
RAHMEN
100
AcDbLine
 10
15.0
 20
0.0
 30
0.0
 11
15.0
 21
90.0
 31
0.0
  0
LINE
  5
BD1
330
1B59
100
AcDbEntity
  8
RAHMEN
100
AcDbLine
 10
0.0
 20
0.0
 30
0.0
 11
20.0
 21
0.0
 31
0.0
  0
LINE
  5
BD2
330
1B59
100
AcDbEntity
  8
RAHMEN
100
AcDbLine
 10
0.0
 20
0.0
 30
0.0
 11
5.0
 21
0.0
 31
0.0
  0
LINE
  5
BD3
330
1B59
100
AcDbEntity
  8
0
100
AcDbLine
 10
0.0
 20
0.0
 30
0.0
 11
0.0
 21
0.0
 31
0.0
  0
LINE
  5
BD4
330
1B59
100
AcDbEntity
  8
0
100
AcDbLine
 10
20.0
 20
5.0
 30
0.0
 11
20.0
 21
5.0
 31
0.0
  0
LINE
  5
BD5
330
1B59
100
AcDbEntity
  8
RAHMEN
100
AcDbLine
 10
0.0
 20
90.0
 30
0.0
 11
20.0
 21
90.0
 31
0.0
  0
LINE
  5
BD6
330
1B59
100
AcDbEntity
  8
RAHMEN
100
AcDbLine
 10
0.0
 20
60.0
 30
0.0
 11
20.0
 21
60.0
 31
0.0
  0
LINE
  5
BD7
330
1B59
100
AcDbEntity
  8
RAHMEN
100
AcDbLine
 10
0.0
 20
75.0
 30
0.0
 11
20.0
 21
75.0
 31
0.0
  0
LINE
  5
BD8
330
1B59
100
AcDbEntity
  8
RAHMEN
100
AcDbLine
 10
0.0
 20
148.5
 30
0.0
 11
7.544638271345935
 21
148.5
 31
0.0
  0
LINE
  5
BD9
330
1B59
100
AcDbEntity
  8
RAHMEN
100
AcDbLine
 10
15.0
 20
207.0
 30
0.0
 11
15.0
 21
297.0
 31
0.0
  0
LINE
  5
BDA
330
1B59
100
AcDbEntity
  8
RAHMEN
100
AcDbLine
 10
10.0
 20
207.0
 30
0.0
 11
10.0
 21
297.0
 31
0.0
  0
LINE
  5
BDB
330
1B59
100
AcDbEntity
  8
RAHMEN
100
AcDbLine
 10
5.0
 20
207.0
 30
0.0
 11
5.0
 21
297.0
 31
0.0
  0
LINE
  5
BDC
330
1B59
100
AcDbEntity
  8
RAHMEN
100
AcDbLine
 10
0.0
 20
207.0
 30
0.0
 11
0.0
 21
297.0
 31
0.0
  0
LINE
  5
BDD
330
1B59
100
AcDbEntity
  8
RAHMEN
100
AcDbLine
 10
0.0
 20
297.0
 30
0.0
 11
0.0
 21
207.0
 31
0.0
  0
LINE
  5
BDE
330
1B59
100
AcDbEntity
  8
RAHMEN
100
AcDbLine
 10
0.0
 20
207.0
 30
0.0
 11
20.0
 21
207.0
 31
0.0
  0
LINE
  5
BDF
330
1B59
100
AcDbEntity
  8
RAHMEN
100
AcDbLine
 10
0.0
 20
207.0
 30
0.0
 11
5.0
 21
207.0
 31
0.0
  0
LINE
  5
BE0
330
1B59
100
AcDbEntity
  8
RAHMEN
100
AcDbLine
 10
0.0
 20
282.0
 30
0.0
 11
20.0
 21
282.0
 31
0.0
  0
LINE
  5
BE1
330
1B59
100
AcDbEntity
  8
RAHMEN
100
AcDbLine
 10
0.0
 20
267.0
 30
0.0
 11
20.0
 21
267.0
 31
0.0
  0
LINE
  5
BE2
330
1B59
100
AcDbEntity
  8
RAHMEN
100
AcDbLine
 10
0.0
 20
297.0
 30
0.0
 11
20.0
 21
297.0
 31
0.0
  0
ATTDEF
  5
BE3
330
1B59
100
AcDbEntity
  8
TEXT
100
AcDbText
 10
8.75
 20
4.5
 30
0.0
 40
2.5
  1

 50
90.0
 41
0.75
  7
ROMANS
100
AcDbAttributeDefinition
  3
1-Änderung-Text
  2
1
 70
     0
  0
ATTDEF
  5
BE4
330
1B59
100
AcDbEntity
  8
TEXT
100
AcDbText
 10
8.75
 20
61.0
 30
0.0
 40
2.5
  1

 50
90.0
 41
0.75
  7
ROMANS
100
AcDbAttributeDefinition
  3
1-Änderung-Datum
  2
2
 70
     0
  0
ATTDEF
  5
BE5
330
1B59
100
AcDbEntity
  8
TEXT
100
AcDbText
 10
8.75
 20
76.0
 30
0.0
 40
2.5
  1

 50
90.0
 41
0.75
  7
ROMANS
100
AcDbAttributeDefinition
  3
1-Änderung-Name
  2
3
 70
     0
  0
ATTDEF
  5
BE6
330
1B59
100
AcDbEntity
  8
TEXT
100
AcDbText
 10
13.75
 20
4.5
 30
0.0
 40
2.5
  1

 50
90.0
 41
0.75
  7
ROMANS
100
AcDbAttributeDefinition
  3
2-Änderung-Text
  2
4
 70
     0
  0
ATTDEF
  5
BE7
330
1B59
100
AcDbEntity
  8
TEXT
100
AcDbText
 10
13.75
 20
61.0
 30
0.0
 40
2.5
  1

 50
90.0
 41
0.75
  7
ROMANS
100
AcDbAttributeDefinition
  3
2-Änderung-Datum
  2
5
 70
     0
  0
ATTDEF
  5
BE8
330
1B59
100
AcDbEntity
  8
TEXT
100
AcDbText
 10
13.75
 20
76.0
 30
0.0
 40
2.5
  1

 50
90.0
 41
0.75
  7
ROMANS
100
AcDbAttributeDefinition
  3
2-Änderung-Name
  2
6
 70
     0
  0
ATTDEF
  5
BE9
330
1B59
100
AcDbEntity
  8
TEXT
100
AcDbText
 10
18.75
 20
4.5
 30
0.0
 40
2.5
  1

 50
90.0
 41
0.75
  7
ROMANS
100
AcDbAttributeDefinition
  3
3-Änderung-Text
  2
7
 70
     0
  0
ATTDEF
  5
BEA
330
1B59
100
AcDbEntity
  8
TEXT
100
AcDbText
 10
18.75
 20
61.0
 30
0.0
 40
2.5
  1

 50
90.0
 41
0.75
  7
ROMANS
100
AcDbAttributeDefinition
  3
3-Änderung-Datum
  2
8
 70
     0
  0
ATTDEF
  5
BEB
330
1B59
100
AcDbEntity
  8
TEXT
100
AcDbText
 10
18.75
 20
76.0
 30
0.0
 40
2.5
  1

 50
90.0
 41
0.75
  7
ROMANS
100
AcDbAttributeDefinition
  3
3-Änderung-Name
  2
9
 70
     0
  0
ATTDEF
  5
BEC
330
1B59
100
AcDbEntity
  8
TEXT
100
AcDbText
 10
8.75
 20
211.5
 30
0.0
 40
2.5
  1

 50
90.0
 41
0.75
  7
ROMANS
100
AcDbAttributeDefinition
  3
4-Änderung-Text
  2
10
 70
     0
  0
ATTDEF
  5
BED
330
1B59
100
AcDbEntity
  8
TEXT
100
AcDbText
 10
8.75
 20
268.0
 30
0.0
 40
2.5
  1

 50
90.0
 41
0.75
  7
ROMANS
100
AcDbAttributeDefinition
  3
4-Änderung-Datum
  2
11
 70
     0
  0
ATTDEF
  5
BEE
330
1B59
100
AcDbEntity
  8
TEXT
100
AcDbText
 10
8.75
 20
283.0
 30
0.0
 40
2.5
  1

 50
90.0
 41
0.75
  7
ROMANS
100
AcDbAttributeDefinition
  3
4-Änderung-Name
  2
12
 70
     0
  0
ATTDEF
  5
BEF
330
1B59
100
AcDbEntity
  8
TEXT
100
AcDbText
 10
13.75
 20
211.5
 30
0.0
 40
2.5
  1

 50
90.0
 41
0.75
  7
ROMANS
100
AcDbAttributeDefinition
  3
5-Änderung-Text
  2
13
 70
     0
  0
ATTDEF
  5
BF0
330
1B59
100
AcDbEntity
  8
TEXT
100
AcDbText
 10
13.75
 20
268.0
 30
0.0
 40
2.5
  1

 50
90.0
 41
0.75
  7
ROMANS
100
AcDbAttributeDefinition
  3
5-Änderung-Datum
  2
14
 70
     0
  0
ATTDEF
  5
BF1
330
1B59
100
AcDbEntity
  8
TEXT
100
AcDbText
 10
13.75
 20
283.0
 30
0.0
 40
2.5
  1

 50
90.0
 41
0.75
  7
ROMANS
100
AcDbAttributeDefinition
  3
5-Änderung-Name
  2
15
 70
     0
  0
ATTDEF
  5
BF2
330
1B59
100
AcDbEntity
  8
TEXT
100
AcDbText
 10
18.75
 20
211.5
 30
0.0
 40
2.5
  1

 50
90.0
 41
0.75
  7
ROMANS
100
AcDbAttributeDefinition
  3
6-Änderung-Text
  2
16
 70
     0
  0
ATTDEF
  5
BF3
330
1B59
100
AcDbEntity
  8
TEXT
100
AcDbText
 10
18.75
 20
268.0
 30
0.0
 40
2.5
  1

 50
90.0
 41
0.75
  7
ROMANS
100
AcDbAttributeDefinition
  3
6-Änderung-Datum
  2
17
 70
     0
  0
ATTDEF
  5
BF4
330
1B59
100
AcDbEntity
  8
TEXT
100
AcDbText
 10
18.75
 20
283.0
 30
0.0
 40
2.5
  1

 50
90.0
 41
0.75
  7
ROMANS
100
AcDbAttributeDefinition
  3
6-Änderung-Name
  2
18
 70
     0
  0
LINE
  5
BF5
330
1B59
100
AcDbEntity
  8
HILFSLINIEN
100
AcDbLine
 10
20.0
 20
297.0
 30
0.0
 11
20.0
 21
0.0
 31
0.0
  0
LINE
  5
BF6
330
1B59
100
AcDbEntity
  8
HILFSLINIEN
100
AcDbLine
 10
0.0
 20
183.5
 30
0.0
 11
20.0
 21
183.5
 31
0.0
  0
LINE
  5
BF7
330
1B59
100
AcDbEntity
  8
HILFSLINIEN
100
AcDbLine
 10
0.0
 20
113.5
 30
0.0
 11
20.0
 21
113.5
 31
0.0
  0
TEXT
  5
BF8
330
1B59
100
AcDbEntity
  8
TEXT
100
AcDbText
 10
9.847940365286088
 20
113.5
 30
0.0
 40
1.8
  1
Diese Unterlagen bleiben unser Eigentum. Vervielfältigungen, Anfertigungen
 50
90.0
 41
0.6727073036792975
  7
ROMANS
 72
     5
 11
9.847940365286088
 21
183.5
 31
0.0
100
AcDbText
  0
TEXT
  5
BF9
330
1B59
100
AcDbEntity
  8
TEXT
100
AcDbText
 10
12.7622260795718
 20
113.5
 30
0.0
 40
1.8
  1
von Aufzeichnungen bezüglich des Inhaltes, die Weitergabe, auch des In-
 50
90.0
 41
0.6721536351165966
  7
ROMANS
 72
     5
 11
12.7622260795718
 21
183.5
 31
0.0
100
AcDbText
  0
TEXT
  5
BFA
330
1B59
100
AcDbEntity
  8
TEXT
100
AcDbText
 10
15.67651179385752
 20
113.5
 30
0.0
 40
1.8
  1
haltes an Dritte, sowie Verwertung des Inhaltes durch den Empfänger oder
 50
90.0
 41
0.6564844587352628
  7
ROMANS
 72
     5
 11
15.67651179385752
 21
183.5
 31
0.0
100
AcDbText
  0
TEXT
  5
BFB
330
1B59
100
AcDbEntity
  8
TEXT
100
AcDbText
 10
18.59079750814321
 20
113.5
 30
0.0
 40
1.8
  1
auf dessen Vermittlung durch Dritte, sind unzulässig und strafbar.
 50
90.0
 41
0.7451338199513363
  7
ROMANS
 72
     5
 11
18.59079750814321
 21
183.5
 31
0.0
100
AcDbText
  0
LINE
  5
BFC
330
1B59
100
AcDbEntity
  8
HILFSLINIEN
100
AcDbLine
 10
9.871991918659212
 20
113.4923292010233
 30
0.0
 11
9.871991918659212
 21
183.5399722751536
 31
0.0
  0
LINE
  5
BFD
330
1B59
100
AcDbEntity
  8
RAHMEN
100
AcDbLine
 10
20.0
 20
0.0
 30
0.0
 11
20.0
 21
5.0
 31
0.0
  0
LINE
  5
BFE
330
1B59
100
AcDbEntity
  8
RAHMEN
100
AcDbLine
 10
20.0
 20
297.0
 30
0.0
 11
20.0
 21
292.0
 31
0.0
  0
ENDBLK
  5
C00
330
1B59
100
AcDbEntity
  8
0
100
AcDbBlockEnd
  0
BLOCK
  5
1B5C
330
1B5B
100
AcDbEntity
  8
0
100
AcDbBlockBegin
  2
AENDERUNGS-KOPF1-_1-6_-A4-
 70
     2
 10
0.0
 20
0.0
 30
0.0
  3
AENDERUNGS-KOPF1-_1-6_-A4-
  1

  0
LINE
  5
C03
330
1B5B
100
AcDbEntity
  8
RAHMEN
100
AcDbLine
 10
0.0
 20
297.0
 30
0.0
 11
0.0
 21
0.0
 31
0.0
  0
LINE
  5
C04
330
1B5B
100
AcDbEntity
  8
0
100
AcDbLine
 10
0.0
 20
5.0
 30
0.0
 11
0.0
 21
5.0
 31
0.0
  0
LINE
  5
C05
330
1B5B
100
AcDbEntity
  8
HILFSLINIEN
100
AcDbLine
 10
18.75
 20
0.0
 30
0.0
 11
18.75
 21
2.0
 31
0.0
  0
LINE
  5
C06
330
1B5B
100
AcDbEntity
  8
HILFSLINIEN
100
AcDbLine
 10
18.75
 20
2.0
 30
0.0
 11
15.0
 21
2.0
 31
0.0
  0
CIRCLE
  5
C07
330
1B5B
100
AcDbEntity
  8
TEXT
100
AcDbCircle
 10
16.875
 20
7.0
 30
0.0
 40
1.7
  0
LINE
  5
C08
330
1B5B
100
AcDbEntity
  8
HILFSLINIEN
100
AcDbLine
 10
13.75
 20
0.0
 30
0.0
 11
13.75
 21
2.0
 31
0.0
  0
LINE
  5
C09
330
1B5B
100
AcDbEntity
  8
HILFSLINIEN
100
AcDbLine
 10
13.75
 20
2.0
 30
0.0
 11
10.0
 21
2.0
 31
0.0
  0
CIRCLE
  5
C0A
330
1B5B
100
AcDbEntity
  8
TEXT
100
AcDbCircle
 10
11.875
 20
7.0
 30
0.0
 40
1.7
  0
LINE
  5
C0B
330
1B5B
100
AcDbEntity
  8
HILFSLINIEN
100
AcDbLine
 10
8.75
 20
0.0
 30
0.0
 11
8.75
 21
2.0
 31
0.0
  0
LINE
  5
C0C
330
1B5B
100
AcDbEntity
  8
HILFSLINIEN
100
AcDbLine
 10
8.75
 20
2.0
 30
0.0
 11
5.0
 21
2.0
 31
0.0
  0
CIRCLE
  5
C0D
330
1B5B
100
AcDbEntity
  8
TEXT
100
AcDbCircle
 10
6.875
 20
7.0
 30
0.0
 40
1.7
  0
TEXT
  5
C0E
330
1B5B
100
AcDbEntity
  8
TEXT
100
AcDbText
 10
7.875
 20
6.392857142857143
 30
0.0
 40
2.0
  1
1
 50
90.0
 41
0.75
  7
ROMANS
 72
     4
 11
6.875
 21
7.0
 31
0.0
100
AcDbText
  0
TEXT
  5
C0F
330
1B5B
100
AcDbEntity
  8
TEXT
100
AcDbText
 10
12.875
 20
6.285714285714285
 30
0.0
 40
2.0
  1
2
 50
90.0
 41
0.75
  7
ROMANS
 72
     4
 11
11.875
 21
7.0
 31
0.0
100
AcDbText
  0
TEXT
  5
C10
330
1B5B
100
AcDbEntity
  8
TEXT
100
AcDbText
 10
17.875
 20
6.285714285714285
 30
0.0
 40
2.0
  1
3
 50
90.0
 41
0.75
  7
ROMANS
 72
     4
 11
16.875
 21
7.0
 31
0.0
100
AcDbText
  0
LINE
  5
C11
330
1B5B
100
AcDbEntity
  8
HILFSLINIEN
100
AcDbLine
 10
18.75
 20
207.0
 30
0.0
 11
18.75
 21
209.0
 31
0.0
  0
LINE
  5
C12
330
1B5B
100
AcDbEntity
  8
HILFSLINIEN
100
AcDbLine
 10
18.75
 20
209.0
 30
0.0
 11
15.0
 21
209.0
 31
0.0
  0
CIRCLE
  5
C13
330
1B5B
100
AcDbEntity
  8
TEXT
100
AcDbCircle
 10
16.875
 20
204.0
 30
0.0
 40
1.7
  0
LINE
  5
C14
330
1B5B
100
AcDbEntity
  8
HILFSLINIEN
100
AcDbLine
 10
13.75
 20
207.0
 30
0.0
 11
13.75
 21
209.0
 31
0.0
  0
LINE
  5
C15
330
1B5B
100
AcDbEntity
  8
HILFSLINIEN
100
AcDbLine
 10
13.75
 20
209.0
 30
0.0
 11
10.0
 21
209.0
 31
0.0
  0
CIRCLE
  5
C16
330
1B5B
100
AcDbEntity
  8
TEXT
100
AcDbCircle
 10
11.875
 20
204.0
 30
0.0
 40
1.7
  0
LINE
  5
C17
330
1B5B
100
AcDbEntity
  8
HILFSLINIEN
100
AcDbLine
 10
8.75
 20
207.0
 30
0.0
 11
8.75
 21
209.0
 31
0.0
  0
LINE
  5
C18
330
1B5B
100
AcDbEntity
  8
HILFSLINIEN
100
AcDbLine
 10
8.75
 20
209.0
 30
0.0
 11
5.0
 21
209.0
 31
0.0
  0
CIRCLE
  5
C19
330
1B5B
100
AcDbEntity
  8
TEXT
100
AcDbCircle
 10
6.875
 20
204.0
 30
0.0
 40
1.7
  0
TEXT
  5
C1A
330
1B5B
100
AcDbEntity
  8
TEXT
100
AcDbText
 10
7.875
 20
203.25
 30
0.0
 40
2.0
  1
4
 50
90.0
 41
0.75
  7
ROMANS
 72
     4
 11
6.875
 21
204.0
 31
0.0
100
AcDbText
  0
TEXT
  5
C1B
330
1B5B
100
AcDbEntity
  8
TEXT
100
AcDbText
 10
12.875
 20
203.2857142857143
 30
0.0
 40
2.0
  1
5
 50
90.0
 41
0.75
  7
ROMANS
 72
     4
 11
11.875
 21
204.0
 31
0.0
100
AcDbText
  0
TEXT
  5
C1C
330
1B5B
100
AcDbEntity
  8
TEXT
100
AcDbText
 10
17.875
 20
203.25
 30
0.0
 40
2.0
  1
6
 50
90.0
 41
0.75
  7
ROMANS
 72
     4
 11
16.875
 21
204.0
 31
0.0
100
AcDbText
  0
LINE
  5
C1D
330
1B5B
100
AcDbEntity
  8
HILFSLINIEN
100
AcDbLine
 10
3.75
 20
0.0
 30
0.0
 11
3.75
 21
4.5
 31
0.0
  0
LINE
  5
C1E
330
1B5B
100
AcDbEntity
  8
HILFSLINIEN
100
AcDbLine
 10
3.75
 20
4.5
 30
0.0
 11
18.75
 21
4.5
 31
0.0
  0
LINE
  5
C1F
330
1B5B
100
AcDbEntity
  8
HILFSLINIEN
100
AcDbLine
 10
18.75
 20
60.0
 30
0.0
 11
18.75
 21
61.0
 31
0.0
  0
LINE
  5
C20
330
1B5B
100
AcDbEntity
  8
HILFSLINIEN
100
AcDbLine
 10
18.75
 20
61.0
 30
0.0
 11
3.75
 21
61.0
 31
0.0
  0
LINE
  5
C21
330
1B5B
100
AcDbEntity
  8
HILFSLINIEN
100
AcDbLine
 10
18.75
 20
75.0
 30
0.0
 11
18.75
 21
76.0
 31
0.0
  0
LINE
  5
C22
330
1B5B
100
AcDbEntity
  8
HILFSLINIEN
100
AcDbLine
 10
18.75
 20
76.0
 30
0.0
 11
3.75
 21
76.0
 31
0.0
  0
LINE
  5
C23
330
1B5B
100
AcDbEntity
  8
HILFSLINIEN
100
AcDbLine
 10
18.75
 20
207.0
 30
0.0
 11
18.75
 21
211.5
 31
0.0
  0
LINE
  5
C24
330
1B5B
100
AcDbEntity
  8
HILFSLINIEN
100
AcDbLine
 10
18.75
 20
211.5
 30
0.0
 11
3.75
 21
211.5
 31
0.0
  0
LINE
  5
C25
330
1B5B
100
AcDbEntity
  8
HILFSLINIEN
100
AcDbLine
 10
18.75
 20
267.0
 30
0.0
 11
18.75
 21
268.0
 31
0.0
  0
LINE
  5
C26
330
1B5B
100
AcDbEntity
  8
HILFSLINIEN
100
AcDbLine
 10
18.75
 20
268.0
 30
0.0
 11
3.75
 21
268.0
 31
0.0
  0
LINE
  5
C27
330
1B5B
100
AcDbEntity
  8
HILFSLINIEN
100
AcDbLine
 10
18.75
 20
282.0
 30
0.0
 11
18.75
 21
283.0
 31
0.0
  0
LINE
  5
C28
330
1B5B
100
AcDbEntity
  8
HILFSLINIEN
100
AcDbLine
 10
18.75
 20
283.0
 30
0.0
 11
3.75
 21
283.0
 31
0.0
  0
LINE
  5
C29
330
1B5B
100
AcDbEntity
  8
HILFSLINIEN
100
AcDbLine
 10
3.75
 20
0.0
 30
0.0
 11
3.75
 21
60.0
 31
0.0
  0
LINE
  5
C2A
330
1B5B
100
AcDbEntity
  8
HILFSLINIEN
100
AcDbLine
 10
8.75
 20
0.0
 30
0.0
 11
8.75
 21
60.0
 31
0.0
  0
LINE
  5
C2B
330
1B5B
100
AcDbEntity
  8
HILFSLINIEN
100
AcDbLine
 10
13.75
 20
0.0
 30
0.0
 11
13.75
 21
60.0
 31
0.0
  0
LINE
  5
C2C
330
1B5B
100
AcDbEntity
  8
HILFSLINIEN
100
AcDbLine
 10
18.75
 20
0.0
 30
0.0
 11
18.75
 21
60.0
 31
0.0
  0
LINE
  5
C2D
330
1B5B
100
AcDbEntity
  8
HILFSLINIEN
100
AcDbLine
 10
3.75
 20
0.0
 30
0.0
 11
3.75
 21
60.0
 31
0.0
  0
LINE
  5
C2E
330
1B5B
100
AcDbEntity
  8
HILFSLINIEN
100
AcDbLine
 10
8.75
 20
0.0
 30
0.0
 11
8.75
 21
60.0
 31
0.0
  0
LINE
  5
C2F
330
1B5B
100
AcDbEntity
  8
HILFSLINIEN
100
AcDbLine
 10
13.75
 20
0.0
 30
0.0
 11
13.75
 21
60.0
 31
0.0
  0
LINE
  5
C30
330
1B5B
100
AcDbEntity
  8
HILFSLINIEN
100
AcDbLine
 10
18.75
 20
0.0
 30
0.0
 11
18.75
 21
60.0
 31
0.0
  0
LINE
  5
C31
330
1B5B
100
AcDbEntity
  8
HILFSLINIEN
100
AcDbLine
 10
5.0
 20
0.0
 30
0.0
 11
4.25
 21
0.0
 31
0.0
  0
LINE
  5
C32
330
1B5B
100
AcDbEntity
  8
HILFSLINIEN
100
AcDbLine
 10
5.0
 20
0.0
 30
0.0
 11
3.75
 21
0.0
 31
0.0
  0
LINE
  5
C33
330
1B5B
100
AcDbEntity
  8
HILFSLINIEN
100
AcDbLine
 10
5.0
 20
0.0
 30
0.0
 11
4.25
 21
0.0
 31
0.0
  0
LINE
  5
C34
330
1B5B
100
AcDbEntity
  8
HILFSLINIEN
100
AcDbLine
 10
5.0
 20
0.0
 30
0.0
 11
3.75
 21
0.0
 31
0.0
  0
LINE
  5
C35
330
1B5B
100
AcDbEntity
  8
0
100
AcDbLine
 10
0.0
 20
5.0
 30
0.0
 11
0.0
 21
5.0
 31
0.0
  0
TEXT
  5
C36
330
1B5B
100
AcDbEntity
  8
TEXT
100
AcDbText
 10
3.749999999999999
 20
28.70535714285714
 30
0.0
 40
2.5
  1
Änderung
 50
90.0
 41
0.75
  7
ROMANS
 72
     1
 11
3.75
 21
35.0
 31
0.0
100
AcDbText
  0
LINE
  5
C37
330
1B5B
100
AcDbEntity
  8
0
100
AcDbLine
 10
20.0
 20
10.0
 30
0.0
 11
20.0
 21
10.0
 31
0.0
  0
LINE
  5
C38
330
1B5B
100
AcDbEntity
  8
HILFSLINIEN
100
AcDbLine
 10
3.75
 20
75.0
 30
0.0
 11
3.75
 21
90.0
 31
0.0
  0
LINE
  5
C39
330
1B5B
100
AcDbEntity
  8
HILFSLINIEN
100
AcDbLine
 10
8.75
 20
75.0
 30
0.0
 11
8.75
 21
90.0
 31
0.0
  0
TEXT
  5
C3A
330
1B5B
100
AcDbEntity
  8
TEXT
100
AcDbText
 10
3.749999999999999
 20
83.48214285714286
 30
0.0
 40
2.5
  1
Name
 50
90.0
 41
0.75
  7
ROMANS
 72
     1
 11
3.75
 21
87.5
 31
0.0
100
AcDbText
  0
LINE
  5
C3B
330
1B5B
100
AcDbEntity
  8
HILFSLINIEN
100
AcDbLine
 10
3.75
 20
75.0
 30
0.0
 11
3.75
 21
90.0
 31
0.0
  0
LINE
  5
C3C
330
1B5B
100
AcDbEntity
  8
HILFSLINIEN
100
AcDbLine
 10
8.75
 20
75.0
 30
0.0
 11
8.75
 21
90.0
 31
0.0
  0
LINE
  5
C3D
330
1B5B
100
AcDbEntity
  8
HILFSLINIEN
100
AcDbLine
 10
3.75
 20
60.0
 30
0.0
 11
3.75
 21
75.0
 31
0.0
  0
LINE
  5
C3E
330
1B5B
100
AcDbEntity
  8
HILFSLINIEN
100
AcDbLine
 10
8.75
 20
60.0
 30
0.0
 11
8.75
 21
75.0
 31
0.0
  0
TEXT
  5
C3F
330
1B5B
100
AcDbEntity
  8
TEXT
100
AcDbText
 10
3.749999999999999
 20
67.99107142857143
 30
0.0
 40
2.5
  1
Datum
 50
90.0
 41
0.75
  7
ROMANS
 72
     1
 11
3.75
 21
72.5
 31
0.0
100
AcDbText
  0
LINE
  5
C40
330
1B5B
100
AcDbEntity
  8
HILFSLINIEN
100
AcDbLine
 10
3.75
 20
60.0
 30
0.0
 11
3.75
 21
75.0
 31
0.0
  0
LINE
  5
C41
330
1B5B
100
AcDbEntity
  8
HILFSLINIEN
100
AcDbLine
 10
8.75
 20
60.0
 30
0.0
 11
8.75
 21
75.0
 31
0.0
  0
LINE
  5
C42
330
1B5B
100
AcDbEntity
  8
HILFSLINIEN
100
AcDbLine
 10
13.75
 20
75.0
 30
0.0
 11
13.75
 21
90.0
 31
0.0
  0
LINE
  5
C43
330
1B5B
100
AcDbEntity
  8
HILFSLINIEN
100
AcDbLine
 10
18.75
 20
75.0
 30
0.0
 11
18.75
 21
90.0
 31
0.0
  0
LINE
  5
C44
330
1B5B
100
AcDbEntity
  8
HILFSLINIEN
100
AcDbLine
 10
13.75
 20
75.0
 30
0.0
 11
13.75
 21
90.0
 31
0.0
  0
LINE
  5
C45
330
1B5B
100
AcDbEntity
  8
HILFSLINIEN
100
AcDbLine
 10
18.75
 20
75.0
 30
0.0
 11
18.75
 21
90.0
 31
0.0
  0
LINE
  5
C46
330
1B5B
100
AcDbEntity
  8
HILFSLINIEN
100
AcDbLine
 10
13.75
 20
60.0
 30
0.0
 11
13.75
 21
75.0
 31
0.0
  0
LINE
  5
C47
330
1B5B
100
AcDbEntity
  8
HILFSLINIEN
100
AcDbLine
 10
18.75
 20
60.0
 30
0.0
 11
18.75
 21
75.0
 31
0.0
  0
LINE
  5
C48
330
1B5B
100
AcDbEntity
  8
HILFSLINIEN
100
AcDbLine
 10
13.75
 20
60.0
 30
0.0
 11
13.75
 21
75.0
 31
0.0
  0
LINE
  5
C49
330
1B5B
100
AcDbEntity
  8
HILFSLINIEN
100
AcDbLine
 10
18.75
 20
60.0
 30
0.0
 11
18.75
 21
75.0
 31
0.0
  0
TEXT
  5
C4A
330
1B5B
100
AcDbEntity
  8
TEXT
100
AcDbText
 10
3.749999999999999
 20
225.7053571428571
 30
0.0
 40
2.5
  1
Änderung
 50
90.0
 41
0.75
  7
ROMANS
 72
     1
 11
3.75
 21
232.0
 31
0.0
100
AcDbText
  0
LINE
  5
C4B
330
1B5B
100
AcDbEntity
  8
HILFSLINIEN
100
AcDbLine
 10
18.75
 20
207.0
 30
0.0
 11
18.75
 21
267.0
 31
0.0
  0
LINE
  5
C4C
330
1B5B
100
AcDbEntity
  8
HILFSLINIEN
100
AcDbLine
 10
13.75
 20
207.0
 30
0.0
 11
13.75
 21
267.0
 31
0.0
  0
LINE
  5
C4D
330
1B5B
100
AcDbEntity
  8
HILFSLINIEN
100
AcDbLine
 10
8.75
 20
207.0
 30
0.0
 11
8.75
 21
267.0
 31
0.0
  0
LINE
  5
C4E
330
1B5B
100
AcDbEntity
  8
HILFSLINIEN
100
AcDbLine
 10
3.75
 20
207.0
 30
0.0
 11
3.75
 21
267.0
 31
0.0
  0
LINE
  5
C4F
330
1B5B
100
AcDbEntity
  8
HILFSLINIEN
100
AcDbLine
 10
5.0
 20
207.0
 30
0.0
 11
3.75
 21
207.0
 31
0.0
  0
LINE
  5
C50
330
1B5B
100
AcDbEntity
  8
HILFSLINIEN
100
AcDbLine
 10
5.0
 20
207.0
 30
0.0
 11
4.25
 21
207.0
 31
0.0
  0
TEXT
  5
C51
330
1B5B
100
AcDbEntity
  8
TEXT
100
AcDbText
 10
3.749999999999999
 20
280.4821428571429
 30
0.0
 40
2.5
  1
Name
 50
90.0
 41
0.75
  7
ROMANS
 72
     1
 11
3.75
 21
284.5
 31
0.0
100
AcDbText
  0
LINE
  5
C52
330
1B5B
100
AcDbEntity
  8
HILFSLINIEN
100
AcDbLine
 10
8.75
 20
282.0
 30
0.0
 11
8.75
 21
297.0
 31
0.0
  0
LINE
  5
C53
330
1B5B
100
AcDbEntity
  8
HILFSLINIEN
100
AcDbLine
 10
3.75
 20
282.0
 30
0.0
 11
3.75
 21
297.0
 31
0.0
  0
TEXT
  5
C54
330
1B5B
100
AcDbEntity
  8
TEXT
100
AcDbText
 10
3.749999999999999
 20
264.9910714285714
 30
0.0
 40
2.5
  1
Datum
 50
90.0
 41
0.75
  7
ROMANS
 72
     1
 11
3.75
 21
269.5
 31
0.0
100
AcDbText
  0
LINE
  5
C55
330
1B5B
100
AcDbEntity
  8
HILFSLINIEN
100
AcDbLine
 10
8.75
 20
267.0
 30
0.0
 11
8.75
 21
282.0
 31
0.0
  0
LINE
  5
C56
330
1B5B
100
AcDbEntity
  8
HILFSLINIEN
100
AcDbLine
 10
3.75
 20
267.0
 30
0.0
 11
3.75
 21
282.0
 31
0.0
  0
LINE
  5
C57
330
1B5B
100
AcDbEntity
  8
HILFSLINIEN
100
AcDbLine
 10
18.75
 20
282.0
 30
0.0
 11
18.75
 21
297.0
 31
0.0
  0
LINE
  5
C58
330
1B5B
100
AcDbEntity
  8
HILFSLINIEN
100
AcDbLine
 10
13.75
 20
282.0
 30
0.0
 11
13.75
 21
297.0
 31
0.0
  0
LINE
  5
C59
330
1B5B
100
AcDbEntity
  8
HILFSLINIEN
100
AcDbLine
 10
18.75
 20
267.0
 30
0.0
 11
18.75
 21
282.0
 31
0.0
  0
LINE
  5
C5A
330
1B5B
100
AcDbEntity
  8
HILFSLINIEN
100
AcDbLine
 10
13.75
 20
267.0
 30
0.0
 11
13.75
 21
282.0
 31
0.0
  0
LINE
  5
C5B
330
1B5B
100
AcDbEntity
  8
RAHMEN
100
AcDbLine
 10
0.0
 20
95.0
 30
0.0
 11
0.0
 21
5.0
 31
0.0
  0
LINE
  5
C5C
330
1B5B
100
AcDbEntity
  8
RAHMEN
100
AcDbLine
 10
0.0
 20
5.0
 30
0.0
 11
0.0
 21
95.0
 31
0.0
  0
LINE
  5
C5D
330
1B5B
100
AcDbEntity
  8
RAHMEN
100
AcDbLine
 10
5.0
 20
5.0
 30
0.0
 11
5.0
 21
95.0
 31
0.0
  0
LINE
  5
C5E
330
1B5B
100
AcDbEntity
  8
RAHMEN
100
AcDbLine
 10
10.0
 20
5.0
 30
0.0
 11
10.0
 21
95.0
 31
0.0
  0
LINE
  5
C5F
330
1B5B
100
AcDbEntity
  8
RAHMEN
100
AcDbLine
 10
15.0
 20
5.0
 30
0.0
 11
15.0
 21
95.0
 31
0.0
  0
LINE
  5
C60
330
1B5B
100
AcDbEntity
  8
RAHMEN
100
AcDbLine
 10
0.0
 20
5.0
 30
0.0
 11
20.0
 21
5.0
 31
0.0
  0
LINE
  5
C61
330
1B5B
100
AcDbEntity
  8
RAHMEN
100
AcDbLine
 10
0.0
 20
5.0
 30
0.0
 11
5.0
 21
5.0
 31
0.0
  0
LINE
  5
C62
330
1B5B
100
AcDbEntity
  8
0
100
AcDbLine
 10
0.0
 20
5.0
 30
0.0
 11
0.0
 21
5.0
 31
0.0
  0
LINE
  5
C63
330
1B5B
100
AcDbEntity
  8
0
100
AcDbLine
 10
20.0
 20
10.0
 30
0.0
 11
20.0
 21
10.0
 31
0.0
  0
LINE
  5
C64
330
1B5B
100
AcDbEntity
  8
RAHMEN
100
AcDbLine
 10
0.0
 20
95.0
 30
0.0
 11
20.0
 21
95.0
 31
0.0
  0
LINE
  5
C65
330
1B5B
100
AcDbEntity
  8
RAHMEN
100
AcDbLine
 10
0.0
 20
65.0
 30
0.0
 11
20.0
 21
65.0
 31
0.0
  0
LINE
  5
C66
330
1B5B
100
AcDbEntity
  8
RAHMEN
100
AcDbLine
 10
0.0
 20
80.0
 30
0.0
 11
20.0
 21
80.0
 31
0.0
  0
LINE
  5
C67
330
1B5B
100
AcDbEntity
  8
RAHMEN
100
AcDbLine
 10
-0.0000000000000098
 20
148.5
 30
0.0
 11
5.622012902018127
 21
148.5
 31
0.0
  0
LINE
  5
C68
330
1B5B
100
AcDbEntity
  8
RAHMEN
100
AcDbLine
 10
15.0
 20
202.0
 30
0.0
 11
15.0
 21
292.0
 31
0.0
  0
LINE
  5
C69
330
1B5B
100
AcDbEntity
  8
RAHMEN
100
AcDbLine
 10
10.0
 20
202.0
 30
0.0
 11
10.0
 21
292.0
 31
0.0
  0
LINE
  5
C6A
330
1B5B
100
AcDbEntity
  8
RAHMEN
100
AcDbLine
 10
5.0
 20
202.0
 30
0.0
 11
5.0
 21
292.0
 31
0.0
  0
LINE
  5
C6B
330
1B5B
100
AcDbEntity
  8
RAHMEN
100
AcDbLine
 10
0.0
 20
202.0
 30
0.0
 11
0.0
 21
292.0
 31
0.0
  0
LINE
  5
C6C
330
1B5B
100
AcDbEntity
  8
RAHMEN
100
AcDbLine
 10
0.0
 20
292.0
 30
0.0
 11
0.0
 21
202.0
 31
0.0
  0
LINE
  5
C6D
330
1B5B
100
AcDbEntity
  8
RAHMEN
100
AcDbLine
 10
0.0
 20
202.0
 30
0.0
 11
20.0
 21
202.0
 31
0.0
  0
LINE
  5
C6E
330
1B5B
100
AcDbEntity
  8
RAHMEN
100
AcDbLine
 10
0.0
 20
202.0
 30
0.0
 11
5.0
 21
202.0
 31
0.0
  0
LINE
  5
C6F
330
1B5B
100
AcDbEntity
  8
RAHMEN
100
AcDbLine
 10
0.0
 20
277.0
 30
0.0
 11
20.0
 21
277.0
 31
0.0
  0
LINE
  5
C70
330
1B5B
100
AcDbEntity
  8
RAHMEN
100
AcDbLine
 10
0.0
 20
262.0
 30
0.0
 11
20.0
 21
262.0
 31
0.0
  0
LINE
  5
C71
330
1B5B
100
AcDbEntity
  8
RAHMEN
100
AcDbLine
 10
0.0
 20
292.0
 30
0.0
 11
20.0
 21
292.0
 31
0.0
  0
ATTDEF
  5
C72
330
1B5B
100
AcDbEntity
  8
TEXT
100
AcDbText
 10
8.75
 20
9.5
 30
0.0
 40
2.5
  1

 50
90.0
 41
0.75
  7
ROMANS
100
AcDbAttributeDefinition
  3
1-Änderung-Text
  2
1
 70
     0
  0
ATTDEF
  5
C73
330
1B5B
100
AcDbEntity
  8
TEXT
100
AcDbText
 10
8.75
 20
66.0
 30
0.0
 40
2.5
  1

 50
90.0
 41
0.75
  7
ROMANS
100
AcDbAttributeDefinition
  3
1-Änderung-Datum
  2
2
 70
     0
  0
ATTDEF
  5
C74
330
1B5B
100
AcDbEntity
  8
TEXT
100
AcDbText
 10
8.75
 20
81.0
 30
0.0
 40
2.5
  1

 50
90.0
 41
0.75
  7
ROMANS
100
AcDbAttributeDefinition
  3
1-Änderung-Name
  2
3
 70
     0
  0
ATTDEF
  5
C75
330
1B5B
100
AcDbEntity
  8
TEXT
100
AcDbText
 10
13.75
 20
9.5
 30
0.0
 40
2.5
  1

 50
90.0
 41
0.75
  7
ROMANS
100
AcDbAttributeDefinition
  3
2-Änderung-Text
  2
4
 70
     0
  0
ATTDEF
  5
C76
330
1B5B
100
AcDbEntity
  8
TEXT
100
AcDbText
 10
13.75
 20
66.0
 30
0.0
 40
2.5
  1

 50
90.0
 41
0.75
  7
ROMANS
100
AcDbAttributeDefinition
  3
2-Änderung-Datum
  2
5
 70
     0
  0
ATTDEF
  5
C77
330
1B5B
100
AcDbEntity
  8
TEXT
100
AcDbText
 10
13.75
 20
81.0
 30
0.0
 40
2.5
  1

 50
90.0
 41
0.75
  7
ROMANS
100
AcDbAttributeDefinition
  3
2-Änderung-Name
  2
6
 70
     0
  0
ATTDEF
  5
C78
330
1B5B
100
AcDbEntity
  8
TEXT
100
AcDbText
 10
18.75
 20
9.5
 30
0.0
 40
2.5
  1

 50
90.0
 41
0.75
  7
ROMANS
100
AcDbAttributeDefinition
  3
3-Änderung-Text
  2
7
 70
     0
  0
ATTDEF
  5
C79
330
1B5B
100
AcDbEntity
  8
TEXT
100
AcDbText
 10
18.75
 20
66.0
 30
0.0
 40
2.5
  1

 50
90.0
 41
0.75
  7
ROMANS
100
AcDbAttributeDefinition
  3
3-Änderung-Datum
  2
8
 70
     0
  0
ATTDEF
  5
C7A
330
1B5B
100
AcDbEntity
  8
TEXT
100
AcDbText
 10
18.75
 20
81.0
 30
0.0
 40
2.5
  1

 50
90.0
 41
0.75
  7
ROMANS
100
AcDbAttributeDefinition
  3
3-Änderung-Name
  2
9
 70
     0
  0
ATTDEF
  5
C7B
330
1B5B
100
AcDbEntity
  8
TEXT
100
AcDbText
 10
8.75
 20
206.5
 30
0.0
 40
2.5
  1

 50
90.0
 41
0.75
  7
ROMANS
100
AcDbAttributeDefinition
  3
4-Änderung-Text
  2
10
 70
     0
  0
ATTDEF
  5
C7C
330
1B5B
100
AcDbEntity
  8
TEXT
100
AcDbText
 10
8.75
 20
263.0
 30
0.0
 40
2.5
  1

 50
90.0
 41
0.75
  7
ROMANS
100
AcDbAttributeDefinition
  3
4-Änderung-Datum
  2
11
 70
     0
  0
ATTDEF
  5
C7D
330
1B5B
100
AcDbEntity
  8
TEXT
100
AcDbText
 10
8.75
 20
278.0
 30
0.0
 40
2.5
  1

 50
90.0
 41
0.75
  7
ROMANS
100
AcDbAttributeDefinition
  3
4-Änderung-Name
  2
12
 70
     0
  0
ATTDEF
  5
C7E
330
1B5B
100
AcDbEntity
  8
TEXT
100
AcDbText
 10
13.75
 20
206.5
 30
0.0
 40
2.5
  1

 50
90.0
 41
0.75
  7
ROMANS
100
AcDbAttributeDefinition
  3
5-Änderung-Text
  2
13
 70
     0
  0
ATTDEF
  5
C7F
330
1B5B
100
AcDbEntity
  8
TEXT
100
AcDbText
 10
13.75
 20
263.0
 30
0.0
 40
2.5
  1

 50
90.0
 41
0.75
  7
ROMANS
100
AcDbAttributeDefinition
  3
5-Änderung-Datum
  2
14
 70
     0
  0
ATTDEF
  5
C80
330
1B5B
100
AcDbEntity
  8
TEXT
100
AcDbText
 10
13.75
 20
278.0
 30
0.0
 40
2.5
  1

 50
90.0
 41
0.75
  7
ROMANS
100
AcDbAttributeDefinition
  3
5-Änderung-Name
  2
15
 70
     0
  0
ATTDEF
  5
C81
330
1B5B
100
AcDbEntity
  8
TEXT
100
AcDbText
 10
18.75
 20
206.5
 30
0.0
 40
2.5
  1

 50
90.0
 41
0.75
  7
ROMANS
100
AcDbAttributeDefinition
  3
6-Änderung-Text
  2
16
 70
     0
  0
ATTDEF
  5
C82
330
1B5B
100
AcDbEntity
  8
TEXT
100
AcDbText
 10
18.75
 20
263.0
 30
0.0
 40
2.5
  1

 50
90.0
 41
0.75
  7
ROMANS
100
AcDbAttributeDefinition
  3
6-Änderung-Datum
  2
17
 70
     0
  0
ATTDEF
  5
C83
330
1B5B
100
AcDbEntity
  8
TEXT
100
AcDbText
 10
18.75
 20
278.0
 30
0.0
 40
2.5
  1

 50
90.0
 41
0.75
  7
ROMANS
100
AcDbAttributeDefinition
  3
6-Änderung-Name
  2
18
 70
     0
  0
LINE
  5
C84
330
1B5B
100
AcDbEntity
  8
HILFSLINIEN
100
AcDbLine
 10
20.0
 20
297.0
 30
0.0
 11
20.0
 21
0.0
 31
0.0
  0
LINE
  5
C85
330
1B5B
100
AcDbEntity
  8
HILFSLINIEN
100
AcDbLine
 10
0.0
 20
183.5
 30
0.0
 11
20.0
 21
183.5
 31
0.0
  0
LINE
  5
C86
330
1B5B
100
AcDbEntity
  8
HILFSLINIEN
100
AcDbLine
 10
0.0
 20
113.5
 30
0.0
 11
20.0
 21
113.5
 31
0.0
  0
TEXT
  5
C87
330
1B5B
100
AcDbEntity
  8
TEXT
100
AcDbText
 10
9.847940365286088
 20
113.5
 30
0.0
 40
1.8
  1
Diese Unterlagen bleiben unser Eigentum. Vervielfältigungen, Anfertigungen
 50
90.0
 41
0.6727073036792984
  7
ROMANS
 72
     5
 11
9.847940365286088
 21
183.5
 31
0.0
100
AcDbText
  0
TEXT
  5
C88
330
1B5B
100
AcDbEntity
  8
TEXT
100
AcDbText
 10
12.7622260795718
 20
113.5
 30
0.0
 40
1.8
  1
von Aufzeichnungen bezüglich des Inhaltes, die Weitergabe, auch des In-
 50
90.0
 41
0.6721536351165966
  7
ROMANS
 72
     5
 11
12.7622260795718
 21
183.5
 31
0.0
100
AcDbText
  0
TEXT
  5
C89
330
1B5B
100
AcDbEntity
  8
TEXT
100
AcDbText
 10
15.67651179385752
 20
113.5
 30
0.0
 40
1.8
  1
haltes an Dritte, sowie Verwertung des Inhaltes durch den Empfänger oder
 50
90.0
 41
0.6564844587352628
  7
ROMANS
 72
     5
 11
15.67651179385752
 21
183.5
 31
0.0
100
AcDbText
  0
TEXT
  5
C8A
330
1B5B
100
AcDbEntity
  8
TEXT
100
AcDbText
 10
18.59079750814321
 20
113.5
 30
0.0
 40
1.8
  1
auf dessen Vermittlung durch Dritte, sind unzulässig und strafbar.
 50
90.0
 41
0.7451338199513363
  7
ROMANS
 72
     5
 11
18.59079750814321
 21
183.5
 31
0.0
100
AcDbText
  0
LINE
  5
C8B
330
1B5B
100
AcDbEntity
  8
HILFSLINIEN
100
AcDbLine
 10
9.871991918659212
 20
113.4923292010233
 30
0.0
 11
9.871991918659212
 21
183.5399722751536
 31
0.0
  0
LINE
  5
C8C
330
1B5B
100
AcDbEntity
  8
RAHMEN
100
AcDbLine
 10
20.0
 20
5.0
 30
0.0
 11
20.0
 21
10.0
 31
0.0
  0
LINE
  5
C8D
330
1B5B
100
AcDbEntity
  8
RAHMEN
100
AcDbLine
 10
20.0
 20
292.0
 30
0.0
 11
20.0
 21
287.0
 31
0.0
  0
LINE
  5
C8E
330
1B5B
100
AcDbEntity
  8
RAHMEN
100
AcDbLine
 10
0.0
 20
202.0
 30
0.0
 11
-0.0000000000000195
 21
95.0
 31
0.0
  0
ENDBLK
  5
C90
330
1B5B
100
AcDbEntity
  8
0
100
AcDbBlockEnd
  0
BLOCK
  5
1B5E
330
1B5D
100
AcDbEntity
  8
0
100
AcDbBlockBegin
  2
AENDERUNGS-KOPF1-_1-4_-A4-
 70
     2
 10
0.0
 20
0.0
 30
0.0
  3
AENDERUNGS-KOPF1-_1-4_-A4-
  1

  0
LINE
  5
D59
330
1B5D
100
AcDbEntity
  8
RAHMEN
100
AcDbLine
 10
0.0
 20
297.0
 30
0.0
 11
0.0
 21
0.0
 31
0.0
  0
LINE
  5
D5A
330
1B5D
100
AcDbEntity
  8
0
100
AcDbLine
 10
5.0
 20
5.0
 30
0.0
 11
5.0
 21
5.0
 31
0.0
  0
LINE
  5
D5B
330
1B5D
100
AcDbEntity
  8
HILFSLINIEN
100
AcDbLine
 10
18.75
 20
0.0
 30
0.0
 11
18.75
 21
2.0
 31
0.0
  0
LINE
  5
D5C
330
1B5D
100
AcDbEntity
  8
HILFSLINIEN
100
AcDbLine
 10
18.75
 20
2.0
 30
0.0
 11
15.0
 21
2.0
 31
0.0
  0
LINE
  5
D5D
330
1B5D
100
AcDbEntity
  8
HILFSLINIEN
100
AcDbLine
 10
13.75
 20
0.0
 30
0.0
 11
13.75
 21
2.0
 31
0.0
  0
LINE
  5
D5E
330
1B5D
100
AcDbEntity
  8
HILFSLINIEN
100
AcDbLine
 10
13.75
 20
2.0
 30
0.0
 11
10.0
 21
2.0
 31
0.0
  0
CIRCLE
  5
D5F
330
1B5D
100
AcDbEntity
  8
TEXT
100
AcDbCircle
 10
16.875
 20
7.0
 30
0.0
 40
1.7
  0
LINE
  5
D60
330
1B5D
100
AcDbEntity
  8
HILFSLINIEN
100
AcDbLine
 10
8.75
 20
0.0
 30
0.0
 11
8.75
 21
2.0
 31
0.0
  0
LINE
  5
D61
330
1B5D
100
AcDbEntity
  8
HILFSLINIEN
100
AcDbLine
 10
8.75
 20
2.0
 30
0.0
 11
5.0
 21
2.0
 31
0.0
  0
CIRCLE
  5
D62
330
1B5D
100
AcDbEntity
  8
TEXT
100
AcDbCircle
 10
11.875
 20
7.0
 30
0.0
 40
1.7
  0
TEXT
  5
D63
330
1B5D
100
AcDbEntity
  8
TEXT
100
AcDbText
 10
12.875
 20
6.392857142857143
 30
0.0
 40
2.0
  1
1
 50
90.0
 41
0.75
  7
ROMANS
 72
     4
 11
11.875
 21
7.0
 31
0.0
100
AcDbText
  0
TEXT
  5
D64
330
1B5D
100
AcDbEntity
  8
TEXT
100
AcDbText
 10
17.875
 20
6.285714285714285
 30
0.0
 40
2.0
  1
2
 50
90.0
 41
0.75
  7
ROMANS
 72
     4
 11
16.875
 21
7.0
 31
0.0
100
AcDbText
  0
LINE
  5
D65
330
1B5D
100
AcDbEntity
  8
HILFSLINIEN
100
AcDbLine
 10
18.75
 20
207.0
 30
0.0
 11
18.75
 21
209.0
 31
0.0
  0
LINE
  5
D66
330
1B5D
100
AcDbEntity
  8
HILFSLINIEN
100
AcDbLine
 10
18.75
 20
209.0
 30
0.0
 11
15.0
 21
209.0
 31
0.0
  0
LINE
  5
D67
330
1B5D
100
AcDbEntity
  8
HILFSLINIEN
100
AcDbLine
 10
13.75
 20
207.0
 30
0.0
 11
13.75
 21
209.0
 31
0.0
  0
LINE
  5
D68
330
1B5D
100
AcDbEntity
  8
HILFSLINIEN
100
AcDbLine
 10
13.75
 20
209.0
 30
0.0
 11
10.0
 21
209.0
 31
0.0
  0
CIRCLE
  5
D69
330
1B5D
100
AcDbEntity
  8
TEXT
100
AcDbCircle
 10
16.875
 20
204.0
 30
0.0
 40
1.7
  0
LINE
  5
D6A
330
1B5D
100
AcDbEntity
  8
HILFSLINIEN
100
AcDbLine
 10
8.75
 20
207.0
 30
0.0
 11
8.75
 21
209.0
 31
0.0
  0
LINE
  5
D6B
330
1B5D
100
AcDbEntity
  8
HILFSLINIEN
100
AcDbLine
 10
8.75
 20
209.0
 30
0.0
 11
5.0
 21
209.0
 31
0.0
  0
CIRCLE
  5
D6C
330
1B5D
100
AcDbEntity
  8
TEXT
100
AcDbCircle
 10
11.875
 20
204.0
 30
0.0
 40
1.7
  0
TEXT
  5
D6D
330
1B5D
100
AcDbEntity
  8
TEXT
100
AcDbText
 10
12.875
 20
203.2857142857143
 30
0.0
 40
2.0
  1
3
 50
90.0
 41
0.75
  7
ROMANS
 72
     4
 11
11.875
 21
204.0
 31
0.0
100
AcDbText
  0
TEXT
  5
D6E
330
1B5D
100
AcDbEntity
  8
TEXT
100
AcDbText
 10
17.875
 20
203.25
 30
0.0
 40
2.0
  1
4
 50
90.0
 41
0.75
  7
ROMANS
 72
     4
 11
16.875
 21
204.0
 31
0.0
100
AcDbText
  0
LINE
  5
D6F
330
1B5D
100
AcDbEntity
  8
HILFSLINIEN
100
AcDbLine
 10
3.75
 20
0.0
 30
0.0
 11
3.75
 21
4.5
 31
0.0
  0
LINE
  5
D70
330
1B5D
100
AcDbEntity
  8
HILFSLINIEN
100
AcDbLine
 10
3.75
 20
4.5
 30
0.0
 11
18.75
 21
4.5
 31
0.0
  0
LINE
  5
D71
330
1B5D
100
AcDbEntity
  8
HILFSLINIEN
100
AcDbLine
 10
18.75
 20
60.0
 30
0.0
 11
18.75
 21
61.0
 31
0.0
  0
LINE
  5
D72
330
1B5D
100
AcDbEntity
  8
HILFSLINIEN
100
AcDbLine
 10
18.75
 20
61.0
 30
0.0
 11
3.75
 21
61.0
 31
0.0
  0
LINE
  5
D73
330
1B5D
100
AcDbEntity
  8
HILFSLINIEN
100
AcDbLine
 10
18.75
 20
75.0
 30
0.0
 11
18.75
 21
76.0
 31
0.0
  0
LINE
  5
D74
330
1B5D
100
AcDbEntity
  8
HILFSLINIEN
100
AcDbLine
 10
18.75
 20
76.0
 30
0.0
 11
3.75
 21
76.0
 31
0.0
  0
LINE
  5
D75
330
1B5D
100
AcDbEntity
  8
HILFSLINIEN
100
AcDbLine
 10
18.75
 20
207.0
 30
0.0
 11
18.75
 21
211.5
 31
0.0
  0
LINE
  5
D76
330
1B5D
100
AcDbEntity
  8
HILFSLINIEN
100
AcDbLine
 10
18.75
 20
211.5
 30
0.0
 11
3.75
 21
211.5
 31
0.0
  0
LINE
  5
D77
330
1B5D
100
AcDbEntity
  8
HILFSLINIEN
100
AcDbLine
 10
18.75
 20
267.0
 30
0.0
 11
18.75
 21
268.0
 31
0.0
  0
LINE
  5
D78
330
1B5D
100
AcDbEntity
  8
HILFSLINIEN
100
AcDbLine
 10
18.75
 20
268.0
 30
0.0
 11
3.75
 21
268.0
 31
0.0
  0
LINE
  5
D79
330
1B5D
100
AcDbEntity
  8
HILFSLINIEN
100
AcDbLine
 10
18.75
 20
282.0
 30
0.0
 11
18.75
 21
283.0
 31
0.0
  0
LINE
  5
D7A
330
1B5D
100
AcDbEntity
  8
HILFSLINIEN
100
AcDbLine
 10
18.75
 20
283.0
 30
0.0
 11
3.75
 21
283.0
 31
0.0
  0
LINE
  5
D7B
330
1B5D
100
AcDbEntity
  8
HILFSLINIEN
100
AcDbLine
 10
3.75
 20
0.0
 30
0.0
 11
3.75
 21
60.0
 31
0.0
  0
LINE
  5
D7C
330
1B5D
100
AcDbEntity
  8
HILFSLINIEN
100
AcDbLine
 10
8.75
 20
0.0
 30
0.0
 11
8.75
 21
60.0
 31
0.0
  0
LINE
  5
D7D
330
1B5D
100
AcDbEntity
  8
HILFSLINIEN
100
AcDbLine
 10
13.75
 20
0.0
 30
0.0
 11
13.75
 21
60.0
 31
0.0
  0
LINE
  5
D7E
330
1B5D
100
AcDbEntity
  8
HILFSLINIEN
100
AcDbLine
 10
18.75
 20
0.0
 30
0.0
 11
18.75
 21
60.0
 31
0.0
  0
LINE
  5
D7F
330
1B5D
100
AcDbEntity
  8
HILFSLINIEN
100
AcDbLine
 10
3.75
 20
0.0
 30
0.0
 11
3.75
 21
60.0
 31
0.0
  0
LINE
  5
D80
330
1B5D
100
AcDbEntity
  8
HILFSLINIEN
100
AcDbLine
 10
8.75
 20
0.0
 30
0.0
 11
8.75
 21
60.0
 31
0.0
  0
LINE
  5
D81
330
1B5D
100
AcDbEntity
  8
HILFSLINIEN
100
AcDbLine
 10
13.75
 20
0.0
 30
0.0
 11
13.75
 21
60.0
 31
0.0
  0
LINE
  5
D82
330
1B5D
100
AcDbEntity
  8
HILFSLINIEN
100
AcDbLine
 10
18.75
 20
0.0
 30
0.0
 11
18.75
 21
60.0
 31
0.0
  0
LINE
  5
D83
330
1B5D
100
AcDbEntity
  8
HILFSLINIEN
100
AcDbLine
 10
5.0
 20
0.0
 30
0.0
 11
4.25
 21
0.0
 31
0.0
  0
LINE
  5
D84
330
1B5D
100
AcDbEntity
  8
HILFSLINIEN
100
AcDbLine
 10
5.0
 20
0.0
 30
0.0
 11
3.75
 21
0.0
 31
0.0
  0
LINE
  5
D85
330
1B5D
100
AcDbEntity
  8
HILFSLINIEN
100
AcDbLine
 10
5.0
 20
0.0
 30
0.0
 11
4.25
 21
0.0
 31
0.0
  0
LINE
  5
D86
330
1B5D
100
AcDbEntity
  8
HILFSLINIEN
100
AcDbLine
 10
5.0
 20
0.0
 30
0.0
 11
3.75
 21
0.0
 31
0.0
  0
LINE
  5
D87
330
1B5D
100
AcDbEntity
  8
0
100
AcDbLine
 10
5.0
 20
5.0
 30
0.0
 11
5.0
 21
5.0
 31
0.0
  0
TEXT
  5
D88
330
1B5D
100
AcDbEntity
  8
TEXT
100
AcDbText
 10
8.75
 20
28.70535714285714
 30
0.0
 40
2.5
  1
Änderung
 50
90.0
 41
0.75
  7
ROMANS
 72
     1
 11
8.75
 21
35.0
 31
0.0
100
AcDbText
  0
LINE
  5
D89
330
1B5D
100
AcDbEntity
  8
0
100
AcDbLine
 10
25.0
 20
10.0
 30
0.0
 11
25.0
 21
10.0
 31
0.0
  0
LINE
  5
D8A
330
1B5D
100
AcDbEntity
  8
HILFSLINIEN
100
AcDbLine
 10
3.75
 20
75.0
 30
0.0
 11
3.75
 21
90.0
 31
0.0
  0
LINE
  5
D8B
330
1B5D
100
AcDbEntity
  8
HILFSLINIEN
100
AcDbLine
 10
8.75
 20
75.0
 30
0.0
 11
8.75
 21
90.0
 31
0.0
  0
TEXT
  5
D8C
330
1B5D
100
AcDbEntity
  8
TEXT
100
AcDbText
 10
8.75
 20
83.48214285714286
 30
0.0
 40
2.5
  1
Name
 50
90.0
 41
0.75
  7
ROMANS
 72
     1
 11
8.75
 21
87.5
 31
0.0
100
AcDbText
  0
LINE
  5
D8D
330
1B5D
100
AcDbEntity
  8
HILFSLINIEN
100
AcDbLine
 10
3.75
 20
75.0
 30
0.0
 11
3.75
 21
90.0
 31
0.0
  0
LINE
  5
D8E
330
1B5D
100
AcDbEntity
  8
HILFSLINIEN
100
AcDbLine
 10
8.75
 20
75.0
 30
0.0
 11
8.75
 21
90.0
 31
0.0
  0
LINE
  5
D8F
330
1B5D
100
AcDbEntity
  8
HILFSLINIEN
100
AcDbLine
 10
3.75
 20
60.0
 30
0.0
 11
3.75
 21
75.0
 31
0.0
  0
LINE
  5
D90
330
1B5D
100
AcDbEntity
  8
HILFSLINIEN
100
AcDbLine
 10
8.75
 20
60.0
 30
0.0
 11
8.75
 21
75.0
 31
0.0
  0
TEXT
  5
D91
330
1B5D
100
AcDbEntity
  8
TEXT
100
AcDbText
 10
8.75
 20
67.99107142857143
 30
0.0
 40
2.5
  1
Datum
 50
90.0
 41
0.75
  7
ROMANS
 72
     1
 11
8.75
 21
72.5
 31
0.0
100
AcDbText
  0
LINE
  5
D92
330
1B5D
100
AcDbEntity
  8
HILFSLINIEN
100
AcDbLine
 10
3.75
 20
60.0
 30
0.0
 11
3.75
 21
75.0
 31
0.0
  0
LINE
  5
D93
330
1B5D
100
AcDbEntity
  8
HILFSLINIEN
100
AcDbLine
 10
8.75
 20
60.0
 30
0.0
 11
8.75
 21
75.0
 31
0.0
  0
LINE
  5
D94
330
1B5D
100
AcDbEntity
  8
HILFSLINIEN
100
AcDbLine
 10
13.75
 20
75.0
 30
0.0
 11
13.75
 21
90.0
 31
0.0
  0
LINE
  5
D95
330
1B5D
100
AcDbEntity
  8
HILFSLINIEN
100
AcDbLine
 10
18.75
 20
75.0
 30
0.0
 11
18.75
 21
90.0
 31
0.0
  0
LINE
  5
D96
330
1B5D
100
AcDbEntity
  8
HILFSLINIEN
100
AcDbLine
 10
13.75
 20
75.0
 30
0.0
 11
13.75
 21
90.0
 31
0.0
  0
LINE
  5
D97
330
1B5D
100
AcDbEntity
  8
HILFSLINIEN
100
AcDbLine
 10
18.75
 20
75.0
 30
0.0
 11
18.75
 21
90.0
 31
0.0
  0
LINE
  5
D98
330
1B5D
100
AcDbEntity
  8
HILFSLINIEN
100
AcDbLine
 10
13.75
 20
60.0
 30
0.0
 11
13.75
 21
75.0
 31
0.0
  0
LINE
  5
D99
330
1B5D
100
AcDbEntity
  8
HILFSLINIEN
100
AcDbLine
 10
18.75
 20
60.0
 30
0.0
 11
18.75
 21
75.0
 31
0.0
  0
LINE
  5
D9A
330
1B5D
100
AcDbEntity
  8
HILFSLINIEN
100
AcDbLine
 10
13.75
 20
60.0
 30
0.0
 11
13.75
 21
75.0
 31
0.0
  0
LINE
  5
D9B
330
1B5D
100
AcDbEntity
  8
HILFSLINIEN
100
AcDbLine
 10
18.75
 20
60.0
 30
0.0
 11
18.75
 21
75.0
 31
0.0
  0
TEXT
  5
D9C
330
1B5D
100
AcDbEntity
  8
TEXT
100
AcDbText
 10
8.75
 20
225.7053571428571
 30
0.0
 40
2.5
  1
Änderung
 50
90.0
 41
0.75
  7
ROMANS
 72
     1
 11
8.75
 21
232.0
 31
0.0
100
AcDbText
  0
LINE
  5
D9D
330
1B5D
100
AcDbEntity
  8
HILFSLINIEN
100
AcDbLine
 10
18.75
 20
207.0
 30
0.0
 11
18.75
 21
267.0
 31
0.0
  0
LINE
  5
D9E
330
1B5D
100
AcDbEntity
  8
HILFSLINIEN
100
AcDbLine
 10
13.75
 20
207.0
 30
0.0
 11
13.75
 21
267.0
 31
0.0
  0
LINE
  5
D9F
330
1B5D
100
AcDbEntity
  8
HILFSLINIEN
100
AcDbLine
 10
8.75
 20
207.0
 30
0.0
 11
8.75
 21
267.0
 31
0.0
  0
LINE
  5
DA0
330
1B5D
100
AcDbEntity
  8
HILFSLINIEN
100
AcDbLine
 10
3.75
 20
207.0
 30
0.0
 11
3.75
 21
267.0
 31
0.0
  0
LINE
  5
DA1
330
1B5D
100
AcDbEntity
  8
HILFSLINIEN
100
AcDbLine
 10
5.0
 20
207.0
 30
0.0
 11
3.75
 21
207.0
 31
0.0
  0
LINE
  5
DA2
330
1B5D
100
AcDbEntity
  8
HILFSLINIEN
100
AcDbLine
 10
5.0
 20
207.0
 30
0.0
 11
4.25
 21
207.0
 31
0.0
  0
TEXT
  5
DA3
330
1B5D
100
AcDbEntity
  8
TEXT
100
AcDbText
 10
8.75
 20
280.4821428571429
 30
0.0
 40
2.5
  1
Name
 50
90.0
 41
0.75
  7
ROMANS
 72
     1
 11
8.75
 21
284.5
 31
0.0
100
AcDbText
  0
LINE
  5
DA4
330
1B5D
100
AcDbEntity
  8
HILFSLINIEN
100
AcDbLine
 10
8.75
 20
282.0
 30
0.0
 11
8.75
 21
297.0
 31
0.0
  0
LINE
  5
DA5
330
1B5D
100
AcDbEntity
  8
HILFSLINIEN
100
AcDbLine
 10
3.75
 20
282.0
 30
0.0
 11
3.75
 21
297.0
 31
0.0
  0
TEXT
  5
DA6
330
1B5D
100
AcDbEntity
  8
TEXT
100
AcDbText
 10
8.75
 20
264.9910714285714
 30
0.0
 40
2.5
  1
Datum
 50
90.0
 41
0.75
  7
ROMANS
 72
     1
 11
8.75
 21
269.5
 31
0.0
100
AcDbText
  0
LINE
  5
DA7
330
1B5D
100
AcDbEntity
  8
HILFSLINIEN
100
AcDbLine
 10
8.75
 20
267.0
 30
0.0
 11
8.75
 21
282.0
 31
0.0
  0
LINE
  5
DA8
330
1B5D
100
AcDbEntity
  8
HILFSLINIEN
100
AcDbLine
 10
3.75
 20
267.0
 30
0.0
 11
3.75
 21
282.0
 31
0.0
  0
LINE
  5
DA9
330
1B5D
100
AcDbEntity
  8
HILFSLINIEN
100
AcDbLine
 10
18.75
 20
282.0
 30
0.0
 11
18.75
 21
297.0
 31
0.0
  0
LINE
  5
DAA
330
1B5D
100
AcDbEntity
  8
HILFSLINIEN
100
AcDbLine
 10
13.75
 20
282.0
 30
0.0
 11
13.75
 21
297.0
 31
0.0
  0
LINE
  5
DAB
330
1B5D
100
AcDbEntity
  8
HILFSLINIEN
100
AcDbLine
 10
18.75
 20
267.0
 30
0.0
 11
18.75
 21
282.0
 31
0.0
  0
LINE
  5
DAC
330
1B5D
100
AcDbEntity
  8
HILFSLINIEN
100
AcDbLine
 10
13.75
 20
267.0
 30
0.0
 11
13.75
 21
282.0
 31
0.0
  0
LINE
  5
DAD
330
1B5D
100
AcDbEntity
  8
RAHMEN
100
AcDbLine
 10
5.0
 20
95.0
 30
0.0
 11
5.0
 21
5.0
 31
0.0
  0
LINE
  5
DAE
330
1B5D
100
AcDbEntity
  8
RAHMEN
100
AcDbLine
 10
5.0
 20
5.0
 30
0.0
 11
5.0
 21
95.0
 31
0.0
  0
LINE
  5
DAF
330
1B5D
100
AcDbEntity
  8
RAHMEN
100
AcDbLine
 10
10.0
 20
5.0
 30
0.0
 11
10.0
 21
95.0
 31
0.0
  0
LINE
  5
DB0
330
1B5D
100
AcDbEntity
  8
RAHMEN
100
AcDbLine
 10
15.0
 20
5.0
 30
0.0
 11
15.0
 21
95.0
 31
0.0
  0
LINE
  5
DB1
330
1B5D
100
AcDbEntity
  8
RAHMEN
100
AcDbLine
 10
20.0
 20
5.0
 30
0.0
 11
20.0
 21
95.0
 31
0.0
  0
LINE
  5
DB2
330
1B5D
100
AcDbEntity
  8
RAHMEN
100
AcDbLine
 10
5.0
 20
5.0
 30
0.0
 11
20.0
 21
5.0
 31
0.0
  0
LINE
  5
DB3
330
1B5D
100
AcDbEntity
  8
RAHMEN
100
AcDbLine
 10
5.0
 20
5.0
 30
0.0
 11
10.0
 21
5.0
 31
0.0
  0
LINE
  5
DB4
330
1B5D
100
AcDbEntity
  8
0
100
AcDbLine
 10
5.0
 20
5.0
 30
0.0
 11
5.0
 21
5.0
 31
0.0
  0
LINE
  5
DB5
330
1B5D
100
AcDbEntity
  8
0
100
AcDbLine
 10
25.0
 20
10.0
 30
0.0
 11
25.0
 21
10.0
 31
0.0
  0
LINE
  5
DB6
330
1B5D
100
AcDbEntity
  8
RAHMEN
100
AcDbLine
 10
5.0
 20
95.0
 30
0.0
 11
20.0
 21
95.0
 31
0.0
  0
LINE
  5
DB7
330
1B5D
100
AcDbEntity
  8
RAHMEN
100
AcDbLine
 10
5.0
 20
65.0
 30
0.0
 11
20.0
 21
65.0
 31
0.0
  0
LINE
  5
DB8
330
1B5D
100
AcDbEntity
  8
RAHMEN
100
AcDbLine
 10
5.0
 20
80.0
 30
0.0
 11
20.0
 21
80.0
 31
0.0
  0
LINE
  5
DB9
330
1B5D
100
AcDbEntity
  8
RAHMEN
100
AcDbLine
 10
-0.0000000000000098
 20
148.5
 30
0.0
 11
4.99999999999999
 21
148.5
 31
0.0
  0
LINE
  5
DBA
330
1B5D
100
AcDbEntity
  8
RAHMEN
100
AcDbLine
 10
20.0
 20
202.0
 30
0.0
 11
20.0
 21
292.0
 31
0.0
  0
LINE
  5
DBB
330
1B5D
100
AcDbEntity
  8
RAHMEN
100
AcDbLine
 10
15.0
 20
202.0
 30
0.0
 11
15.0
 21
292.0
 31
0.0
  0
LINE
  5
DBC
330
1B5D
100
AcDbEntity
  8
RAHMEN
100
AcDbLine
 10
10.0
 20
202.0
 30
0.0
 11
10.0
 21
292.0
 31
0.0
  0
LINE
  5
DBD
330
1B5D
100
AcDbEntity
  8
RAHMEN
100
AcDbLine
 10
5.0
 20
202.0
 30
0.0
 11
5.0
 21
292.0
 31
0.0
  0
LINE
  5
DBE
330
1B5D
100
AcDbEntity
  8
RAHMEN
100
AcDbLine
 10
5.0
 20
292.0
 30
0.0
 11
5.0
 21
202.0
 31
0.0
  0
LINE
  5
DBF
330
1B5D
100
AcDbEntity
  8
RAHMEN
100
AcDbLine
 10
5.0
 20
202.0
 30
0.0
 11
20.0
 21
202.0
 31
0.0
  0
LINE
  5
DC0
330
1B5D
100
AcDbEntity
  8
RAHMEN
100
AcDbLine
 10
5.0
 20
202.0
 30
0.0
 11
10.0
 21
202.0
 31
0.0
  0
LINE
  5
DC1
330
1B5D
100
AcDbEntity
  8
RAHMEN
100
AcDbLine
 10
5.0
 20
277.0
 30
0.0
 11
20.0
 21
277.0
 31
0.0
  0
LINE
  5
DC2
330
1B5D
100
AcDbEntity
  8
RAHMEN
100
AcDbLine
 10
5.0
 20
262.0
 30
0.0
 11
20.0
 21
262.0
 31
0.0
  0
LINE
  5
DC3
330
1B5D
100
AcDbEntity
  8
RAHMEN
100
AcDbLine
 10
5.0
 20
292.0
 30
0.0
 11
20.0
 21
292.0
 31
0.0
  0
ATTDEF
  5
DC4
330
1B5D
100
AcDbEntity
  8
TEXT
100
AcDbText
 10
13.75
 20
9.5
 30
0.0
 40
2.5
  1

 50
90.0
 41
0.75
  7
ROMANS
100
AcDbAttributeDefinition
  3
1-Änderung-Text
  2
1
 70
     0
  0
ATTDEF
  5
DC5
330
1B5D
100
AcDbEntity
  8
TEXT
100
AcDbText
 10
13.75
 20
66.0
 30
0.0
 40
2.5
  1

 50
90.0
 41
0.75
  7
ROMANS
100
AcDbAttributeDefinition
  3
1-Änderung-Datum
  2
2
 70
     0
  0
ATTDEF
  5
DC6
330
1B5D
100
AcDbEntity
  8
TEXT
100
AcDbText
 10
13.75
 20
81.0
 30
0.0
 40
2.5
  1

 50
90.0
 41
0.75
  7
ROMANS
100
AcDbAttributeDefinition
  3
1-Änderung-Name
  2
3
 70
     0
  0
ATTDEF
  5
DC7
330
1B5D
100
AcDbEntity
  8
TEXT
100
AcDbText
 10
18.75
 20
9.5
 30
0.0
 40
2.5
  1

 50
90.0
 41
0.75
  7
ROMANS
100
AcDbAttributeDefinition
  3
2-Änderung-Text
  2
4
 70
     0
  0
ATTDEF
  5
DC8
330
1B5D
100
AcDbEntity
  8
TEXT
100
AcDbText
 10
18.75
 20
66.0
 30
0.0
 40
2.5
  1

 50
90.0
 41
0.75
  7
ROMANS
100
AcDbAttributeDefinition
  3
2-Änderung-Datum
  2
5
 70
     0
  0
ATTDEF
  5
DC9
330
1B5D
100
AcDbEntity
  8
TEXT
100
AcDbText
 10
18.75
 20
81.0
 30
0.0
 40
2.5
  1

 50
90.0
 41
0.75
  7
ROMANS
100
AcDbAttributeDefinition
  3
2-Änderung-Name
  2
6
 70
     0
  0
ATTDEF
  5
DCA
330
1B5D
100
AcDbEntity
  8
TEXT
100
AcDbText
 10
13.75
 20
206.5
 30
0.0
 40
2.5
  1

 50
90.0
 41
0.75
  7
ROMANS
100
AcDbAttributeDefinition
  3
3-Änderung-Text
  2
7
 70
     0
  0
ATTDEF
  5
DCB
330
1B5D
100
AcDbEntity
  8
TEXT
100
AcDbText
 10
13.75
 20
263.0
 30
0.0
 40
2.5
  1

 50
90.0
 41
0.75
  7
ROMANS
100
AcDbAttributeDefinition
  3
3-Änderung-Datum
  2
8
 70
     0
  0
ATTDEF
  5
DCC
330
1B5D
100
AcDbEntity
  8
TEXT
100
AcDbText
 10
13.75
 20
278.0
 30
0.0
 40
2.5
  1

 50
90.0
 41
0.75
  7
ROMANS
100
AcDbAttributeDefinition
  3
3-Änderung-Name
  2
9
 70
     0
  0
ATTDEF
  5
DCD
330
1B5D
100
AcDbEntity
  8
TEXT
100
AcDbText
 10
18.75
 20
206.5
 30
0.0
 40
2.5
  1

 50
90.0
 41
0.75
  7
ROMANS
100
AcDbAttributeDefinition
  3
4-Änderung-Text
  2
10
 70
     0
  0
ATTDEF
  5
DCE
330
1B5D
100
AcDbEntity
  8
TEXT
100
AcDbText
 10
18.75
 20
263.0
 30
0.0
 40
2.5
  1

 50
90.0
 41
0.75
  7
ROMANS
100
AcDbAttributeDefinition
  3
4-Änderung-Datum
  2
11
 70
     0
  0
ATTDEF
  5
DCF
330
1B5D
100
AcDbEntity
  8
TEXT
100
AcDbText
 10
18.75
 20
278.0
 30
0.0
 40
2.5
  1

 50
90.0
 41
0.75
  7
ROMANS
100
AcDbAttributeDefinition
  3
4-Änderung-Name
  2
12
 70
     0
  0
LINE
  5
DD0
330
1B5D
100
AcDbEntity
  8
HILFSLINIEN
100
AcDbLine
 10
20.0
 20
297.0
 30
0.0
 11
20.0
 21
0.0
 31
0.0
  0
LINE
  5
DD1
330
1B5D
100
AcDbEntity
  8
HILFSLINIEN
100
AcDbLine
 10
0.0
 20
183.5
 30
0.0
 11
20.0
 21
183.5
 31
0.0
  0
LINE
  5
DD2
330
1B5D
100
AcDbEntity
  8
HILFSLINIEN
100
AcDbLine
 10
0.0
 20
113.5
 30
0.0
 11
20.0
 21
113.5
 31
0.0
  0
TEXT
  5
DD3
330
1B5D
100
AcDbEntity
  8
TEXT
100
AcDbText
 10
9.847940365286088
 20
113.5
 30
0.0
 40
1.8
  1
Diese Unterlagen bleiben unser Eigentum. Vervielfältigungen, Anfertigungen
 50
90.0
 41
0.6727073036792984
  7
ROMANS
 72
     5
 11
9.847940365286088
 21
183.5
 31
0.0
100
AcDbText
  0
TEXT
  5
DD4
330
1B5D
100
AcDbEntity
  8
TEXT
100
AcDbText
 10
12.7622260795718
 20
113.5
 30
0.0
 40
1.8
  1
von Aufzeichnungen bezüglich des Inhaltes, die Weitergabe, auch des In-
 50
90.0
 41
0.6721536351165966
  7
ROMANS
 72
     5
 11
12.7622260795718
 21
183.5
 31
0.0
100
AcDbText
  0
TEXT
  5
DD5
330
1B5D
100
AcDbEntity
  8
TEXT
100
AcDbText
 10
15.67651179385752
 20
113.5
 30
0.0
 40
1.8
  1
haltes an Dritte, sowie Verwertung des Inhaltes durch den Empfänger oder
 50
90.0
 41
0.6564844587352628
  7
ROMANS
 72
     5
 11
15.67651179385752
 21
183.5
 31
0.0
100
AcDbText
  0
TEXT
  5
DD6
330
1B5D
100
AcDbEntity
  8
TEXT
100
AcDbText
 10
18.59079750814321
 20
113.5
 30
0.0
 40
1.8
  1
auf dessen Vermittlung durch Dritte, sind unzulässig und strafbar.
 50
90.0
 41
0.7451338199513363
  7
ROMANS
 72
     5
 11
18.59079750814321
 21
183.5
 31
0.0
100
AcDbText
  0
LINE
  5
DD7
330
1B5D
100
AcDbEntity
  8
HILFSLINIEN
100
AcDbLine
 10
9.871991918659212
 20
113.4923292010233
 30
0.0
 11
9.871991918659212
 21
183.5399722751536
 31
0.0
  0
LINE
  5
DD8
330
1B5D
100
AcDbEntity
  8
RAHMEN
100
AcDbLine
 10
0.0
 20
202.0
 30
0.0
 11
-0.0000000000000195
 21
95.0
 31
0.0
  0
LINE
  5
DD9
330
1B5D
100
AcDbEntity
  8
RAHMEN
100
AcDbLine
 10
5.0
 20
202.0
 30
0.0
 11
4.999999999999976
 21
95.0
 31
0.0
  0
ENDBLK
  5
D42
330
1B5D
100
AcDbEntity
  8
0
100
AcDbBlockEnd
  0
BLOCK
  5
1B60
330
1B5F
100
AcDbEntity
  8
0
100
AcDbBlockBegin
  2
A$C12D2
 70
     0
 10
0.0
 20
0.0
 30
0.0
  3
A$C12D2
  1

  0
LINE
  5
F28
330
1B5F
100
AcDbEntity
  8
KONTUR
100
AcDbLine
 10
1.363120724192866
 20
0.493824345939629
 30
0.0
 11
28.04314814491847
 21
0.493824345939629
 31
0.0
  0
LINE
  5
F29
330
1B5F
100
AcDbEntity
  8
KONTUR
100
AcDbLine
 10
15.97437113267017
 20
58.49382434640296
 30
0.0
 11
29.20312452617165
 21
58.49382434640296
 31
0.0
  0
LINE
  5
F2A
330
1B5F
100
AcDbEntity
  8
KONTUR
100
AcDbLine
 10
26.42804341100862
 20
1.653810635576803
 30
0.0
 11
25.26807219093718
 21
0.4938394155053916
 31
0.0
  0
LINE
  5
F2B
330
1B5F
100
AcDbEntity
  8
KONTUR
100
AcDbLine
 10
0.2031344345556647
 20
1.65381063557683
 30
0.0
 11
29.20313443455569
 21
1.653810635576803
 31
0.0
1001
ACAD
1000
ASC_BOUNDS
1002
{
1070
    19
1002
}
  0
LINE
  5
F2C
330
1B5F
100
AcDbEntity
  8
KONTUR
100
AcDbLine
 10
0.2031344345556647
 20
5.413810635576851
 30
0.0
 11
27.59440893455567
 21
5.413810635576822
 31
0.0
1001
ACAD
1000
ASC_BOUNDS
1002
{
1070
    19
1002
}
  0
LINE
  5
F2D
330
1B5F
100
AcDbEntity
  8
KONTUR
100
AcDbLine
 10
0.2031344345556647
 20
11.41381063557685
 30
0.0
 11
27.59440893455565
 21
11.41381063557682
 31
0.0
1001
ACAD
1000
ASC_BOUNDS
1002
{
1070
    19
1002
}
  0
LINE
  5
F2E
330
1B5F
100
AcDbEntity
  8
KONTUR
100
AcDbLine
 10
0.2031344345556079
 20
13.95722581273708
 30
0.0
 11
15.9743711326702
 21
58.49382434640296
 31
0.0
  0
LINE
  5
F2F
330
1B5F
100
AcDbEntity
  8
KONTUR
100
AcDbLine
 10
17.24394534167916
 20
58.4938523268156
 30
0.0
 11
0.5720281832918773
 21
11.41381063557685
 31
0.0
  0
LINE
  5
F30
330
1B5F
100
AcDbEntity
  8
KONTUR
100
AcDbLine
 10
4.712792250550335
 20
11.41381063557685
 30
0.0
 11
21.38470940893743
 21
58.4938523268156
 31
0.0
  0
LINE
  5
F31
330
1B5F
100
AcDbEntity
  8
KONTUR
100
AcDbLine
 10
29.20313443455547
 20
58.49382434640298
 30
0.0
 11
29.20313443455564
 21
1.653810635576803
 31
0.0
  0
LINE
  5
F32
330
1B5F
100
AcDbEntity
  8
KONTUR
100
AcDbLine
 10
26.42804341100859
 20
11.41381063557682
 30
0.0
 11
26.42804341100865
 21
58.4938523268156
 31
0.0
  0
LINE
  5
F33
330
1B5F
100
AcDbEntity
  8
KONTUR
100
AcDbLine
 10
27.59440893455565
 20
11.41381063557682
 30
0.0
 11
27.59440893455567
 21
5.413810635576822
 31
0.0
  0
LINE
  5
F34
330
1B5F
100
AcDbEntity
  8
KONTUR
100
AcDbLine
 10
29.20313443455567
 20
1.653810635576803
 30
0.0
 11
28.04314814491847
 21
0.493824345939629
 31
0.0
  0
LINE
  5
F35
330
1B5F
100
AcDbEntity
  8
KONTUR
100
AcDbLine
 10
26.42804341100859
 20
1.653810635576774
 30
0.0
 11
26.42804341100859
 21
5.413810635576822
 31
0.0
  0
LINE
  5
F36
330
1B5F
100
AcDbEntity
  8
KONTUR
100
AcDbLine
 10
0.2031344345556079
 20
13.95722581273719
 30
0.0
 11
0.2031344345556647
 21
1.65381063557683
 31
0.0
  0
LINE
  5
F37
330
1B5F
100
AcDbEntity
  8
KONTUR
100
AcDbLine
 10
0.2031344345556647
 20
1.65381063557683
 30
0.0
 11
1.363120724192895
 21
0.493824345939629
 31
0.0
  0
ENDBLK
  5
F38
330
1B5F
100
AcDbEntity
  8
0
100
AcDbBlockEnd
  0
BLOCK
  5
1B62
330
1B61
100
AcDbEntity
  8
0
100
AcDbBlockBegin
  2
A$CB2B4
 70
     0
 10
0.0
 20
0.0
 30
0.0
  3
A$CB2B4
  1

  0
INSERT
  5
F3B
330
1B61
100
AcDbEntity
  8
HILFSLINIEN1
100
AcDbBlockReference
  2
A$C12D2
 10
0.100727387119278
 20
29.58739726281985
 30
0.0
 41
-0.5
 42
0.5
 43
0.5
 50
180.0
  0
ENDBLK
  5
F3C
330
1B61
100
AcDbEntity
  8
0
100
AcDbBlockEnd
  0
BLOCK
  5
1B64
330
1B63
100
AcDbEntity
  8
0
100
AcDbBlockBegin
  2
*U15
 70
     1
 10
0.0
 20
0.0
 30
0.0
  3
*U15
  1

  0
TEXT
  5
1353
330
1B63
100
AcDbEntity
  8
SK2
 62
     0
100
AcDbText
 10
122.774230895783
 20
-2.499999999999968
 30
0.0
 40
3.5
  1
50
 50
90.0
 41
0.75
  7
ROMANS
100
AcDbText
  0
ENDBLK
  5
1355
330
1B63
100
AcDbEntity
  8
0
100
AcDbBlockEnd
  0
BLOCK
  5
1B66
330
1B65
100
AcDbEntity
  8
0
100
AcDbBlockBegin
  2
*D16
 70
     1
 10
0.0
 20
0.0
 30
0.0
  3
*D16
  1

  0
LINE
  5
132D
330
1B65
100
AcDbEntity
  8
SK2
 62
     0
100
AcDbLine
 10
0.0
 20
12.61458434959368
 30
0.0
 11
0.0000000000000017
 21
40.64869465444391
 31
0.0
  0
LINE
  5
132E
330
1B65
100
AcDbEntity
  8
SK2
 62
     0
100
AcDbLine
 10
90.50000000356662
 20
17.55574053485064
 30
0.0
 11
90.50000000356662
 21
40.64869465444391
 31
0.0
  0
LINE
  5
132F
330
1B65
100
AcDbEntity
  8
SK2
 62
     0
100
AcDbLine
 10
3.5
 20
39.14869465444392
 30
0.0
 11
87.00000000356663
 21
39.14869465444392
 31
0.0
  0
SOLID
  5
1330
330
1B65
100
AcDbEntity
  8
SK2
 62
     0
100
AcDbTrace
 10
3.5
 20
39.73202798777725
 30
0.0
 11
3.5
 21
38.56536132111058
 31
0.0
 12
0.0000000000000017
 22
39.14869465444392
 32
0.0
 13
0.0000000000000017
 23
39.14869465444392
 33
0.0
  0
SOLID
  5
1331
330
1B65
100
AcDbEntity
  8
SK2
 62
     0
100
AcDbTrace
 10
87.00000000356663
 20
39.73202798777725
 30
0.0
 11
87.00000000356663
 21
38.56536132111058
 31
0.0
 12
90.50000000356662
 22
39.14869465444392
 32
0.0
 13
90.50000000356662
 23
39.14869465444392
 33
0.0
  0
INSERT
  5
1332
330
1B65
100
AcDbEntity
  8
SK2
100
AcDbBlockReference
  2
*U17
 10
0.0
 20
0.0
 30
0.0
  0
POINT
  5
1333
330
1B65
100
AcDbEntity
  8
DEFPOINTS
 62
     0
100
AcDbPoint
 10
0.0
 20
12.11458434959368
 30
0.0
  0
POINT
  5
1334
330
1B65
100
AcDbEntity
  8
DEFPOINTS
 62
     0
100
AcDbPoint
 10
90.50000000356662
 20
17.05574053485064
 30
0.0
  0
POINT
  5
1335
330
1B65
100
AcDbEntity
  8
DEFPOINTS
 62
     0
100
AcDbPoint
 10
90.50000000356662
 20
39.14869465444392
 30
0.0
  0
ENDBLK
  5
1316
330
1B65
100
AcDbEntity
  8
0
100
AcDbBlockEnd
  0
BLOCK
  5
1B68
330
1B67
100
AcDbEntity
  8
0
100
AcDbBlockBegin
  2
*U17
 70
     1
 10
0.0
 20
0.0
 30
0.0
  3
*U17
  1

  0
TEXT
  5
1357
330
1B67
100
AcDbEntity
  8
SK2
 62
     0
100
AcDbText
 10
40.87500000178331
 20
40.64869465444392
 30
0.0
 40
3.5
  1
90.5
 41
0.75
  7
ROMANS
100
AcDbText
  0
ENDBLK
  5
1359
330
1B67
100
AcDbEntity
  8
0
100
AcDbBlockEnd
  0
BLOCK
  5
1B6A
330
1B69
100
AcDbEntity
  8
0
100
AcDbBlockBegin
  2
*D18
 70
     1
 10
0.0
 20
0.0
 30
0.0
  3
*D18
  1

  0
LINE
  5
1336
330
1B69
100
AcDbEntity
  8
SK2
 62
     0
100
AcDbLine
 10
0.0
 20
12.61458434959368
 30
0.0
 11
0.0000000000000024
 21
50.64208768972284
 31
0.0
  0
LINE
  5
1337
330
1B69
100
AcDbEntity
  8
SK2
 62
     0
100
AcDbLine
 10
102.9999848331778
 20
7.114375237702971
 30
0.0
 11
102.9999848331778
 21
50.64208768972284
 31
0.0
  0
LINE
  5
1338
330
1B69
100
AcDbEntity
  8
SK2
 62
     0
100
AcDbLine
 10
3.5
 20
49.14208768972284
 30
0.0
 11
99.49998483317784
 21
49.14208768972284
 31
0.0
  0
SOLID
  5
1339
330
1B69
100
AcDbEntity
  8
SK2
 62
     0
100
AcDbTrace
 10
3.5
 20
49.72542102305617
 30
0.0
 11
3.5
 21
48.5587543563895
 31
0.0
 12
0.0000000000000023
 22
49.14208768972284
 32
0.0
 13
0.0000000000000023
 23
49.14208768972284
 33
0.0
  0
SOLID
  5
133A
330
1B69
100
AcDbEntity
  8
SK2
 62
     0
100
AcDbTrace
 10
99.49998483317784
 20
49.72542102305617
 30
0.0
 11
99.49998483317784
 21
48.5587543563895
 31
0.0
 12
102.9999848331778
 22
49.14208768972284
 32
0.0
 13
102.9999848331778
 23
49.14208768972284
 33
0.0
  0
INSERT
  5
133B
330
1B69
100
AcDbEntity
  8
SK2
100
AcDbBlockReference
  2
*U19
 10
0.0
 20
0.0
 30
0.0
  0
POINT
  5
133C
330
1B69
100
AcDbEntity
  8
DEFPOINTS
 62
     0
100
AcDbPoint
 10
0.0
 20
12.11458434959368
 30
0.0
  0
POINT
  5
133D
330
1B69
100
AcDbEntity
  8
DEFPOINTS
 62
     0
100
AcDbPoint
 10
102.9999848331778
 20
6.614375237702971
 30
0.0
  0
POINT
  5
133E
330
1B69
100
AcDbEntity
  8
DEFPOINTS
 62
     0
100
AcDbPoint
 10
102.9999848331778
 20
49.14208768972284
 30
0.0
  0
ENDBLK
  5
1323
330
1B69
100
AcDbEntity
  8
0
100
AcDbBlockEnd
  0
BLOCK
  5
1B6C
330
1B6B
100
AcDbEntity
  8
0
100
AcDbBlockBegin
  2
*U19
 70
     1
 10
0.0
 20
0.0
 30
0.0
  3
*U19
  1

  0
TEXT
  5
135B
330
1B6B
100
AcDbEntity
  8
SK2
 62
     0
100
AcDbText
 10
47.56249241658892
 20
50.64208768972284
 30
0.0
 40
3.5
  1
103
 41
0.75
  7
ROMANS
100
AcDbText
  0
ENDBLK
  5
135D
330
1B6B
100
AcDbEntity
  8
0
100
AcDbBlockEnd
  0
BLOCK
  5
1B6E
330
1B6D
100
AcDbEntity
  8
0
100
AcDbBlockBegin
  2
*D20
 70
     1
 10
0.0
 20
0.0
 30
0.0
  3
*D20
  1

  0
LINE
  5
13DF
330
1B6D
100
AcDbEntity
  8
SK2
 62
     0
100
AcDbLine
 10
71.14353585378994
 20
25.00000000000006
 30
0.0
 11
125.774230895783
 21
25.00000000000004
 31
0.0
  0
LINE
  5
13E0
330
1B6D
100
AcDbEntity
  8
SK2
 62
     0
100
AcDbLine
 10
71.14353585378994
 20
-25.0
 30
0.0
 11
125.774230895783
 21
-25.00000000000002
 31
0.0
  0
LINE
  5
13E1
330
1B6D
100
AcDbEntity
  8
SK2
 62
     0
100
AcDbLine
 10
124.274230895783
 20
21.50000000000004
 30
0.0
 11
124.274230895783
 21
-21.50000000000002
 31
0.0
  0
SOLID
  5
13E2
330
1B6D
100
AcDbEntity
  8
SK2
 62
     0
100
AcDbTrace
 10
123.6908975624497
 20
21.50000000000004
 30
0.0
 11
124.8575642291163
 21
21.50000000000004
 31
0.0
 12
124.274230895783
 22
25.00000000000004
 32
0.0
 13
124.274230895783
 23
25.00000000000004
 33
0.0
  0
SOLID
  5
13E3
330
1B6D
100
AcDbEntity
  8
SK2
 62
     0
100
AcDbTrace
 10
123.6908975624497
 20
-21.50000000000002
 30
0.0
 11
124.8575642291163
 21
-21.50000000000002
 31
0.0
 12
124.274230895783
 22
-25.00000000000002
 32
0.0
 13
124.274230895783
 23
-25.00000000000002
 33
0.0
  0
INSERT
  5
13E4
330
1B6D
100
AcDbEntity
  8
SK2
100
AcDbBlockReference
  2
*U21
 10
0.0
 20
0.0
 30
0.0
  0
POINT
  5
13E5
330
1B6D
100
AcDbEntity
  8
DEFPOINTS
 62
     0
100
AcDbPoint
 10
70.64353585378994
 20
25.00000000000006
 30
0.0
  0
POINT
  5
13E6
330
1B6D
100
AcDbEntity
  8
DEFPOINTS
 62
     0
100
AcDbPoint
 10
70.64353585378994
 20
-25.0
 30
0.0
  0
POINT
  5
13E7
330
1B6D
100
AcDbEntity
  8
DEFPOINTS
 62
     0
100
AcDbPoint
 10
124.274230895783
 20
-25.00000000000002
 30
0.0
  0
ENDBLK
  5
13E9
330
1B6D
100
AcDbEntity
  8
0
100
AcDbBlockEnd
  0
BLOCK
  5
1B70
330
1B6F
100
AcDbEntity
  8
0
100
AcDbBlockBegin
  2
*U21
 70
     1
 10
0.0
 20
0.0
 30
0.0
  3
*U21
  1

  0
TEXT
  5
13FE
330
1B6F
100
AcDbEntity
  8
SK2
 62
     0
100
AcDbText
 10
122.774230895783
 20
-3.687499999999966
 30
0.0
 40
3.5
  1
\U+220550
 50
90.0
 41
0.75
  7
ROMANS
100
AcDbText
  0
ENDBLK
  5
1400
330
1B6F
100
AcDbEntity
  8
0
100
AcDbBlockEnd
  0
BLOCK
  5
1B72
330
1B71
100
AcDbEntity
  8
0
100
AcDbBlockBegin
  2
*X22
 70
     1
 10
0.0
 20
0.0
 30
0.0
  3
*X22
  1

  0
LINE
  5
147F
330
1B71
100
AcDbEntity
  8
0
 62
     0
100
AcDbLine
 10
119.9961436696679
 20
252.0059086493844
 30
0.0
 11
124.346143669668
 21
256.3559086493845
 31
0.0
  0
LINE
  5
1480
330
1B71
100
AcDbEntity
  8
0
 62
     0
100
AcDbLine
 10
119.7500000000001
 20
253.106803397877
 30
0.0
 11
123.3952489211754
 21
256.7520523190523
 31
0.0
  0
LINE
  5
1481
330
1B71
100
AcDbEntity
  8
0
 62
     0
100
AcDbLine
 10
119.7500000000001
 20
254.4538418160374
 30
0.0
 11
122.048210503015
 21
256.7520523190523
 31
0.0
  0
LINE
  5
1482
330
1B71
100
AcDbEntity
  8
0
 62
     0
100
AcDbLine
 10
119.7500000000001
 20
255.8008802341977
 30
0.0
 11
120.7011720848546
 21
256.7520523190523
 31
0.0
  0
LINE
  5
1483
330
1B71
100
AcDbEntity
  8
0
 62
     0
100
AcDbLine
 10
121.089325757496
 20
251.7520523190523
 30
0.0
 11
124.5
 21
255.1627265615562
 31
0.0
  0
LINE
  5
1484
330
1B71
100
AcDbEntity
  8
0
 62
     0
100
AcDbLine
 10
122.4363641756565
 20
251.7520523190523
 30
0.0
 11
124.5
 21
253.8156881433959
 31
0.0
  0
LINE
  5
1485
330
1B71
100
AcDbEntity
  8
0
 62
     0
100
AcDbLine
 10
123.7834025938169
 20
251.7520523190523
 30
0.0
 11
124.5
 21
252.4686497252353
 31
0.0
  0
ENDBLK
  5
1486
330
1B71
100
AcDbEntity
  8
0
100
AcDbBlockEnd
  0
BLOCK
  5
1B74
330
1B73
100
AcDbEntity
  8
0
100
AcDbBlockBegin
  2
*X23
 70
     1
 10
0.0
 20
0.0
 30
0.0
  3
*X23
  1

  0
LINE
  5
1489
330
1B73
100
AcDbEntity
  8
0
 62
     0
100
AcDbLine
 10
105.4248647395713
 20
252.2520523190519
 30
0.0
 11
109.3748647395718
 21
256.2020523190524
 31
0.0
  0
LINE
  5
148A
330
1B73
100
AcDbEntity
  8
0
 62
     0
100
AcDbLine
 10
104.0778263214109
 20
252.2520523190519
 30
0.0
 11
104.6237781189767
 21
252.7980041166177
 31
0.0
  0
LINE
  5
148B
330
1B73
100
AcDbEntity
  8
0
 62
     0
100
AcDbLine
 10
105.1040482024344
 20
253.2782742000752
 30
0.0
 11
108.0278263214114
 21
256.2020523190524
 31
0.0
  0
LINE
  5
148C
330
1B73
100
AcDbEntity
  8
0
 62
     0
100
AcDbLine
 10
102.7307879032506
 20
252.2520523190519
 30
0.0
 11
103.0771893985234
 21
252.5984538143248
 31
0.0
  0
LINE
  5
148D
330
1B73
100
AcDbEntity
  8
0
 62
     0
100
AcDbLine
 10
105.3035985047273
 20
254.8248629205286
 30
0.0
 11
106.680787903251
 21
256.2020523190524
 31
0.0
  0
LINE
  5
148E
330
1B73
100
AcDbEntity
  8
0
 62
     0
100
AcDbLine
 10
101.3837494850902
 20
252.2520523190519
 30
0.0
 11
102.286619620293
 21
253.1549224542548
 31
0.0
  0
LINE
  5
148F
330
1B73
100
AcDbEntity
  8
0
 62
     0
100
AcDbLine
 10
104.7471298647973
 20
255.615432698759
 30
0.0
 11
105.3337494850906
 21
256.2020523190524
 31
0.0
  0
LINE
  5
1490
330
1B73
100
AcDbEntity
  8
0
 62
     0
100
AcDbLine
 10
100.5000000000001
 20
252.7153412521223
 30
0.0
 11
101.9049661129106
 21
254.1203073650328
 31
0.0
  0
LINE
  5
1491
330
1B73
100
AcDbEntity
  8
0
 62
     0
100
AcDbLine
 10
103.7817449540193
 20
255.9970862061414
 30
0.0
 11
103.9867110669302
 21
256.2020523190524
 31
0.0
  0
LINE
  5
1492
330
1B73
100
AcDbEntity
  8
0
 62
     0
100
AcDbLine
 10
100.5000000000001
 20
254.0623796702826
 30
0.0
 11
102.6396726487699
 21
256.2020523190524
 31
0.0
  0
LINE
  5
1493
330
1B73
100
AcDbEntity
  8
0
 62
     0
100
AcDbLine
 10
100.5000000000001
 20
255.409418088443
 30
0.0
 11
101.2926342306096
 21
256.2020523190524
 31
0.0
  0
LINE
  5
1494
330
1B73
100
AcDbEntity
  8
0
 62
     0
100
AcDbLine
 10
106.7719031577317
 20
252.2520523190519
 30
0.0
 11
110.7219031577321
 21
256.2020523190524
 31
0.0
  0
LINE
  5
1495
330
1B73
100
AcDbEntity
  8
0
 62
     0
100
AcDbLine
 10
108.1189415758921
 20
252.2520523190519
 30
0.0
 11
112.0689415758925
 21
256.2020523190524
 31
0.0
  0
LINE
  5
1496
330
1B73
100
AcDbEntity
  8
0
 62
     0
100
AcDbLine
 10
109.4659799940524
 20
252.2520523190519
 30
0.0
 11
112.5000000000001
 21
255.2860723249996
 31
0.0
  0
LINE
  5
1497
330
1B73
100
AcDbEntity
  8
0
 62
     0
100
AcDbLine
 10
110.8130184122128
 20
252.2520523190519
 30
0.0
 11
112.5
 21
253.9390339068392
 31
0.0
  0
LINE
  5
1498
330
1B73
100
AcDbEntity
  8
0
 62
     0
100
AcDbLine
 10
112.1600568303732
 20
252.2520523190519
 30
0.0
 11
112.5
 21
252.5919954886788
 31
0.0
  0
LINE
  5
1499
330
1B73
100
AcDbEntity
  8
0
 62
     0
100
AcDbLine
 10
107.4072053297675
 20
252.2520523190519
 30
0.0
 11
105.3999851051815
 21
254.2592725436379
 31
0.0
  0
LINE
  5
149A
330
1B73
100
AcDbEntity
  8
0
 62
     0
100
AcDbLine
 10
103.6500000000001
 20
256.0092576488194
 30
0.0
 11
103.4572053297671
 21
256.2020523190524
 31
0.0
  0
LINE
  5
149B
330
1B73
100
AcDbEntity
  8
0
 62
     0
100
AcDbLine
 10
103.657220224586
 20
256.0020374242334
 30
0.0
 11
103.6500000000001
 21
256.0092576488194
 31
0.0
  0
LINE
  5
149C
330
1B73
100
AcDbEntity
  8
0
 62
     0
100
AcDbLine
 10
106.0601669116072
 20
252.2520523190519
 30
0.0
 11
105.0754075013569
 21
253.2368117293021
 31
0.0
  0
LINE
  5
149D
330
1B73
100
AcDbEntity
  8
0
 62
     0
100
AcDbLine
 10
102.6347594102503
 20
255.6774598204089
 30
0.0
 11
102.1101669116067
 21
256.2020523190524
 31
0.0
  0
LINE
  5
149E
330
1B73
100
AcDbEntity
  8
0
 62
     0
100
AcDbLine
 10
104.7131284934468
 20
252.2520523190519
 30
0.0
 11
104.3269104585965
 21
252.6382703539022
 31
0.0
  0
LINE
  5
149F
330
1B73
100
AcDbEntity
  8
0
 62
     0
100
AcDbLine
 10
102.0362180348503
 20
254.9289627776484
 30
0.0
 11
100.7631284934463
 21
256.2020523190524
 31
0.0
  0
LINE
  5
14A0
330
1B73
100
AcDbEntity
  8
0
 62
     0
100
AcDbLine
 10
103.3660900752864
 20
252.2520523190519
 30
0.0
 11
102.9846883675542
 21
252.6334540267842
 31
0.0
  0
LINE
  5
14A1
330
1B73
100
AcDbEntity
  8
0
 62
     0
100
AcDbLine
 10
102.0314017077323
 20
253.5867406866061
 30
0.0
 11
100.5000000000001
 21
255.1181423943383
 31
0.0
  0
LINE
  5
14A2
330
1B73
100
AcDbEntity
  8
0
 62
     0
100
AcDbLine
 10
102.0190516571261
 20
252.2520523190519
 30
0.0
 11
100.5000000000001
 21
253.7711039761779
 31
0.0
  0
LINE
  5
14A3
330
1B73
100
AcDbEntity
  8
0
 62
     0
100
AcDbLine
 10
100.6720132389657
 20
252.2520523190519
 30
0.0
 11
100.5000000000001
 21
252.4240655580176
 31
0.0
  0
LINE
  5
14A4
330
1B73
100
AcDbEntity
  8
0
 62
     0
100
AcDbLine
 10
108.7542437479279
 20
252.2520523190519
 30
0.0
 11
104.8042437479274
 21
256.2020523190524
 31
0.0
  0
LINE
  5
14A5
330
1B73
100
AcDbEntity
  8
0
 62
     0
100
AcDbLine
 10
110.1012821660883
 20
252.2520523190519
 30
0.0
 11
106.1512821660878
 21
256.2020523190524
 31
0.0
  0
LINE
  5
14A6
330
1B73
100
AcDbEntity
  8
0
 62
     0
100
AcDbLine
 10
111.4483205842487
 20
252.2520523190519
 30
0.0
 11
107.4983205842482
 21
256.2020523190524
 31
0.0
  0
LINE
  5
14A7
330
1B73
100
AcDbEntity
  8
0
 62
     0
100
AcDbLine
 10
112.5
 20
252.547411321461
 30
0.0
 11
108.8453590024086
 21
256.2020523190524
 31
0.0
  0
LINE
  5
14A8
330
1B73
100
AcDbEntity
  8
0
 62
     0
100
AcDbLine
 10
112.5
 20
253.8944497396213
 30
0.0
 11
110.192397420569
 21
256.2020523190524
 31
0.0
  0
LINE
  5
14A9
330
1B73
100
AcDbEntity
  8
0
 62
     0
100
AcDbLine
 10
112.5
 20
255.2414881577817
 30
0.0
 11
111.5394358387293
 21
256.2020523190524
 31
0.0
  0
ENDBLK
  5
14AA
330
1B73
100
AcDbEntity
  8
0
100
AcDbBlockEnd
  0
BLOCK
  5
1B76
330
1B75
100
AcDbEntity
  8
0
100
AcDbBlockBegin
  2
*X24
 70
     1
 10
0.0
 20
0.0
 30
0.0
  3
*X24
  1

  0
LINE
  5
14AD
330
1B75
100
AcDbEntity
  8
0
 62
     0
100
AcDbLine
 10
115.6500000000002
 20
241.3735856949683
 30
0.0
 11
119.7500000000002
 21
245.4735856949683
 31
0.0
  0
LINE
  5
14AE
330
1B75
100
AcDbEntity
  8
0
 62
     0
100
AcDbLine
 10
115.6500000000001
 20
242.2716113070752
 30
0.0
 11
119.7500000000002
 21
246.3716113070753
 31
0.0
  0
LINE
  5
14AF
330
1B75
100
AcDbEntity
  8
0
 62
     0
100
AcDbLine
 10
115.6500000000001
 20
243.1696369191821
 30
0.0
 11
119.7500000000002
 21
247.2696369191822
 31
0.0
  0
LINE
  5
14B0
330
1B75
100
AcDbEntity
  8
0
 62
     0
100
AcDbLine
 10
115.6500000000001
 20
244.067662531289
 30
0.0
 11
119.7500000000002
 21
248.1676625312891
 31
0.0
  0
LINE
  5
14B1
330
1B75
100
AcDbEntity
  8
0
 62
     0
100
AcDbLine
 10
115.6500000000001
 20
244.9656881433959
 30
0.0
 11
119.7500000000002
 21
249.065688143396
 31
0.0
  0
LINE
  5
14B2
330
1B75
100
AcDbEntity
  8
0
 62
     0
100
AcDbLine
 10
115.6500000000001
 20
245.8637137555028
 30
0.0
 11
119.7500000000002
 21
249.9637137555029
 31
0.0
  0
LINE
  5
14B3
330
1B75
100
AcDbEntity
  8
0
 62
     0
100
AcDbLine
 10
115.4040700758708
 20
246.5158094434805
 30
0.0
 11
119.7500000000002
 21
250.8617393676098
 31
0.0
  0
LINE
  5
14B4
330
1B75
100
AcDbEntity
  8
0
 62
     0
100
AcDbLine
 10
115.427098452983
 20
247.4368634326996
 30
0.0
 11
119.7500000000002
 21
251.7597649797167
 31
0.0
  0
LINE
  5
14B5
330
1B75
100
AcDbEntity
  8
0
 62
     0
100
AcDbLine
 10
115.4501268300952
 20
248.3579174219187
 30
0.0
 11
119.7500000000002
 21
252.6577905918237
 31
0.0
  0
LINE
  5
14B6
330
1B75
100
AcDbEntity
  8
0
 62
     0
100
AcDbLine
 10
115.4731552072074
 20
249.2789714111378
 30
0.0
 11
119.7500000000002
 21
253.5558162039305
 31
0.0
  0
LINE
  5
14B7
330
1B75
100
AcDbEntity
  8
0
 62
     0
100
AcDbLine
 10
115.4961835843196
 20
250.2000254003569
 30
0.0
 11
119.7500000000002
 21
254.4538418160375
 31
0.0
  0
LINE
  5
14B8
330
1B75
100
AcDbEntity
  8
0
 62
     0
100
AcDbLine
 10
115.5192119614318
 20
251.1210793895761
 30
0.0
 11
119.7500000000002
 21
255.3518674281444
 31
0.0
  0
LINE
  5
14B9
330
1B75
100
AcDbEntity
  8
0
 62
     0
100
AcDbLine
 10
115.542240338544
 20
252.0421333787952
 30
0.0
 11
119.7500000000002
 21
256.2498930402512
 31
0.0
  0
LINE
  5
14BA
330
1B75
100
AcDbEntity
  8
0
 62
     0
100
AcDbLine
 10
115.5652687156562
 20
252.9631873680143
 30
0.0
 11
119.5616433579713
 21
256.9595620103294
 31
0.0
  0
LINE
  5
14BB
330
1B75
100
AcDbEntity
  8
0
 62
     0
100
AcDbLine
 10
115.5882970927684
 20
253.8842413572334
 30
0.0
 11
118.9900944214127
 21
257.2860386858777
 31
0.0
  0
LINE
  5
14BC
330
1B75
100
AcDbEntity
  8
0
 62
     0
100
AcDbLine
 10
115.6113254698806
 20
254.8052953464525
 30
0.0
 11
118.1580824424803
 21
257.3520523190522
 31
0.0
  0
LINE
  5
14BD
330
1B75
100
AcDbEntity
  8
0
 62
     0
100
AcDbLine
 10
115.6343538469928
 20
255.7263493356716
 30
0.0
 11
117.2600568303734
 21
257.3520523190522
 31
0.0
  0
LINE
  5
14BE
330
1B75
100
AcDbEntity
  8
0
 62
     0
100
AcDbLine
 10
115.657382224105
 20
256.6474033248907
 30
0.0
 11
116.3620312182665
 21
257.3520523190522
 31
0.0
  0
LINE
  5
14BF
330
1B75
100
AcDbEntity
  8
0
 62
     0
100
AcDbLine
 10
115.6500000000002
 20
240.4755600828614
 30
0.0
 11
119.7500000000002
 21
244.5755600828614
 31
0.0
  0
LINE
  5
14C0
330
1B75
100
AcDbEntity
  8
0
 62
     0
100
AcDbLine
 10
115.6500000000002
 20
239.5775344707545
 30
0.0
 11
119.7500000000002
 21
243.6775344707545
 31
0.0
  0
LINE
  5
14C1
330
1B75
100
AcDbEntity
  8
0
 62
     0
100
AcDbLine
 10
114.9748379704611
 20
238.0043468291084
 30
0.0
 11
115.3250000000002
 21
238.3545088586476
 31
0.0
  0
LINE
  5
14C2
330
1B75
100
AcDbEntity
  8
0
 62
     0
100
AcDbLine
 10
115.3250000000002
 20
238.3545088586476
 30
0.0
 11
119.7500000000002
 21
242.7795088586476
 31
0.0
  0
LINE
  5
14C3
330
1B75
100
AcDbEntity
  8
0
 62
     0
100
AcDbLine
 10
114.9748379704611
 20
237.1063212170016
 30
0.0
 11
115.3250000000002
 21
237.4564832465407
 31
0.0
  0
LINE
  5
14C4
330
1B75
100
AcDbEntity
  8
0
 62
     0
100
AcDbLine
 10
115.3250000000002
 20
237.4564832465408
 30
0.0
 11
119.6500000000002
 21
241.7814832465407
 31
0.0
  0
LINE
  5
14C5
330
1B75
100
AcDbEntity
  8
0
 62
     0
100
AcDbLine
 10
115.3250000000002
 20
236.5584576344339
 30
0.0
 11
120.1185946846182
 21
241.3520523190518
 31
0.0
  0
LINE
  5
14C6
330
1B75
100
AcDbEntity
  8
0
 62
     0
100
AcDbLine
 10
115.3250000000002
 20
235.6604320223269
 30
0.0
 11
118.5382777033366
 21
238.8737097256633
 31
0.0
  0
LINE
  5
14C7
330
1B75
100
AcDbEntity
  8
0
 62
     0
100
AcDbLine
 10
118.6533425933887
 20
238.9887746157154
 30
0.0
 11
121.0166202967252
 21
241.3520523190519
 31
0.0
  0
LINE
  5
14C8
330
1B75
100
AcDbEntity
  8
0
 62
     0
100
AcDbLine
 10
115.3250000000002
 20
234.76240641022
 30
0.0
 11
118.5250000000002
 21
237.9624064102201
 31
0.0
  0
LINE
  5
14C9
330
1B75
100
AcDbEntity
  8
0
 62
     0
100
AcDbLine
 10
119.4146459088321
 20
238.8520523190519
 30
0.0
 11
121.2000000000002
 21
240.63740641022
 31
0.0
  0
LINE
  5
14CA
330
1B75
100
AcDbEntity
  8
0
 62
     0
100
AcDbLine
 10
115.3250000000002
 20
233.8643807981131
 30
0.0
 11
118.625
 21
237.1643807981128
 31
0.0
  0
LINE
  5
14CB
330
1B75
100
AcDbEntity
  8
0
 62
     0
100
AcDbLine
 10
120.312671520939
 20
238.8520523190519
 30
0.0
 11
121.2000000000002
 21
239.739380798113
 31
0.0
  0
LINE
  5
14CC
330
1B75
100
AcDbEntity
  8
0
 62
     0
100
AcDbLine
 10
115.3250000000002
 20
232.9663551860062
 30
0.0
 11
118.625
 21
236.2663551860059
 31
0.0
  0
LINE
  5
14CD
330
1B75
100
AcDbEntity
  8
0
 62
     0
100
AcDbLine
 10
115.3250000000003
 20
232.0683295738993
 30
0.0
 11
118.625
 21
235.3683295738989
 31
0.0
  0
LINE
  5
14CE
330
1B75
100
AcDbEntity
  8
0
 62
     0
100
AcDbLine
 10
115.5957846380152
 20
231.4410885998073
 30
0.0
 11
118.625
 21
234.470303961792
 31
0.0
  0
LINE
  5
14CF
330
1B75
100
AcDbEntity
  8
0
 62
     0
100
AcDbLine
 10
116.4047739693669
 20
231.3520523190521
 30
0.0
 11
118.625
 21
233.5722783496851
 31
0.0
  0
LINE
  5
14D0
330
1B75
100
AcDbEntity
  8
0
 62
     0
100
AcDbLine
 10
117.3027995814739
 20
231.3520523190521
 30
0.0
 11
118.625
 21
232.6742527375782
 31
0.0
  0
ENDBLK
  5
14D1
330
1B75
100
AcDbEntity
  8
0
100
AcDbBlockEnd
  0
BLOCK
  5
1B78
330
1B77
100
AcDbEntity
  8
0
100
AcDbBlockBegin
  2
*X25
 70
     1
 10
0.0
 20
0.0
 30
0.0
  3
*X25
  1

  0
LINE
  5
14D4
330
1B77
100
AcDbEntity
  8
0
 62
     0
100
AcDbLine
 10
123.8500000000001
 20
237.6053088730333
 30
0.0
 11
122.0000000000001
 21
239.4553088730332
 31
0.0
  0
LINE
  5
14D5
330
1B77
100
AcDbEntity
  8
0
 62
     0
100
AcDbLine
 10
122.5822618610058
 20
236.6279829817602
 30
0.0
 11
121.2761230662659
 21
237.9341217765002
 31
0.0
  0
LINE
  5
14D6
330
1B77
100
AcDbEntity
  8
0
 62
     0
100
AcDbLine
 10
122.9750000000001
 20
233.9901808124987
 30
0.0
 11
122.4437919398253
 21
234.5213888726735
 31
0.0
  0
LINE
  5
14D7
330
1B77
100
AcDbEntity
  8
0
 62
     0
100
AcDbLine
 10
122.4
 20
234.5651808124987
 30
0.0
 11
121.265
 21
235.7001808124985
 31
0.0
  0
LINE
  5
14D8
330
1B77
100
AcDbEntity
  8
0
 62
     0
100
AcDbLine
 10
122.975
 20
231.7451167822314
 30
0.0
 11
122.4400000000001
 21
232.2801167822314
 31
0.0
  0
LINE
  5
14D9
330
1B77
100
AcDbEntity
  8
0
 62
     0
100
AcDbLine
 10
122.4400000000001
 20
232.2801167822315
 30
0.0
 11
121.265
 21
233.4551167822314
 31
0.0
  0
LINE
  5
14DA
330
1B77
100
AcDbEntity
  8
0
 62
     0
100
AcDbLine
 10
123.8500000000001
 20
239.8503729033006
 30
0.0
 11
122.0000000000001
 21
241.7003729033005
 31
0.0
  0
LINE
  5
14DB
330
1B77
100
AcDbEntity
  8
0
 62
     0
100
AcDbLine
 10
120.3483205842488
 20
243.3520523190519
 30
0.0
 11
119.7500000000001
 21
243.9503729033007
 31
0.0
  0
LINE
  5
14DC
330
1B77
100
AcDbEntity
  8
0
 62
     0
100
AcDbLine
 10
121.8801770947637
 20
241.8201958085369
 30
0.0
 11
121.825
 21
241.8753729033007
 31
0.0
  0
LINE
  5
14DD
330
1B77
100
AcDbEntity
  8
0
 62
     0
100
AcDbLine
 10
123.8500000000001
 20
242.0954369335678
 30
0.0
 11
119.7500000000001
 21
246.1954369335679
 31
0.0
  0
LINE
  5
14DE
330
1B77
100
AcDbEntity
  8
0
 62
     0
100
AcDbLine
 10
122.2500000000001
 20
245.9405009638352
 30
0.0
 11
119.7500000000001
 21
248.4405009638352
 31
0.0
  0
LINE
  5
14DF
330
1B77
100
AcDbEntity
  8
0
 62
     0
100
AcDbLine
 10
122.2500000000001
 20
248.1855649941024
 30
0.0
 11
119.7500000000001
 21
250.6855649941025
 31
0.0
  0
LINE
  5
14E0
330
1B77
100
AcDbEntity
  8
0
 62
     0
100
AcDbLine
 10
122.2500000000001
 20
250.4306290243697
 30
0.0
 11
121.386635147496
 21
251.2939938768737
 31
0.0
  0
ENDBLK
  5
14E1
330
1B77
100
AcDbEntity
  8
0
100
AcDbBlockEnd
  0
BLOCK
  5
1B7A
330
1B79
100
AcDbEntity
  8
0
100
AcDbBlockBegin
  2
*X26
 70
     1
 10
0.0
 20
0.0
 30
0.0
  3
*X26
  1

  0
LINE
  5
14E4
330
1B79
100
AcDbEntity
  8
0
 62
     0
100
AcDbLine
 10
113.684622268611
 20
225.0397981698685
 30
0.0
 11
114.618968069505
 21
225.9741439707624
 31
0.0
  0
LINE
  5
14E5
330
1B79
100
AcDbEntity
  8
0
 62
     0
100
AcDbLine
 10
113.1152968437842
 20
225.3684983571487
 30
0.0
 11
113.8537482127645
 21
226.1069497261289
 31
0.0
  0
LINE
  5
14E6
330
1B79
100
AcDbEntity
  8
0
 62
     0
100
AcDbLine
 10
112.5459714189576
 20
225.6971985444288
 30
0.0
 11
113.0336126420638
 21
226.1848397675351
 31
0.0
  0
LINE
  5
14E7
330
1B79
100
AcDbEntity
  8
0
 62
     0
100
AcDbLine
 10
110.9527995814739
 20
225.0020523190521
 30
0.0
 11
112.1465591776765
 21
226.1958119152548
 31
0.0
  0
LINE
  5
14E8
330
1B79
100
AcDbEntity
  8
0
 62
     0
100
AcDbLine
 10
110.054773969367
 20
225.0020523190521
 30
0.0
 11
111.1928342817022
 21
226.1401126313874
 31
0.0
  0
LINE
  5
14E9
330
1B79
100
AcDbEntity
  8
0
 62
     0
100
AcDbLine
 10
109.00674835726
 20
224.8520523190521
 30
0.0
 11
110.1973785583276
 21
226.0426825201196
 31
0.0
  0
LINE
  5
14EA
330
1B79
100
AcDbEntity
  8
0
 62
     0
100
AcDbLine
 10
108.1087227451531
 20
224.8520523190521
 30
0.0
 11
109.1904015209541
 21
225.9337310948531
 31
0.0
  0
LINE
  5
14EB
330
1B79
100
AcDbEntity
  8
0
 62
     0
100
AcDbLine
 10
107.54
 20
225.1813551860059
 30
0.0
 11
108.1900161523028
 21
225.8313713383087
 31
0.0
  0
LINE
  5
14EC
330
1B79
100
AcDbEntity
  8
0
 62
     0
100
AcDbLine
 10
114.5449020299014
 20
225.0020523190521
 30
0.0
 11
115.321998580519
 21
225.7791488696696
 31
0.0
  0
LINE
  5
14ED
330
1B79
100
AcDbEntity
  8
0
 62
     0
100
AcDbLine
 10
115.3816677374439
 20
224.9407924144875
 30
0.0
 11
115.9496372616921
 21
225.5087619387357
 31
0.0
  0
LINE
  5
14EE
330
1B79
100
AcDbEntity
  8
0
 62
     0
100
AcDbLine
 10
115.5
 20
224.1610990649368
 30
0.0
 11
116.5258753837211
 21
225.1869744486579
 31
0.0
  0
LINE
  5
14EF
330
1B79
100
AcDbEntity
  8
0
 62
     0
100
AcDbLine
 10
115.5
 20
223.2630734528299
 30
0.0
 11
117.0600552151347
 21
224.8231286679645
 31
0.0
  0
LINE
  5
14F0
330
1B79
100
AcDbEntity
  8
0
 62
     0
100
AcDbLine
 10
115.5185022391647
 20
222.3835500798876
 30
0.0
 11
117.46
 21
224.325047840723
 31
0.0
  0
LINE
  5
14F1
330
1B79
100
AcDbEntity
  8
0
 62
     0
100
AcDbLine
 10
116.135030090436
 20
222.102052319052
 30
0.0
 11
117.46
 21
223.4270222286161
 31
0.0
  0
LINE
  5
14F2
330
1B79
100
AcDbEntity
  8
0
 62
     0
100
AcDbLine
 10
117.0330557025429
 20
222.102052319052
 30
0.0
 11
117.46
 21
222.5289966165092
 31
0.0
  0
ENDBLK
  5
14F3
330
1B79
100
AcDbEntity
  8
0
100
AcDbBlockEnd
  0
BLOCK
  5
1B7C
330
1B7B
100
AcDbEntity
  8
0
100
AcDbBlockBegin
  2
*X27
 70
     1
 10
0.0
 20
0.0
 30
0.0
  3
*X27
  1

  0
LINE
  5
14F6
330
1B7B
100
AcDbEntity
  8
0
 62
     0
100
AcDbLine
 10
117.4999999999999
 20
223.0180094225624
 30
0.0
 11
119.9
 21
225.4180094225625
 31
0.0
  0
LINE
  5
14F7
330
1B7B
100
AcDbEntity
  8
0
 62
     0
100
AcDbLine
 10
121.8340428964894
 20
227.3520523190519
 30
0.0
 11
122.35
 21
227.8680094225625
 31
0.0
  0
LINE
  5
14F8
330
1B7B
100
AcDbEntity
  8
0
 62
     0
100
AcDbLine
 10
117.4999999999999
 20
225.2630734528297
 30
0.0
 11
119.1832114562799
 21
226.9462849091097
 31
0.0
  0
LINE
  5
14F9
330
1B7B
100
AcDbEntity
  8
0
 62
     0
100
AcDbLine
 10
119.1832114562799
 20
226.9462849091097
 30
0.0
 11
121.4389788662221
 21
229.2020523190519
 31
0.0
  0
LINE
  5
14FA
330
1B7B
100
AcDbEntity
  8
0
 62
     0
100
AcDbLine
 10
117.5
 20
227.5081374830971
 30
0.0
 11
118.7439148359547
 21
228.7520523190519
 31
0.0
  0
LINE
  5
14FB
330
1B7B
100
AcDbEntity
  8
0
 62
     0
100
AcDbLine
 10
118.85
 20
228.8581374830972
 30
0.0
 11
119.1939148359548
 21
229.2020523190519
 31
0.0
  0
LINE
  5
14FC
330
1B7B
100
AcDbEntity
  8
0
 62
     0
100
AcDbLine
 10
119.4488508056875
 20
231.7020523190519
 30
0.0
 11
121.2599999999999
 21
233.5132015133644
 31
0.0
  0
LINE
  5
14FD
330
1B7B
100
AcDbEntity
  8
0
 62
     0
100
AcDbLine
 10
118.625
 20
233.1232655436317
 30
0.0
 11
121.2599999999999
 21
235.7582655436317
 31
0.0
  0
LINE
  5
14FE
330
1B7B
100
AcDbEntity
  8
0
 62
     0
100
AcDbLine
 10
118.625
 20
235.3683295738989
 30
0.0
 11
121.2599999999999
 21
238.0033295738989
 31
0.0
  0
LINE
  5
14FF
330
1B7B
100
AcDbEntity
  8
0
 62
     0
100
AcDbLine
 10
118.625
 20
237.6133936041663
 30
0.0
 11
119.8636587148856
 21
238.8520523190519
 31
0.0
  0
LINE
  5
1500
330
1B7B
100
AcDbEntity
  8
0
 62
     0
100
AcDbLine
 10
115.0
 20
218.2729453922952
 30
0.0
 11
117.0791069267567
 21
220.3520523190519
 31
0.0
  0
LINE
  5
1501
330
1B7B
100
AcDbEntity
  8
0
 62
     0
100
AcDbLine
 10
117.4999999999999
 20
220.7729453922952
 30
0.0
 11
119.9
 21
223.1729453922952
 31
0.0
  0
LINE
  5
1502
330
1B7B
100
AcDbEntity
  8
0
 62
     0
100
AcDbLine
 10
115.0
 20
216.0278813620279
 30
0.0
 11
119.9
 21
220.9278813620279
 31
0.0
  0
LINE
  5
1503
330
1B7B
100
AcDbEntity
  8
0
 62
     0
100
AcDbLine
 10
115.1346174936456
 20
213.9174348254063
 30
0.0
 11
119.2746150376271
 21
218.0574323693877
 31
0.0
  0
LINE
  5
1504
330
1B7B
100
AcDbEntity
  8
0
 62
     0
100
AcDbLine
 10
117.2142990175586
 20
213.752052319052
 30
0.0
 11
118.0437097416607
 21
214.5814630431541
 31
0.0
  0
ENDBLK
  5
1505
330
1B7B
100
AcDbEntity
  8
0
100
AcDbBlockEnd
  0
BLOCK
  5
1B7E
330
1B7D
100
AcDbEntity
  8
0
100
AcDbBlockBegin
  2
*X28
 70
     1
 10
0.0
 20
0.0
 30
0.0
  3
*X28
  1

  0
LINE
  5
1508
330
1B7D
100
AcDbEntity
  8
0
 62
     0
100
AcDbLine
 10
121.3444695984009
 20
216.3131605537992
 30
0.0
 11
119.3859101319238
 21
218.2717200202763
 31
0.0
  0
LINE
  5
1509
330
1B7D
100
AcDbEntity
  8
0
 62
     0
100
AcDbLine
 10
121.1096249147031
 20
215.6499796253901
 30
0.0
 11
119.151065448226
 21
217.6085390918672
 31
0.0
  0
LINE
  5
150A
330
1B7D
100
AcDbEntity
  8
0
 62
     0
100
AcDbLine
 10
120.8747802310053
 20
214.9867986969808
 30
0.0
 11
118.9162207645282
 21
216.9453581634581
 31
0.0
  0
LINE
  5
150B
330
1B7D
100
AcDbEntity
  8
0
 62
     0
100
AcDbLine
 10
120.6399355473075
 20
214.3236177685718
 30
0.0
 11
118.6813760808304
 21
216.282177235049
 31
0.0
  0
LINE
  5
150C
330
1B7D
100
AcDbEntity
  8
0
 62
     0
100
AcDbLine
 10
120.3876249495845
 20
213.677902754188
 30
0.0
 11
118.4465313971326
 21
215.6189963066399
 31
0.0
  0
LINE
  5
150D
330
1B7D
100
AcDbEntity
  8
0
 62
     0
100
AcDbLine
 10
119.8154497726136
 20
213.352052319052
 30
0.0
 11
118.2116867134348
 21
214.9558153782308
 31
0.0
  0
LINE
  5
150E
330
1B7D
100
AcDbEntity
  8
0
 62
     0
100
AcDbLine
 10
118.9174241605067
 20
213.352052319052
 30
0.0
 11
117.9768420297369
 21
214.2926344498218
 31
0.0
  0
LINE
  5
150F
330
1B7D
100
AcDbEntity
  8
0
 62
     0
100
AcDbLine
 10
103.4793724912705
 20
224.2999759277535
 30
0.0
 11
103.4406971500862
 21
224.3386512689378
 31
0.0
  0
LINE
  5
1510
330
1B7D
100
AcDbEntity
  8
0
 62
     0
100
AcDbLine
 10
103.9717346096572
 20
222.90958819726
 30
0.0
 11
102.9335920606264
 21
223.9477307462907
 31
0.0
  0
LINE
  5
1511
330
1B7D
100
AcDbEntity
  8
0
 62
     0
100
AcDbLine
 10
104.4640967280437
 20
221.5192004667665
 30
0.0
 11
102.4316496042121
 21
223.5516475905981
 31
0.0
  0
LINE
  5
1512
330
1B7D
100
AcDbEntity
  8
0
 62
     0
100
AcDbLine
 10
104.9564588464303
 20
220.128812736273
 30
0.0
 11
101.9694685781391
 21
223.1158030045642
 31
0.0
  0
LINE
  5
1513
330
1B7D
100
AcDbEntity
  8
0
 62
     0
100
AcDbLine
 10
105.4488209648169
 20
218.7384250057796
 30
0.0
 11
101.5072875520661
 21
222.6799584185303
 31
0.0
  0
LINE
  5
1514
330
1B7D
100
AcDbEntity
  8
0
 62
     0
100
AcDbLine
 10
105.9411830832034
 20
217.3480372752861
 30
0.0
 11
101.8349777703274
 21
221.454242588162
 31
0.0
  0
LINE
  5
1515
330
1B7D
100
AcDbEntity
  8
0
 62
     0
100
AcDbLine
 10
106.43354520159
 20
215.9576495447926
 30
0.0
 11
102.327339888714
 21
220.0638548576685
 31
0.0
  0
LINE
  5
1516
330
1B7D
100
AcDbEntity
  8
0
 62
     0
100
AcDbLine
 10
106.9259073199766
 20
214.5672618142991
 30
0.0
 11
102.8197020071005
 21
218.6734671271751
 31
0.0
  0
LINE
  5
1517
330
1B7D
100
AcDbEntity
  8
0
 62
     0
100
AcDbLine
 10
107.0965456015584
 20
213.4985979206103
 30
0.0
 11
103.3120641254871
 21
217.2830793966816
 31
0.0
  0
LINE
  5
1518
330
1B7D
100
AcDbEntity
  8
0
 62
     0
100
AcDbLine
 10
106.3450655910098
 20
213.352052319052
 30
0.0
 11
103.8044262438736
 21
215.8926916661882
 31
0.0
  0
LINE
  5
1519
330
1B7D
100
AcDbEntity
  8
0
 62
     0
100
AcDbLine
 10
105.447039978903
 20
213.352052319052
 30
0.0
 11
104.2967883622601
 21
214.5023039356947
 31
0.0
  0
LINE
  5
151A
330
1B7D
100
AcDbEntity
  8
0
 62
     0
100
AcDbLine
 10
121.5793142820988
 20
216.9763414822083
 30
0.0
 11
119.6207548156215
 21
218.9349009486854
 31
0.0
  0
LINE
  5
151B
330
1B7D
100
AcDbEntity
  8
0
 62
     0
100
AcDbLine
 10
121.8141589657966
 20
217.6395224106173
 30
0.0
 11
119.8555994993194
 21
219.5980818770945
 31
0.0
  0
LINE
  5
151C
330
1B7D
100
AcDbEntity
  8
0
 62
     0
100
AcDbLine
 10
122.0490036494944
 20
218.3027033390265
 30
0.0
 11
120.0904441830173
 21
220.2612628055036
 31
0.0
  0
LINE
  5
151D
330
1B7D
100
AcDbEntity
  8
0
 62
     0
100
AcDbLine
 10
122.2838483331922
 20
218.9658842674356
 30
0.0
 11
120.3252888667151
 21
220.9244437339128
 31
0.0
  0
LINE
  5
151E
330
1B7D
100
AcDbEntity
  8
0
 62
     0
100
AcDbLine
 10
122.51869301689
 20
219.6290651958447
 30
0.0
 11
120.5601335504129
 21
221.5876246623217
 31
0.0
  0
LINE
  5
151F
330
1B7D
100
AcDbEntity
  8
0
 62
     0
100
AcDbLine
 10
122.7535377005878
 20
220.2922461242538
 30
0.0
 11
120.7949782341107
 21
222.2508055907308
 31
0.0
  0
LINE
  5
1520
330
1B7D
100
AcDbEntity
  8
0
 62
     0
100
AcDbLine
 10
122.9883823842856
 20
220.9554270526629
 30
0.0
 11
121.0298229178085
 21
222.91398651914
 31
0.0
  0
LINE
  5
1521
330
1B7D
100
AcDbEntity
  8
0
 62
     0
100
AcDbLine
 10
123.2232270679835
 20
221.6186079810721
 30
0.0
 11
121.2646676015063
 21
223.5771674475491
 31
0.0
  0
LINE
  5
1522
330
1B7D
100
AcDbEntity
  8
0
 62
     0
100
AcDbLine
 10
123.4580717516813
 20
222.2817889094811
 30
0.0
 11
121.4995122852041
 21
224.2403483759582
 31
0.0
  0
LINE
  5
1523
330
1B7D
100
AcDbEntity
  8
0
 62
     0
100
AcDbLine
 10
123.6929164353791
 20
222.9449698378902
 30
0.0
 11
121.7343569689019
 21
224.9035293043673
 31
0.0
  0
LINE
  5
1524
330
1B7D
100
AcDbEntity
  8
0
 62
     0
100
AcDbLine
 10
123.9277611190769
 20
223.6081507662993
 30
0.0
 11
122.1759022219173
 21
225.3600096634589
 31
0.0
  0
LINE
  5
1525
330
1B7D
100
AcDbEntity
  8
0
 62
     0
100
AcDbLine
 10
124.1626058027747
 20
224.2713316947084
 30
0.0
 11
122.7728696249478
 21
225.6610678725353
 31
0.0
  0
LINE
  5
1526
330
1B7D
100
AcDbEntity
  8
0
 62
     0
100
AcDbLine
 10
124.3974504864725
 20
224.9345126231175
 30
0.0
 11
123.047699687036
 21
226.284263422554
 31
0.0
  0
LINE
  5
1527
330
1B7D
100
AcDbEntity
  8
0
 62
     0
100
AcDbLine
 10
124.5
 20
225.7299887216969
 30
0.0
 11
123.0500000000001
 21
227.1799887216968
 31
0.0
  0
LINE
  5
1528
330
1B7D
100
AcDbEntity
  8
0
 62
     0
100
AcDbLine
 10
124.5
 20
226.6280143338038
 30
0.0
 11
123.0500000000001
 21
228.0780143338037
 31
0.0
  0
LINE
  5
1529
330
1B7D
100
AcDbEntity
  8
0
 62
     0
100
AcDbLine
 10
124.5
 20
227.5260399459108
 30
0.0
 11
123.0500000000001
 21
228.9760399459107
 31
0.0
  0
LINE
  5
152A
330
1B7D
100
AcDbEntity
  8
0
 62
     0
100
AcDbLine
 10
122.6739876268588
 20
229.352052319052
 30
0.0
 11
122.5550000000001
 21
229.4710399459107
 31
0.0
  0
LINE
  5
152B
330
1B7D
100
AcDbEntity
  8
0
 62
     0
100
AcDbLine
 10
124.5
 20
228.4240655580176
 30
0.0
 11
123.0350000000001
 21
229.8890655580176
 31
0.0
  0
LINE
  5
152C
330
1B7D
100
AcDbEntity
  8
0
 62
     0
100
AcDbLine
 10
122.4720132389657
 20
230.452052319052
 30
0.0
 11
122.4610066194829
 21
230.4630589385347
 31
0.0
  0
LINE
  5
152D
330
1B7D
100
AcDbEntity
  8
0
 62
     0
100
AcDbLine
 10
123.0350000000001
 20
229.8890655580176
 30
0.0
 11
122.5550000000001
 21
230.3690655580176
 31
0.0
  0
LINE
  5
152E
330
1B7D
100
AcDbEntity
  8
0
 62
     0
100
AcDbLine
 10
124.5
 20
229.3220911701245
 30
0.0
 11
123.0350000000001
 21
230.7870911701246
 31
0.0
  0
LINE
  5
152F
330
1B7D
100
AcDbEntity
  8
0
 62
     0
100
AcDbLine
 10
123.0350000000001
 20
230.7870911701246
 30
0.0
 11
122.9100194255364
 21
230.9120717445882
 31
0.0
  0
LINE
  5
1530
330
1B7D
100
AcDbEntity
  8
0
 62
     0
100
AcDbLine
 10
124.5
 20
230.2201167822314
 30
0.0
 11
123.0350000000001
 21
231.6851167822314
 31
0.0
  0
LINE
  5
1531
330
1B7D
100
AcDbEntity
  8
0
 62
     0
100
AcDbLine
 10
123.0350000000001
 20
231.6851167822314
 30
0.0
 11
122.975
 21
231.7451167822315
 31
0.0
  0
LINE
  5
1532
330
1B7D
100
AcDbEntity
  8
0
 62
     0
100
AcDbLine
 10
124.5
 20
231.1181423943382
 30
0.0
 11
123.0350000000001
 21
232.5831423943383
 31
0.0
  0
LINE
  5
1533
330
1B7D
100
AcDbEntity
  8
0
 62
     0
100
AcDbLine
 10
123.0350000000001
 20
232.5831423943383
 30
0.0
 11
122.975
 21
232.6431423943384
 31
0.0
  0
LINE
  5
1534
330
1B7D
100
AcDbEntity
  8
0
 62
     0
100
AcDbLine
 10
124.5
 20
232.0161680064453
 30
0.0
 11
123.035
 21
233.4811680064453
 31
0.0
  0
LINE
  5
1535
330
1B7D
100
AcDbEntity
  8
0
 62
     0
100
AcDbLine
 10
123.0350000000001
 20
233.4811680064453
 30
0.0
 11
122.975
 21
233.5411680064453
 31
0.0
  0
LINE
  5
1536
330
1B7D
100
AcDbEntity
  8
0
 62
     0
100
AcDbLine
 10
124.5
 20
232.9141936185521
 30
0.0
 11
123.035
 21
234.3791936185521
 31
0.0
  0
LINE
  5
1537
330
1B7D
100
AcDbEntity
  8
0
 62
     0
100
AcDbLine
 10
123.0350000000001
 20
234.3791936185521
 30
0.0
 11
122.5550000000001
 21
234.8591936185521
 31
0.0
  0
LINE
  5
1538
330
1B7D
100
AcDbEntity
  8
0
 62
     0
100
AcDbLine
 10
124.5
 20
233.8122192306591
 30
0.0
 11
123.035
 21
235.2772192306591
 31
0.0
  0
LINE
  5
1539
330
1B7D
100
AcDbEntity
  8
0
 62
     0
100
AcDbLine
 10
123.0350000000001
 20
235.2772192306591
 30
0.0
 11
122.7461895931956
 21
235.5660296374634
 31
0.0
  0
LINE
  5
153A
330
1B7D
100
AcDbEntity
  8
0
 62
     0
100
AcDbLine
 10
124.5
 20
234.710244842766
 30
0.0
 11
123.074889780476
 21
236.1353550622901
 31
0.0
  0
LINE
  5
153B
330
1B7D
100
AcDbEntity
  8
0
 62
     0
100
AcDbLine
 10
124.5
 20
235.6082704548729
 30
0.0
 11
123.7562181358211
 21
236.3520523190519
 31
0.0
  0
ENDBLK
  5
153C
330
1B7D
100
AcDbEntity
  8
0
100
AcDbBlockEnd
  0
BLOCK
  5
1B80
330
1B7F
100
AcDbEntity
  8
0
100
AcDbBlockBegin
  2
*D29
 70
     1
 10
0.0
 20
0.0
 30
0.0
  3
*D29
  1

  0
LINE
  5
186A
330
1B7F
100
AcDbEntity
  8
SK2
 62
     0
100
AcDbLine
 10
-0.0000000000000284
 20
6.550000000000181
 30
0.0
 11
-0.0000000000000272
 21
26.07799686886153
 31
0.0
  0
LINE
  5
186B
330
1B7F
100
AcDbEntity
  8
SK2
 62
     0
100
AcDbLine
 10
44.00000000000019
 20
7.930799487791206
 30
0.0
 11
44.00000000000019
 21
26.07799686886153
 31
0.0
  0
LINE
  5
186C
330
1B7F
100
AcDbEntity
  8
SK2
 62
     0
100
AcDbLine
 10
3.499999999999971
 20
24.57799686886153
 30
0.0
 11
40.50000000000021
 21
24.57799686886153
 31
0.0
  0
SOLID
  5
186D
330
1B7F
100
AcDbEntity
  8
SK2
 62
     0
100
AcDbTrace
 10
3.499999999999971
 20
25.16133020219486
 30
0.0
 11
3.499999999999971
 21
23.9946635355282
 31
0.0
 12
-0.0000000000000273
 22
24.57799686886153
 32
0.0
 13
-0.0000000000000273
 23
24.57799686886153
 33
0.0
  0
SOLID
  5
186E
330
1B7F
100
AcDbEntity
  8
SK2
 62
     0
100
AcDbTrace
 10
40.50000000000021
 20
25.16133020219486
 30
0.0
 11
40.50000000000021
 21
23.9946635355282
 31
0.0
 12
44.00000000000019
 22
24.57799686886153
 32
0.0
 13
44.00000000000019
 23
24.57799686886153
 33
0.0
  0
TEXT
  5
1885
330
1B7F
100
AcDbEntity
  8
SK2
 62
     0
100
AcDbText
 10
15.0
 20
21.633
 30
0.0
 40
3.5
  1
44
  7
ROMANS
100
AcDbText
  0
POINT
  5
1870
330
1B7F
100
AcDbEntity
  8
DEFPOINTS
 62
     0
100
AcDbPoint
 10
-0.0000000000000284
 20
6.050000000000181
 30
0.0
  0
POINT
  5
1871
330
1B7F
100
AcDbEntity
  8
DEFPOINTS
 62
     0
100
AcDbPoint
 10
44.00000000000019
 20
7.430799487791206
 30
0.0
  0
POINT
  5
1872
330
1B7F
100
AcDbEntity
  8
DEFPOINTS
 62
     0
100
AcDbPoint
 10
44.00000000000019
 20
24.57799686886153
 30
0.0
  0
ENDBLK
  5
1774
330
1B7F
100
AcDbEntity
  8
0
100
AcDbBlockEnd
  0
BLOCK
  5
1B82
330
1B81
100
AcDbEntity
  8
0
100
AcDbBlockBegin
  2
*D30
 70
     1
 10
0.0
 20
0.0
 30
0.0
  3
*D30
  1

  0
LINE
  5
1873
330
1B81
100
AcDbEntity
  8
SK2
 62
     0
100
AcDbLine
 10
-0.0000000000000284
 20
6.550000000000181
 30
0.0
 11
-0.0000000000000265
 21
37.09770874502635
 31
0.0
  0
LINE
  5
1874
330
1B81
100
AcDbEntity
  8
SK2
 62
     0
100
AcDbLine
 10
46.50000000000002
 20
4.52063531912958
 30
0.0
 11
46.50000000000002
 21
37.09770874502635
 31
0.0
  0
LINE
  5
1875
330
1B81
100
AcDbEntity
  8
SK2
 62
     0
100
AcDbLine
 10
3.499999999999971
 20
35.59770874502635
 30
0.0
 11
43.00000000000002
 21
35.59770874502635
 31
0.0
  0
SOLID
  5
1876
330
1B81
100
AcDbEntity
  8
SK2
 62
     0
100
AcDbTrace
 10
3.499999999999971
 20
36.18104207835969
 30
0.0
 11
3.499999999999971
 21
35.01437541169302
 31
0.0
 12
-0.0000000000000266
 22
35.59770874502635
 32
0.0
 13
-0.0000000000000266
 23
35.59770874502635
 33
0.0
  0
SOLID
  5
1877
330
1B81
100
AcDbEntity
  8
SK2
 62
     0
100
AcDbTrace
 10
43.00000000000002
 20
36.18104207835969
 30
0.0
 11
43.00000000000002
 21
35.01437541169302
 31
0.0
 12
46.50000000000002
 22
35.59770874502635
 32
0.0
 13
46.50000000000002
 23
35.59770874502635
 33
0.0
  0
TEXT
  5
1886
330
1B81
100
AcDbEntity
  8
SK2
 62
     0
100
AcDbText
 10
16.25
 20
32.65270000000001
 30
0.0
 40
3.5
  1
46.5
  7
ROMANS
100
AcDbText
  0
POINT
  5
1879
330
1B81
100
AcDbEntity
  8
DEFPOINTS
 62
     0
100
AcDbPoint
 10
-0.0000000000000284
 20
6.050000000000181
 30
0.0
  0
POINT
  5
187A
330
1B81
100
AcDbEntity
  8
DEFPOINTS
 62
     0
100
AcDbPoint
 10
46.50000000000002
 20
4.02063531912958
 30
0.0
  0
POINT
  5
187B
330
1B81
100
AcDbEntity
  8
DEFPOINTS
 62
     0
100
AcDbPoint
 10
46.50000000000002
 20
35.59770874502635
 30
0.0
  0
ENDBLK
  5
178A
330
1B81
100
AcDbEntity
  8
0
100
AcDbBlockEnd
  0
BLOCK
  5
1B84
330
1B83
100
AcDbEntity
  8
0
100
AcDbBlockBegin
  2
*D31
 70
     1
 10
0.0
 20
0.0
 30
0.0
  3
*D31
  1

  0
LINE
  5
187C
330
1B83
100
AcDbEntity
  8
SK2
 62
     0
100
AcDbLine
 10
32.62794880327213
 20
12.00000000000011
 30
0.0
 11
66.40980431021406
 21
12.0000000000001
 31
0.0
  0
LINE
  5
187D
330
1B83
100
AcDbEntity
  8
SK2
 62
     0
100
AcDbLine
 10
32.62794880327201
 20
-11.99999999999988
 30
0.0
 11
66.40980431021406
 21
-11.99999999999989
 31
0.0
  0
LINE
  5
187E
330
1B83
100
AcDbEntity
  8
SK2
 62
     0
100
AcDbLine
 10
64.90980431021404
 20
8.500000000000103
 30
0.0
 11
64.90980431021404
 21
-8.499999999999895
 31
0.0
  0
SOLID
  5
187F
330
1B83
100
AcDbEntity
  8
SK2
 62
     0
100
AcDbTrace
 10
64.32647097688072
 20
8.500000000000103
 30
0.0
 11
65.49313764354739
 21
8.500000000000103
 31
0.0
 12
64.90980431021404
 22
12.0000000000001
 32
0.0
 13
64.90980431021404
 23
12.0000000000001
 33
0.0
  0
SOLID
  5
1880
330
1B83
100
AcDbEntity
  8
SK2
 62
     0
100
AcDbTrace
 10
64.32647097688072
 20
-8.499999999999895
 30
0.0
 11
65.49313764354739
 21
-8.499999999999895
 31
0.0
 12
64.90980431021404
 22
-11.99999999999989
 32
0.0
 13
64.90980431021404
 23
-11.99999999999989
 33
0.0
  0
TEXT
  5
1887
330
1B83
100
AcDbEntity
  8
SK2
 62
     0
100
AcDbText
 10
54.6598
 20
-6.195
 30
0.0
 40
3.5
  1
%%c24
  7
ROMANS
100
AcDbText
  0
POINT
  5
1882
330
1B83
100
AcDbEntity
  8
DEFPOINTS
 62
     0
100
AcDbPoint
 10
32.12794880327213
 20
12.00000000000011
 30
0.0
  0
POINT
  5
1883
330
1B83
100
AcDbEntity
  8
DEFPOINTS
 62
     0
100
AcDbPoint
 10
32.12794880327201
 20
-11.99999999999988
 30
0.0
  0
POINT
  5
1884
330
1B83
100
AcDbEntity
  8
DEFPOINTS
 62
     0
100
AcDbPoint
 10
64.90980431021404
 20
-11.99999999999989
 30
0.0
  0
ENDBLK
  5
1797
330
1B83
100
AcDbEntity
  8
0
100
AcDbBlockEnd
  0
BLOCK
  5
1B86
330
1B85
100
AcDbEntity
  8
0
100
AcDbBlockBegin
  2
*X32
 70
     1
 10
0.0
 20
0.0
 30
0.0
  3
*X32
  1

  0
LINE
  5
1841
330
1B85
100
AcDbEntity
  8
0
 62
     0
100
AcDbLine
 10
11.99999978404368
 20
27.16279356339241
 30
0.0
 11
11.9004422160203
 21
27.2623511314158
 31
0.0
  0
LINE
  5
1842
330
1B85
100
AcDbEntity
  8
0
 62
     0
100
AcDbLine
 10
11.99999978404366
 20
25.39502661042605
 30
0.0
 11
10.13267526305392
 21
27.26235113141579
 31
0.0
  0
LINE
  5
1843
330
1B85
100
AcDbEntity
  8
0
 62
     0
100
AcDbLine
 10
11.99999978404368
 20
23.62725965745967
 30
0.0
 11
8.364908310087576
 21
27.26235113141579
 31
0.0
  0
LINE
  5
1844
330
1B85
100
AcDbEntity
  8
0
 62
     0
100
AcDbLine
 10
11.99999978404366
 20
21.85949270449333
 30
0.0
 11
6.597141357121197
 21
27.26235113141578
 31
0.0
  0
LINE
  5
1845
330
1B85
100
AcDbEntity
  8
0
 62
     0
100
AcDbLine
 10
11.99999978404366
 20
20.09172575152696
 30
0.0
 11
4.829374404154846
 21
27.26235113141578
 31
0.0
  0
LINE
  5
1846
330
1B85
100
AcDbEntity
  8
0
 62
     0
100
AcDbLine
 10
11.99999978404366
 20
18.3239587985606
 30
0.0
 11
3.061607451188513
 21
27.26235113141576
 31
0.0
  0
LINE
  5
1847
330
1B85
100
AcDbEntity
  8
0
 62
     0
100
AcDbLine
 10
10.9366975151843
 20
17.61949411445358
 30
0.0
 11
1.293840498222138
 21
27.26235113141576
 31
0.0
  0
LINE
  5
1848
330
1B85
100
AcDbEntity
  8
0
 62
     0
100
AcDbLine
 10
9.325513626969444
 20
17.46291104970206
 30
0.0
 11
-0.0000002159562129
 21
26.78842489262772
 31
0.0
  0
LINE
  5
1849
330
1B85
100
AcDbEntity
  8
0
 62
     0
100
AcDbLine
 10
7.725594868579293
 20
17.29506285512586
 30
0.0
 11
-0.00000021595622
 21
25.02065793966137
 31
0.0
  0
LINE
  5
184A
330
1B85
100
AcDbEntity
  8
0
 62
     0
100
AcDbLine
 10
6.132799689059523
 20
17.12009108167924
 30
0.0
 11
-0.0000002159562271
 21
23.25289098669499
 31
0.0
  0
LINE
  5
184B
330
1B85
100
AcDbEntity
  8
0
 62
     0
100
AcDbLine
 10
4.734557891499815
 20
16.75056592627259
 30
0.0
 11
-0.00000021595622
 21
21.48512403372863
 31
0.0
  0
LINE
  5
184C
330
1B85
100
AcDbEntity
  8
0
 62
     0
100
AcDbLine
 10
3.032954536662102
 20
16.68440232814392
 30
0.0
 11
-0.0000002159562271
 21
19.71735708076224
 31
0.0
  0
LINE
  5
184D
330
1B85
100
AcDbEntity
  8
0
 62
     0
100
AcDbLine
 10
1.265187583695684
 20
16.68440232814399
 30
0.0
 11
-0.0000002159562342
 21
17.94959012779591
 31
0.0
  0
LINE
  5
184E
330
1B85
100
AcDbEntity
  8
0
 62
     0
100
AcDbLine
 10
10.79148621244238
 20
17.60904220023042
 30
0.0
 11
11.99999978404364
 21
18.81755577183168
 31
0.0
  0
LINE
  5
184F
330
1B85
100
AcDbEntity
  8
0
 62
     0
100
AcDbLine
 10
8.822980825571077
 20
17.4083037663255
 30
0.0
 11
11.99999978404364
 21
20.58532272479806
 31
0.0
  0
LINE
  5
1850
330
1B85
100
AcDbEntity
  8
0
 62
     0
100
AcDbLine
 10
6.859601518891196
 20
17.21269141261203
 30
0.0
 11
11.99999978404364
 21
22.35308967776445
 31
0.0
  0
LINE
  5
1851
330
1B85
100
AcDbEntity
  8
0
 62
     0
100
AcDbLine
 10
4.577568604482677
 20
16.69842545116981
 30
0.0
 11
11.99999978404366
 21
24.1208566307308
 31
0.0
  0
LINE
  5
1852
330
1B85
100
AcDbEntity
  8
0
 62
     0
100
AcDbLine
 10
2.795778528490384
 20
16.6844023281439
 30
0.0
 11
11.99999978404366
 21
25.88862358369719
 31
0.0
  0
LINE
  5
1853
330
1B85
100
AcDbEntity
  8
0
 62
     0
100
AcDbLine
 10
1.02801157552406
 20
16.68440232814396
 30
0.0
 11
11.60596037879584
 21
27.26235113141579
 31
0.0
  0
LINE
  5
1854
330
1B85
100
AcDbEntity
  8
0
 62
     0
100
AcDbLine
 10
-0.0000002159562484
 20
17.42415748963003
 30
0.0
 11
9.8381934258295
 21
27.26235113141576
 31
0.0
  0
LINE
  5
1855
330
1B85
100
AcDbEntity
  8
0
 62
     0
100
AcDbLine
 10
-0.0000002159562484
 20
19.19192444259639
 30
0.0
 11
8.07042647286312
 21
27.26235113141576
 31
0.0
  0
LINE
  5
1856
330
1B85
100
AcDbEntity
  8
0
 62
     0
100
AcDbLine
 10
-0.0000002159562484
 20
20.95969139556274
 30
0.0
 11
6.302659519896763
 21
27.26235113141576
 31
0.0
  0
LINE
  5
1857
330
1B85
100
AcDbEntity
  8
0
 62
     0
100
AcDbLine
 10
-0.0000002159562484
 20
22.72745834852916
 30
0.0
 11
4.534892566930349
 21
27.26235113141573
 31
0.0
  0
LINE
  5
1858
330
1B85
100
AcDbEntity
  8
0
 62
     0
100
AcDbLine
 10
-0.0000002159562484
 20
24.49522530149551
 30
0.0
 11
2.767125613963968
 21
27.26235113141573
 31
0.0
  0
LINE
  5
1859
330
1B85
100
AcDbEntity
  8
0
 62
     0
100
AcDbLine
 10
-0.00000021595622
 20
26.26299225446186
 30
0.0
 11
0.9993586609976429
 21
27.26235113141573
 31
0.0
  0
ENDBLK
  5
185B
330
1B85
100
AcDbEntity
  8
0
100
AcDbBlockEnd
  0
BLOCK
  5
1B88
330
1B87
100
AcDbEntity
  8
0
100
AcDbBlockBegin
  2
*D33
 70
     1
 10
0.0
 20
0.0
 30
0.0
  3
*D33
  1

  0
LINE
  5
1936
330
1B87
100
AcDbEntity
  8
SK2
 62
     0
100
AcDbLine
 10
-0.0000000000000284
 20
6.550000000000181
 30
0.0
 11
-0.0000000000000272
 21
26.07799686886153
 31
0.0
  0
LINE
  5
1937
330
1B87
100
AcDbEntity
  8
SK2
 62
     0
100
AcDbLine
 10
44.00000000000019
 20
7.930799487791206
 30
0.0
 11
44.00000000000019
 21
26.07799686886153
 31
0.0
  0
LINE
  5
1938
330
1B87
100
AcDbEntity
  8
SK2
 62
     0
100
AcDbLine
 10
3.499999999999971
 20
24.57799686886153
 30
0.0
 11
40.50000000000017
 21
24.57799686886153
 31
0.0
  0
SOLID
  5
1939
330
1B87
100
AcDbEntity
  8
SK2
 62
     0
100
AcDbTrace
 10
3.499999999999971
 20
25.16133020219486
 30
0.0
 11
3.499999999999971
 21
23.9946635355282
 31
0.0
 12
-0.0000000000000273
 22
24.57799686886153
 32
0.0
 13
-0.0000000000000273
 23
24.57799686886153
 33
0.0
  0
SOLID
  5
193A
330
1B87
100
AcDbEntity
  8
SK2
 62
     0
100
AcDbTrace
 10
40.50000000000017
 20
25.16133020219486
 30
0.0
 11
40.50000000000017
 21
23.9946635355282
 31
0.0
 12
44.00000000000019
 22
24.57799686886153
 32
0.0
 13
44.00000000000019
 23
24.57799686886153
 33
0.0
  0
TEXT
  5
1959
330
1B87
100
AcDbEntity
  8
SK2
 62
     0
100
AcDbText
 10
15.0
 20
21.633
 30
0.0
 40
3.5
  1
44
  7
ROMANS
100
AcDbText
  0
POINT
  5
193C
330
1B87
100
AcDbEntity
  8
DEFPOINTS
 62
     0
100
AcDbPoint
 10
-0.0000000000000284
 20
6.050000000000181
 30
0.0
  0
POINT
  5
193D
330
1B87
100
AcDbEntity
  8
DEFPOINTS
 62
     0
100
AcDbPoint
 10
44.00000000000019
 20
7.430799487791206
 30
0.0
  0
POINT
  5
193E
330
1B87
100
AcDbEntity
  8
DEFPOINTS
 62
     0
100
AcDbPoint
 10
44.00000000000019
 20
24.57799686886153
 30
0.0
  0
ENDBLK
  5
1918
330
1B87
100
AcDbEntity
  8
0
100
AcDbBlockEnd
  0
BLOCK
  5
1B8A
330
1B89
100
AcDbEntity
  8
0
100
AcDbBlockBegin
  2
*D34
 70
     1
 10
0.0
 20
0.0
 30
0.0
  3
*D34
  1

  0
LINE
  5
193F
330
1B89
100
AcDbEntity
  8
SK2
 62
     0
100
AcDbLine
 10
-0.0000000000000284
 20
6.550000000000181
 30
0.0
 11
-0.0000000000000265
 21
37.09770874502635
 31
0.0
  0
LINE
  5
1940
330
1B89
100
AcDbEntity
  8
SK2
 62
     0
100
AcDbLine
 10
46.50000000000002
 20
4.52063531912958
 30
0.0
 11
46.50000000000002
 21
37.09770874502635
 31
0.0
  0
LINE
  5
1941
330
1B89
100
AcDbEntity
  8
SK2
 62
     0
100
AcDbLine
 10
3.499999999999971
 20
35.59770874502635
 30
0.0
 11
43.00000000000002
 21
35.59770874502635
 31
0.0
  0
SOLID
  5
1942
330
1B89
100
AcDbEntity
  8
SK2
 62
     0
100
AcDbTrace
 10
3.499999999999971
 20
36.18104207835969
 30
0.0
 11
3.499999999999971
 21
35.01437541169302
 31
0.0
 12
-0.0000000000000266
 22
35.59770874502635
 32
0.0
 13
-0.0000000000000266
 23
35.59770874502635
 33
0.0
  0
SOLID
  5
1943
330
1B89
100
AcDbEntity
  8
SK2
 62
     0
100
AcDbTrace
 10
43.00000000000002
 20
36.18104207835969
 30
0.0
 11
43.00000000000002
 21
35.01437541169302
 31
0.0
 12
46.50000000000002
 22
35.59770874502635
 32
0.0
 13
46.50000000000002
 23
35.59770874502635
 33
0.0
  0
TEXT
  5
195A
330
1B89
100
AcDbEntity
  8
SK2
 62
     0
100
AcDbText
 10
16.25
 20
32.65270000000001
 30
0.0
 40
3.5
  1
46.5
  7
ROMANS
100
AcDbText
  0
POINT
  5
1945
330
1B89
100
AcDbEntity
  8
DEFPOINTS
 62
     0
100
AcDbPoint
 10
-0.0000000000000284
 20
6.050000000000181
 30
0.0
  0
POINT
  5
1946
330
1B89
100
AcDbEntity
  8
DEFPOINTS
 62
     0
100
AcDbPoint
 10
46.50000000000002
 20
4.02063531912958
 30
0.0
  0
POINT
  5
1947
330
1B89
100
AcDbEntity
  8
DEFPOINTS
 62
     0
100
AcDbPoint
 10
46.50000000000002
 20
35.59770874502635
 30
0.0
  0
ENDBLK
  5
1924
330
1B89
100
AcDbEntity
  8
0
100
AcDbBlockEnd
  0
BLOCK
  5
1B8C
330
1B8B
100
AcDbEntity
  8
0
100
AcDbBlockBegin
  2
*D35
 70
     1
 10
0.0
 20
0.0
 30
0.0
  3
*D35
  1

  0
LINE
  5
1948
330
1B8B
100
AcDbEntity
  8
SK2
 62
     0
100
AcDbLine
 10
32.62794880327213
 20
12.00000000000011
 30
0.0
 11
70.99721331340356
 21
12.0000000000001
 31
0.0
  0
LINE
  5
1949
330
1B8B
100
AcDbEntity
  8
SK2
 62
     0
100
AcDbLine
 10
32.62794880327201
 20
-11.99999999999988
 30
0.0
 11
70.99721331340356
 21
-11.99999999999989
 31
0.0
  0
LINE
  5
194A
330
1B8B
100
AcDbEntity
  8
SK2
 62
     0
100
AcDbLine
 10
69.49721331340356
 20
8.500000000000099
 30
0.0
 11
69.49721331340356
 21
-8.499999999999891
 31
0.0
  0
SOLID
  5
194B
330
1B8B
100
AcDbEntity
  8
SK2
 62
     0
100
AcDbTrace
 10
68.91387998007023
 20
8.500000000000099
 30
0.0
 11
70.08054664673689
 21
8.500000000000099
 31
0.0
 12
69.49721331340356
 22
12.0000000000001
 32
0.0
 13
69.49721331340356
 23
12.0000000000001
 33
0.0
  0
SOLID
  5
194C
330
1B8B
100
AcDbEntity
  8
SK2
 62
     0
100
AcDbTrace
 10
68.91387998007023
 20
-8.499999999999891
 30
0.0
 11
70.08054664673689
 21
-8.499999999999891
 31
0.0
 12
69.49721331340356
 22
-11.99999999999989
 32
0.0
 13
69.49721331340356
 23
-11.99999999999989
 33
0.0
  0
TEXT
  5
195B
330
1B8B
100
AcDbEntity
  8
SK2
 62
     0
100
AcDbText
 10
59.2472
 20
-6.195
 30
0.0
 40
3.5
  1
%%c24
  7
ROMANS
100
AcDbText
  0
POINT
  5
194E
330
1B8B
100
AcDbEntity
  8
DEFPOINTS
 62
     0
100
AcDbPoint
 10
32.12794880327213
 20
12.00000000000011
 30
0.0
  0
POINT
  5
194F
330
1B8B
100
AcDbEntity
  8
DEFPOINTS
 62
     0
100
AcDbPoint
 10
32.12794880327201
 20
-11.99999999999988
 30
0.0
  0
POINT
  5
1950
330
1B8B
100
AcDbEntity
  8
DEFPOINTS
 62
     0
100
AcDbPoint
 10
69.49721331340356
 20
-11.99999999999989
 30
0.0
  0
ENDBLK
  5
1930
330
1B8B
100
AcDbEntity
  8
0
100
AcDbBlockEnd
  0
BLOCK
  5
1B8E
330
1B8D
100
AcDbEntity
  8
0
100
AcDbBlockBegin
  2
*D36
 70
     1
 10
0.0
 20
0.0
 30
0.0
  3
*D36
  1

  0
LINE
  5
1A31
330
1B8D
100
AcDbEntity
  8
SK2
 62
     0
100
AcDbLine
 10
-0.0000000000000284
 20
6.550000000000181
 30
0.0
 11
-0.000000000000027
 21
29.57336888731914
 31
0.0
  0
LINE
  5
1A32
330
1B8D
100
AcDbEntity
  8
SK2
 62
     0
100
AcDbLine
 10
44.00000000000019
 20
7.930799487791206
 30
0.0
 11
44.00000000000019
 21
29.57336888731914
 31
0.0
  0
LINE
  5
1A33
330
1B8D
100
AcDbEntity
  8
SK2
 62
     0
100
AcDbLine
 10
3.499999999999971
 20
28.07336888731914
 30
0.0
 11
40.50000000000017
 21
28.07336888731914
 31
0.0
  0
SOLID
  5
1A34
330
1B8D
100
AcDbEntity
  8
SK2
 62
     0
100
AcDbTrace
 10
3.499999999999971
 20
28.65670222065247
 30
0.0
 11
3.499999999999971
 21
27.4900355539858
 31
0.0
 12
-0.0000000000000271
 22
28.07336888731914
 32
0.0
 13
-0.0000000000000271
 23
28.07336888731914
 33
0.0
  0
SOLID
  5
1A35
330
1B8D
100
AcDbEntity
  8
SK2
 62
     0
100
AcDbTrace
 10
40.50000000000017
 20
28.65670222065247
 30
0.0
 11
40.50000000000017
 21
27.4900355539858
 31
0.0
 12
44.00000000000019
 22
28.07336888731914
 32
0.0
 13
44.00000000000019
 23
28.07336888731914
 33
0.0
  0
TEXT
  5
1A46
330
1B8D
100
AcDbEntity
  8
SK2
 62
     0
100
AcDbText
 10
15.0
 20
25.1284
 30
0.0
 40
3.5
  1
44
100
AcDbText
  0
POINT
  5
1A37
330
1B8D
100
AcDbEntity
  8
DEFPOINTS
 62
     0
100
AcDbPoint
 10
-0.0000000000000284
 20
6.050000000000181
 30
0.0
  0
POINT
  5
1A38
330
1B8D
100
AcDbEntity
  8
DEFPOINTS
 62
     0
100
AcDbPoint
 10
44.00000000000019
 20
7.430799487791206
 30
0.0
  0
POINT
  5
1A39
330
1B8D
100
AcDbEntity
  8
DEFPOINTS
 62
     0
100
AcDbPoint
 10
44.00000000000019
 20
28.07336888731914
 30
0.0
  0
ENDBLK
  5
19F3
330
1B8D
100
AcDbEntity
  8
0
100
AcDbBlockEnd
  0
BLOCK
  5
1B90
330
1B8F
100
AcDbEntity
  8
0
100
AcDbBlockBegin
  2
*D37
 70
     1
 10
0.0
 20
0.0
 30
0.0
  3
*D37
  1

  0
LINE
  5
19F6
330
1B8F
100
AcDbEntity
  8
SK2
 62
     0
100
AcDbLine
 10
-0.0000000000000284
 20
6.550000000000181
 30
0.0
 11
-0.0000000000000263
 21
40.05719179571007
 31
0.0
  0
LINE
  5
19F7
330
1B8F
100
AcDbEntity
  8
SK2
 62
     0
100
AcDbLine
 10
46.50000000000002
 20
4.52063531912958
 30
0.0
 11
46.50000000000002
 21
40.05719179571007
 31
0.0
  0
LINE
  5
19F8
330
1B8F
100
AcDbEntity
  8
SK2
 62
     0
100
AcDbLine
 10
3.499999999999971
 20
38.55719179571007
 30
0.0
 11
43.00000000000002
 21
38.55719179571007
 31
0.0
  0
SOLID
  5
19F9
330
1B8F
100
AcDbEntity
  8
SK2
 62
     0
100
AcDbTrace
 10
3.499999999999971
 20
39.14052512904341
 30
0.0
 11
3.499999999999971
 21
37.97385846237673
 31
0.0
 12
-0.0000000000000264
 22
38.55719179571007
 32
0.0
 13
-0.0000000000000264
 23
38.55719179571007
 33
0.0
  0
SOLID
  5
19FA
330
1B8F
100
AcDbEntity
  8
SK2
 62
     0
100
AcDbTrace
 10
43.00000000000002
 20
39.14052512904341
 30
0.0
 11
43.00000000000002
 21
37.97385846237673
 31
0.0
 12
46.50000000000002
 22
38.55719179571007
 32
0.0
 13
46.50000000000002
 23
38.55719179571007
 33
0.0
  0
INSERT
  5
19FB
330
1B8F
100
AcDbEntity
  8
SK2
100
AcDbBlockReference
  2
*U38
 10
0.0
 20
0.0
 30
0.0
  0
POINT
  5
19FC
330
1B8F
100
AcDbEntity
  8
DEFPOINTS
 62
     0
100
AcDbPoint
 10
-0.0000000000000284
 20
6.050000000000181
 30
0.0
  0
POINT
  5
19FD
330
1B8F
100
AcDbEntity
  8
DEFPOINTS
 62
     0
100
AcDbPoint
 10
46.50000000000002
 20
4.02063531912958
 30
0.0
  0
POINT
  5
19FE
330
1B8F
100
AcDbEntity
  8
DEFPOINTS
 62
     0
100
AcDbPoint
 10
46.50000000000002
 20
38.55719179571007
 30
0.0
  0
ENDBLK
  5
1A00
330
1B8F
100
AcDbEntity
  8
0
100
AcDbBlockEnd
  0
BLOCK
  5
1B92
330
1B91
100
AcDbEntity
  8
0
100
AcDbBlockBegin
  2
*U38
 70
     1
 10
0.0
 20
0.0
 30
0.0
  3
*U38
  1

  0
TEXT
  5
1A3B
330
1B91
100
AcDbEntity
  8
SK2
 62
     0
100
AcDbText
 10
18.0
 20
40.05719179571007
 30
0.0
 40
3.5
  1
46.5
100
AcDbText
  0
ENDBLK
  5
1A3D
330
1B91
100
AcDbEntity
  8
0
100
AcDbBlockEnd
  0
BLOCK
  5
1B94
330
1B93
100
AcDbEntity
  8
0
100
AcDbBlockBegin
  2
*D39
 70
     1
 10
0.0
 20
0.0
 30
0.0
  3
*D39
  1

  0
LINE
  5
1A03
330
1B93
100
AcDbEntity
  8
SK2
 62
     0
100
AcDbLine
 10
-0.0000000000000284
 20
6.550000000000181
 30
0.0
 11
-0.0000000000000263
 21
41.09690930263787
 31
0.0
  0
LINE
  5
1A04
330
1B93
100
AcDbEntity
  8
SK2
 62
     0
100
AcDbLine
 10
46.50000000000002
 20
4.52063531912958
 30
0.0
 11
46.50000000000002
 21
41.09690930263787
 31
0.0
  0
LINE
  5
1A05
330
1B93
100
AcDbEntity
  8
SK2
 62
     0
100
AcDbLine
 10
3.499999999999971
 20
39.59690930263787
 30
0.0
 11
43.00000000000002
 21
39.59690930263787
 31
0.0
  0
SOLID
  5
1A06
330
1B93
100
AcDbEntity
  8
SK2
 62
     0
100
AcDbTrace
 10
3.499999999999971
 20
40.1802426359712
 30
0.0
 11
3.499999999999971
 21
39.01357596930454
 31
0.0
 12
-0.0000000000000263
 22
39.59690930263787
 32
0.0
 13
-0.0000000000000263
 23
39.59690930263787
 33
0.0
  0
SOLID
  5
1A07
330
1B93
100
AcDbEntity
  8
SK2
 62
     0
100
AcDbTrace
 10
43.00000000000002
 20
40.1802426359712
 30
0.0
 11
43.00000000000002
 21
39.01357596930454
 31
0.0
 12
46.50000000000002
 22
39.59690930263787
 32
0.0
 13
46.50000000000002
 23
39.59690930263787
 33
0.0
  0
INSERT
  5
1A08
330
1B93
100
AcDbEntity
  8
SK2
100
AcDbBlockReference
  2
*U40
 10
0.0
 20
0.0
 30
0.0
  0
POINT
  5
1A09
330
1B93
100
AcDbEntity
  8
DEFPOINTS
 62
     0
100
AcDbPoint
 10
-0.0000000000000284
 20
6.050000000000181
 30
0.0
  0
POINT
  5
1A0A
330
1B93
100
AcDbEntity
  8
DEFPOINTS
 62
     0
100
AcDbPoint
 10
46.50000000000002
 20
4.02063531912958
 30
0.0
  0
POINT
  5
1A0B
330
1B93
100
AcDbEntity
  8
DEFPOINTS
 62
     0
100
AcDbPoint
 10
46.50000000000002
 20
39.59690930263787
 30
0.0
  0
ENDBLK
  5
1A0D
330
1B93
100
AcDbEntity
  8
0
100
AcDbBlockEnd
  0
BLOCK
  5
1B96
330
1B95
100
AcDbEntity
  8
0
100
AcDbBlockBegin
  2
*U40
 70
     1
 10
0.0
 20
0.0
 30
0.0
  3
*U40
  1

  0
TEXT
  5
1A3F
330
1B95
100
AcDbEntity
  8
SK2
 62
     0
100
AcDbText
 10
18.875
 20
41.09690930263787
 30
0.0
 40
3.5
  1
46.5
 41
0.75
  7
ROMANS
100
AcDbText
  0
ENDBLK
  5
1A41
330
1B95
100
AcDbEntity
  8
0
100
AcDbBlockEnd
  0
BLOCK
  5
1B98
330
1B97
100
AcDbEntity
  8
0
100
AcDbBlockBegin
  2
*D41
 70
     1
 10
0.0
 20
0.0
 30
0.0
  3
*D41
  1

  0
LINE
  5
1A1B
330
1B97
100
AcDbEntity
  8
SK2
 62
     0
100
AcDbLine
 10
32.62794880327213
 20
12.00000000000011
 30
0.0
 11
65.0387597092749
 21
12.0000000000001
 31
0.0
  0
LINE
  5
1A1C
330
1B97
100
AcDbEntity
  8
SK2
 62
     0
100
AcDbLine
 10
32.62794880327201
 20
-11.99999999999988
 30
0.0
 11
65.0387597092749
 21
-11.99999999999989
 31
0.0
  0
LINE
  5
1A1D
330
1B97
100
AcDbEntity
  8
SK2
 62
     0
100
AcDbLine
 10
63.53875970927493
 20
8.500000000000101
 30
0.0
 11
63.53875970927493
 21
-8.499999999999891
 31
0.0
  0
SOLID
  5
1A1E
330
1B97
100
AcDbEntity
  8
SK2
 62
     0
100
AcDbTrace
 10
62.95542637594159
 20
8.500000000000101
 30
0.0
 11
64.12209304260826
 21
8.500000000000101
 31
0.0
 12
63.53875970927493
 22
12.0000000000001
 32
0.0
 13
63.53875970927493
 23
12.0000000000001
 33
0.0
  0
SOLID
  5
1A1F
330
1B97
100
AcDbEntity
  8
SK2
 62
     0
100
AcDbTrace
 10
62.95542637594159
 20
-8.499999999999891
 30
0.0
 11
64.12209304260826
 21
-8.499999999999891
 31
0.0
 12
63.53875970927493
 22
-11.99999999999989
 32
0.0
 13
63.53875970927493
 23
-11.99999999999989
 33
0.0
  0
INSERT
  5
1A20
330
1B97
100
AcDbEntity
  8
SK2
100
AcDbBlockReference
  2
*U42
 10
0.0
 20
0.0
 30
0.0
  0
POINT
  5
1A21
330
1B97
100
AcDbEntity
  8
DEFPOINTS
 62
     0
100
AcDbPoint
 10
32.12794880327213
 20
12.00000000000011
 30
0.0
  0
POINT
  5
1A22
330
1B97
100
AcDbEntity
  8
DEFPOINTS
 62
     0
100
AcDbPoint
 10
32.12794880327201
 20
-11.99999999999988
 30
0.0
  0
POINT
  5
1A23
330
1B97
100
AcDbEntity
  8
DEFPOINTS
 62
     0
100
AcDbPoint
 10
63.53875970927493
 20
-11.99999999999989
 30
0.0
  0
ENDBLK
  5
1A1A
330
1B97
100
AcDbEntity
  8
0
100
AcDbBlockEnd
  0
BLOCK
  5
1B9A
330
1B99
100
AcDbEntity
  8
0
100
AcDbBlockBegin
  2
*U42
 70
     1
 10
0.0
 20
0.0
 30
0.0
  3
*U42
  1

  0
TEXT
  5
1A43
330
1B99
100
AcDbEntity
  8
SK2
 62
     0
100
AcDbText
 10
62.03875970927493
 20
-3.749999999999881
 30
0.0
 40
3.5
  1
\U+220524
 50
90.0
 41
0.75
  7
ROMANS
100
AcDbText
  0
ENDBLK
  5
1A45
330
1B99
100
AcDbEntity
  8
0
100
AcDbBlockEnd
  0
BLOCK
  5
1B9C
330
1B9B
100
AcDbEntity
  8
0
100
AcDbBlockBegin
  2
*D43
 70
     1
 10
0.0
 20
0.0
 30
0.0
  3
*D43
  1

  0
LINE
  5
1AF1
330
1B9B
100
AcDbEntity
  8
SK2
 62
     0
100
AcDbLine
 10
-0.0000000000000284
 20
6.550000000000181
 30
0.0
 11
-0.000000000000027
 21
29.57336888731914
 31
0.0
  0
LINE
  5
1AF2
330
1B9B
100
AcDbEntity
  8
SK2
 62
     0
100
AcDbLine
 10
44.00000000000019
 20
7.930799487791206
 30
0.0
 11
44.00000000000019
 21
29.57336888731914
 31
0.0
  0
LINE
  5
1AF3
330
1B9B
100
AcDbEntity
  8
SK2
 62
     0
100
AcDbLine
 10
3.499999999999971
 20
28.07336888731914
 30
0.0
 11
40.50000000000018
 21
28.07336888731914
 31
0.0
  0
SOLID
  5
1AF4
330
1B9B
100
AcDbEntity
  8
SK2
 62
     0
100
AcDbTrace
 10
3.499999999999971
 20
28.65670222065248
 30
0.0
 11
3.499999999999971
 21
27.49003555398581
 31
0.0
 12
-0.0000000000000271
 22
28.07336888731914
 32
0.0
 13
-0.0000000000000271
 23
28.07336888731914
 33
0.0
  0
SOLID
  5
1AF5
330
1B9B
100
AcDbEntity
  8
SK2
 62
     0
100
AcDbTrace
 10
40.50000000000018
 20
28.65670222065248
 30
0.0
 11
40.50000000000018
 21
27.49003555398581
 31
0.0
 12
44.00000000000019
 22
28.07336888731914
 32
0.0
 13
44.00000000000019
 23
28.07336888731914
 33
0.0
  0
TEXT
  5
1B02
330
1B9B
100
AcDbEntity
  8
SK2
 62
     0
100
AcDbText
 10
15.0
 20
25.1284
 30
0.0
 40
3.5
  1
44
  7
ROMANS
100
AcDbText
  0
POINT
  5
1AF7
330
1B9B
100
AcDbEntity
  8
DEFPOINTS
 62
     0
100
AcDbPoint
 10
-0.0000000000000284
 20
6.050000000000181
 30
0.0
  0
POINT
  5
1AF8
330
1B9B
100
AcDbEntity
  8
DEFPOINTS
 62
     0
100
AcDbPoint
 10
44.00000000000019
 20
7.430799487791206
 30
0.0
  0
POINT
  5
1AF9
330
1B9B
100
AcDbEntity
  8
DEFPOINTS
 62
     0
100
AcDbPoint
 10
44.00000000000019
 20
28.07336888731914
 30
0.0
  0
ENDBLK
  5
1AEB
330
1B9B
100
AcDbEntity
  8
0
100
AcDbBlockEnd
  0
BLOCK
  5
1BA8
330
1B9E
100
AcDbEntity
  8
0
100
AcDbBlockBegin
  2
*D44
 70
     1
 10
0.0
 20
0.0
 30
0.0
  3
*D44
  1

  0
LINE
  5
1B9F
330
1B9E
100
AcDbEntity
  8
SK2
 62
     0
370
    -2
100
AcDbLine
 10
-0.0000000000000284
 20
6.550000000000181
 30
0.0
 11
-0.000000000000027
 21
29.57336888731914
 31
0.0
  0
LINE
  5
1BA0
330
1B9E
100
AcDbEntity
  8
SK2
 62
     0
370
    -2
100
AcDbLine
 10
44.00000000000019
 20
7.930799487791206
 30
0.0
 11
44.00000000000019
 21
29.57336888731914
 31
0.0
  0
LINE
  5
1BA1
330
1B9E
100
AcDbEntity
  8
SK2
 62
     0
370
    -2
100
AcDbLine
 10
3.499999999999971
 20
28.07336888731914
 30
0.0
 11
40.50000000000018
 21
28.07336888731914
 31
0.0
  0
SOLID
  5
1BA2
330
1B9E
100
AcDbEntity
  8
SK2
 62
     0
100
AcDbTrace
 10
3.499999999999971
 20
28.65670222065248
 30
0.0
 11
3.499999999999971
 21
27.49003555398581
 31
0.0
 12
-0.0000000000000271
 22
28.07336888731914
 32
0.0
 13
-0.0000000000000271
 23
28.07336888731914
 33
0.0
  0
SOLID
  5
1BA3
330
1B9E
100
AcDbEntity
  8
SK2
 62
     0
100
AcDbTrace
 10
40.50000000000018
 20
28.65670222065248
 30
0.0
 11
40.50000000000018
 21
27.49003555398581
 31
0.0
 12
44.00000000000019
 22
28.07336888731914
 32
0.0
 13
44.00000000000019
 23
28.07336888731914
 33
0.0
  0
MTEXT
  5
1BA4
330
1B9E
100
AcDbEntity
  8
SK2
 62
     0
100
AcDbMText
 10
22.00000000000008
 20
31.32336888731914
 30
0.0
 40
3.5
 41
0.0
 71
     5
 72
     1
  1
\A1;44
  7
ROMANS
 73
     1
 44
1.0
1001
ACAD
1000
MTEXTBEGIN
1070
    73
1070
     1
1070
    44
1040
1.0
1070
    74
1070
     0
1000
MTEXTEND
  0
POINT
  5
1BA5
330
1B9E
100
AcDbEntity
  8
DEFPOINTS
 62
     0
100
AcDbPoint
 10
-0.0000000000000284
 20
6.050000000000181
 30
0.0
  0
POINT
  5
1BA6
330
1B9E
100
AcDbEntity
  8
DEFPOINTS
 62
     0
100
AcDbPoint
 10
44.00000000000019
 20
7.430799487791206
 30
0.0
  0
POINT
  5
1BA7
330
1B9E
100
AcDbEntity
  8
DEFPOINTS
 62
     0
100
AcDbPoint
 10
44.00000000000019
 20
28.07336888731914
 30
0.0
  0
ENDBLK
  5
1BA9
330
1B9E
100
AcDbEntity
  8
0
100
AcDbBlockEnd
  0
BLOCK
  5
1BCF
330
1BC5
100
AcDbEntity
  8
0
100
AcDbBlockBegin
  2
*D45
 70
     1
 10
0.0
 20
0.0
 30
0.0
  3
*D45
  1

  0
LINE
  5
1BC6
330
1BC5
100
AcDbEntity
  8
SK2
 62
     0
370
    -2
100
AcDbLine
 10
-0.0000000000000284
 20
6.550000000000181
 30
0.0
 11
-0.0000000000000263
 21
41.09690930263787
 31
0.0
  0
LINE
  5
1BC7
330
1BC5
100
AcDbEntity
  8
SK2
 62
     0
370
    -2
100
AcDbLine
 10
47.5000000000002
 20
4.520635319129693
 30
0.0
 11
47.5000000000002
 21
41.09690930263787
 31
0.0
  0
LINE
  5
1BC8
330
1BC5
100
AcDbEntity
  8
SK2
 62
     0
370
    -2
100
AcDbLine
 10
3.499999999999973
 20
39.59690930263787
 30
0.0
 11
44.00000000000019
 21
39.59690930263787
 31
0.0
  0
SOLID
  5
1BC9
330
1BC5
100
AcDbEntity
  8
SK2
 62
     0
100
AcDbTrace
 10
3.499999999999973
 20
40.1802426359712
 30
0.0
 11
3.499999999999973
 21
39.01357596930454
 31
0.0
 12
-0.0000000000000263
 22
39.59690930263787
 32
0.0
 13
-0.0000000000000263
 23
39.59690930263787
 33
0.0
  0
SOLID
  5
1BCA
330
1BC5
100
AcDbEntity
  8
SK2
 62
     0
100
AcDbTrace
 10
44.00000000000019
 20
40.1802426359712
 30
0.0
 11
44.00000000000019
 21
39.01357596930454
 31
0.0
 12
47.5000000000002
 22
39.59690930263787
 32
0.0
 13
47.5000000000002
 23
39.59690930263787
 33
0.0
  0
MTEXT
  5
1BCB
330
1BC5
100
AcDbEntity
  8
SK2
 62
     0
100
AcDbMText
 10
23.75000000000008
 20
42.84690930263787
 30
0.0
 40
3.5
 41
0.0
 71
     5
 72
     1
  1
\A1;47.5
  7
ROMANS
 73
     1
 44
1.0
1001
ACAD
1000
MTEXTBEGIN
1070
    73
1070
     1
1070
    44
1040
1.0
1070
    74
1070
     0
1000
MTEXTEND
  0
POINT
  5
1BCC
330
1BC5
100
AcDbEntity
  8
DEFPOINTS
 62
     0
100
AcDbPoint
 10
-0.0000000000000284
 20
6.050000000000181
 30
0.0
  0
POINT
  5
1BCD
330
1BC5
100
AcDbEntity
  8
DEFPOINTS
 62
     0
100
AcDbPoint
 10
47.5000000000002
 20
4.020635319129693
 30
0.0
  0
POINT
  5
1BCE
330
1BC5
100
AcDbEntity
  8
DEFPOINTS
 62
     0
100
AcDbPoint
 10
47.5000000000002
 20
39.59690930263787
 30
0.0
  0
ENDBLK
  5
1BD0
330
1BC5
100
AcDbEntity
  8
0
100
AcDbBlockEnd
  0
ENDSEC
  0
SECTION
  2
ENTITIES
  0
LINE
  5
165E
330
1B24
100
AcDbEntity
  8
1
100
AcDbLine
 10
1.149999999999719
 20
-11.99999999999988
 30
0.0
 11
5.100000000000163
 21
-11.99999999999988
 31
0.0
1001
ACAD
1000
ASC_BOUNDS
1002
{
1070
    19
1002
}
  0
LINE
  5
165F
330
1B24
100
AcDbEntity
  8
1
100
AcDbLine
 10
5.59999999999971
 20
-11.50000000000044
 30
0.0
 11
5.100000000000219
 21
-11.99999999999985
 31
0.0
  0
LINE
  5
1660
330
1B24
100
AcDbEntity
  8
1
100
AcDbLine
 10
0.6000000000002217
 20
-11.45000000000038
 30
0.0
 11
1.149999999999719
 21
-11.99999999999985
 31
0.0
  0
LINE
  5
1666
330
1B24
100
AcDbEntity
  8
1
100
AcDbLine
 10
1.149999999999719
 20
12.00000000000011
 30
0.0
 11
5.099999999999822
 21
12.00000000000011
 31
0.0
1001
ACAD
1000
ASC_BOUNDS
1002
{
1070
    19
1002
}
  0
LINE
  5
1667
330
1B24
100
AcDbEntity
  8
1
100
AcDbLine
 10
5.599999999999822
 20
11.50000000000011
 30
0.0
 11
5.099999999999822
 21
12.00000000000014
 31
0.0
1001
ACAD
1000
ASC_BOUNDS
1002
{
1070
    19
1002
}
  0
LINE
  5
1668
330
1B24
100
AcDbEntity
  8
1
100
AcDbLine
 10
0.5999999999998238
 20
11.45000000000016
 30
0.0
 11
1.149999999999719
 21
12.00000000000011
 31
0.0
1001
ACAD
1000
ASC_BOUNDS
1002
{
1070
    19
1002
}
  0
LINE
  5
166A
330
1B24
100
AcDbEntity
  8
1
100
AcDbLine
 10
-0.0000000000000284
 20
6.050000000000181
 30
0.0
 11
0.0000000000000284
 21
-6.049999999999812
 31
0.0
  0
ARC
  5
166E
330
1B24
100
AcDbEntity
  8
1
100
AcDbCircle
 10
1.500000000000014
 20
6.050000000000208
 30
0.0
 40
1.5
100
AcDbArc
 50
126.8698976458454
 51
180.0
  0
LINE
  5
167F
330
1B24
100
AcDbEntity
  8
1
100
AcDbLine
 10
6.000000000000167
 20
-7.249999999999801
 30
0.0
 11
5.600000000000219
 21
-7.249999999999801
 31
0.0
1001
ACAD
1000
ASC_BOUNDS
1002
{
1070
    19
1002
}
  0
ARC
  5
1680
330
1B24
100
AcDbEntity
  8
1
100
AcDbCircle
 10
1.50000000000007
 20
-6.049999999999812
 30
0.0
 40
1.5
100
AcDbArc
 50
180.0
 51
233.1301023541564
1001
ACAD
1000
ASC_BOUNDS
1002
{
1070
    19
1002
}
  0
LINE
  5
168A
330
1B24
100
AcDbEntity
  8
1
100
AcDbLine
 10
6.000000000000254
 20
8.473350083857948
 30
0.0
 11
6.000000000000156
 21
-8.473350083857724
 31
0.0
1001
ACAD
1000
ASC_BOUNDS
1002
{
1070
    19
1002
}
  0
LINE
  5
168D
330
1B24
100
AcDbEntity
  8
1
100
AcDbLine
 10
11.90000000000017
 20
9.75000000000011
 30
0.0
 11
6.712494449788578
 21
9.75000000000011
 31
0.0
1001
ACAD
1000
ASC_BOUNDS
1002
{
1070
    19
1002
}
  0
ARC
  5
168E
330
1B24
100
AcDbEntity
  8
1
100
AcDbCircle
 10
7.500000000000268
 20
8.473350083857923
 30
0.0
 40
1.5
100
AcDbArc
 50
121.6684923455399
 51
180.0
1001
ACAD
1000
ASC_BOUNDS
1002
{
1070
    19
1002
}
  0
LINE
  5
1692
330
1B24
100
AcDbEntity
  8
1
100
AcDbLine
 10
21.00000000000028
 20
11.35000000000011
 30
0.0
 11
13.50000000000014
 21
11.35000000000011
 31
0.0
1001
ACAD
1000
ASC_BOUNDS
1002
{
1070
    19
1002
}
  0
LINE
  5
1693
330
1B24
100
AcDbEntity
  8
1
100
AcDbLine
 10
13.50000000000014
 20
11.35000000000008
 30
0.0
 11
11.90000000000012
 21
9.75000000000011
 31
0.0
1001
ACAD
1000
ASC_BOUNDS
1002
{
1070
    19
1002
}
  0
LINE
  5
16A3
330
1B24
100
AcDbEntity
  8
1
100
AcDbLine
 10
21.00000000000024
 20
0.0000000000000853
 30
0.0
 11
21.00000000000017
 21
-11.34999999999991
 31
0.0
1001
ACAD
1000
ASC_BOUNDS
1002
{
1070
    19
1002
}
  0
LINE
  5
16A6
330
1B24
100
AcDbEntity
  8
1
100
AcDbLine
 10
11.90000000000012
 20
-9.749999999999911
 30
0.0
 11
6.712494449788462
 21
-9.749999999999911
 31
0.0
  0
ARC
  5
16A7
330
1B24
100
AcDbEntity
  8
1
100
AcDbCircle
 10
7.500000000000157
 20
-8.473350083857752
 30
0.0
 40
1.5
100
AcDbArc
 50
179.9999999999992
 51
238.3315076544598
  0
LINE
  5
16A8
330
1B24
100
AcDbEntity
  8
1
100
AcDbLine
 10
21.00000000000017
 20
-11.34999999999991
 30
0.0
 11
13.50000000000011
 21
-11.34999999999991
 31
0.0
  0
LINE
  5
16A9
330
1B24
100
AcDbEntity
  8
1
100
AcDbLine
 10
13.50000000000017
 20
-11.34999999999994
 30
0.0
 11
11.90000000000015
 21
-9.749999999999911
 31
0.0
1001
ACAD
1000
ASC_BOUNDS
1002
{
1070
    19
1002
}
  0
LINE
  5
16AC
330
1B24
100
AcDbEntity
  8
1
100
AcDbLine
 10
0.6000000000001329
 20
-11.4500000000003
 30
0.0
 11
0.5999999999998238
 21
11.45000000000013
 31
0.0
1001
ACAD
1000
ASC_BOUNDS
1002
{
1070
    19
1002
}
  0
LINE
  5
16AD
330
1B24
100
AcDbEntity
  8
1
100
AcDbLine
 10
5.600000000000433
 20
-11.49999999999971
 30
0.0
 11
5.599999999999822
 21
11.50000000000011
 31
0.0
1001
ACAD
1000
ASC_BOUNDS
1002
{
1070
    19
1002
}
  0
LINE
  5
16B3
330
1B24
100
AcDbEntity
  8
1
100
AcDbLine
 10
44.00000000000019
 20
7.430799487791206
 30
0.0
 11
44.00000000000019
 21
-7.430799487790977
 31
0.0
1001
ACAD
1000
ASC_BOUNDS
1002
{
1070
    19
1002
}
  0
LINE
  5
16B6
330
1B24
100
AcDbEntity
  8
1
100
AcDbLine
 10
32.12794880327213
 20
12.00000000000011
 30
0.0
 11
21.55000000000015
 21
12.00000000000011
 31
0.0
  0
LINE
  5
16B7
330
1B24
100
AcDbEntity
  8
1
100
AcDbLine
 10
21.0000000000002
 20
11.4500000000001
 30
0.0
 11
21.55000000000015
 21
12.00000000000011
 31
0.0
  0
LINE
  5
16BC
330
1B24
100
AcDbEntity
  8
1
100
AcDbLine
 10
43.65157822710536
 20
7.919268798059532
 30
0.0
 11
32.12794880327213
 21
12.00000000000011
 31
0.0
  0
LINE
  5
16C1
330
1B24
100
AcDbEntity
  8
1
100
AcDbLine
 10
32.12794880327201
 20
-11.99999999999988
 30
0.0
 11
21.55000000000024
 21
-11.99999999999988
 31
0.0
  0
LINE
  5
16C3
330
1B24
100
AcDbEntity
  8
1
100
AcDbLine
 10
21.0000000000002
 20
11.4500000000001
 30
0.0
 11
21.00000000000024
 21
-11.44999999999987
 31
0.0
1001
ACAD
1000
ASC_BOUNDS
1002
{
1070
    19
1005
0
1002
}
  0
LINE
  5
16C4
330
1B24
100
AcDbEntity
  8
1
100
AcDbLine
 10
21.00000000000024
 20
-11.4499999999999
 30
0.0
 11
21.55000000000024
 21
-11.99999999999988
 31
0.0
1001
ACAD
1000
ASC_BOUNDS
1002
{
1070
    19
1002
}
  0
LINE
  5
16C6
330
1B24
100
AcDbEntity
  8
1
100
AcDbLine
 10
43.65157822710536
 20
-7.919268798059277
 30
0.0
 11
32.12794880327201
 21
-11.99999999999988
 31
0.0
  0
LINE
  5
16CB
330
1B24
100
AcDbEntity
  8
SK4
100
AcDbLine
 10
48.81235117270851
 20
0.0
 30
0.0
 11
-1.987451600271724
 21
0.0
 31
0.0
  0
LINE
  5
1711
330
1B24
100
AcDbEntity
  8
1
100
AcDbLine
 10
47.5000000000002
 20
-4.020635319129466
 30
0.0
 11
47.5000000000002
 21
0.0000000000002274
 31
0.0
  0
LINE
  5
1715
330
1B24
100
AcDbEntity
  8
1
100
AcDbLine
 10
47.5000000000002
 20
-4.020635319129466
 30
0.0
 11
44.00000000000019
 21
-5.260050322986919
 31
0.0
  0
LINE
  5
1756
330
1B24
100
AcDbEntity
  8
1
100
AcDbLine
 10
21.0000000000002
 20
11.4500000000001
 30
0.0
 11
21.00000000000028
 21
11.35000000000011
 31
0.0
  0
LINE
  5
1760
330
1B24
100
AcDbEntity
  8
1
100
AcDbLine
 10
43.65157822657361
 20
-7.919268798804777
 30
0.0
 11
44.00000000000019
 21
-7.430799487790977
 31
0.0
  0
LINE
  5
1761
330
1B24
100
AcDbEntity
  8
1
100
AcDbLine
 10
43.65157822657361
 20
7.919268798804974
 30
0.0
 11
44.00000000000019
 21
7.430799487791206
 31
0.0
  0
LINE
  5
1765
330
1B24
100
AcDbEntity
  8
1
100
AcDbLine
 10
6.000000000000167
 20
7.249999999999801
 30
0.0
 11
5.600000000000219
 21
7.249999999999801
 31
0.0
1001
ACAD
1000
ASC_BOUNDS
1002
{
1070
    19
1002
}
  0
LINE
  5
1766
330
1B24
100
AcDbEntity
  8
1
100
AcDbLine
 10
47.5000000000002
 20
4.020635319129693
 30
0.0
 11
47.5000000000002
 21
0.0
 31
0.0
  0
LINE
  5
1767
330
1B24
100
AcDbEntity
  8
1
100
AcDbLine
 10
47.5000000000002
 20
4.020635319129693
 30
0.0
 11
44.00000000000019
 21
5.260050322987146
 31
0.0
  0
DIMENSION
  5
19E7
330
1B24
100
AcDbEntity
  8
SK2
100
AcDbDimension
  2
*D44
 10
44.00000000000019
 20
28.07336888731914
 30
0.0
 11
22.00000000000008
 21
28.07336888731914
 31
0.0
 70
   160
 71
     5
 42
44.00000000000022
  3
STANDARD
100
AcDbAlignedDimension
 13
-0.0000000000000284
 23
6.050000000000181
 33
0.0
 14
44.00000000000019
 24
7.430799487791206
 34
0.0
100
AcDbRotatedDimension
1001
ACAD
1000
DSTYLE
1002
{
1070
   287
1070
     3
1070
   287
1070
     3
1070
   271
1070
     4
1070
   272
1070
     4
1070
   279
1070
     0
1070
   284
1070
     0
1070
   285
1070
     0
1070
   286
1070
     0
1070
   340
1005
196C
1002
}
  0
DIMENSION
  5
1A01
330
1B24
100
AcDbEntity
  8
SK2
100
AcDbDimension
  2
*D45
 10
47.5000000000002
 20
39.59690930263787
 30
0.0
 11
23.75000000000008
 21
42.84690930263787
 31
0.0
 70
    32
 71
     5
 42
47.50000000000023
  3
STANDARD
100
AcDbAlignedDimension
 13
-0.0000000000000284
 23
6.050000000000181
 33
0.0
 14
47.5000000000002
 24
4.020635319129693
 34
0.0
100
AcDbRotatedDimension
  0
DIMENSION
  5
1A0E
330
1B24
100
AcDbEntity
  8
SK2
100
AcDbDimension
  2
*D41
 10
63.53875970927493
 20
-11.99999999999989
 30
0.0
 11
60.28875970927493
 21
0.0000000000001164
 31
0.0
  1
%%c<>
 71
     5
 42
-1.0
  3
STANDARD
100
AcDbAlignedDimension
 13
32.12794880327213
 23
12.00000000000011
 33
0.0
 14
32.12794880327201
 24
-11.99999999999988
 34
0.0
 50
90.0
100
AcDbRotatedDimension
  0
ENDSEC
  0
SECTION
  2
OBJECTS
  0
DICTIONARY
  5
1B0E
330
0
100
AcDbDictionary
281
     1
  3
ACAD_COLOR
350
1B1D
  3
ACAD_GROUP
350
1B0F
  3
ACAD_LAYOUT
350
1B1B
  3
ACAD_MATERIAL
350
1B1C
  3
ACAD_MLINESTYLE
350
1B18
  3
ACAD_PLOTSETTINGS
350
1B1A
  3
ACAD_PLOTSTYLENAME
350
1B10
  3
ACAD_TABLESTYLE
350
1B1E
  3
ACDBHEADERROUNDTRIPXREC
350
1BD2
  3
AcDbVariableDictionary
350
1BAA
  0
DICTIONARY
  5
1BC3
330
1B24
100
AcDbDictionary
280
     1
281
     1
  3
ACAD_SORTENTS
360
1BC4
  0
DICTIONARY
  5
1B1D
102
{ACAD_REACTORS
330
1B0E
102
}
330
1B0E
100
AcDbDictionary
281
     1
  0
DICTIONARY
  5
1B0F
102
{ACAD_REACTORS
330
1B0E
102
}
330
1B0E
100
AcDbDictionary
281
     1
  0
DICTIONARY
  5
1B1B
102
{ACAD_REACTORS
330
1B0E
102
}
330
1B0E
100
AcDbDictionary
281
     1
  3
Layout1
350
1B23
  3
Model
350
1B27
  0
DICTIONARY
  5
1B1C
102
{ACAD_REACTORS
330
1B0E
102
}
330
1B0E
100
AcDbDictionary
281
     1
  0
DICTIONARY
  5
1B18
102
{ACAD_REACTORS
330
1B0E
102
}
330
1B0E
100
AcDbDictionary
281
     1
  3
Standard
350
1B19
  0
DICTIONARY
  5
1B1A
102
{ACAD_REACTORS
330
1B0E
102
}
330
1B0E
100
AcDbDictionary
281
     1
  0
ACDBDICTIONARYWDFLT
  5
1B10
102
{ACAD_REACTORS
330
1B0E
102
}
330
1B0E
100
AcDbDictionary
281
     1
  3
Normal
350
1B11
100
AcDbDictionaryWithDefault
340
1B11
  0
DICTIONARY
  5
1B1E
102
{ACAD_REACTORS
330
1B0E
102
}
330
1B0E
100
AcDbDictionary
281
     1
  3
Standard
350
1B1F
  0
DICTIONARY
  5
1BD2
102
{ACAD_REACTORS
330
1B0E
102
}
330
1B0E
100
AcDbDictionary
281
     1
  0
DICTIONARY
  5
1BAA
102
{ACAD_REACTORS
330
1B0E
102
}
330
1B0E
100
AcDbDictionary
281
     1
  3
CTABLESTYLE
350
1BAB
  3
DIMASSOC
350
1BAC
  3
PROJECTNAME
350
1BAD
  0
SORTENTSTABLE
  5
1BC4
102
{ACAD_REACTORS
330
1BC3
102
}
330
1BC3
100
AcDbSortentsTable
330
1B24
331
16AC
  5
16AC
331
1693
  5
1693
331
1766
  5
1766
331
1680
  5
1680
331
1667
  5
1667
331
16A8
  5
16A8
331
16B7
  5
16B7
331
16A6
  5
16A6
331
168D
  5
168D
331
1760
  5
1760
331
16C6
  5
16C6
331
1715
  5
1715
331
16C4
  5
16C4
331
16B3
  5
16B3
331
165F
  5
165F
331
166E
  5
166E
331
1711
  5
1711
331
16AD
  5
16AD
331
166A
  5
166A
331
1767
  5
1767
331
1756
  5
1756
331
16BC
  5
16BC
331
1692
  5
1692
331
1668
  5
1668
331
1765
  5
1765
331
16CB
  5
16CB
331
16A9
  5
16A9
331
167F
  5
167F
331
1666
  5
1666
331
16A7
  5
16A7
331
168E
  5
168E
331
1A01
  5
1A01
331
1761
  5
1761
331
16B6
  5
16B6
331
19E7
  5
19E7
331
16A3
  5
16A3
331
168A
  5
168A
331
1660
  5
1660
331
1A0E
  5
1A0E
331
16C3
  5
16C3
331
165E
  5
165E
331
16C1
  5
16C1
  0
LAYOUT
  5
1B23
102
{ACAD_XDICTIONARY
360
1BD3
102
}
102
{ACAD_REACTORS
330
1B1B
102
}
330
1B1B
100
AcDbPlotSettings
  1

  2
\\SERVER\HP LaserJet 6L
  4

  6

 40
0.0
 41
0.0
 42
0.0
 43
0.0
 44
0.0
 45
0.0
 46
0.0
 47
0.0
 48
0.0
 49
0.0
140
0.0
141
0.0
142
1.0
143
1.0
 70
   688
 72
     0
 73
     0
 74
     5
  7

 75
    16
147
1.0
148
0.0
149
0.0
100
AcDbLayout
  1
Layout1
 70
     1
 71
     1
 10
0.0
 20
0.0
 11
12.0
 21
9.0
 12
0.0
 22
0.0
 32
0.0
 14
1.000000000000000E+20
 24
1.000000000000000E+20
 34
1.000000000000000E+20
 15
-1.000000000000000E+20
 25
-1.000000000000000E+20
 35
-1.000000000000000E+20
146
0.0
 13
0.0
 23
0.0
 33
0.0
 16
1.0
 26
0.0
 36
0.0
 17
0.0
 27
1.0
 37
0.0
 76
     0
330
1B20
  0
LAYOUT
  5
1B27
102
{ACAD_XDICTIONARY
360
1BD5
102
}
102
{ACAD_REACTORS
330
1B1B
102
}
330
1B1B
100
AcDbPlotSettings
  1

  2
\\SERVER\HP LaserJet 6L
  4

  6

 40
0.0
 41
0.0
 42
0.0
 43
0.0
 44
0.0
 45
0.0
 46
0.0
 47
0.0
 48
0.0
 49
0.0
140
0.0
141
0.0
142
1.0
143
1.0
 70
  1712
 72
     0
 73
     0
 74
     0
  7

 75
     0
147
1.0
148
0.0
149
0.0
100
AcDbLayout
  1
Model
 70
     1
 71
     0
 10
0.0
 20
0.0
 11
12.0
 21
9.0
 12
0.0
 22
0.0
 32
0.0
 14
0.0
 24
0.0
 34
0.0
 15
0.0
 25
0.0
 35
0.0
146
0.0
 13
0.0
 23
0.0
 33
0.0
 16
1.0
 26
0.0
 36
0.0
 17
0.0
 27
1.0
 37
0.0
 76
     0
330
1B24
  0
MLINESTYLE
  5
1B19
102
{ACAD_REACTORS
330
1B18
102
}
330
1B18
100
AcDbMlineStyle
  2
STANDARD
 70
     0
  3

 62
   256
 51
90.0
 52
90.0
 71
     2
 49
0.5
 62
   256
  6
BYLAYER
 49
-0.5
 62
   256
  6
BYLAYER
  0
ACDBPLACEHOLDER
  5
1B11
102
{ACAD_REACTORS
330
1B10
102
}
330
1B10
  0
TABLESTYLE
  5
1B1F
102
{ACAD_REACTORS
330
1B1E
102
}
330
1B1E
100
AcDbTableStyle
  3
Standard
 70
     0
 71
     0
 40
0.06
 41
0.06
280
     0
281
     0
  7
STANDARD
140
0.18
170
     2
 62
     0
 63
     7
283
     0
274
    -2
284
     1
 64
     0
275
    -2
285
     1
 65
     0
276
    -2
286
     1
 66
     0
277
    -2
287
     1
 67
     0
278
    -2
288
     1
 68
     0
279
    -2
289
     1
 69
     0
  7
STANDARD
140
0.25
170
     5
 62
     0
 63
     7
283
     0
274
    -2
284
     1
 64
     0
275
    -2
285
     1
 65
     0
276
    -2
286
     1
 66
     0
277
    -2
287
     1
 67
     0
278
    -2
288
     1
 68
     0
279
    -2
289
     1
 69
     0
  7
STANDARD
140
0.18
170
     5
 62
     0
 63
     7
283
     0
274
    -2
284
     1
 64
     0
275
    -2
285
     1
 65
     0
276
    -2
286
     1
 66
     0
277
    -2
287
     1
 67
     0
278
    -2
288
     1
 68
     0
279
    -2
289
     1
 69
     0
  0
DICTIONARYVAR
  5
1BAB
102
{ACAD_REACTORS
330
1BAA
102
}
330
1BAA
100
DictionaryVariables
280
     0
  1
STANDARD
  0
DICTIONARYVAR
  5
1BAC
102
{ACAD_REACTORS
330
1BAA
102
}
330
1BAA
100
DictionaryVariables
280
     0
  1
1
  0
DICTIONARYVAR
  5
1BAD
102
{ACAD_REACTORS
330
1BAA
102
}
330
1BAA
100
DictionaryVariables
280
     0
  1

  0
DICTIONARY
  5
1BD3
330
1B23
100
AcDbDictionary
280
     1
281
     1
  3
ACAD_XREC_ROUNDTRIP
360
1BD4
  0
DICTIONARY
  5
1BD5
330
1B27
100
AcDbDictionary
280
     1
281
     1
  3
ACAD_XREC_ROUNDTRIP
360
1BD6
  0
XRECORD
  5
1BD4
102
{ACAD_REACTORS
330
1BD3
102
}
330
1BD3
100
AcDbXrecord
280
     1
102
SHADEPLOT
 70
     0
102
SHADEPLOTRESLEVEL
 70
     2
102
SHADEPLOTCUSTOMDPI
 70
   300
  0
XRECORD
  5
1BD6
102
{ACAD_REACTORS
330
1BD5
102
}
330
1BD5
100
AcDbXrecord
280
     1
102
SHADEPLOT
 70
     0
102
SHADEPLOTRESLEVEL
 70
     2
102
SHADEPLOTCUSTOMDPI
 70
   300
  0
ENDSEC
  0
EOF
