  0
SECTION
  2
HEADER
  9
$ACADVER
  1
AC1015
  9
$ACADMAINTVER
 70
     6
  9
$DWGCODEPAGE
  3
ANSI_1252
  9
$INSBASE
 10
0.0
 20
0.0
 30
0.0
  9
$EXTMIN
 10
0.0
 20
0.0
 30
0.0
  9
$EXTMAX
 10
420.0
 20
297.0
 30
0.0
  9
$LIMMIN
 10
0.0
 20
0.0
  9
$LIMMAX
 10
420.0
 20
297.0
  9
$ORTHOMODE
 70
     0
  9
$REGENMODE
 70
     1
  9
$FILLMODE
 70
     1
  9
$QTEXTMODE
 70
     0
  9
$MIRRTEXT
 70
     1
  9
$LTSCALE
 40
1.0
  9
$ATTMODE
 70
     1
  9
$TEXTSIZE
 40
3.5
  9
$TRACEWID
 40
1.0
  9
$TEXTSTYLE
  7
STANDARD
  9
$CLAYER
  8
0
  9
$CELTYPE
  6
ByLayer
  9
$CECOLOR
 62
   256
  9
$CELTSCALE
 40
1.0
  9
$DISPSILH
 70
     0
  9
$DIMSCALE
 40
1.0
  9
$DIMASZ
 40
3.302
  9
$DIMEXO
 40
1.0
  9
$DIMDLI
 40
3.75
  9
$DIMRND
 40
0.0
  9
$DIMDLE
 40
0.0
  9
$DIMEXE
 40
1.0
  9
$DIMTP
 40
0.0
  9
$DIMTM
 40
0.0
  9
$DIMTXT
 40
3.5
  9
$DIMCEN
 40
2.5
  9
$DIMTSZ
 40
0.0
  9
$DIMTOL
 70
     0
  9
$DIMLIM
 70
     0
  9
$DIMTIH
 70
     1
  9
$DIMTOH
 70
     1
  9
$DIMSE1
 70
     0
  9
$DIMSE2
 70
     0
  9
$DIMTAD
 70
     1
  9
$DIMZIN
 70
     0
  9
$DIMBLK
  1

  9
$DIMASO
 70
     1
  9
$DIMSHO
 70
     1
  9
$DIMPOST
  1

  9
$DIMAPOST
  1

  9
$DIMALT
 70
     0
  9
$DIMALTD
 70
     3
  9
$DIMALTF
 40
0.0393700787
  9
$DIMLFAC
 40
1.0
  9
$DIMTOFL
 70
     1
  9
$DIMTVP
 40
0.0
  9
$DIMTIX
 70
     0
  9
$DIMSOXD
 70
     0
  9
$DIMSAH
 70
     0
  9
$DIMBLK1
  1

  9
$DIMBLK2
  1

  9
$DIMSTYLE
  2
ISO-25
  9
$DIMCLRD
 70
     0
  9
$DIMCLRE
 70
     0
  9
$DIMCLRT
 70
     0
  9
$DIMTFAC
 40
1.0
  9
$DIMGAP
 40
1.524
  9
$DIMJUST
 70
     0
  9
$DIMSD1
 70
     0
  9
$DIMSD2
 70
     0
  9
$DIMTOLJ
 70
     0
  9
$DIMTZIN
 70
     0
  9
$DIMALTZ
 70
     0
  9
$DIMALTTZ
 70
     0
  9
$DIMUPT
 70
     0
  9
$DIMDEC
 70
     1
  9
$DIMTDEC
 70
     1
  9
$DIMALTU
 70
     2
  9
$DIMALTTD
 70
     3
  9
$DIMTXSTY
  7
STANDARD
  9
$DIMAUNIT
 70
     0
  9
$DIMADEC
 70
     1
  9
$DIMALTRND
 40
0.0
  9
$DIMAZIN
 70
     0
  9
$DIMDSEP
 70
    44
  9
$DIMATFIT
 70
     3
  9
$DIMFRAC
 70
     0
  9
$DIMLDRBLK
  1

  9
$DIMLUNIT
 70
     2
  9
$DIMLWD
 70
    -2
  9
$DIMLWE
 70
    -2
  9
$DIMTMOVE
 70
     0
  9
$LUNITS
 70
     2
  9
$LUPREC
 70
     2
  9
$SKETCHINC
 40
1.0
  9
$FILLETRAD
 40
10.0
  9
$AUNITS
 70
     0
  9
$AUPREC
 70
     2
  9
$MENU
  1
.
  9
$ELEVATION
 40
0.0
  9
$PELEVATION
 40
0.0
  9
$THICKNESS
 40
0.0
  9
$LIMCHECK
 70
     0
  9
$CHAMFERA
 40
10.0
  9
$CHAMFERB
 40
10.0
  9
$CHAMFERC
 40
20.0
  9
$CHAMFERD
 40
0.0
  9
$SKPOLY
 70
     0
  9
$TDCREATE
 40
2455896.91457228
  9
$TDUCREATE
 40
2455896.872905613
  9
$TDUPDATE
 40
2455896.914572292
  9
$TDUUPDATE
 40
2455896.872905625
  9
$TDINDWG
 40
0.0000000116
  9
$TDUSRTIMER
 40
0.0000000116
  9
$USRTIMER
 70
     1
  9
$ANGBASE
 50
0.0
  9
$ANGDIR
 70
     0
  9
$PDMODE
 70
     0
  9
$PDSIZE
 40
-1.0
  9
$PLINEWID
 40
0.0
  9
$SPLFRAME
 70
     0
  9
$SPLINETYPE
 70
     6
  9
$SPLINESEGS
 70
     8
  9
$HANDSEED
  5
151
  9
$SURFTAB1
 70
     6
  9
$SURFTAB2
 70
     6
  9
$SURFTYPE
 70
     6
  9
$SURFU
 70
     6
  9
$SURFV
 70
     6
  9
$UCSBASE
  2

  9
$UCSNAME
  2

  9
$UCSORG
 10
0.0
 20
0.0
 30
0.0
  9
$UCSXDIR
 10
1.0
 20
0.0
 30
0.0
  9
$UCSYDIR
 10
0.0
 20
1.0
 30
0.0
  9
$UCSORTHOREF
  2

  9
$UCSORTHOVIEW
 70
     0
  9
$UCSORGTOP
 10
0.0
 20
0.0
 30
0.0
  9
$UCSORGBOTTOM
 10
0.0
 20
0.0
 30
0.0
  9
$UCSORGLEFT
 10
0.0
 20
0.0
 30
0.0
  9
$UCSORGRIGHT
 10
0.0
 20
0.0
 30
0.0
  9
$UCSORGFRONT
 10
0.0
 20
0.0
 30
0.0
  9
$UCSORGBACK
 10
0.0
 20
0.0
 30
0.0
  9
$PUCSBASE
  2

  9
$PUCSNAME
  2

  9
$PUCSORG
 10
0.0
 20
0.0
 30
0.0
  9
$PUCSXDIR
 10
1.0
 20
0.0
 30
0.0
  9
$PUCSYDIR
 10
0.0
 20
1.0
 30
0.0
  9
$PUCSORTHOREF
  2

  9
$PUCSORTHOVIEW
 70
     0
  9
$PUCSORGTOP
 10
0.0
 20
0.0
 30
0.0
  9
$PUCSORGBOTTOM
 10
0.0
 20
0.0
 30
0.0
  9
$PUCSORGLEFT
 10
0.0
 20
0.0
 30
0.0
  9
$PUCSORGRIGHT
 10
0.0
 20
0.0
 30
0.0
  9
$PUCSORGFRONT
 10
0.0
 20
0.0
 30
0.0
  9
$PUCSORGBACK
 10
0.0
 20
0.0
 30
0.0
  9
$USERI1
 70
     0
  9
$USERI2
 70
     0
  9
$USERI3
 70
     0
  9
$USERI4
 70
     0
  9
$USERI5
 70
     0
  9
$USERR1
 40
0.0
  9
$USERR2
 40
0.0
  9
$USERR3
 40
0.0
  9
$USERR4
 40
0.0
  9
$USERR5
 40
0.0
  9
$WORLDVIEW
 70
     1
  9
$SHADEDGE
 70
     3
  9
$SHADEDIF
 70
    70
  9
$TILEMODE
 70
     1
  9
$MAXACTVP
 70
    64
  9
$PINSBASE
 10
0.0
 20
0.0
 30
0.0
  9
$PLIMCHECK
 70
     0
  9
$PEXTMIN
 10
1.0000000000E+20
 20
1.0000000000E+20
 30
1.0000000000E+20
  9
$PEXTMAX
 10
-1.0000000000E+20
 20
-1.0000000000E+20
 30
-1.0000000000E+20
  9
$PLIMMIN
 10
0.0
 20
0.0
  9
$PLIMMAX
 10
420.0
 20
297.0
  9
$UNITMODE
 70
     0
  9
$VISRETAIN
 70
     1
  9
$PLINEGEN
 70
     0
  9
$PSLTSCALE
 70
     1
  9
$TREEDEPTH
 70
  3020
  9
$CMLSTYLE
  2
Standard
  9
$CMLJUST
 70
     0
  9
$CMLSCALE
 40
20.0
  9
$PROXYGRAPHICS
 70
     1
  9
$MEASUREMENT
 70
     1
  9
$CELWEIGHT
370
    -1
  9
$ENDCAPS
280
     0
  9
$JOINSTYLE
280
     0
  9
$LWDISPLAY
290
     1
  9
$INSUNITS
 70
     4
  9
$HYPERLINKBASE
  1

  9
$STYLESHEET
  1

  9
$XEDIT
290
     1
  9
$CEPSNTYPE
380
     0
  9
$PSTYLEMODE
290
     1
  9
$FINGERPRINTGUID
  2
{0D5A6D6E-1519-48C1-B7CA-0BC20049B654}
  9
$VERSIONGUID
  2
{FAEB1C32-E019-11D5-929B-00C0DF256EC4}
  9
$EXTNAMES
290
     1
  9
$PSVPSCALE
 40
0.0
  9
$OLESTARTUP
290
     0
  0
ENDSEC
  0
SECTION
  2
CLASSES
  0
CLASS
  1
ACDBDICTIONARYWDFLT
  2
AcDbDictionaryWithDefault
  3
ObjectDBX Classes
 90
        0
280
     0
281
     0
  0
CLASS
  1
VISUALSTYLE
  2
AcDbVisualStyle
  3
ObjectDBX Classes
 90
     4095
280
     0
281
     0
  0
CLASS
  1
MATERIAL
  2
AcDbMaterial
  3
ObjectDBX Classes
 90
     1153
280
     0
281
     0
  0
CLASS
  1
SCALE
  2
AcDbScale
  3
ObjectDBX Classes
 90
     1153
280
     0
281
     0
  0
CLASS
  1
DICTIONARYVAR
  2
AcDbDictionaryVar
  3
ObjectDBX Classes
 90
        0
280
     0
281
     0
  0
CLASS
  1
ACDBPLACEHOLDER
  2
AcDbPlaceHolder
  3
ObjectDBX Classes
 90
        0
280
     0
281
     0
  0
CLASS
  1
LAYOUT
  2
AcDbLayout
  3
ObjectDBX Classes
 90
        0
280
     0
281
     0
  0
ENDSEC
  0
SECTION
  2
TABLES
  0
TABLE
  2
VPORT
  5
8
330
0
100
AcDbSymbolTable
 70
     1
  0
VPORT
  5
29
330
8
100
AcDbSymbolTableRecord
100
AcDbViewportTableRecord
  2
*Active
 70
     0
 10
0.0
 20
0.0
 11
1.0
 21
1.0
 12
210.0
 22
148.5
 13
0.0
 23
0.0
 14
10.0
 24
10.0
 15
10.0
 25
10.0
 16
0.0
 26
0.0
 36
1.0
 17
0.0
 27
0.0
 37
0.0
 40
297.0
 41
1.4141414141
 42
50.0
 43
0.0
 44
0.0
 50
0.0
 51
0.0
 71
     0
 72
  2000
 73
     1
 74
     3
 75
     0
 76
     0
 77
     0
 78
     0
281
     0
 65
     1
110
0.0
120
0.0
130
0.0
111
1.0
121
0.0
131
0.0
112
0.0
122
1.0
132
0.0
 79
     0
146
0.0
  0
ENDTAB
  0
TABLE
  2
LTYPE
  5
5
330
0
100
AcDbSymbolTable
 70
     6
  0
LTYPE
  5
14
330
5
100
AcDbSymbolTableRecord
100
AcDbLinetypeTableRecord
  2
ByBlock
 70
     0
  3

 72
    65
 73
     0
 40
0.0
  0
LTYPE
  5
15
330
5
100
AcDbSymbolTableRecord
100
AcDbLinetypeTableRecord
  2
ByLayer
 70
     0
  3

 72
    65
 73
     0
 40
0.0
  0
LTYPE
  5
16
330
5
100
AcDbSymbolTableRecord
100
AcDbLinetypeTableRecord
  2
Continuous
 70
     0
  3
Solid line
 72
    65
 73
     0
 40
0.0
  0
LTYPE
  5
3F
330
5
100
AcDbSymbolTableRecord
100
AcDbLinetypeTableRecord
  2
HIDDEN
 70
     0
  3
Hidden __ __ __ __ __ __ __ __ __ __ __ __ __ __
 72
    65
 73
     2
 40
1.905
 49
1.27
 74
     0
 49
-0.635
 74
     0
  0
LTYPE
  5
40
330
5
100
AcDbSymbolTableRecord
100
AcDbLinetypeTableRecord
  2
PHANTOM
 70
     0
  3
Phantom ______  __  __  ______  __  __  ______
 72
    65
 73
     6
 40
12.7
 49
6.35
 74
     0
 49
-1.27
 74
     0
 49
1.27
 74
     0
 49
-1.27
 74
     0
 49
1.27
 74
     0
 49
-1.27
 74
     0
  0
LTYPE
  5
41
330
5
100
AcDbSymbolTableRecord
100
AcDbLinetypeTableRecord
  2
CENTER
 70
     0
  3
Center ____ _ ____ _ ____ _ ____ _ ____ _ ____
 72
    65
 73
     4
 40
10.16
 49
6.35
 74
     0
 49
-1.27
 74
     0
 49
1.27
 74
     0
 49
-1.27
 74
     0
  0
LTYPE
  5
42
330
5
100
AcDbSymbolTableRecord
100
AcDbLinetypeTableRecord
  2
CENTERX2
 70
     0
  3
Center (2x) ________  __  ________  __  _____
 72
    65
 73
     4
 40
20.32
 49
12.7
 74
     0
 49
-2.54
 74
     0
 49
2.54
 74
     0
 49
-2.54
 74
     0
  0
LTYPE
  5
43
330
5
100
AcDbSymbolTableRecord
100
AcDbLinetypeTableRecord
  2
DOT2
 70
     0
  3
Dot (.5x) ........................................
 72
    65
 73
     2
 40
0.635
 49
0.0
 74
     0
 49
-0.635
 74
     0
  0
ENDTAB
  0
TABLE
  2
LAYER
  5
2
330
0
100
AcDbSymbolTable
 70
    20
  0
LAYER
  5
10
330
2
100
AcDbSymbolTableRecord
100
AcDbLayerTableRecord
  2
0
 70
     0
 62
     7
  6
Continuous
370
    -3
390
F
  0
LAYER
  5
44
330
2
100
AcDbSymbolTableRecord
100
AcDbLayerTableRecord
  2
SLD-DEFPOINTS
 70
     0
 62
     7
  6
Continuous
370
    -1
390
F
  0
LAYER
  5
45
330
2
100
AcDbSymbolTableRecord
100
AcDbLayerTableRecord
  2
1
 70
     0
 62
     4
  6
Continuous
370
    15
390
F
  0
LAYER
  5
46
330
2
100
AcDbSymbolTableRecord
100
AcDbLayerTableRecord
  2
2
 70
     0
 62
     7
  6
Continuous
370
    -3
390
F
  0
LAYER
  5
47
330
2
100
AcDbSymbolTableRecord
100
AcDbLayerTableRecord
  2
3
 70
     0
 62
     1
  6
HIDDEN
370
    -3
390
F
  0
LAYER
  5
48
330
2
100
AcDbSymbolTableRecord
100
AcDbLayerTableRecord
  2
4
 70
     0
 62
     2
  6
CENTERX2
370
    -3
390
F
  0
LAYER
  5
49
330
2
100
AcDbSymbolTableRecord
100
AcDbLayerTableRecord
  2
6
 70
     0
 62
     5
  6
Continuous
370
    -3
390
F
  0
LAYER
  5
4A
330
2
100
AcDbSymbolTableRecord
100
AcDbLayerTableRecord
  2
7
 70
     0
 62
     5
  6
Continuous
370
    -3
390
F
  0
LAYER
  5
4B
330
2
100
AcDbSymbolTableRecord
100
AcDbLayerTableRecord
  2
CUT
 70
     0
 62
     1
  6
Continuous
370
    -3
390
F
  0
LAYER
  5
4C
330
2
100
AcDbSymbolTableRecord
100
AcDbLayerTableRecord
  2
NOCUT
 70
     0
 62
     7
  6
Continuous
370
    -3
390
F
  0
LAYER
  5
4D
330
2
100
AcDbSymbolTableRecord
100
AcDbLayerTableRecord
  2
SK1
 70
     0
 62
     4
  6
Continuous
370
    15
390
F
  0
LAYER
  5
4E
330
2
100
AcDbSymbolTableRecord
100
AcDbLayerTableRecord
  2
SK2
 70
     0
 62
     7
  6
Continuous
370
    -3
390
F
  0
LAYER
  5
4F
330
2
100
AcDbSymbolTableRecord
100
AcDbLayerTableRecord
  2
SK3
 70
     0
 62
     1
  6
HIDDEN
370
    -3
390
F
  0
LAYER
  5
50
330
2
100
AcDbSymbolTableRecord
100
AcDbLayerTableRecord
  2
SK4
 70
     0
 62
     2
  6
CENTERX2
370
    -3
390
F
  0
LAYER
  5
51
330
2
100
AcDbSymbolTableRecord
100
AcDbLayerTableRecord
  2
SK6
 70
     0
 62
     5
  6
Continuous
370
    -3
390
F
  0
LAYER
  5
52
330
2
100
AcDbSymbolTableRecord
100
AcDbLayerTableRecord
  2
SK7
 70
     0
 62
     5
  6
Continuous
370
    -3
390
F
  0
LAYER
  5
53
330
2
100
AcDbSymbolTableRecord
100
AcDbLayerTableRecord
  2
SLD-0
 70
     0
 62
     7
  6
Continuous
370
    -1
390
F
  0
LAYER
  5
54
330
2
100
AcDbSymbolTableRecord
100
AcDbLayerTableRecord
  2
SLD-DEFPOINTS_0
 70
     0
 62
     7
  6
Continuous
370
    -1
390
F
  0
LAYER
  5
55
330
2
100
AcDbSymbolTableRecord
100
AcDbLayerTableRecord
  2
INFTOTAL
 70
     0
 62
     9
  6
Continuous
370
    -3
390
F
  0
LAYER
  5
56
330
2
100
AcDbSymbolTableRecord
100
AcDbLayerTableRecord
  2
INFTEXT63
 70
     0
 62
     5
  6
Continuous
370
    -3
390
F
  0
ENDTAB
  0
TABLE
  2
STYLE
  5
3
330
0
100
AcDbSymbolTable
 70
     2
  0
STYLE
  5
11
330
3
100
AcDbSymbolTableRecord
100
AcDbTextStyleTableRecord
  2
STANDARD
 70
     0
 40
0.0
 41
1.0
 50
0.0
 71
     0
 42
2.5
  3
GOTHIC.TTF
  4

1001
ACAD
1000
CENTURY GOTHIC
1071
       34
  0
STYLE
  5
57
330
3
100
AcDbSymbolTableRecord
100
AcDbTextStyleTableRecord
  2
SLDTEXTSTYLE0
 70
     0
 40
0.0
 41
1.0
 50
0.0
 71
     0
 42
0.2
  3
Monospac821 BT
  4

1001
ACAD
1000
Monospac821 BT
1071
      305
  0
ENDTAB
  0
TABLE
  2
VIEW
  5
6
330
0
100
AcDbSymbolTable
 70
     0
  0
ENDTAB
  0
TABLE
  2
UCS
  5
7
330
0
100
AcDbSymbolTable
 70
     0
  0
ENDTAB
  0
TABLE
  2
APPID
  5
9
330
0
100
AcDbSymbolTable
 70
     1
  0
APPID
  5
12
330
9
100
AcDbSymbolTableRecord
100
AcDbRegAppTableRecord
  2
ACAD
 70
     0
  0
ENDTAB
  0
TABLE
  2
DIMSTYLE
  5
A
330
0
100
AcDbSymbolTable
 70
     5
100
AcDbDimStyleTable
  0
DIMSTYLE
105
27
330
A
100
AcDbSymbolTableRecord
100
AcDbDimStyleTableRecord
  2
ISO-25
 70
     0
 41
2.5
 42
0.625
 43
3.75
 44
1.25
 73
     0
 74
     0
 77
     1
 78
     8
140
2.5
141
2.5
143
0.0393700787
147
0.625
171
     3
172
     1
271
     2
272
     2
274
     3
278
    44
283
     0
284
     8
340
57
  0
DIMSTYLE
105
DD
102
{ACAD_REACTORS
330
BA
102
}
330
A
100
AcDbSymbolTableRecord
100
AcDbDimStyleTableRecord
  2
SLDDIMSTYLE0
 70
     0
 41
3.302
 44
0.0
 45
0.000000001
 73
     0
 77
     1
 78
    12
140
3.5
147
0.875
173
     1
271
     1
272
     2
276
     2
284
    12
340
57
  0
DIMSTYLE
105
EB
102
{ACAD_REACTORS
330
EA
102
}
330
A
100
AcDbSymbolTableRecord
100
AcDbDimStyleTableRecord
  2
SLDDIMSTYLE1
 70
     0
 41
3.302
 44
0.0
 45
0.000000001
 73
     0
 77
     1
 78
    12
140
3.5
147
0.875
173
     1
271
     1
272
     1
276
     2
284
    12
340
57
  0
DIMSTYLE
105
F9
102
{ACAD_REACTORS
330
F8
330
110
102
}
330
A
100
AcDbSymbolTableRecord
100
AcDbDimStyleTableRecord
  2
SLDDIMSTYLE2
 70
     0
 41
3.302
 44
0.0
 45
0.000000001
 73
     0
 77
     1
 78
    12
140
3.5
147
0.875
173
     1
271
     2
272
     2
276
     2
284
    12
340
57
  0
DIMSTYLE
105
104
102
{ACAD_REACTORS
330
103
330
11A
330
126
330
133
102
}
330
A
100
AcDbSymbolTableRecord
100
AcDbDimStyleTableRecord
  2
SLDDIMSTYLE3
 70
     0
 41
3.302
 44
0.0
 45
0.000000001
 73
     0
 77
     1
 78
    12
140
3.5
147
0.875
173
     1
271
     2
272
     2
276
     2
284
    12
340
57
  0
ENDTAB
  0
TABLE
  2
BLOCK_RECORD
  5
1
330
0
100
AcDbSymbolTable
 70
    11
  0
BLOCK_RECORD
  5
1F
330
1
100
AcDbSymbolTableRecord
100
AcDbBlockTableRecord
  2
*Model_Space
340
22
  0
BLOCK_RECORD
  5
1B
330
1
100
AcDbSymbolTableRecord
100
AcDbBlockTableRecord
  2
*Paper_Space
340
1E
  0
BLOCK_RECORD
  5
23
330
1
100
AcDbSymbolTableRecord
100
AcDbBlockTableRecord
  2
*Paper_Space0
340
26
  0
BLOCK_RECORD
  5
DE
330
1
100
AcDbSymbolTableRecord
100
AcDbBlockTableRecord
  2
*D1
340
0
  0
BLOCK_RECORD
  5
EC
330
1
100
AcDbSymbolTableRecord
100
AcDbBlockTableRecord
  2
*D2
340
0
  0
BLOCK_RECORD
  5
FA
330
1
100
AcDbSymbolTableRecord
100
AcDbBlockTableRecord
  2
*D3
340
0
  0
BLOCK_RECORD
  5
105
330
1
100
AcDbSymbolTableRecord
100
AcDbBlockTableRecord
  2
*D4
340
0
  0
BLOCK_RECORD
  5
111
330
1
100
AcDbSymbolTableRecord
100
AcDbBlockTableRecord
  2
*D5
340
0
  0
BLOCK_RECORD
  5
11B
330
1
100
AcDbSymbolTableRecord
100
AcDbBlockTableRecord
  2
*D6
340
0
  0
BLOCK_RECORD
  5
127
330
1
100
AcDbSymbolTableRecord
100
AcDbBlockTableRecord
  2
*D7
340
0
  0
BLOCK_RECORD
  5
134
330
1
100
AcDbSymbolTableRecord
100
AcDbBlockTableRecord
  2
*D8
340
0
  0
BLOCK_RECORD
  5
13F
330
1
100
AcDbSymbolTableRecord
100
AcDbBlockTableRecord
  2
SW_NOTE_0
340
0
102
{BLKREFS
331
147
102
}
  0
BLOCK_RECORD
  5
148
330
1
100
AcDbSymbolTableRecord
100
AcDbBlockTableRecord
  2
SW_NOTE_1
340
0
102
{BLKREFS
331
14E
102
}
  0
ENDTAB
  0
ENDSEC
  0
SECTION
  2
BLOCKS
  0
BLOCK
  5
20
330
1F
100
AcDbEntity
  8
0
100
AcDbBlockBegin
  2
*Model_Space
 70
     0
 10
0.0
 20
0.0
 30
0.0
  3
*Model_Space
  1

  0
ENDBLK
  5
21
330
1F
100
AcDbEntity
  8
0
100
AcDbBlockEnd
  0
BLOCK
  5
1C
330
1B
100
AcDbEntity
 67
     1
  8
0
100
AcDbBlockBegin
  2
*Paper_Space
 70
     0
 10
0.0
 20
0.0
 30
0.0
  3
*Paper_Space
  1

  0
ENDBLK
  5
1D
330
1B
100
AcDbEntity
 67
     1
  8
0
100
AcDbBlockEnd
  0
BLOCK
  5
24
330
23
100
AcDbEntity
  8
0
100
AcDbBlockBegin
  2
*Paper_Space0
 70
     0
 10
0.0
 20
0.0
 30
0.0
  3
*Paper_Space0
  1

  0
ENDBLK
  5
25
330
23
100
AcDbEntity
  8
0
100
AcDbBlockEnd
  0
BLOCK
  5
DF
330
DE
100
AcDbEntity
  8
0
100
AcDbBlockBegin
  2
*D1
 70
     1
 10
0.0
 20
0.0
 30
0.0
  3
*D1
  1

  0
SOLID
  5
E1
330
DE
100
AcDbEntity
  8
2
100
AcDbTrace
 10
118.9632346948
 20
-2.0
 30
0.0
 11
118.4552346948
 21
-5.302
 31
0.0
 12
119.4712346948
 22
-5.302
 32
0.0
 13
119.4712346948
 23
-5.302
 33
0.0
  0
SOLID
  5
E2
330
DE
100
AcDbEntity
  8
2
100
AcDbTrace
 10
118.9632346948
 20
2.0
 30
0.0
 11
119.4712346948
 21
5.302
 31
0.0
 12
118.4552346948
 22
5.302
 32
0.0
 13
118.4552346948
 23
5.302
 33
0.0
  0
LINE
  5
E3
330
DE
100
AcDbEntity
  8
2
100
AcDbLine
 10
15.0
 20
-2.0
 30
0.0
 11
119.9632346948
 21
-2.0
 31
0.0
  0
LINE
  5
E4
330
DE
100
AcDbEntity
  8
2
100
AcDbLine
 10
14.9912740049
 20
2.0
 30
0.0
 11
119.9632346948
 21
2.0
 31
0.0
  0
LINE
  5
E5
330
DE
100
AcDbEntity
  8
2
100
AcDbLine
 10
118.9632346948
 20
-2.0
 30
0.0
 11
118.9632346948
 21
-8.35
 31
0.0
  0
LINE
  5
E6
330
DE
100
AcDbEntity
  8
2
100
AcDbLine
 10
118.9632346948
 20
-2.0
 30
0.0
 11
118.9632346948
 21
2.0
 31
0.0
  0
LINE
  5
E7
330
DE
100
AcDbEntity
  8
2
100
AcDbLine
 10
118.9632346948
 20
2.0
 30
0.0
 11
118.9632346948
 21
15.0501943081
 31
0.0
  0
MTEXT
  5
E8
330
DE
100
AcDbEntity
  8
2
100
AcDbMText
 10
114.3565510066
 20
5.4379944573
 30
0.0
 40
3.5
 41
0.0
 71
     1
 72
     1
  1
%%c
  7
SLDTEXTSTYLE0
 11
-1.608122649676637E-16
 21
1.0
 31
0.0
 73
     1
 44
1.0
  0
MTEXT
  5
E9
330
DE
100
AcDbEntity
  8
2
100
AcDbMText
 10
114.3565512394
 20
10.6876644132
 30
0.0
 40
3.5
 41
0.0
 71
     1
 72
     1
  1
4
  7
SLDTEXTSTYLE0
 11
-1.608122649676637E-16
 21
1.0
 31
0.0
 73
     1
 44
1.0
  0
ENDBLK
  5
E0
330
DE
100
AcDbEntity
  8
0
100
AcDbBlockEnd
  0
BLOCK
  5
ED
330
EC
100
AcDbEntity
  8
0
100
AcDbBlockBegin
  2
*D2
 70
     1
 10
0.0
 20
0.0
 30
0.0
  3
*D2
  1

  0
SOLID
  5
EF
330
EC
100
AcDbEntity
  8
SK2
100
AcDbTrace
 10
-40.2657186151
 20
3.0
 30
0.0
 11
-39.7577186151
 21
6.302
 31
0.0
 12
-40.7737186151
 22
6.302
 32
0.0
 13
-40.7737186151
 23
6.302
 33
0.0
  0
SOLID
  5
F0
330
EC
100
AcDbEntity
  8
SK2
100
AcDbTrace
 10
-40.2657186151
 20
-3.0
 30
0.0
 11
-40.7737186151
 21
-6.302
 31
0.0
 12
-39.7577186151
 22
-6.302
 32
0.0
 13
-39.7577186151
 23
-6.302
 33
0.0
  0
LINE
  5
F1
330
EC
100
AcDbEntity
  8
SK2
100
AcDbLine
 10
-37.0
 20
3.0
 30
0.0
 11
-41.2657186151
 21
3.0
 31
0.0
  0
LINE
  5
F2
330
EC
100
AcDbEntity
  8
SK2
100
AcDbLine
 10
-37.0
 20
-3.0
 30
0.0
 11
-41.2657186151
 21
-3.0
 31
0.0
  0
LINE
  5
F3
330
EC
100
AcDbEntity
  8
SK2
100
AcDbLine
 10
-40.2657186151
 20
3.0
 30
0.0
 11
-40.2657186151
 21
16.2845088832
 31
0.0
  0
LINE
  5
F4
330
EC
100
AcDbEntity
  8
SK2
100
AcDbLine
 10
-40.2657186151
 20
3.0
 30
0.0
 11
-40.2657186151
 21
-3.0
 31
0.0
  0
LINE
  5
F5
330
EC
100
AcDbEntity
  8
SK2
100
AcDbLine
 10
-40.2657186151
 20
-3.0
 30
0.0
 11
-40.2657186151
 21
-9.35
 31
0.0
  0
MTEXT
  5
F6
330
EC
100
AcDbEntity
  8
SK2
100
AcDbMText
 10
-44.8724023033
 20
6.6723090323
 30
0.0
 40
3.5
 41
0.0
 71
     1
 72
     1
  1
%%c
  7
SLDTEXTSTYLE0
 11
-7.044195017643634E-15
 21
1.0
 31
0.0
 73
     1
 44
1.0
  0
MTEXT
  5
F7
330
EC
100
AcDbEntity
  8
SK2
100
AcDbMText
 10
-44.8724020705
 20
11.9219789882
 30
0.0
 40
3.5
 41
0.0
 71
     1
 72
     1
  1
6
  7
SLDTEXTSTYLE0
 11
-7.044195017643634E-15
 21
1.0
 31
0.0
 73
     1
 44
1.0
  0
ENDBLK
  5
EE
330
EC
100
AcDbEntity
  8
0
100
AcDbBlockEnd
  0
BLOCK
  5
FB
330
FA
100
AcDbEntity
  8
0
100
AcDbBlockBegin
  2
*D3
 70
     1
 10
0.0
 20
0.0
 30
0.0
  3
*D3
  1

  0
SOLID
  5
FD
330
FA
100
AcDbEntity
  8
SK2
100
AcDbTrace
 10
0.0
 20
48.7509423314
 30
0.0
 11
-3.302
 21
49.2589423314
 31
0.0
 12
-3.302
 22
48.2429423314
 32
0.0
 13
-3.302
 23
48.2429423314
 33
0.0
  0
SOLID
  5
FE
330
FA
100
AcDbEntity
  8
SK2
100
AcDbTrace
 10
-36.0
 20
48.7509423314
 30
0.0
 11
-32.698
 21
48.2429423314
 31
0.0
 12
-32.698
 22
49.2589423314
 32
0.0
 13
-32.698
 23
49.2589423314
 33
0.0
  0
LINE
  5
FF
330
FA
100
AcDbEntity
  8
SK2
100
AcDbLine
 10
0.0
 20
1.0
 30
0.0
 11
0.0
 21
49.7509423314
 31
0.0
  0
LINE
  5
100
330
FA
100
AcDbEntity
  8
SK2
100
AcDbLine
 10
-36.0
 20
1.0
 30
0.0
 11
-36.0
 21
49.7509423314
 31
0.0
  0
LINE
  5
101
330
FA
100
AcDbEntity
  8
SK2
100
AcDbLine
 10
0.0
 20
48.7509423314
 30
0.0
 11
-36.0
 21
48.7509423314
 31
0.0
  0
MTEXT
  5
102
330
FA
100
AcDbEntity
  8
SK2
100
AcDbMText
 10
-21.6692882113
 20
53.3576257868
 30
0.0
 40
3.5
 41
0.0
 71
     1
 72
     1
  1
36
  7
SLDTEXTSTYLE0
 73
     1
 44
1.0
  0
ENDBLK
  5
FC
330
FA
100
AcDbEntity
  8
0
100
AcDbBlockEnd
  0
BLOCK
  5
106
330
105
100
AcDbEntity
  8
0
100
AcDbBlockBegin
  2
*D4
 70
     1
 10
0.0
 20
0.0
 30
0.0
  3
*D4
  1

  0
SOLID
  5
108
330
105
100
AcDbEntity
  8
SK2
100
AcDbTrace
 10
-6.0
 20
55.1009423314
 30
0.0
 11
-9.302
 21
55.6089423314
 31
0.0
 12
-9.302
 22
54.5929423314
 32
0.0
 13
-9.302
 23
54.5929423314
 33
0.0
  0
SOLID
  5
109
330
105
100
AcDbEntity
  8
SK2
100
AcDbTrace
 10
14.0
 20
55.1009423314
 30
0.0
 11
17.302
 21
54.5929423314
 31
0.0
 12
17.302
 22
55.6089423314
 32
0.0
 13
17.302
 23
55.6089423314
 33
0.0
  0
LINE
  5
10A
330
105
100
AcDbEntity
  8
SK2
100
AcDbLine
 10
-6.0
 20
2.85
 30
0.0
 11
-6.0
 21
56.1009423314
 31
0.0
  0
LINE
  5
10B
330
105
100
AcDbEntity
  8
SK2
100
AcDbLine
 10
14.0
 20
3.0
 30
0.0
 11
14.0
 21
56.1009423314
 31
0.0
  0
LINE
  5
10C
330
105
100
AcDbEntity
  8
SK2
100
AcDbLine
 10
-6.0
 20
55.1009423314
 30
0.0
 11
-12.35
 21
55.1009423314
 31
0.0
  0
LINE
  5
10D
330
105
100
AcDbEntity
  8
SK2
100
AcDbLine
 10
-6.0
 20
55.1009423314
 30
0.0
 11
14.0
 21
55.1009423314
 31
0.0
  0
LINE
  5
10E
330
105
100
AcDbEntity
  8
SK2
100
AcDbLine
 10
14.0
 20
55.1009423314
 30
0.0
 11
20.35
 21
55.1009423314
 31
0.0
  0
MTEXT
  5
10F
330
105
100
AcDbEntity
  8
SK2
100
AcDbMText
 10
0.6951603791
 20
59.7076257868
 30
0.0
 40
3.5
 41
0.0
 71
     1
 72
     1
  1
20
  7
SLDTEXTSTYLE0
 73
     1
 44
1.0
  0
ENDBLK
  5
107
330
105
100
AcDbEntity
  8
0
100
AcDbBlockEnd
  0
BLOCK
  5
112
330
111
100
AcDbEntity
  8
0
100
AcDbBlockBegin
  2
*D5
 70
     1
 10
0.0
 20
0.0
 30
0.0
  3
*D5
  1

  0
SOLID
  5
114
330
111
100
AcDbEntity
  8
SK2
100
AcDbTrace
 10
14.0
 20
93.3258208239
 30
0.0
 11
10.698
 21
93.8338208239
 31
0.0
 12
10.698
 22
92.8178208239
 32
0.0
 13
10.698
 23
92.8178208239
 33
0.0
  0
SOLID
  5
115
330
111
100
AcDbEntity
  8
SK2
100
AcDbTrace
 10
-36.0
 20
93.3258208239
 30
0.0
 11
-32.698
 21
92.8178208239
 31
0.0
 12
-32.698
 22
93.8338208239
 32
0.0
 13
-32.698
 23
93.8338208239
 33
0.0
  0
LINE
  5
116
330
111
100
AcDbEntity
  8
SK2
100
AcDbLine
 10
14.0
 20
1.0
 30
0.0
 11
14.0
 21
94.3258208239
 31
0.0
  0
LINE
  5
117
330
111
100
AcDbEntity
  8
SK2
100
AcDbLine
 10
-36.0
 20
1.0
 30
0.0
 11
-36.0
 21
94.3258208239
 31
0.0
  0
LINE
  5
118
330
111
100
AcDbEntity
  8
SK2
100
AcDbLine
 10
14.0
 20
93.3258208239
 30
0.0
 11
-36.0
 21
93.3258208239
 31
0.0
  0
MTEXT
  5
119
330
111
100
AcDbEntity
  8
SK2
100
AcDbMText
 10
-14.8516841511
 20
97.9325042793
 30
0.0
 40
3.5
 41
0.0
 71
     1
 72
     1
  1
50
  7
SLDTEXTSTYLE0
 73
     1
 44
1.0
  0
ENDBLK
  5
113
330
111
100
AcDbEntity
  8
0
100
AcDbBlockEnd
  0
BLOCK
  5
11C
330
11B
100
AcDbEntity
  8
0
100
AcDbBlockBegin
  2
*D6
 70
     1
 10
0.0
 20
0.0
 30
0.0
  3
*D6
  1

  0
SOLID
  5
11E
330
11B
100
AcDbEntity
  8
SK2
100
AcDbTrace
 10
14.0
 20
42.7509423314
 30
0.0
 11
17.302
 21
42.2429423314
 31
0.0
 12
17.302
 22
43.2589423314
 32
0.0
 13
17.302
 23
43.2589423314
 33
0.0
  0
SOLID
  5
11F
330
11B
100
AcDbEntity
  8
SK2
100
AcDbTrace
 10
2.0
 20
42.7509423314
 30
0.0
 11
-1.302
 21
43.2589423314
 31
0.0
 12
-1.302
 22
42.2429423314
 32
0.0
 13
-1.302
 23
42.2429423314
 33
0.0
  0
LINE
  5
120
330
11B
100
AcDbEntity
  8
SK2
100
AcDbLine
 10
14.0
 20
3.0
 30
0.0
 11
14.0
 21
43.7509423314
 31
0.0
  0
LINE
  5
121
330
11B
100
AcDbEntity
  8
SK2
100
AcDbLine
 10
2.0
 20
2.0
 30
0.0
 11
2.0
 21
43.7509423314
 31
0.0
  0
LINE
  5
122
330
11B
100
AcDbEntity
  8
SK2
100
AcDbLine
 10
14.0
 20
42.7509423314
 30
0.0
 11
20.35
 21
42.7509423314
 31
0.0
  0
LINE
  5
123
330
11B
100
AcDbEntity
  8
SK2
100
AcDbLine
 10
14.0
 20
42.7509423314
 30
0.0
 11
2.0
 21
42.7509423314
 31
0.0
  0
LINE
  5
124
330
11B
100
AcDbEntity
  8
SK2
100
AcDbLine
 10
2.0
 20
42.7509423314
 30
0.0
 11
-4.35
 21
42.7509423314
 31
0.0
  0
MTEXT
  5
125
330
11B
100
AcDbEntity
  8
SK2
100
AcDbMText
 10
5.0745289908
 20
47.3576257868
 30
0.0
 40
3.5
 41
0.0
 71
     1
 72
     1
  1
12
  7
SLDTEXTSTYLE0
 73
     1
 44
1.0
  0
ENDBLK
  5
11D
330
11B
100
AcDbEntity
  8
0
100
AcDbBlockEnd
  0
BLOCK
  5
128
330
127
100
AcDbEntity
  8
0
100
AcDbBlockBegin
  2
*D7
 70
     1
 10
0.0
 20
0.0
 30
0.0
  3
*D7
  1

  0
SOLID
  5
12A
330
127
100
AcDbEntity
  8
SK2
100
AcDbTrace
 10
11.0485279454
 20
1.85
 30
0.0
 11
11.5565279454
 21
5.152
 31
0.0
 12
10.5405279454
 22
5.152
 32
0.0
 13
10.5405279454
 23
5.152
 33
0.0
  0
SOLID
  5
12B
330
127
100
AcDbEntity
  8
SK2
100
AcDbTrace
 10
11.0485279454
 20
-1.85
 30
0.0
 11
10.5405279454
 21
-5.152
 31
0.0
 12
11.5565279454
 22
-5.152
 32
0.0
 13
11.5565279454
 23
-5.152
 33
0.0
  0
LINE
  5
12C
330
127
100
AcDbEntity
  8
SK2
100
AcDbLine
 10
3.0
 20
1.85
 30
0.0
 11
12.0485279454
 21
1.85
 31
0.0
  0
LINE
  5
12D
330
127
100
AcDbEntity
  8
SK2
100
AcDbLine
 10
3.0
 20
-1.85
 30
0.0
 11
12.0485279454
 21
-1.85
 31
0.0
  0
LINE
  5
12E
330
127
100
AcDbEntity
  8
SK2
100
AcDbLine
 10
11.0485279454
 20
1.85
 30
0.0
 11
11.0485279454
 21
19.782522405
 31
0.0
  0
LINE
  5
12F
330
127
100
AcDbEntity
  8
SK2
100
AcDbLine
 10
11.0485279454
 20
1.85
 30
0.0
 11
11.0485279454
 21
-1.85
 31
0.0
  0
LINE
  5
130
330
127
100
AcDbEntity
  8
SK2
100
AcDbLine
 10
11.0485279454
 20
-1.85
 30
0.0
 11
11.0485279454
 21
-8.2
 31
0.0
  0
MTEXT
  5
131
330
127
100
AcDbEntity
  8
SK2
100
AcDbMText
 10
6.4418442572
 20
4.6191624352
 30
0.0
 40
3.5
 41
0.0
 71
     1
 72
     1
  1
%%c
  7
SLDTEXTSTYLE0
 11
-7.044195017643634E-15
 21
1.0
 31
0.0
 73
     1
 44
1.0
  0
MTEXT
  5
132
330
127
100
AcDbEntity
  8
SK2
100
AcDbMText
 10
6.44184449
 20
9.8688323911
 30
0.0
 40
3.5
 41
0.0
 71
     1
 72
     1
  1
3,7
  7
SLDTEXTSTYLE0
 11
-7.044195017643634E-15
 21
1.0
 31
0.0
 73
     1
 44
1.0
  0
ENDBLK
  5
129
330
127
100
AcDbEntity
  8
0
100
AcDbBlockEnd
  0
BLOCK
  5
135
330
134
100
AcDbEntity
  8
0
100
AcDbBlockBegin
  2
*D8
 70
     1
 10
0.0
 20
0.0
 30
0.0
  3
*D8
  1

  0
SOLID
  5
137
330
134
100
AcDbEntity
  8
2
100
AcDbTrace
 10
0.0
 20
74.9999940533
 30
0.0
 11
-3.302
 21
75.5079940533
 31
0.0
 12
-3.302
 22
74.4919940533
 32
0.0
 13
-3.302
 23
74.4919940533
 33
0.0
  0
SOLID
  5
138
330
134
100
AcDbEntity
  8
2
100
AcDbTrace
 10
14.0
 20
74.9999940533
 30
0.0
 11
17.302
 21
74.4919940533
 31
0.0
 12
17.302
 22
75.5079940533
 32
0.0
 13
17.302
 23
75.5079940533
 33
0.0
  0
LINE
  5
139
330
134
100
AcDbEntity
  8
2
100
AcDbLine
 10
0.0
 20
2.5
 30
0.0
 11
0.0
 21
75.9999940533
 31
0.0
  0
LINE
  5
13A
330
134
100
AcDbEntity
  8
2
100
AcDbLine
 10
14.0
 20
3.0
 30
0.0
 11
14.0
 21
75.9999940533
 31
0.0
  0
LINE
  5
13B
330
134
100
AcDbEntity
  8
2
100
AcDbLine
 10
0.0
 20
74.9999940533
 30
0.0
 11
-6.35
 21
74.9999940533
 31
0.0
  0
LINE
  5
13C
330
134
100
AcDbEntity
  8
2
100
AcDbLine
 10
0.0
 20
74.9999940533
 30
0.0
 11
14.0
 21
74.9999940533
 31
0.0
  0
LINE
  5
13D
330
134
100
AcDbEntity
  8
2
100
AcDbLine
 10
14.0
 20
74.9999940533
 30
0.0
 11
20.35
 21
74.9999940533
 31
0.0
  0
MTEXT
  5
13E
330
134
100
AcDbEntity
  8
2
100
AcDbMText
 10
4.0862817634
 20
79.6066775087
 30
0.0
 40
3.5
 41
0.0
 71
     1
 72
     1
  1
14
  7
SLDTEXTSTYLE0
 73
     1
 44
1.0
  0
ENDBLK
  5
136
330
134
100
AcDbEntity
  8
0
100
AcDbBlockEnd
  0
BLOCK
  5
140
330
13F
100
AcDbEntity
  8
0
100
AcDbBlockBegin
  2
SW_NOTE_0
 70
     0
 10
0.0
 20
0.0
 30
0.0
  3
SW_NOTE_0
  1

  0
MTEXT
  5
142
330
13F
100
AcDbEntity
  8
INFTEXT63
 62
     0
100
AcDbMText
 10
0.0
 20
4.6066838046
 30
0.0
 40
3.5
 41
0.0
 71
     1
 72
     1
  1
Katalogware 2570040040
  7
SLDTEXTSTYLE0
 73
     1
 44
1.0
  0
MTEXT
  5
143
330
13F
100
AcDbEntity
  8
INFTEXT63
 62
     0
100
AcDbMText
 10
0.0
 20
0.0177948465
 30
0.0
 40
3.5
 41
0.0
 71
     1
 72
     1
  1
H. Sartorius Nachf. GmbH & Co. KG
  7
SLDTEXTSTYLE0
 73
     1
 44
1.0
  0
MTEXT
  5
144
330
13F
100
AcDbEntity
  8
INFTEXT63
 62
     0
100
AcDbMText
 10
0.0
 20
-4.5710941116
 30
0.0
 40
3.5
 41
0.0
 71
     1
 72
     1
  1
Harkortstrasse 54 
  7
SLDTEXTSTYLE0
 73
     1
 44
1.0
  0
MTEXT
  5
145
330
13F
100
AcDbEntity
  8
INFTEXT63
 62
     0
100
AcDbMText
 10
0.0
 20
-9.1599830697
 30
0.0
 40
3.5
 41
0.0
 71
     1
 72
     1
  1
40880 Ratingen
  7
SLDTEXTSTYLE0
 73
     1
 44
1.0
  0
MTEXT
  5
146
330
13F
100
AcDbEntity
  8
INFTEXT63
 62
     0
100
AcDbMText
 10
0.0
 20
-13.7488720278
 30
0.0
 40
3.5
 41
0.0
 71
     1
 72
     1
  1
Deutschland
  7
SLDTEXTSTYLE0
 73
     1
 44
1.0
  0
ENDBLK
  5
141
330
13F
100
AcDbEntity
  8
0
100
AcDbBlockEnd
  0
BLOCK
  5
149
330
148
100
AcDbEntity
  8
0
100
AcDbBlockBegin
  2
SW_NOTE_1
 70
     0
 10
0.0
 20
0.0
 30
0.0
  3
SW_NOTE_1
  1

  0
MTEXT
  5
14B
330
148
100
AcDbEntity
  8
INFTEXT63
 62
     0
100
AcDbMText
 10
0.0
 20
4.6066838046
 30
0.0
 40
3.5
 41
0.0
 71
     1
 72
     1
  1
Copyright
  7
SLDTEXTSTYLE0
 73
     1
 44
1.0
  0
MTEXT
  5
14C
330
148
100
AcDbEntity
  8
INFTEXT63
 62
     0
100
AcDbMText
 10
0.0
 20
-4.5710941116
 30
0.0
 40
3.5
 41
0.0
 71
     1
 72
     1
  1
Zeichnung nach DIN SPEC 69874 konvertiert mit SolidBMG Version 1.2
  7
SLDTEXTSTYLE0
 73
     1
 44
1.0
  0
MTEXT
  5
14D
330
148
100
AcDbEntity
  8
INFTEXT63
 62
     0
100
AcDbMText
 10
0.0
 20
-9.1599830697
 30
0.0
 40
3.5
 41
0.0
 71
     1
 72
     1
  1
Geprüft mit DWPTools V1.0.6-BMG Werkzeug / Schneidwerkzeug
  7
SLDTEXTSTYLE0
 73
     1
 44
1.0
  0
ENDBLK
  5
14A
330
148
100
AcDbEntity
  8
0
100
AcDbBlockEnd
  0
ENDSEC
  0
SECTION
  2
ENTITIES
  0
LINE
  5
58
330
1F
100
AcDbEntity
  8
SK1
  6
Continuous
370
    15
100
AcDbLine
 10
-36.0
 20
-3.0
 30
0.0
 11
-6.0
 21
-3.0
 31
0.0
  0
LINE
  5
59
330
1F
100
AcDbEntity
  8
SK1
  6
Continuous
370
    15
100
AcDbLine
 10
-6.0
 20
3.0
 30
0.0
 11
-36.0
 21
3.0
 31
0.0
  0
LINE
  5
5A
330
1F
100
AcDbEntity
  8
SK1
  6
Continuous
370
    15
100
AcDbLine
 10
-6.0
 20
-1.85
 30
0.0
 11
0.0
 21
-1.85
 31
0.0
  0
LINE
  5
5B
330
1F
100
AcDbEntity
  8
SK1
  6
Continuous
370
    15
100
AcDbLine
 10
0.0
 20
1.85
 30
0.0
 11
-6.0
 21
1.85
 31
0.0
  0
SPLINE
  5
5C
330
1F
100
AcDbEntity
  8
1
  6
Continuous
370
    15
100
AcDbSpline
210
0.0
220
0.0
230
1.0
 70
     8
 71
     3
 72
    12
 73
     8
 74
     0
 42
0.00000001
 43
0.00000001
 40
0.0
 40
0.0
 40
0.0
 40
0.0
 40
0.0565683409795035
 40
0.1716101950042618
 40
0.3806781301853567
 40
0.6563050541301468
 40
1.0
 40
1.0
 40
1.0
 40
1.0
 10
5.504435408196751
 20
1.127124756348124
 30
0.0
 10
5.5023601127808
 20
1.134562652603989
 30
0.0
 10
5.496064332405133
 20
1.157126843188135
 30
0.0
 10
5.417425652045184
 20
1.205827643556638
 30
0.0
 10
5.272508390827276
 20
1.278211695988821
 30
0.0
 10
5.035432495819902
 20
1.379032295165505
 30
0.0
 10
4.844242630934657
 20
1.462389196789473
 30
0.0
 10
4.738141113346934
 20
1.508648415441161
 30
0.0
  0
LINE
  5
5D
330
1F
100
AcDbEntity
  8
1
  6
Continuous
370
    15
100
AcDbLine
 10
6.7669292345
 20
-2.0
 30
0.0
 11
7.3259141229
 21
-2.0
 31
0.0
  0
SPLINE
  5
5E
330
1F
100
AcDbEntity
  8
1
  6
Continuous
370
    15
100
AcDbSpline
210
0.0
220
0.0
230
1.0
 70
     8
 71
     3
 72
    14
 73
    10
 74
     0
 42
0.00000001
 43
0.00000001
 40
0.0
 40
0.0
 40
0.0
 40
0.0
 40
0.0308145423605118
 40
0.1366658529707023
 40
0.2710447598920961
 40
0.4229926315065325
 40
0.5935503756320056
 40
0.7851664606326444
 40
0.9999999999999999
 40
0.9999999999999999
 40
0.9999999999999999
 40
0.9999999999999999
 10
10.45740141658374
 20
1.135291530165196
 30
0.0
 10
10.45747213402276
 20
1.138021186767679
 30
0.0
 10
10.45778577357027
 20
1.150127511227443
 30
0.0
 10
10.41059372036634
 20
1.174477603565006
 30
0.0
 10
10.3158296488345
 20
1.209637808138989
 30
0.0
 10
10.17353116816605
 20
1.255074355341539
 30
0.0
 10
9.98987814132261
 20
1.315909823954453
 30
0.0
 10
9.765277184903558
 20
1.397211010384781
 30
0.0
 10
9.596809980531331
 20
1.469102569065212
 30
0.0
 10
9.507764737006047
 20
1.507101664342932
 30
0.0
  0
LINE
  5
5F
330
1F
100
AcDbEntity
  8
1
  6
Continuous
370
    15
100
AcDbLine
 10
11.5339667179
 20
-2.0
 30
0.0
 11
12.0932819756
 21
-2.0
 31
0.0
  0
LINE
  5
60
330
1F
100
AcDbEntity
  8
1
  6
Continuous
370
    15
100
AcDbLine
 10
2.5638324026
 20
2.0
 30
0.0
 11
2.0
 21
2.0
 31
0.0
  0
LINE
  5
61
330
1F
100
AcDbEntity
  8
1
  6
Continuous
370
    15
100
AcDbLine
 10
7.3259141229
 20
2.0
 30
0.0
 11
6.7669292345
 21
2.0
 31
0.0
  0
LINE
  5
62
330
1F
100
AcDbEntity
  8
1
  6
Continuous
370
    15
100
AcDbLine
 10
2.0
 20
-2.0
 30
0.0
 11
2.5638324026
 21
-2.0
 31
0.0
  0
LINE
  5
63
330
1F
100
AcDbEntity
  8
1
  6
Continuous
370
    15
100
AcDbLine
 10
12.0932819756
 20
2.0
 30
0.0
 11
11.5339667179
 21
2.0
 31
0.0
  0
LINE
  5
64
330
1F
100
AcDbEntity
  8
1
  6
Continuous
370
    15
100
AcDbLine
 10
0.0
 20
-1.85
 30
0.0
 11
0.9621799393
 21
-1.85
 31
0.0
  0
LINE
  5
65
330
1F
100
AcDbEntity
  8
1
  6
Continuous
370
    15
100
AcDbLine
 10
0.9621799393
 20
1.85
 30
0.0
 11
0.0
 21
1.85
 31
0.0
  0
LINE
  5
66
330
1F
100
AcDbEntity
  8
SK1
  6
Continuous
370
    15
100
AcDbLine
 10
-6.0
 20
0.0
 30
0.0
 11
-6.0
 21
3.0
 31
0.0
  0
LINE
  5
67
330
1F
100
AcDbEntity
  8
SK1
  6
Continuous
370
    15
100
AcDbLine
 10
-6.0
 20
-3.0
 30
0.0
 11
-6.0
 21
0.0
 31
0.0
  0
LINE
  5
68
330
1F
100
AcDbEntity
  8
SK1
  6
Continuous
370
    15
100
AcDbLine
 10
-36.0
 20
0.0
 30
0.0
 11
-36.0
 21
3.0
 31
0.0
  0
LINE
  5
69
330
1F
100
AcDbEntity
  8
SK1
  6
Continuous
370
    15
100
AcDbLine
 10
-36.0
 20
-3.0
 30
0.0
 11
-36.0
 21
0.0
 31
0.0
  0
LINE
  5
6A
330
1F
100
AcDbEntity
  8
SK1
  6
Continuous
370
    15
100
AcDbLine
 10
0.0
 20
1.85
 30
0.0
 11
0.0
 21
-1.85
 31
0.0
  0
LINE
  5
6B
330
1F
100
AcDbEntity
  8
1
  6
Continuous
370
    15
100
AcDbLine
 10
2.0
 20
1.8521
 30
0.0
 11
2.0
 21
2.0014999975
 31
0.0
  0
SPLINE
  5
6C
330
1F
100
AcDbEntity
  8
1
  6
Continuous
370
    15
100
AcDbSpline
210
0.0
220
0.0
230
1.0
 70
     8
 71
     3
 72
    26
 73
    22
 74
     0
 42
0.00000001
 43
0.00000001
 40
0.0
 40
0.0
 40
0.0
 40
0.0
 40
0.0816175673164108
 40
0.1632350863296055
 40
0.2465148893789897
 40
0.2948653908224627
 40
0.3432158861511867
 40
0.3929620734665861
 40
0.4427082497405853
 40
0.4911628136240456
 40
0.5396173848790686
 40
0.5894770979112839
 40
0.6393368236207317
 40
0.6877933468175644
 40
0.7362498665353179
 40
0.786111521945604
 40
0.835973163992095
 40
0.884429362403394
 40
0.9328855593363737
 40
0.9827469579527924
 40
0.9999999999999999
 40
0.9999999999999999
 40
0.9999999999999999
 40
0.9999999999999999
 10
1.999999999999525
 20
2.000000000000013
 30
0.0
 10
2.259477459755877
 20
1.987263655092393
 30
0.0
 10
2.778432225703653
 20
1.961790972814827
 30
0.0
 10
3.562149500995427
 20
1.758824287316904
 30
0.0
 10
4.240288876878387
 20
1.49009899471398
 30
0.0
 10
4.812104094612798
 20
1.205564418077121
 30
0.0
 10
5.277445246843787
 20
0.9464859227442378
 30
0.0
 10
5.747246687590724
 20
0.6621206140134128
 30
0.0
 10
6.217362017261814
 20
0.3616945510100357
 30
0.0
 10
6.683360334214836
 20
0.0553269083011851
 30
0.0
 10
7.149736724941791
 20
-0.2525309099093766
 30
0.0
 10
7.620560161500089
 20
-0.5573631057699446
 30
0.0
 10
8.091417272048735
 20
-0.8487702244352583
 30
0.0
 10
8.557787292486484
 20
-1.117085863139194
 30
0.0
 10
9.024155775115814
 20
-1.359559300832835
 30
0.0
 10
9.495029676024734
 20
-1.571631231836463
 30
0.0
 10
9.965872966325025
 20
-1.745736318694194
 30
0.0
 10
10.43226128078372
 20
-1.87727246282938
 30
0.0
 10
10.89864467746973
 20
-1.962163529493567
 30
0.0
 10
11.26587641265614
 20
-2.001707768343626
 30
0.0
 10
11.47914259423215
 20
-1.995895229866822
 30
0.0
 10
11.53396671794674
 20
-1.994401006421767
 30
0.0
  0
SPLINE
  5
6D
330
1F
100
AcDbEntity
  8
1
  6
Continuous
370
    15
100
AcDbSpline
210
0.0
220
0.0
230
1.0
 70
     8
 71
     3
 72
    23
 73
    19
 74
     0
 42
0.00000001
 43
0.00000001
 40
0.0
 40
0.0
 40
0.0
 40
0.0
 40
0.0536910507946112
 40
0.1177090466538833
 40
0.1798666835723622
 40
0.2420245999861375
 40
0.3059910325513047
 40
0.3699598982070166
 40
0.4321338960218739
 40
0.494307754466589
 40
0.5582918757083365
 40
0.6222745964809081
 40
0.6841986781628517
 40
0.7461219578581492
 40
0.8098233844688856
 40
0.8735245474652252
 40
0.9365295688469573
 40
1.0
 40
1.0
 40
1.0
 40
1.0
 10
9.431525319545328
 20
-1.536751296634168
 30
0.0
 10
9.298227764100442
 20
-1.590962607417604
 30
0.0
 10
9.00599418065406
 20
-1.709812240936344
 30
0.0
 10
8.561314254639901
 20
-1.844142124824649
 30
0.0
 10
8.09411905635139
 20
-1.944326938600209
 30
0.0
 10
7.626652647266516
 20
-1.997897976352239
 30
0.0
 10
7.15734660355511
 20
-2.004923020028318
 30
0.0
 10
6.684343677119526
 20
-1.963989320340759
 30
0.0
 10
6.220041682131085
 20
-1.87483061321959
 30
0.0
 10
5.753847568695052
 20
-1.743407188094245
 30
0.0
 10
5.281305584433023
 20
-1.569735028664113
 30
0.0
 10
4.813738836331906
 20
-1.354632238358086
 30
0.0
 10
4.34653724710022
 20
-1.114752333885344
 30
0.0
 10
3.88146572586006
 20
-0.8479077065804613
 30
0.0
 10
3.4126087636136
 20
-0.5576612899453331
 30
0.0
 10
2.939389740264017
 20
-0.2548065520987827
 30
0.0
 10
2.473359777697368
 20
0.0642563822886525
 30
0.0
 10
2.158173204901761
 20
0.2659872095719936
 30
0.0
 10
1.999999999998728
 20
0.3672237920701916
 30
0.0
  0
SPLINE
  5
6E
330
1F
100
AcDbEntity
  8
1
  6
Continuous
370
    15
100
AcDbSpline
210
0.0
220
0.0
230
1.0
 70
    24
 71
     3
 72
     8
 73
     4
 74
     0
 42
0.00000001
 43
0.00000001
 40
0.0
 40
0.0
 40
0.0
 40
0.0
 40
1.0
 40
1.0
 40
1.0
 40
1.0
 10
2.000000000000004
 20
0.3672237920693907
 30
0.0
 10
2.000000000000004
 20
0.4136043001749682
 30
0.0
 10
2.000000000000005
 20
0.4578565208232449
 30
0.0
 10
2.000000000000005
 20
0.4999510444950233
 30
0.0
  0
SPLINE
  5
6F
330
1F
100
AcDbEntity
  8
1
  6
Continuous
370
    15
100
AcDbSpline
210
0.0
220
0.0
230
1.0
 70
    24
 71
     3
 72
    20
 73
    16
 74
     0
 42
0.00000001
 43
0.00000001
 40
0.0
 40
0.0
 40
0.0
 40
0.0
 40
0.1250000000000001
 40
0.1250000000000001
 40
0.2500000000000002
 40
0.2500000000000002
 40
0.3125000000000003
 40
0.3125000000000003
 40
0.3750000000000003
 40
0.3750000000000003
 40
0.5000000000000003
 40
0.5000000000000003
 40
0.7500000000000002
 40
0.7500000000000002
 40
1.0
 40
1.0
 40
1.0
 40
1.0
 10
2.000000000000005
 20
1.52502164285729
 30
0.0
 10
2.000000000000006
 20
1.435651246954586
 30
0.0
 10
2.000000000000005
 20
1.348118630816167
 30
0.0
 10
2.000000000000004
 20
1.198431044214676
 30
0.0
 10
2.000000000000011
 20
1.136124155529274
 30
0.0
 10
2.000000000000011
 20
1.066622894809742
 30
0.0
 10
2.000000000000007
 20
1.047326811506312
 30
0.0
 10
2.000000000000005
 20
1.018839759011967
 30
0.0
 10
2.000000000000005
 20
1.012237910101474
 30
0.0
 10
2.000000000000005
 20
0.9891230309610743
 30
0.0
 10
2.000000000000005
 20
0.9698711206947773
 30
0.0
 10
2.000000000000005
 20
0.9007704459013226
 30
0.0
 10
2.000000000000004
 20
0.8390087174114906
 30
0.0
 10
2.000000000000005
 20
0.6886278631470936
 30
0.0
 10
2.000000000000007
 20
0.600350302050211
 30
0.0
 10
2.000000000000006
 20
0.4999510444950147
 30
0.0
  0
LINE
  5
70
330
1F
100
AcDbEntity
  8
1
  6
Continuous
370
    15
100
AcDbLine
 10
2.0
 20
1.525
 30
0.0
 11
2.0
 21
1.85
 31
0.0
  0
SPLINE
  5
71
330
1F
100
AcDbEntity
  8
1
  6
Continuous
370
    15
100
AcDbSpline
210
0.0
220
0.0
230
1.0
 70
     8
 71
     3
 72
    28
 73
    24
 74
     0
 42
0.00000001
 43
0.00000001
 40
0.0
 40
0.0
 40
0.0
 40
0.0
 40
0.0157428359446575
 40
0.0651179532141403
 40
0.1159183393468615
 40
0.1667187142041981
 40
0.2162001054024081
 40
0.2656815041283958
 40
0.3165978217638467
 40
0.3675141523451805
 40
0.4169975443776471
 40
0.4664809328573075
 40
0.5173992340328292
 40
0.568317521561356
 40
0.6178005819255709
 40
0.6672836407801386
 40
0.7182016797199232
 40
0.7691197302287717
 40
0.8186033782212986
 40
0.8680870327912005
 40
0.9190057296927008
 40
0.9699244179030703
 40
1.0
 40
1.0
 40
1.0
 40
1.0
 10
4.665159238468785
 20
1.53535956643974
 30
0.0
 10
4.714144631079664
 20
1.557025410303698
 30
0.0
 10
4.916765589299971
 20
1.646643025073852
 30
0.0
 10
5.277440824413719
 20
1.769345017613365
 30
0.0
 10
5.74724788784485
 20
1.896130514097238
 30
0.0
 10
6.217361704959138
 20
1.975061938688065
 30
0.0
 10
6.683360416884359
 20
2.006862877898226
 30
0.0
 10
7.14973670207731
 20
1.992087237799382
 30
0.0
 10
7.620560167689007
 20
1.92913386791982
 30
0.0
 10
8.0914172705068
 20
1.819836871792027
 30
0.0
 10
8.557787292662788
 20
1.668097745572997
 30
0.0
 10
9.024155775942962
 20
1.477765707659397
 30
0.0
 10
9.495029672416448
 20
1.249924413966546
 30
0.0
 10
9.96587297972889
 20
0.9920215421022388
 30
0.0
 10
10.43226123230322
 20
0.7129484167046776
 30
0.0
 10
10.89864486080088
 20
0.4173778592261967
 30
0.0
 10
11.36949049783733
 20
0.108811707050313
 30
0.0
 10
11.84036362859783
 20
-0.2023420148508819
 30
0.0
 10
12.30673057538132
 20
-0.5056423074784624
 30
0.0
 10
12.77311767141077
 20
-0.7973592842988811
 30
0.0
 10
13.24397421645417
 20
-1.072181920025638
 30
0.0
 10
13.65446625072339
 20
-1.290972837342167
 30
0.0
 10
13.90643609927736
 20
-1.408480875859844
 30
0.0
 10
14.00000000000001
 20
-1.452115106356382
 30
0.0
  0
SPLINE
  5
72
330
1F
100
AcDbEntity
  8
1
  6
Continuous
370
    15
100
AcDbSpline
210
0.0
220
0.0
230
1.0
 70
     8
 71
     3
 72
    11
 73
     7
 74
     0
 42
0.00000001
 43
0.00000001
 40
0.0
 40
0.0
 40
0.0
 40
0.0
 40
0.0656174509982271
 40
0.4318441550290901
 40
0.7132827225617944
 40
1.0
 40
1.0
 40
1.0
 40
1.0
 10
13.74687010944944
 20
-1.331977645707879
 30
0.0
 10
13.74846583285839
 20
-1.345914022273482
 30
0.0
 10
13.7589676706578
 20
-1.437632653073424
 30
0.0
 10
13.79526308774589
 20
-1.533495471428536
 30
0.0
 10
13.85172955540295
 20
-1.624578567093315
 30
0.0
 10
13.89616969940997
 20
-1.640301538485324
 30
0.0
 10
13.91859621708366
 20
-1.648236064884479
 30
0.0
  0
SPLINE
  5
73
330
1F
100
AcDbEntity
  8
1
  6
Continuous
370
    15
100
AcDbSpline
210
0.0
220
0.0
230
1.0
 70
     8
 71
     3
 72
    32
 73
    28
 74
     0
 42
0.00000001
 43
0.00000001
 40
0.0
 40
0.0
 40
0.0
 40
0.0
 40
0.0351782332298878
 40
0.0703564887882334
 40
0.1062853975939497
 40
0.1422132577787679
 40
0.1828311896567352
 40
0.2234502347026703
 40
0.2652538002017493
 40
0.3070577525414818
 40
0.3477801551481983
 40
0.3885026995455685
 40
0.4303907508463773
 40
0.4722772370190727
 40
0.5129465045320728
 40
0.5536159549167169
 40
0.5954687036184114
 40
0.637323044272677
 40
0.6780030165968646
 40
0.7186828977322325
 40
0.7605472200016956
 40
0.8024106259548631
 40
0.8429270800603956
 40
0.8834430094321847
 40
0.9251223667617985
 40
0.9668015516105275
 40
1.0
 40
1.0
 40
1.0
 40
1.0
 10
13.91859621708366
 20
-1.648236064884479
 30
0.0
 10
13.78553585071006
 20
-1.695213747831549
 30
0.0
 10
13.5194150335063
 20
-1.789169143543539
 30
0.0
 10
13.11937486746979
 20
-1.893449461260605
 30
0.0
 10
12.71215604545718
 20
-1.964554496625405
 30
0.0
 10
12.2864897538153
 20
-2.002767117381849
 30
0.0
 10
11.8432849447981
 20
-2.000872647151229
 30
0.0
 10
11.37561409189886
 20
-1.952991819548414
 30
0.0
 10
10.90800530577932
 20
-1.855619671935034
 30
0.0
 10
10.4359733532988
 20
-1.716270787236498
 30
0.0
 10
9.968957693919531
 20
-1.536195659977513
 30
0.0
 10
9.504826403202566
 20
-1.317478043752268
 30
0.0
 10
9.03133463945344
 20
-1.06998388949938
 30
0.0
 10
8.561365202897296
 20
-0.7927136547920031
 30
0.0
 10
8.094105587975179
 20
-0.5020697746506095
 30
0.0
 10
7.626656373937317
 20
-0.2002468563800009
 30
0.0
 10
7.15734559021167
 20
0.1132223198711191
 30
0.0
 10
6.684343946837246
 20
0.4186225920140698
 30
0.0
 10
6.220041587221746
 20
0.717089963344565
 30
0.0
 10
5.753847684655734
 20
0.9964676976512268
 30
0.0
 10
5.281305206833877
 20
1.252011297301631
 30
0.0
 10
4.813740207616395
 20
1.482292066651537
 30
0.0
 10
4.34653231761532
 20
1.669823533406493
 30
0.0
 10
3.881484365312767
 20
1.820230307100594
 30
0.0
 10
3.412536967954271
 20
1.928358651337744
 30
0.0
 10
2.970117915738405
 20
1.990996961650088
 30
0.0
 10
2.688633824283372
 20
1.994586177318509
 30
0.0
 10
2.563832402570434
 20
1.996177525575306
 30
0.0
  0
SPLINE
  5
74
330
1F
100
AcDbEntity
  8
1
  6
Continuous
370
    15
100
AcDbSpline
210
0.0
220
0.0
230
1.0
 70
     8
 71
     3
 72
    16
 73
    12
 74
     0
 42
0.00000001
 43
0.00000001
 40
0.0
 40
0.0
 40
0.0
 40
0.0
 40
0.1632583123532525
 40
0.3265165280863557
 40
0.4930997839465186
 40
0.5898145173873455
 40
0.6865292385969382
 40
0.7860357401278709
 40
0.8855422195728679
 40
0.9824651074452878
 40
1.0
 40
1.0
 40
1.0
 40
1.0
 10
2.000000000000004
 20
-0.0000000000000132
 30
0.0
 10
2.259477459811124
 20
-0.171014359858149
 30
0.0
 10
2.778432225868439
 20
-0.5130429783640581
 30
0.0
 10
3.562149500332845
 20
-0.9956294139534723
 30
0.0
 10
4.240288878969898
 20
-1.356188611130267
 30
0.0
 10
4.812104090344446
 20
-1.605292578557379
 30
0.0
 10
5.277445263259049
 20
-1.770761121330665
 30
0.0
 10
5.747246624275932
 20
-1.896419541360479
 30
0.0
 10
6.217362250763216
 20
-1.972503942137578
 30
0.0
 10
6.557249697296663
 20
-2.004603755845594
 30
0.0
 10
6.739073838640643
 20
-1.997588591048029
 30
0.0
 10
6.766929234494221
 20
-1.996513870216297
 30
0.0
  0
LINE
  5
75
330
1F
100
AcDbEntity
  8
1
  6
Continuous
370
    15
100
AcDbLine
 10
2.0
 20
0.0
 30
0.0
 11
2.0
 21
0.3672237921
 31
0.0
  0
SPLINE
  5
76
330
1F
100
AcDbEntity
  8
1
  6
Continuous
370
    15
100
AcDbSpline
210
0.0
220
0.0
230
1.0
 70
     8
 71
     3
 72
    18
 73
    14
 74
     0
 42
0.00000001
 43
0.00000001
 40
0.0
 40
0.0
 40
0.0
 40
0.0
 40
0.0138990281500373
 40
0.1179406633019988
 40
0.219049690382541
 40
0.3201587143784129
 40
0.4241998415875519
 40
0.5282409924358268
 40
0.6293512202207197
 40
0.7304614614452015
 40
0.8345039330713473
 40
0.9385463869388544
 40
1.0
 40
1.0
 40
1.0
 40
1.0
 10
9.431525319544523
 20
1.536751296633791
 30
0.0
 10
9.452691827642068
 20
1.54633592467183
 30
0.0
 10
9.632300932527942
 20
1.627666603054991
 30
0.0
 10
9.965872762491694
 20
1.743725969137943
 30
0.0
 10
10.43226128975223
 20
1.877309192734194
 30
0.0
 10
10.8986448449084
 20
1.964024825626392
 30
0.0
 10
11.369490502151
 20
2.005128185709332
 30
0.0
 10
11.84036362747816
 20
1.99781344761273
 30
0.0
 10
12.30673057567733
 20
1.942849210833614
 30
0.0
 10
12.77311767132875
 20
1.843055416093582
 30
0.0
 10
13.24397421647654
 20
1.697332516348733
 30
0.0
 10
13.65446625072024
 20
1.536270019388474
 30
0.0
 10
13.90643609927646
 20
1.418864159758266
 30
0.0
 10
14.00000000000001
 20
1.375267871322382
 30
0.0
  0
SPLINE
  5
77
330
1F
100
AcDbEntity
  8
1
  6
Continuous
370
    15
100
AcDbSpline
210
0.0
220
0.0
230
1.0
 70
    24
 71
     3
 72
    13
 73
     9
 74
     0
 42
0.00000001
 43
0.00000001
 40
0.0
 40
0.0
 40
0.0
 40
0.0
 40
0.500000000000001
 40
0.6250000000000011
 40
0.6250000000000011
 40
0.7500000000000012
 40
0.7500000000000012
 40
1.0
 40
1.0
 40
1.0
 40
1.0
 10
14.00000000000001
 20
1.375267871322385
 30
0.0
 10
14.0
 20
1.295043533786921
 30
0.0
 10
14.00000000000001
 20
1.194774494234233
 30
0.0
 10
13.99999999999999
 20
1.094519732472695
 30
0.0
 10
14.0
 20
1.054418877980314
 30
0.0
 10
13.99999999999999
 20
1.034735912572595
 30
0.0
 10
13.99999999999999
 20
0.9672283906608925
 30
0.0
 10
13.99999999999913
 20
0.9132351244381922
 30
0.0
 10
13.99999999999913
 20
0.8577267249807083
 30
0.0
  0
SPLINE
  5
78
330
1F
100
AcDbEntity
  8
1
  6
Continuous
370
    15
100
AcDbSpline
210
0.0
220
0.0
230
1.0
 70
     8
 71
     3
 72
     8
 73
     4
 74
     0
 42
0.00000001
 43
0.00000001
 40
0.0
 40
0.0
 40
0.0
 40
0.0
 40
1.0
 40
1.0
 40
1.0
 40
1.0
 10
14.00000000000005
 20
0.8577267249806808
 30
0.0
 10
13.89252794715257
 20
0.8422835481708927
 30
0.0
 10
13.77965237082032
 20
0.8385593992442012
 30
0.0
 10
13.66682439088746
 20
0.8376277566585445
 30
0.0
  0
SPLINE
  5
79
330
1F
100
AcDbEntity
  8
1
  6
Continuous
370
    15
100
AcDbSpline
210
0.0
220
0.0
230
1.0
 70
     8
 71
     3
 72
    18
 73
    14
 74
     0
 42
0.00000001
 43
0.00000001
 40
0.0
 40
0.0
 40
0.0
 40
0.0
 40
0.1250000000000003
 40
0.1250000000000003
 40
0.1875000000000004
 40
0.1875000000000004
 40
0.2500000000000006
 40
0.2500000000000006
 40
0.5000000000000004
 40
0.5000000000000004
 40
0.7500000000000002
 40
0.7500000000000002
 40
1.0
 40
1.0
 40
1.0
 40
1.0
 10
13.66682439088747
 20
0.8376277566585495
 30
0.0
 10
13.68454199650015
 20
0.7480195629985148
 30
0.0
 10
13.69886783199543
 20
0.6597278796725033
 30
0.0
 10
13.71314612667043
 20
0.5344552230824702
 30
0.0
 10
13.7165468111323
 20
0.4947092812068747
 30
0.0
 10
13.71968027111704
 20
0.4223592845355825
 30
0.0
 10
13.7202433013498
 20
0.3880198623002765
 30
0.0
 10
13.72754455947471
 20
0.2081185141071116
 30
0.0
 10
13.73866457887941
 20
0.0555633475411628
 30
0.0
 10
13.77181863837709
 20
-0.2641902908792339
 30
0.0
 10
13.7941880919757
 20
-0.4338471993789057
 30
0.0
 10
13.84925384910578
 20
-0.7800414967310442
 30
0.0
 10
13.8816396575623
 20
-0.9553822693941217
 30
0.0
 10
13.91859621708412
 20
-1.132836208115235
 30
0.0
  0
SPLINE
  5
7A
330
1F
100
AcDbEntity
  8
1
  6
Continuous
370
    15
100
AcDbSpline
210
0.0
220
0.0
230
1.0
 70
     8
 71
     3
 72
    22
 73
    18
 74
     0
 42
0.00000001
 43
0.00000001
 40
0.0
 40
0.0
 40
0.0
 40
0.0
 40
0.060593920569456
 40
0.1211878795993098
 40
0.1830748263397738
 40
0.2449599668481839
 40
0.3149236776960107
 40
0.3848893059571429
 40
0.4568952509613149
 40
0.528901862292062
 40
0.5990455222293206
 40
0.66918942639862
 40
0.7413408967881653
 40
0.8134896712706174
 40
0.883541806897261
 40
0.9535942575172603
 40
1.0
 40
1.0
 40
1.0
 40
1.0
 10
13.91859621708412
 20
-1.132836208115235
 30
0.0
 10
13.78553585071042
 20
-1.05845398559523
 30
0.0
 10
13.51941503350645
 20
-0.9096894933430587
 30
0.0
 10
13.11937486748126
 20
-0.6611177125232268
 30
0.0
 10
12.71215604540851
 20
-0.4065138402133882
 30
0.0
 10
12.28648975397629
 20
-0.1277228855098493
 30
0.0
 10
11.84328494415356
 20
0.1659038535649881
 30
0.0
 10
11.37561409443278
 20
0.4671500208415089
 30
0.0
 10
10.90800529616583
 20
0.7666086425712392
 30
0.0
 10
10.43597338897263
 20
1.042507907921843
 30
0.0
 10
9.968957564898298
 20
1.292024153679445
 30
0.0
 10
9.504826891310959
 20
1.515574955906503
 30
0.0
 10
9.031332760019302
 20
1.699305357166892
 30
0.0
 10
8.561372124597986
 20
1.845168735253318
 30
0.0
 10
8.094080592159044
 20
1.942966203367247
 30
0.0
 10
7.683318262976784
 20
1.995200778373131
 30
0.0
 10
7.427751306335536
 20
1.99458596185458
 30
0.0
 10
7.325914122870665
 20
1.994340972504549
 30
0.0
  0
SPLINE
  5
7B
330
1F
100
AcDbEntity
  8
1
  6
Continuous
370
    15
100
AcDbSpline
210
0.0
220
0.0
230
1.0
 70
     8
 71
     3
 72
    12
 73
     8
 74
     0
 42
0.00000001
 43
0.00000001
 40
0.0
 40
0.0
 40
0.0
 40
0.0
 40
0.2187851649220015
 40
0.4375704687121277
 40
0.6610243354017021
 40
0.884471680368181
 40
1.0
 40
1.0
 40
1.0
 40
1.0
 10
13.91859621708367
 20
1.648236064884476
 30
0.0
 10
13.78553524685362
 20
1.69518442531291
 30
0.0
 10
13.51941322193659
 20
1.789081175969014
 30
0.0
 10
13.11938217818122
 20
1.893804460323752
 30
0.0
 10
12.71212797654437
 20
1.963191505093421
 30
0.0
 10
12.36999314492821
 20
1.999325128258724
 30
0.0
 10
12.16361794078642
 20
1.995588405957032
 30
0.0
 10
12.09328197558836
 20
1.994314871324518
 30
0.0
  0
SPLINE
  5
7C
330
1F
100
AcDbEntity
  8
1
  6
Continuous
370
    15
100
AcDbSpline
210
0.0
220
0.0
230
1.0
 70
     8
 71
     3
 72
    13
 73
     9
 74
     0
 42
0.00000001
 43
0.00000001
 40
0.0
 40
0.0
 40
0.0
 40
0.0
 40
0.1192541116619742
 40
0.2919534330728342
 40
0.4696118711062706
 40
0.6472695739392017
 40
0.8229857907269863
 40
1.0
 40
1.0
 40
1.0
 40
1.0
 10
4.665159238468789
 20
-1.535359566439737
 30
0.0
 10
4.559023911691965
 20
-1.579658026149118
 30
0.0
 10
4.299187394602877
 20
-1.688107849905732
 30
0.0
 10
3.881410945184571
 20
-1.819041744410242
 30
0.0
 10
3.412623617414993
 20
-1.929659166239172
 30
0.0
 10
2.939385828629068
 20
-1.991338940834394
 30
0.0
 10
2.473360759582727
 20
-2.009205128702265
 30
0.0
 10
2.158173532999534
 20
-1.980435419812822
 30
0.0
 10
1.999999999999685
 20
-1.965997631366407
 30
0.0
  0
SPLINE
  5
7D
330
1F
100
AcDbEntity
  8
1
  6
Continuous
370
    15
100
AcDbSpline
210
0.0
220
0.0
230
1.0
 70
    24
 71
     3
 72
     8
 73
     4
 74
     0
 42
0.00000001
 43
0.00000001
 40
0.0
 40
0.0
 40
0.0
 40
0.0
 40
1.0
 40
1.0
 40
1.0
 40
1.0
 10
2.000000000000004
 20
-1.965997631366355
 30
0.0
 10
2.000000000000004
 20
-1.905588095906068
 30
0.0
 10
2.000000000000004
 20
-1.843982998674229
 30
0.0
 10
2.000000000000004
 20
-1.781165054987062
 30
0.0
  0
SPLINE
  5
7E
330
1F
100
AcDbEntity
  8
1
  6
Continuous
370
    15
100
AcDbSpline
210
0.0
220
0.0
230
1.0
 70
    24
 71
     3
 72
    20
 73
    16
 74
     0
 42
0.00000001
 43
0.00000001
 40
0.0
 40
0.0
 40
0.0
 40
0.0
 40
0.125
 40
0.125
 40
0.25
 40
0.25
 40
0.3124999999999999
 40
0.3124999999999999
 40
0.3749999999999999
 40
0.3749999999999999
 40
0.4999999999999999
 40
0.4999999999999999
 40
0.7499999999999999
 40
0.7499999999999999
 40
1.0
 40
1.0
 40
1.0
 40
1.0
 10
2.000000000000007
 20
-0.0000000000000099
 30
0.0
 10
2.000000000000007
 20
-0.000000000000009
 30
0.0
 10
2.000000000000005
 20
-0.0329964099296365
 30
0.0
 10
2.000000000000005
 20
-0.1351435634292401
 30
0.0
 10
2.000000000000009
 20
-0.2028878548239822
 30
0.0
 10
2.000000000000011
 20
-0.3175705383500458
 30
0.0
 10
2.000000000000007
 20
-0.3584112419299463
 30
0.0
 10
2.000000000000006
 20
-0.4443099223536041
 30
0.0
 10
2.000000000000007
 20
-0.4893340461774368
 30
0.0
 10
2.000000000000007
 20
-0.6235079043585063
 30
0.0
 10
2.000000000000007
 20
-0.7119140083366344
 30
0.0
 10
2.000000000000007
 20
-0.9740520667033854
 30
0.0
 10
2.000000000000005
 20
-1.145893519360045
 30
0.0
 10
2.000000000000004
 20
-1.474560351026093
 30
0.0
 10
2.000000000000007
 20
-1.631354329598925
 30
0.0
 10
2.000000000000007
 20
-1.781165054987074
 30
0.0
  0
ELLIPSE
  5
7F
330
1F
100
AcDbEntity
  8
1
  6
Continuous
370
    15
100
AcDbEllipse
 10
14.0499999863
 20
0.0
 30
0.0
 11
0.4774105225934288
 21
1.997601468361363
 31
0.0
210
0.0
220
0.0
230
1.0
 40
0.205107002
 41
3.792725347221289
 42
3.923583678824213
  0
LINE
  5
80
330
1F
100
AcDbEntity
  8
1
  6
Continuous
370
    15
100
AcDbLine
 10
14.0
 20
-1.4521151064
 30
0.0
 11
14.0
 21
-1.338221138
 31
0.0
  0
ELLIPSE
  5
81
330
1F
100
AcDbEntity
  8
1
  6
Continuous
370
    15
100
AcDbEllipse
 10
14.0499999863
 20
0.0
 30
0.0
 11
-0.4546785941477545
 21
1.997549693590115
 31
0.0
210
0.0
220
0.0
230
1.0
 40
0.2176720288
 41
2.123443693456735
 42
2.254302025058927
  0
LINE
  5
82
330
1F
100
AcDbEntity
  8
1
  6
Continuous
370
    15
100
AcDbLine
 10
14.0
 20
1.3752678713
 30
0.0
 11
14.0
 21
1.4863257334
 31
0.0
  0
ELLIPSE
  5
83
330
1F
100
AcDbEntity
  8
1
  6
Continuous
370
    15
100
AcDbEllipse
 10
14.0499999863
 20
0.0
 30
0.0
 11
-0.4774105225934235
 21
1.997601468361363
 31
0.0
210
0.0
220
0.0
230
1.0
 40
0.205107002
 41
5.50119428194526
 42
5.632052613548195
  0
LINE
  5
84
330
1F
100
AcDbEntity
  8
1
  6
Continuous
370
    15
100
AcDbLine
 10
14.0
 20
-1.338221138
 30
0.0
 11
14.0
 21
-0.6075260137
 31
0.0
  0
LINE
  5
85
330
1F
100
AcDbEntity
  8
1
  6
Continuous
370
    15
100
AcDbLine
 10
13.6668243909
 20
0.8376277567
 30
0.0
 11
13.9928584143
 21
0.1249123571
 31
0.0
  0
SPLINE
  5
86
330
1F
100
AcDbEntity
  8
1
  6
Continuous
370
    15
100
AcDbSpline
210
0.0
220
0.0
230
1.0
 70
     8
 71
     3
 72
    10
 73
     6
 74
     0
 42
0.00000001
 43
0.00000001
 40
0.0
 40
0.0
 40
0.0
 40
0.0
 40
0.5
 40
0.5
 40
1.0
 40
1.0
 40
1.0
 40
1.0
 10
14.00000000000001
 20
-0.6075260136761335
 30
0.0
 10
13.9985886486026
 20
-0.4849826579750795
 30
0.0
 10
13.9971795479632
 20
-0.3624440899769478
 30
0.0
 10
13.99449253664696
 20
-0.1176460148864664
 30
0.0
 10
13.9928584142572
 20
0.0053744265376135
 30
0.0
 10
13.99285841425721
 20
0.1249123570578525
 30
0.0
  0
LWPOLYLINE
  5
87
330
1F
100
AcDbEntity
  8
1
  6
Continuous
370
    15
100
AcDbPolyline
 90
        3
 70
   128
 43
0.0
 10
13.9928584143
 20
0.1249123571
 10
13.9958385253
 20
0.3460343943
 10
14.0
 20
0.6546830761
  0
LINE
  5
88
330
1F
100
AcDbEntity
  8
1
  6
Continuous
370
    15
100
AcDbLine
 10
14.0
 20
0.6546830761
 30
0.0
 11
14.0
 21
0.857726725
 31
0.0
  0
LINE
  5
89
330
1F
100
AcDbEntity
  8
1
  6
Continuous
370
    15
100
AcDbLine
 10
14.0
 20
-1.4863257334
 30
0.0
 11
14.0
 21
-1.4521151064
 31
0.0
  0
SPLINE
  5
8A
330
1F
100
AcDbEntity
  8
1
  6
Continuous
370
    15
100
AcDbSpline
210
0.0
220
0.0
230
1.0
 70
     8
 71
     3
 72
    11
 73
     7
 74
     0
 42
0.00000001
 43
0.00000001
 40
0.0
 40
0.0
 40
0.0
 40
0.0
 40
0.300799361204387
 40
0.6015988090750692
 40
0.9024015707816667
 40
1.0
 40
1.0
 40
1.0
 40
1.0
 10
14.00000000000001
 20
0.6075260136761342
 30
0.0
 10
13.99929398251862
 20
0.5465537567666398
 30
0.0
 10
13.99788194735244
 20
0.4246092253803276
 30
0.0
 10
13.99590518561354
 20
0.2419933412048548
 30
0.0
 10
13.99414618556698
 20
0.1000097728941919
 30
0.0
 10
13.99370776735703
 20
0.0203134741918087
 30
0.0
 10
13.99360036574879
 20
0.0007898539189634
 30
0.0
  0
SPLINE
  5
8B
330
1F
100
AcDbEntity
  8
1
  6
Continuous
370
    15
100
AcDbSpline
210
0.0
220
0.0
230
1.0
 70
     8
 71
     3
 72
     8
 73
     4
 74
     0
 42
0.00000001
 43
0.00000001
 40
0.0
 40
0.0
 40
0.0
 40
0.0
 40
0.0135428745733478
 40
0.0135428745733478
 40
0.0135428745733478
 40
0.0135428745733478
 10
2.000000000000006
 20
-0.0000000000000099
 30
0.0
 10
1.891666718767129
 20
0.0544383760445376
 30
0.0
 10
1.783325016809821
 20
0.1206002552459914
 30
0.0
 10
1.674980368087187
 20
0.1978682273181826
 30
0.0
  0
SPLINE
  5
8C
330
1F
100
AcDbEntity
  8
1
  6
Continuous
370
    15
100
AcDbSpline
210
0.0
220
0.0
230
1.0
 70
    24
 71
     3
 72
    14
 73
    10
 74
     0
 42
0.00000001
 43
0.00000001
 40
0.0
 40
0.0
 40
0.0
 40
0.0
 40
0.2499999999999998
 40
0.2499999999999998
 40
0.4999999999999997
 40
0.4999999999999997
 40
0.7499999999999998
 40
0.7499999999999998
 40
1.0
 40
1.0
 40
1.0
 40
1.0
 10
1.738618738821454
 20
-0.3966167372977586
 30
0.0
 10
1.769422815863862
 20
-0.3498750065518712
 30
0.0
 10
1.802656562101318
 20
-0.299446525407323
 30
0.0
 10
1.867007034378462
 20
-0.2018019037422068
 30
0.0
 10
1.897924268101199
 20
-0.1548884704299109
 30
0.0
 10
1.948962134050602
 20
-0.0774442352149595
 30
0.0
 10
1.968910095004021
 20
-0.0471754425960309
 30
0.0
 10
1.99438586016041
 20
-0.0085188273094876
 30
0.0
 10
2.000000000000005
 20
-0.0000000000000093
 30
0.0
 10
2.000000000000006
 20
-0.0000000000000099
 30
0.0
  0
SPLINE
  5
8D
330
1F
100
AcDbEntity
  8
1
  6
Continuous
370
    15
100
AcDbSpline
210
0.0
220
0.0
230
1.0
 70
     8
 71
     3
 72
    10
 73
     6
 74
     0
 42
0.00000001
 43
0.00000001
 40
0.0
 40
0.0
 40
0.0
 40
0.0
 40
0.03125
 40
0.03125
 40
0.0315410492786578
 40
0.0315410492786578
 40
0.0315410492786578
 40
0.0315410492786578
 10
1.738618738821454
 20
-0.3966167372977591
 30
0.0
 10
1.48862641749184
 20
-0.3101220588474334
 30
0.0
 10
1.23861873882151
 20
-0.1571627448637675
 30
0.0
 10
0.9862903445921914
 20
0.0577457325818857
 30
0.0
 10
0.9839619503629292
 20
0.0597340264246917
 30
0.0
 10
0.981633556133666
 20
0.0617275061094879
 30
0.0
  0
SPLINE
  5
8E
330
1F
100
AcDbEntity
  8
1
  6
Continuous
370
    15
100
AcDbSpline
210
0.0
220
0.0
230
1.0
 70
     8
 71
     3
 72
    12
 73
     8
 74
     0
 42
0.00000001
 43
0.00000001
 40
0.0
 40
0.0
 40
0.0
 40
0.0
 40
0.5
 40
0.5
 40
0.75
 40
0.75
 40
1.0
 40
1.0
 40
1.0
 40
1.0
 10
1.674980368087187
 20
0.1978682273181828
 30
0.0
 10
1.559550150626024
 20
0.2678503132515414
 30
0.0
 10
1.424746806931762
 20
0.3027432110295668
 30
0.0
 10
1.224217794022401
 20
0.2789766174040899
 30
0.0
 10
1.157924922377112
 20
0.2568299737932093
 30
0.0
 10
1.048546417958634
 20
0.1803877930211473
 30
0.0
 10
1.005795131529617
 20
0.1253278071279001
 30
0.0
 10
0.981633556133666
 20
0.0617275061094889
 30
0.0
  0
SPLINE
  5
8F
330
1F
100
AcDbEntity
  8
1
  6
Continuous
370
    15
100
AcDbSpline
210
0.0
220
0.0
230
1.0
 70
     8
 71
     3
 72
    11
 73
     7
 74
     0
 42
0.00000001
 43
0.00000001
 40
0.0
 40
0.0
 40
0.0
 40
0.0
 40
0.00019027460017
 40
0.00019027460017
 40
0.00019027460017
 40
0.000380697292828
 40
0.000380697292828
 40
0.000380697292828
 40
0.000380697292828
 10
2.000000000000007
 20
-0.0000000000000063
 30
0.0
 10
1.945844311180632
 20
0.0330132562370426
 30
0.0
 10
1.891695894162147
 20
0.066050287014179
 30
0.0
 10
1.837552036744893
 20
0.0990355782227373
 30
0.0
 10
1.783366047348894
 20
0.1320465368967182
 30
0.0
 10
1.729174032483805
 20
0.1650120074353787
 30
0.0
 10
1.674980368087326
 20
0.1978682273180599
 30
0.0
  0
SPLINE
  5
90
330
1F
100
AcDbEntity
  8
1
  6
Continuous
370
    15
100
AcDbSpline
210
0.0
220
0.0
230
1.0
 70
     8
 71
     3
 72
    12
 73
     8
 74
     0
 42
0.00000001
 43
0.00000001
 40
0.0
 40
0.0
 40
0.0
 40
0.0
 40
0.25
 40
0.25
 40
0.5
 40
0.5
 40
1.0
 40
1.0
 40
1.0
 40
1.0
 10
0.981633556133666
 20
0.0617275061094879
 30
0.0
 10
0.9253974365074922
 20
-0.0863023337382726
 30
0.0
 10
0.8867214864362585
 20
-0.2370727427563436
 30
0.0
 10
0.8389168187748425
 20
-0.5421111340309988
 30
0.0
 10
0.8308412345716178
 20
-0.6904669884665476
 30
0.0
 10
0.8451340625372749
 20
-1.111977722242493
 30
0.0
 10
0.9055175063120208
 20
-1.351099935876978
 30
0.0
 10
0.9961995084609866
 20
-1.523154621172804
 30
0.0
  0
SPLINE
  5
91
330
1F
100
AcDbEntity
  8
1
  6
Continuous
370
    15
100
AcDbSpline
210
0.0
220
0.0
230
1.0
 70
     8
 71
     3
 72
     8
 73
     4
 74
     0
 42
0.00000001
 43
0.00000001
 40
0.0
 40
0.0
 40
0.0
 40
0.0
 40
1.0
 40
1.0
 40
1.0
 40
1.0
 10
2.000000000000014
 20
-1.781165054986966
 30
0.0
 10
1.663687971554737
 20
-1.726457478648214
 30
0.0
 10
1.334108798318826
 20
-1.636533365778842
 30
0.0
 10
0.9961995084609866
 20
-1.523154621172805
 30
0.0
  0
SPLINE
  5
92
330
1F
100
AcDbEntity
  8
1
  6
Continuous
370
    15
100
AcDbSpline
210
0.0
220
0.0
230
1.0
 70
     8
 71
     3
 72
    11
 73
     7
 74
     0
 42
0.00000001
 43
0.00000001
 40
0.0
 40
0.0
 40
0.0
 40
0.0
 40
0.0001902746001701
 40
0.0001902746001701
 40
0.0001902746001701
 40
0.0003806972928281
 40
0.0003806972928281
 40
0.0003806972928281
 40
0.0003806972928281
 10
2.000000000000007
 20
-1.850000000000062
 30
0.0
 10
1.945844311180627
 20
-1.850000000000064
 30
0.0
 10
1.891695894162173
 20
-1.84911560374365
 30
0.0
 10
1.837552036744912
 20
-1.847347274944842
 30
0.0
 10
1.783366047348907
 20
-1.845577570123066
 30
0.0
 10
1.729174032483811
 20
-1.842922423987239
 30
0.0
 10
1.674980368087326
 20
-1.839387986428373
 30
0.0
  0
SPLINE
  5
93
330
1F
100
AcDbEntity
  8
1
  6
Continuous
370
    15
100
AcDbSpline
210
0.0
220
0.0
230
1.0
 70
     8
 71
     3
 72
    12
 73
     8
 74
     0
 42
0.00000001
 43
0.00000001
 40
0.0
 40
0.0
 40
0.0
 40
0.0
 40
0.5
 40
0.5
 40
0.75
 40
0.75
 40
1.0
 40
1.0
 40
1.0
 40
1.0
 10
1.674980368087389
 20
-1.83938798642857
 30
0.0
 10
1.559550150626194
 20
-1.831859813259112
 30
0.0
 10
1.424746806931807
 20
-1.825131167738344
 30
0.0
 10
1.224217794022743
 20
-1.828862038197648
 30
0.0
 10
1.157924922377293
 20
-1.832490082833061
 30
0.0
 10
1.048546417958643
 20
-1.841586756916201
 30
0.0
 10
1.005795131529629
 20
-1.846846622593374
 30
0.0
 10
0.9816335561336678
 20
-1.848969906458604
 30
0.0
  0
LINE
  5
94
330
1F
100
AcDbEntity
  8
1
  6
Continuous
370
    15
100
AcDbLine
 10
0.9816335561
 20
-1.8489699065
 30
0.0
 11
0.9621799393
 21
-1.8470629871
 31
0.0
  0
SPLINE
  5
95
330
1F
100
AcDbEntity
  8
1
  6
Continuous
370
    15
100
AcDbSpline
210
0.0
220
0.0
230
1.0
 70
     8
 71
     3
 72
    11
 73
     7
 74
     0
 42
0.00000001
 43
0.00000001
 40
0.0
 40
0.0
 40
0.0
 40
0.0
 40
0.0001902746001701
 40
0.0001902746001701
 40
0.0001902746001701
 40
0.0003806972928281
 40
0.0003806972928281
 40
0.0003806972928281
 40
0.0003806972928281
 10
2.000000000000007
 20
1.850000000000078
 30
0.0
 10
1.945844311180626
 20
1.85000000000008
 30
0.0
 10
1.891695894162176
 20
1.84911560374365
 30
0.0
 10
1.837552036744915
 20
1.847347274944843
 30
0.0
 10
1.783366047348908
 20
1.845577570123067
 30
0.0
 10
1.729174032483813
 20
1.84292242398724
 30
0.0
 10
1.674980368087326
 20
1.839387986428374
 30
0.0
  0
SPLINE
  5
96
330
1F
100
AcDbEntity
  8
1
  6
Continuous
370
    15
100
AcDbSpline
210
0.0
220
0.0
230
1.0
 70
     8
 71
     3
 72
    12
 73
     8
 74
     0
 42
0.00000001
 43
0.00000001
 40
0.0
 40
0.0
 40
0.0
 40
0.0
 40
0.5000000000000004
 40
0.5000000000000004
 40
0.7500000000000003
 40
0.7500000000000003
 40
1.0
 40
1.0
 40
1.0
 40
1.0
 10
1.674980368087355
 20
1.839387986428568
 30
0.0
 10
1.559550150626168
 20
1.831859813259111
 30
0.0
 10
1.424746806931876
 20
1.825131167738337
 30
0.0
 10
1.22421779402252
 20
1.828862038197657
 30
0.0
 10
1.157924922377186
 20
1.832490082833072
 30
0.0
 10
1.048546417958649
 20
1.841586756916204
 30
0.0
 10
1.005795131529628
 20
1.846846622593374
 30
0.0
 10
0.9816335561336686
 20
1.848969906458604
 30
0.0
  0
SPLINE
  5
97
330
1F
100
AcDbEntity
  8
1
  6
Continuous
370
    15
100
AcDbSpline
210
0.0
220
0.0
230
1.0
 70
     8
 71
     3
 72
    14
 73
    10
 74
     0
 42
0.00000001
 43
0.00000001
 40
0.0
 40
0.0
 40
0.0
 40
0.0
 40
0.1015481861011996
 40
0.2427348135119173
 40
0.3798495147650658
 40
0.5208858882691656
 40
0.6596050000253613
 40
0.8017771266144872
 40
1.0
 40
1.0
 40
1.0
 40
1.0
 10
0.9621799392728267
 20
1.847062987081054
 30
0.0
 10
0.9424485022098633
 20
1.846663731801702
 30
0.0
 10
0.8952836351680494
 20
1.845709375456227
 30
0.0
 10
0.8540781746155567
 20
1.806239869485098
 30
0.0
 10
0.8318564363782588
 20
1.732304085275878
 30
0.0
 10
0.8349482465263751
 20
1.625113963317109
 30
0.0
 10
0.8600535365156213
 20
1.486334467944074
 30
0.0
 10
0.9091619109413548
 20
1.300264652694794
 30
0.0
 10
0.9641678148870582
 20
1.142102733714535
 30
0.0
 10
0.9961995084609866
 20
1.04999999999997
 30
0.0
  0
SPLINE
  5
98
330
1F
100
AcDbEntity
  8
1
  6
Continuous
370
    15
100
AcDbSpline
210
0.0
220
0.0
230
1.0
 70
     8
 71
     3
 72
     8
 73
     4
 74
     0
 42
0.00000001
 43
0.00000001
 40
0.0
 40
0.0
 40
0.0
 40
0.0
 40
1.0
 40
1.0
 40
1.0
 40
1.0
 10
2.000000000000015
 20
0.4999510444948495
 30
0.0
 10
1.663687971553154
 20
0.6948565743248346
 30
0.0
 10
1.334108798318633
 20
0.885530134485213
 30
0.0
 10
0.9961995084609857
 20
1.049999999999969
 30
0.0
  0
LINE
  5
99
330
1F
100
AcDbEntity
  8
1
  6
Continuous
370
    15
100
AcDbLine
 10
0.0
 20
1.85
 30
0.0
 11
0.0
 21
-1.85
 31
0.0
  0
LINE
  5
9A
330
1F
100
AcDbEntity
  8
1
  6
Continuous
370
    15
100
AcDbLine
 10
2.0
 20
0.3672237921
 30
0.0
 11
2.0
 21
0.4999510445
 31
0.0
  0
LINE
  5
9B
330
1F
100
AcDbEntity
  8
1
  6
Continuous
370
    15
100
AcDbLine
 10
0.9961995085
 20
-1.5231546212
 30
0.0
 11
1.7386187388
 21
-0.3966167373
 31
0.0
  0
LINE
  5
9C
330
1F
100
AcDbEntity
  8
1
  6
Continuous
370
    15
100
AcDbLine
 10
0.9961995085
 20
1.05
 30
0.0
 11
1.7386187388
 21
1.05
 31
0.0
  0
SPLINE
  5
9D
330
1F
100
AcDbEntity
  8
1
  6
Continuous
370
    15
100
AcDbSpline
210
0.0
220
0.0
230
1.0
 70
     8
 71
     3
 72
    14
 73
    10
 74
     0
 42
0.00000001
 43
0.00000001
 40
0.0
 40
0.0
 40
0.0
 40
0.0
 40
0.2499999999999998
 40
0.2499999999999998
 40
0.4999999999999997
 40
0.4999999999999997
 40
0.7499999999999998
 40
0.7499999999999998
 40
1.0
 40
1.0
 40
1.0
 40
1.0
 10
1.738618738821454
 20
1.049999999999992
 30
0.0
 10
1.769422815863862
 20
1.049999999999993
 30
0.0
 10
1.802656562101318
 20
1.060202400936404
 30
0.0
 10
1.867007034378462
 20
1.106498713054278
 30
0.0
 10
1.897924268101199
 20
1.142749519290924
 30
0.0
 10
1.948962134050602
 20
1.235499038581854
 30
0.0
 10
1.968910095004021
 20
1.291683961525769
 30
0.0
 10
1.99438586016041
 20
1.408626064390459
 30
0.0
 10
2.000000000000005
 20
1.469020713156071
 30
0.0
 10
2.000000000000006
 20
1.525000000000006
 30
0.0
  0
SPLINE
  5
9E
330
1F
100
AcDbEntity
  8
1
  6
Continuous
370
    15
100
AcDbSpline
210
0.0
220
0.0
230
1.0
 70
    24
 71
     3
 72
    20
 73
    16
 74
     0
 42
0.00000001
 43
0.00000001
 40
0.0
 40
0.0
 40
0.0
 40
0.0
 40
0.1249999999999998
 40
0.1249999999999998
 40
0.2499999999999997
 40
0.2499999999999997
 40
0.3124999999999997
 40
0.3124999999999997
 40
0.3749999999999997
 40
0.3749999999999997
 40
0.4999999999999998
 40
0.4999999999999998
 40
0.7499999999999999
 40
0.7499999999999999
 40
1.0
 40
1.0
 40
1.0
 40
1.0
 10
2.000000000000007
 20
1.525005410714789
 30
0.0
 10
2.000000000000007
 20
1.435635691151355
 30
0.0
 10
2.000000000000005
 20
1.348105190888177
 30
0.0
 10
2.000000000000004
 20
1.198420695308243
 30
0.0
 10
2.000000000000011
 20
1.136116016699821
 30
0.0
 10
2.000000000000011
 20
1.066617496857952
 30
0.0
 10
2.000000000000005
 20
1.047322262097717
 30
0.0
 10
2.000000000000005
 20
1.018837194338132
 30
0.0
 10
2.000000000000005
 20
1.012236248004665
 30
0.0
 10
2.000000000000005
 20
0.9891211072262319
 30
0.0
 10
2.000000000000005
 20
0.9698690837820315
 30
0.0
 10
2.000000000000005
 20
0.9007682443961027
 30
0.0
 10
2.000000000000005
 20
0.839006640339086
 30
0.0
 10
2.000000000000005
 20
0.6886265260482531
 30
0.0
 10
2.000000000000007
 20
0.6003495422464755
 30
0.0
 10
2.000000000000006
 20
0.4999510444950147
 30
0.0
  0
SPLINE
  5
9F
330
1F
100
AcDbEntity
  8
1
  6
Continuous
370
    15
100
AcDbSpline
210
0.0
220
0.0
230
1.0
 70
     8
 71
     3
 72
    10
 73
     6
 74
     0
 42
0.00000001
 43
0.00000001
 40
0.0
 40
0.0
 40
0.0
 40
0.0
 40
0.03125
 40
0.03125
 40
0.0315410492786577
 40
0.0315410492786577
 40
0.0315410492786577
 40
0.0315410492786577
 10
1.738618738821454
 20
1.049999999999992
 30
0.0
 10
1.488626417491824
 20
1.332663983139193
 30
0.0
 10
1.23861873882151
 20
1.604523557519253
 30
0.0
 10
0.9862903445921923
 20
1.844549084221915
 30
0.0
 10
0.9839619503629301
 20
1.846760986373029
 30
0.0
 10
0.9816335561336678
 20
1.848969906458606
 30
0.0
  0
SPLINE
  5
A0
330
1F
100
AcDbEntity
  8
1
  6
Continuous
370
    15
100
AcDbSpline
210
0.0
220
0.0
230
1.0
 70
    24
 71
     3
 72
    20
 73
    16
 74
     0
 42
0.00000001
 43
0.00000001
 40
0.0
 40
0.0
 40
0.0
 40
0.0
 40
0.1250000000000001
 40
0.1250000000000001
 40
0.2500000000000002
 40
0.2500000000000002
 40
0.3125000000000002
 40
0.3125000000000002
 40
0.3750000000000002
 40
0.3750000000000002
 40
0.5000000000000002
 40
0.5000000000000002
 40
0.7500000000000001
 40
0.7500000000000001
 40
1.0
 40
1.0
 40
1.0
 40
1.0
 10
2.000000000000007
 20
-0.0000000000000099
 30
0.0
 10
2.000000000000007
 20
-0.000000000000009
 30
0.0
 10
2.000000000000005
 20
-0.0330028091193544
 30
0.0
 10
2.000000000000006
 20
-0.1351533982352529
 30
0.0
 10
2.000000000000009
 20
-0.2028979904304212
 30
0.0
 10
2.000000000000009
 20
-0.3175810928012064
 30
0.0
 10
2.000000000000006
 20
-0.3584220529108694
 30
0.0
 10
2.000000000000007
 20
-0.4443205636085502
 30
0.0
 10
2.000000000000007
 20
-0.4893445781905126
 30
0.0
 10
2.000000000000007
 20
-0.6235173024357611
 30
0.0
 10
2.000000000000006
 20
-0.7119226670859042
 30
0.0
 10
2.000000000000005
 20
-0.9740585549668089
 30
0.0
 10
2.000000000000006
 20
-1.145898608609598
 30
0.0
 10
2.000000000000005
 20
-1.474562723650318
 30
0.0
 10
2.000000000000006
 20
-1.63135546333985
 30
0.0
 10
2.000000000000007
 20
-1.781165054987074
 30
0.0
  0
LINE
  5
A1
330
1F
100
AcDbEntity
  8
1
  6
Continuous
370
    15
100
AcDbLine
 10
13.15
 20
0.0
 30
0.0
 11
13.15
 21
1.0
 31
0.0
  0
SPLINE
  5
A2
330
1F
100
AcDbEntity
  8
1
  6
Continuous
370
    15
100
AcDbSpline
210
0.0
220
0.0
230
1.0
 70
     8
 71
     3
 72
     8
 73
     4
 74
     0
 42
0.00000001
 43
0.00000001
 40
0.0
 40
0.0
 40
0.0
 40
0.0
 40
0.0135428745733408
 40
0.0135428745733408
 40
0.0135428745733408
 40
0.0135428745733408
 10
2.000000000000006
 20
1.525000000000006
 30
0.0
 10
1.891666718767185
 20
1.633333284427116
 30
0.0
 10
1.783325016809934
 20
1.738730225874728
 30
0.0
 10
1.674980368087355
 20
1.839387986428485
 30
0.0
  0
LINE
  5
A3
330
1F
100
AcDbEntity
  8
1
  6
Continuous
370
    15
100
AcDbLine
 10
2.0
 20
1.525
 30
0.0
 11
2.0
 21
1.85
 31
0.0
  0
LINE
  5
A4
330
1F
100
AcDbEntity
  8
SK4
100
AcDbLine
 10
0.0
 20
0.0
 30
0.0
 11
-36.0
 21
0.0
 31
0.0
  0
LINE
  5
A5
330
1F
100
AcDbEntity
  8
4
100
AcDbLine
 10
0.0
 20
0.0
 30
0.0
 11
14.0
 21
0.0
 31
0.0
  0
LINE
  5
A6
330
1F
100
AcDbEntity
  8
INFTOTAL
100
AcDbLine
 10
-46.0
 20
-52.0
 30
0.0
 11
254.0
 21
-52.0
 31
0.0
  0
LINE
  5
A7
330
1F
100
AcDbEntity
  8
INFTOTAL
100
AcDbLine
 10
254.0
 20
-52.0
 30
0.0
 11
254.0
 21
148.0
 31
0.0
  0
LINE
  5
A8
330
1F
100
AcDbEntity
  8
INFTOTAL
100
AcDbLine
 10
254.0
 20
148.0
 30
0.0
 11
-46.0
 21
148.0
 31
0.0
  0
LINE
  5
A9
330
1F
100
AcDbEntity
  8
INFTOTAL
100
AcDbLine
 10
-46.0
 20
148.0
 30
0.0
 11
-46.0
 21
-52.0
 31
0.0
  0
LINE
  5
AA
330
1F
100
AcDbEntity
  8
NOCUT
100
AcDbLine
 10
13.9912740049
 20
0.0
 30
0.0
 11
13.9912740049
 21
0.0001
 31
0.0
  0
LINE
  5
AB
330
1F
100
AcDbEntity
  8
NOCUT
100
AcDbLine
 10
13.9912740049
 20
0.0001
 30
0.0
 11
13.15
 21
0.0001
 31
0.0
  0
LINE
  5
AC
330
1F
100
AcDbEntity
  8
NOCUT
100
AcDbLine
 10
13.15
 20
0.0001
 30
0.0
 11
13.15
 21
1.0
 31
0.0
  0
LINE
  5
AD
330
1F
100
AcDbEntity
  8
NOCUT
100
AcDbLine
 10
13.15
 20
1.0
 30
0.0
 11
2.0
 21
1.0
 31
0.0
  0
LINE
  5
AE
330
1F
100
AcDbEntity
  8
NOCUT
100
AcDbLine
 10
2.0
 20
1.0
 30
0.0
 11
2.0
 21
1.85
 31
0.0
  0
LINE
  5
AF
330
1F
100
AcDbEntity
  8
NOCUT
100
AcDbLine
 10
2.0
 20
1.85
 30
0.0
 11
-6.0
 21
1.85
 31
0.0
  0
LINE
  5
B0
330
1F
100
AcDbEntity
  8
NOCUT
100
AcDbLine
 10
-6.0
 20
1.85
 30
0.0
 11
-6.0
 21
3.0
 31
0.0
  0
LINE
  5
B1
330
1F
100
AcDbEntity
  8
NOCUT
100
AcDbLine
 10
-6.0
 20
3.0
 30
0.0
 11
-36.0
 21
3.0
 31
0.0
  0
LINE
  5
B2
330
1F
100
AcDbEntity
  8
NOCUT
100
AcDbLine
 10
-36.0
 20
3.0
 30
0.0
 11
-36.0
 21
0.0
 31
0.0
  0
LINE
  5
B3
330
1F
100
AcDbEntity
  8
NOCUT
100
AcDbLine
 10
-36.0
 20
0.0
 30
0.0
 11
13.9912740049
 21
0.0
 31
0.0
  0
LINE
  5
B4
330
1F
100
AcDbEntity
  8
CUT
100
AcDbLine
 10
13.9912740049
 20
2.0
 30
0.0
 11
2.0
 21
2.0
 31
0.0
  0
LINE
  5
B5
330
1F
100
AcDbEntity
  8
CUT
100
AcDbLine
 10
13.9912740049
 20
0.0001
 30
0.0
 11
13.9912740049
 21
2.0
 31
0.0
  0
LINE
  5
B6
330
1F
100
AcDbEntity
  8
CUT
100
AcDbLine
 10
13.15
 20
0.0001
 30
0.0
 11
13.9912740049
 21
0.0001
 31
0.0
  0
LINE
  5
B7
330
1F
100
AcDbEntity
  8
CUT
100
AcDbLine
 10
13.15
 20
1.0
 30
0.0
 11
13.15
 21
0.0001
 31
0.0
  0
LINE
  5
B8
330
1F
100
AcDbEntity
  8
CUT
100
AcDbLine
 10
2.0
 20
1.0
 30
0.0
 11
13.15
 21
1.0
 31
0.0
  0
LINE
  5
B9
330
1F
100
AcDbEntity
  8
CUT
100
AcDbLine
 10
2.0
 20
2.0
 30
0.0
 11
2.0
 21
1.0
 31
0.0
  0
DIMENSION
  5
BA
330
1F
100
AcDbEntity
  8
2
100
AcDbDimension
  2
*D1
 10
118.9632346948
 20
2.0
 30
0.0
 11
118.9632346948
 21
9.4503443827
 31
0.0
 70
   160
  1
%%c<>
 71
     2
 42
-1.0
  3
SLDDIMSTYLE0
100
AcDbAlignedDimension
 13
14.0
 23
-2.0
 33
0.0
 14
13.9912740049
 24
2.0
 34
0.0
 50
90.0
100
AcDbRotatedDimension
  0
DIMENSION
  5
EA
330
1F
100
AcDbEntity
  8
SK2
100
AcDbDimension
  2
*D2
 10
-40.2657186151
 20
-3.0
 30
0.0
 11
-40.2657186151
 21
10.6846589578
 31
0.0
 70
   160
  1
%%c<>
 71
     2
 42
-1.0
  3
SLDDIMSTYLE1
100
AcDbAlignedDimension
 13
-36.0
 23
3.0
 33
0.0
 14
-36.0
 24
-3.0
 34
0.0
 50
90.0
100
AcDbRotatedDimension
  0
DIMENSION
  5
F8
330
1F
100
AcDbEntity
  8
SK2
100
AcDbDimension
  2
*D3
 10
-36.0
 20
48.7509423314
 30
0.0
 11
-18.8937081518
 21
48.7509423314
 31
0.0
 70
   160
 71
     2
 42
-1.0
  3
SLDDIMSTYLE2
100
AcDbAlignedDimension
 13
0.0
 23
0.0
 33
0.0
 14
-36.0
 24
0.0
 34
0.0
100
AcDbRotatedDimension
  0
DIMENSION
  5
103
330
1F
100
AcDbEntity
  8
SK2
100
AcDbDimension
  2
*D4
 10
14.0
 20
55.1009423314
 30
0.0
 11
3.4707404385
 21
55.1009423314
 31
0.0
 70
   160
 71
     2
 42
-1.0
  3
SLDDIMSTYLE3
100
AcDbAlignedDimension
 13
-6.0
 23
1.85
 33
0.0
 14
14.0
 24
2.0
 34
0.0
100
AcDbRotatedDimension
  0
DIMENSION
  5
110
330
1F
100
AcDbEntity
  8
SK2
100
AcDbDimension
  2
*D5
 10
-36.0
 20
93.3258208239
 30
0.0
 11
-12.0761040916
 21
93.3258208239
 31
0.0
 70
   160
 71
     2
 42
-1.0
  3
SLDDIMSTYLE2
100
AcDbAlignedDimension
 13
14.0
 23
0.0
 33
0.0
 14
-36.0
 24
0.0
 34
0.0
 50
0.0
100
AcDbRotatedDimension
  0
DIMENSION
  5
11A
330
1F
100
AcDbEntity
  8
SK2
100
AcDbDimension
  2
*D6
 10
2.0
 20
42.7509423314
 30
0.0
 11
7.8501090503
 21
42.7509423314
 31
0.0
 70
   160
 71
     2
 42
-1.0
  3
SLDDIMSTYLE3
100
AcDbAlignedDimension
 13
14.0
 23
2.0
 33
0.0
 14
2.0
 24
1.0
 34
0.0
100
AcDbRotatedDimension
  0
DIMENSION
  5
126
330
1F
100
AcDbEntity
  8
SK2
100
AcDbDimension
  2
*D7
 10
11.0485279454
 20
-1.85
 30
0.0
 11
11.0485279454
 21
11.4070924201
 31
0.0
 70
   160
  1
%%c<>
 71
     2
 42
-1.0
  3
SLDDIMSTYLE3
100
AcDbAlignedDimension
 13
2.0
 23
1.85
 33
0.0
 14
2.0
 24
-1.85
 34
0.0
 50
90.0
100
AcDbRotatedDimension
  0
DIMENSION
  5
133
330
1F
100
AcDbEntity
  8
2
100
AcDbDimension
  2
*D8
 10
14.0
 20
74.9999940533
 30
0.0
 11
6.8618618228
 21
74.9999940533
 31
0.0
 70
   160
 71
     2
 42
-1.0
  3
SLDDIMSTYLE3
100
AcDbAlignedDimension
 13
0.0
 23
1.5
 33
0.0
 14
14.0
 24
2.0
 34
0.0
100
AcDbRotatedDimension
  0
INSERT
  5
147
330
1F
100
AcDbEntity
  8
INFTEXT63
100
AcDbBlockReference
  2
SW_NOTE_0
 10
-39.8847508068
 20
-33.794739665
 30
0.0
  0
INSERT
  5
14E
330
1F
100
AcDbEntity
  8
INFTEXT63
100
AcDbBlockReference
  2
SW_NOTE_1
 10
-39.8847508068
 20
-70.1731114039
 30
0.0
  0
ENDSEC
  0
SECTION
  2
OBJECTS
  0
DICTIONARY
  5
C
330
0
100
AcDbDictionary
281
     1
  3
ACAD_GROUP
350
D
  3
ACAD_LAYOUT
350
1A
  3
ACAD_MLINESTYLE
350
17
  3
ACAD_PLOTSETTINGS
350
19
  3
ACAD_PLOTSTYLENAME
350
E
  3
ACAD_SCALELIST
350
BB
  3
AcDbVariableDictionary
350
14F
  0
DICTIONARY
  5
D
102
{ACAD_REACTORS
330
C
102
}
330
C
100
AcDbDictionary
281
     1
  0
DICTIONARY
  5
1A
102
{ACAD_REACTORS
330
C
102
}
330
C
100
AcDbDictionary
281
     1
  3
Layout1
350
1E
  3
Layout2
350
26
  3
Model
350
22
  0
DICTIONARY
  5
17
102
{ACAD_REACTORS
330
C
102
}
330
C
100
AcDbDictionary
281
     1
  3
Standard
350
18
  0
DICTIONARY
  5
19
102
{ACAD_REACTORS
330
C
102
}
330
C
100
AcDbDictionary
281
     1
  0
ACDBDICTIONARYWDFLT
  5
E
102
{ACAD_REACTORS
330
C
102
}
330
C
100
AcDbDictionary
281
     1
  3
Normal
350
F
100
AcDbDictionaryWithDefault
340
F
  0
DICTIONARY
  5
BB
102
{ACAD_REACTORS
330
C
102
}
330
C
100
AcDbDictionary
281
     1
  3
A0
350
BC
  3
A1
350
BD
  3
A2
350
BE
  3
A3
350
BF
  3
A4
350
C0
  3
A5
350
C1
  3
A6
350
C2
  3
A7
350
C3
  3
A8
350
C4
  3
A9
350
C5
  3
B0
350
C6
  3
B1
350
C7
  3
B2
350
C8
  3
B3
350
C9
  3
B4
350
CA
  3
B5
350
CB
  3
B6
350
CC
  3
B7
350
CD
  3
B8
350
CE
  3
B9
350
CF
  3
C0
350
D0
  3
C1
350
D1
  3
C2
350
D2
  3
C3
350
D3
  3
C4
350
D4
  3
C5
350
D5
  3
C6
350
D6
  3
C7
350
D7
  3
C8
350
D8
  3
C9
350
D9
  3
D0
350
DA
  3
D1
350
DB
  3
D2
350
DC
  0
DICTIONARY
  5
14F
102
{ACAD_REACTORS
330
C
102
}
330
C
100
AcDbDictionary
281
     1
  3
CANNOSCALE
350
150
  0
LAYOUT
  5
1E
102
{ACAD_REACTORS
330
1A
102
}
330
1A
100
AcDbPlotSettings
  1

  2
none_device
  4

  6

 40
0.0
 41
0.0
 42
0.0
 43
0.0
 44
0.0
 45
0.0
 46
0.0
 47
0.0
 48
0.0
 49
0.0
140
0.0
141
0.0
142
1.0
143
1.0
 70
   688
 72
     0
 73
     0
 74
     5
  7

 75
    16
147
1.0
148
0.0
149
0.0
100
AcDbLayout
  1
Layout1
 70
     1
 71
     1
 10
0.0
 20
0.0
 11
420.0
 21
297.0
 12
0.0
 22
0.0
 32
0.0
 14
1.0000000000E+20
 24
1.0000000000E+20
 34
1.0000000000E+20
 15
-1.0000000000E+20
 25
-1.0000000000E+20
 35
-1.0000000000E+20
146
0.0
 13
0.0
 23
0.0
 33
0.0
 16
1.0
 26
0.0
 36
0.0
 17
0.0
 27
1.0
 37
0.0
 76
     0
330
1B
  0
LAYOUT
  5
26
102
{ACAD_REACTORS
330
1A
102
}
330
1A
100
AcDbPlotSettings
  1

  2
none_device
  4

  6

 40
0.0
 41
0.0
 42
0.0
 43
0.0
 44
0.0
 45
0.0
 46
0.0
 47
0.0
 48
0.0
 49
0.0
140
0.0
141
0.0
142
1.0
143
1.0
 70
   688
 72
     0
 73
     0
 74
     5
  7

 75
    16
147
1.0
148
0.0
149
0.0
100
AcDbLayout
  1
Layout2
 70
     1
 71
     2
 10
0.0
 20
0.0
 11
0.0
 21
0.0
 12
0.0
 22
0.0
 32
0.0
 14
0.0
 24
0.0
 34
0.0
 15
0.0
 25
0.0
 35
0.0
146
0.0
 13
0.0
 23
0.0
 33
0.0
 16
1.0
 26
0.0
 36
0.0
 17
0.0
 27
1.0
 37
0.0
 76
     0
330
23
  0
LAYOUT
  5
22
102
{ACAD_REACTORS
330
1A
102
}
330
1A
100
AcDbPlotSettings
  1

  2
none_device
  4

  6

 40
0.0
 41
0.0
 42
0.0
 43
0.0
 44
0.0
 45
0.0
 46
0.0
 47
0.0
 48
0.0
 49
0.0
140
0.0
141
0.0
142
1.0
143
1.0
 70
  1712
 72
     0
 73
     0
 74
     0
  7

 75
     0
147
1.0
148
0.0
149
0.0
100
AcDbLayout
  1
Model
 70
     1
 71
     0
 10
0.0
 20
0.0
 11
420.0
 21
297.0
 12
0.0
 22
0.0
 32
0.0
 14
0.0
 24
0.0
 34
0.0
 15
420.0
 25
297.0
 35
0.0
146
0.0
 13
0.0
 23
0.0
 33
0.0
 16
1.0
 26
0.0
 36
0.0
 17
0.0
 27
1.0
 37
0.0
 76
     0
330
1F
331
29
  0
MLINESTYLE
  5
18
102
{ACAD_REACTORS
330
17
102
}
330
17
100
AcDbMlineStyle
  2
Standard
 70
     0
  3

 62
   256
 51
90.0
 52
90.0
 71
     2
 49
0.5
 62
   256
  6
BYLAYER
 49
-0.5
 62
   256
  6
BYLAYER
  0
ACDBPLACEHOLDER
  5
F
102
{ACAD_REACTORS
330
E
102
}
330
E
  0
SCALE
  5
BC
102
{ACAD_REACTORS
330
BB
102
}
330
BB
100
AcDbScale
 70
     0
300
1:1
140
1.0
141
1.0
290
     1
  0
SCALE
  5
BD
102
{ACAD_REACTORS
330
BB
102
}
330
BB
100
AcDbScale
 70
     0
300
1:2
140
1.0
141
2.0
290
     0
  0
SCALE
  5
BE
102
{ACAD_REACTORS
330
BB
102
}
330
BB
100
AcDbScale
 70
     0
300
1:4
140
1.0
141
4.0
290
     0
  0
SCALE
  5
BF
102
{ACAD_REACTORS
330
BB
102
}
330
BB
100
AcDbScale
 70
     0
300
1:5
140
1.0
141
5.0
290
     0
  0
SCALE
  5
C0
102
{ACAD_REACTORS
330
BB
102
}
330
BB
100
AcDbScale
 70
     0
300
1:8
140
1.0
141
8.0
290
     0
  0
SCALE
  5
C1
102
{ACAD_REACTORS
330
BB
102
}
330
BB
100
AcDbScale
 70
     0
300
1:10
140
1.0
141
10.0
290
     0
  0
SCALE
  5
C2
102
{ACAD_REACTORS
330
BB
102
}
330
BB
100
AcDbScale
 70
     0
300
1:16
140
1.0
141
16.0
290
     0
  0
SCALE
  5
C3
102
{ACAD_REACTORS
330
BB
102
}
330
BB
100
AcDbScale
 70
     0
300
1:20
140
1.0
141
20.0
290
     0
  0
SCALE
  5
C4
102
{ACAD_REACTORS
330
BB
102
}
330
BB
100
AcDbScale
 70
     0
300
1:30
140
1.0
141
30.0
290
     0
  0
SCALE
  5
C5
102
{ACAD_REACTORS
330
BB
102
}
330
BB
100
AcDbScale
 70
     0
300
1:40
140
1.0
141
40.0
290
     0
  0
SCALE
  5
C6
102
{ACAD_REACTORS
330
BB
102
}
330
BB
100
AcDbScale
 70
     0
300
1:50
140
1.0
141
50.0
290
     0
  0
SCALE
  5
C7
102
{ACAD_REACTORS
330
BB
102
}
330
BB
100
AcDbScale
 70
     0
300
1:100
140
1.0
141
100.0
290
     0
  0
SCALE
  5
C8
102
{ACAD_REACTORS
330
BB
102
}
330
BB
100
AcDbScale
 70
     0
300
2:1
140
2.0
141
1.0
290
     0
  0
SCALE
  5
C9
102
{ACAD_REACTORS
330
BB
102
}
330
BB
100
AcDbScale
 70
     0
300
4:1
140
4.0
141
1.0
290
     0
  0
SCALE
  5
CA
102
{ACAD_REACTORS
330
BB
102
}
330
BB
100
AcDbScale
 70
     0
300
8:1
140
8.0
141
1.0
290
     0
  0
SCALE
  5
CB
102
{ACAD_REACTORS
330
BB
102
}
330
BB
100
AcDbScale
 70
     0
300
10:1
140
10.0
141
1.0
290
     0
  0
SCALE
  5
CC
102
{ACAD_REACTORS
330
BB
102
}
330
BB
100
AcDbScale
 70
     0
300
100:1
140
100.0
141
1.0
290
     0
  0
SCALE
  5
CD
102
{ACAD_REACTORS
330
BB
102
}
330
BB
100
AcDbScale
 70
     0
300
1/128" = 1'-0"
140
0.0078125
141
12.0
290
     0
  0
SCALE
  5
CE
102
{ACAD_REACTORS
330
BB
102
}
330
BB
100
AcDbScale
 70
     0
300
1/64" = 1'-0"
140
0.015625
141
12.0
290
     0
  0
SCALE
  5
CF
102
{ACAD_REACTORS
330
BB
102
}
330
BB
100
AcDbScale
 70
     0
300
1/32" = 1'-0"
140
0.03125
141
12.0
290
     0
  0
SCALE
  5
D0
102
{ACAD_REACTORS
330
BB
102
}
330
BB
100
AcDbScale
 70
     0
300
1/16" = 1'-0"
140
0.0625
141
12.0
290
     0
  0
SCALE
  5
D1
102
{ACAD_REACTORS
330
BB
102
}
330
BB
100
AcDbScale
 70
     0
300
3/32" = 1'-0"
140
0.09375
141
12.0
290
     0
  0
SCALE
  5
D2
102
{ACAD_REACTORS
330
BB
102
}
330
BB
100
AcDbScale
 70
     0
300
1/8" = 1'-0"
140
0.125
141
12.0
290
     0
  0
SCALE
  5
D3
102
{ACAD_REACTORS
330
BB
102
}
330
BB
100
AcDbScale
 70
     0
300
3/16" = 1'-0"
140
0.1875
141
12.0
290
     0
  0
SCALE
  5
D4
102
{ACAD_REACTORS
330
BB
102
}
330
BB
100
AcDbScale
 70
     0
300
1/4" = 1'-0"
140
0.25
141
12.0
290
     0
  0
SCALE
  5
D5
102
{ACAD_REACTORS
330
BB
102
}
330
BB
100
AcDbScale
 70
     0
300
3/8" = 1'-0"
140
0.375
141
12.0
290
     0
  0
SCALE
  5
D6
102
{ACAD_REACTORS
330
BB
102
}
330
BB
100
AcDbScale
 70
     0
300
1/2" = 1'-0"
140
0.5
141
12.0
290
     0
  0
SCALE
  5
D7
102
{ACAD_REACTORS
330
BB
102
}
330
BB
100
AcDbScale
 70
     0
300
3/4" = 1'-0"
140
0.75
141
12.0
290
     0
  0
SCALE
  5
D8
102
{ACAD_REACTORS
330
BB
102
}
330
BB
100
AcDbScale
 70
     0
300
1" = 1'-0"
140
1.0
141
12.0
290
     0
  0
SCALE
  5
D9
102
{ACAD_REACTORS
330
BB
102
}
330
BB
100
AcDbScale
 70
     0
300
1-1/2" = 1'-0"
140
1.5
141
12.0
290
     0
  0
SCALE
  5
DA
102
{ACAD_REACTORS
330
BB
102
}
330
BB
100
AcDbScale
 70
     0
300
3" = 1'-0"
140
3.0
141
12.0
290
     0
  0
SCALE
  5
DB
102
{ACAD_REACTORS
330
BB
102
}
330
BB
100
AcDbScale
 70
     0
300
6" = 1'-0"
140
6.0
141
12.0
290
     0
  0
SCALE
  5
DC
102
{ACAD_REACTORS
330
BB
102
}
330
BB
100
AcDbScale
 70
     0
300
1'-0" = 1'-0"
140
12.0
141
12.0
290
     0
  0
DICTIONARYVAR
  5
150
102
{ACAD_REACTORS
330
14F
102
}
330
14F
100
DictionaryVariables
280
     0
  1
1:1
  0
ENDSEC
  0
EOF
