  0
SECTION
  2
HEADER
  9
$ACADVER
  1
AC1015
  9
$ACADMAINTVER
 70
    20
  9
$DWGCODEPAGE
  3
ANSI_1252
  9
$INSBASE
 10
0.0
 20
0.0
 30
0.0
  9
$EXTMIN
 10
-78.41760146466822
 20
-31.79506560424636
 30
-0.0000000349181948
  9
$EXTMAX
 10
105.9526178517094
 20
84.89713170995946
 30
0.0000000814935747
  9
$LIMMIN
 10
0.0
 20
0.0
  9
$LIMMAX
 10
210.0
 20
297.0
  9
$ORTHOMODE
 70
     0
  9
$REGENMODE
 70
     1
  9
$FILLMODE
 70
     1
  9
$QTEXTMODE
 70
     0
  9
$MIRRTEXT
 70
     1
  9
$LTSCALE
 40
1.0
  9
$ATTMODE
 70
     1
  9
$TEXTSIZE
 40
3.5
  9
$TRACEWID
 40
0.05
  9
$TEXTSTYLE
  7
ROMANS
  9
$CLAYER
  8
SK2
  9
$CELTYPE
  6
ByLayer
  9
$CECOLOR
 62
   256
  9
$CELTSCALE
 40
1.0
  9
$DISPSILH
 70
     0
  9
$DIMSCALE
 40
1.0
  9
$DIMASZ
 40
3.5
  9
$DIMEXO
 40
0.5
  9
$DIMDLI
 40
10.0
  9
$DIMRND
 40
0.0
  9
$DIMDLE
 40
0.0
  9
$DIMEXE
 40
1.5
  9
$DIMTP
 40
0.0
  9
$DIMTM
 40
0.000000001
  9
$DIMTXT
 40
3.5
  9
$DIMCEN
 40
0.5
  9
$DIMTSZ
 40
0.0
  9
$DIMTOL
 70
     0
  9
$DIMLIM
 70
     0
  9
$DIMTIH
 70
     0
  9
$DIMTOH
 70
     0
  9
$DIMSE1
 70
     0
  9
$DIMSE2
 70
     0
  9
$DIMTAD
 70
     1
  9
$DIMZIN
 70
     8
  9
$DIMBLK
  1

  9
$DIMASO
 70
     1
  9
$DIMSHO
 70
     1
  9
$DIMPOST
  1

  9
$DIMAPOST
  1

  9
$DIMALT
 70
     0
  9
$DIMALTD
 70
     2
  9
$DIMALTF
 40
25.4
  9
$DIMLFAC
 40
1.0
  9
$DIMTOFL
 70
     1
  9
$DIMTVP
 40
0.0
  9
$DIMTIX
 70
     0
  9
$DIMSOXD
 70
     0
  9
$DIMSAH
 70
     0
  9
$DIMBLK1
  1

  9
$DIMBLK2
  1

  9
$DIMSTYLE
  2
STANDARD
  9
$DIMCLRD
 70
     0
  9
$DIMCLRE
 70
     0
  9
$DIMCLRT
 70
     0
  9
$DIMTFAC
 40
0.7
  9
$DIMGAP
 40
1.5
  9
$DIMJUST
 70
     0
  9
$DIMSD1
 70
     0
  9
$DIMSD2
 70
     0
  9
$DIMTOLJ
 70
     1
  9
$DIMTZIN
 70
     0
  9
$DIMALTZ
 70
     0
  9
$DIMALTTZ
 70
     0
  9
$DIMUPT
 70
     0
  9
$DIMDEC
 70
     4
  9
$DIMTDEC
 70
     4
  9
$DIMALTU
 70
     2
  9
$DIMALTTD
 70
     2
  9
$DIMTXSTY
  7
STANDARD
  9
$DIMAUNIT
 70
     0
  9
$DIMADEC
 70
     0
  9
$DIMALTRND
 40
0.0
  9
$DIMAZIN
 70
     0
  9
$DIMDSEP
 70
    46
  9
$DIMATFIT
 70
     3
  9
$DIMFRAC
 70
     0
  9
$DIMLDRBLK
  1

  9
$DIMLUNIT
 70
     2
  9
$DIMLWD
 70
    -2
  9
$DIMLWE
 70
    -2
  9
$DIMTMOVE
 70
     0
  9
$LUNITS
 70
     2
  9
$LUPREC
 70
     8
  9
$SKETCHINC
 40
0.1
  9
$FILLETRAD
 40
0.0
  9
$AUNITS
 70
     0
  9
$AUPREC
 70
     8
  9
$MENU
  1
acad
  9
$ELEVATION
 40
0.0
  9
$PELEVATION
 40
0.0
  9
$THICKNESS
 40
0.0
  9
$LIMCHECK
 70
     0
  9
$CHAMFERA
 40
0.0
  9
$CHAMFERB
 40
0.0
  9
$CHAMFERC
 40
0.0
  9
$CHAMFERD
 40
0.0
  9
$SKPOLY
 70
     0
  9
$TDCREATE
 40
2454055.365586076
  9
$TDUCREATE
 40
2454055.323919410
  9
$TDUPDATE
 40
2455267.669227731
  9
$TDUUPDATE
 40
2455267.627561065
  9
$TDINDWG
 40
0.1655791319
  9
$TDUSRTIMER
 40
0.1655664931
  9
$USRTIMER
 70
     1
  9
$ANGBASE
 50
0.0
  9
$ANGDIR
 70
     0
  9
$PDMODE
 70
     0
  9
$PDSIZE
 40
0.0
  9
$PLINEWID
 40
0.0
  9
$SPLFRAME
 70
     0
  9
$SPLINETYPE
 70
     6
  9
$SPLINESEGS
 70
     8
  9
$HANDSEED
  5
1462
  9
$SURFTAB1
 70
     6
  9
$SURFTAB2
 70
     6
  9
$SURFTYPE
 70
     6
  9
$SURFU
 70
     6
  9
$SURFV
 70
     6
  9
$UCSBASE
  2

  9
$UCSNAME
  2

  9
$UCSORG
 10
0.0
 20
0.0
 30
0.0
  9
$UCSXDIR
 10
1.0
 20
0.0
 30
0.0
  9
$UCSYDIR
 10
0.0
 20
1.0
 30
0.0
  9
$UCSORTHOREF
  2

  9
$UCSORTHOVIEW
 70
     0
  9
$UCSORGTOP
 10
0.0
 20
0.0
 30
0.0
  9
$UCSORGBOTTOM
 10
0.0
 20
0.0
 30
0.0
  9
$UCSORGLEFT
 10
0.0
 20
0.0
 30
0.0
  9
$UCSORGRIGHT
 10
0.0
 20
0.0
 30
0.0
  9
$UCSORGFRONT
 10
0.0
 20
0.0
 30
0.0
  9
$UCSORGBACK
 10
0.0
 20
0.0
 30
0.0
  9
$PUCSBASE
  2

  9
$PUCSNAME
  2

  9
$PUCSORG
 10
0.0
 20
0.0
 30
0.0
  9
$PUCSXDIR
 10
1.0
 20
0.0
 30
0.0
  9
$PUCSYDIR
 10
0.0
 20
1.0
 30
0.0
  9
$PUCSORTHOREF
  2

  9
$PUCSORTHOVIEW
 70
     0
  9
$PUCSORGTOP
 10
0.0
 20
0.0
 30
0.0
  9
$PUCSORGBOTTOM
 10
0.0
 20
0.0
 30
0.0
  9
$PUCSORGLEFT
 10
0.0
 20
0.0
 30
0.0
  9
$PUCSORGRIGHT
 10
0.0
 20
0.0
 30
0.0
  9
$PUCSORGFRONT
 10
0.0
 20
0.0
 30
0.0
  9
$PUCSORGBACK
 10
0.0
 20
0.0
 30
0.0
  9
$USERI1
 70
     0
  9
$USERI2
 70
     0
  9
$USERI3
 70
     0
  9
$USERI4
 70
     0
  9
$USERI5
 70
     0
  9
$USERR1
 40
0.0
  9
$USERR2
 40
0.0
  9
$USERR3
 40
0.0
  9
$USERR4
 40
0.0
  9
$USERR5
 40
0.0
  9
$WORLDVIEW
 70
     1
  9
$SHADEDGE
 70
     3
  9
$SHADEDIF
 70
    70
  9
$TILEMODE
 70
     1
  9
$MAXACTVP
 70
    16
  9
$PINSBASE
 10
0.0
 20
0.0
 30
0.0
  9
$PLIMCHECK
 70
     0
  9
$PEXTMIN
 10
1.000000000000000E+20
 20
1.000000000000000E+20
 30
1.000000000000000E+20
  9
$PEXTMAX
 10
-1.000000000000000E+20
 20
-1.000000000000000E+20
 30
-1.000000000000000E+20
  9
$PLIMMIN
 10
0.0
 20
0.0
  9
$PLIMMAX
 10
12.0
 20
9.0
  9
$UNITMODE
 70
     0
  9
$VISRETAIN
 70
     0
  9
$PLINEGEN
 70
     0
  9
$PSLTSCALE
 70
     1
  9
$TREEDEPTH
 70
  3020
  9
$CMLSTYLE
  2
Standard
  9
$CMLJUST
 70
     0
  9
$CMLSCALE
 40
1.0
  9
$PROXYGRAPHICS
 70
     1
  9
$MEASUREMENT
 70
     0
  9
$CELWEIGHT
370
    -1
  9
$ENDCAPS
280
     0
  9
$JOINSTYLE
280
     0
  9
$LWDISPLAY
290
     0
  9
$INSUNITS
 70
     0
  9
$HYPERLINKBASE
  1

  9
$STYLESHEET
  1

  9
$XEDIT
290
     1
  9
$CEPSNTYPE
380
     0
  9
$PSTYLEMODE
290
     1
  9
$FINGERPRINTGUID
  2
{0B39E027-F2E7-4416-88CC-BD3AD38D8035}
  9
$VERSIONGUID
  2
{2CC93610-ADDF-42E6-B3BF-B7E55050E8A6}
  9
$EXTNAMES
290
     1
  9
$PSVPSCALE
 40
0.0
  9
$OLESTARTUP
290
     0
  0
ENDSEC
  0
SECTION
  2
CLASSES
  0
CLASS
  1
ACDBDICTIONARYWDFLT
  2
AcDbDictionaryWithDefault
  3
ObjectDBX Classes
 90
        0
280
     0
281
     0
  0
CLASS
  1
TABLESTYLE
  2
AcDbTableStyle
  3
ObjectDBX Classes
 90
     2047
280
     0
281
     0
  0
CLASS
  1
DICTIONARYVAR
  2
AcDbDictionaryVar
  3
ObjectDBX Classes
 90
        0
280
     0
281
     0
  0
CLASS
  1
ACDBPLACEHOLDER
  2
AcDbPlaceHolder
  3
ObjectDBX Classes
 90
        0
280
     0
281
     0
  0
CLASS
  1
LAYOUT
  2
AcDbLayout
  3
ObjectDBX Classes
 90
        0
280
     0
281
     0
  0
ENDSEC
  0
SECTION
  2
TABLES
  0
TABLE
  2
VPORT
  5
13BF
330
0
100
AcDbSymbolTable
 70
     2
  0
VPORT
  5
145C
330
13BF
100
AcDbSymbolTableRecord
100
AcDbViewportTableRecord
  2
*Active
 70
     0
 10
0.0
 20
0.0
 11
1.0
 21
1.0
 12
65.79119926766589
 22
132.6024671978768
 13
0.0
 23
0.0
 14
1.0
 24
1.0
 15
10.0
 25
10.0
 16
0.0
 26
0.0
 36
1.0
 17
0.0
 27
0.0
 37
0.0
 40
331.3471618443829
 41
1.489637305699481
 42
50.0
 43
0.0
 44
0.0
 50
0.0
 51
0.0
 71
     0
 72
   100
 73
     1
 74
     0
 75
     0
 76
     1
 77
     0
 78
     0
281
     0
 65
     0
110
0.0
120
0.0
130
0.0
111
1.0
121
0.0
131
0.0
112
0.0
122
1.0
132
0.0
 79
     0
146
0.0
  0
ENDTAB
  0
TABLE
  2
LTYPE
  5
13BC
330
0
100
AcDbSymbolTable
 70
     5
  0
LTYPE
  5
13CA
330
13BC
100
AcDbSymbolTableRecord
100
AcDbLinetypeTableRecord
  2
ByBlock
 70
     0
  3

 72
    65
 73
     0
 40
0.0
  0
LTYPE
  5
13CB
330
13BC
100
AcDbSymbolTableRecord
100
AcDbLinetypeTableRecord
  2
ByLayer
 70
     0
  3

 72
    65
 73
     0
 40
0.0
  0
LTYPE
  5
13CC
330
13BC
100
AcDbSymbolTableRecord
100
AcDbLinetypeTableRecord
  2
CONTINUOUS
 70
     0
  3
Durchgezogene Linie
 72
    65
 73
     0
 40
0.0
  0
LTYPE
  5
13E0
330
13BC
100
AcDbSymbolTableRecord
100
AcDbLinetypeTableRecord
  2
MITTE2
 70
     0
  3
___ _ ___ _ ___ _ ___ _ ___ _ ___ _ ___ _ ___ _
 72
    65
 73
     4
 40
28.575
 49
19.05
 74
     0
 49
-3.174999999999998
 74
     0
 49
3.174999999999998
 74
     0
 49
-3.174999999999998
 74
     0
  0
LTYPE
  5
13E1
330
13BC
100
AcDbSymbolTableRecord
100
AcDbLinetypeTableRecord
  2
VERDECKT2
 70
     0
  3
_ _ _ _ _ _ _ _ _ _ _ _ _ _ _ _ _ _ _ _ _ _ _ _
 72
    65
 73
     2
 40
4.762499999999998
 49
3.174999999999998
 74
     0
 49
-1.587499999999999
 74
     0
  0
LTYPE
  5
13E2
330
13BC
100
AcDbSymbolTableRecord
100
AcDbLinetypeTableRecord
  2
PHANTOMX2
 70
     0
  3
Phantom (2x) ____________    ____    ____   _
 72
    65
 73
     6
 40
127.0
 49
63.5
 74
     0
 49
-12.7
 74
     0
 49
12.7
 74
     0
 49
-12.7
 74
     0
 49
12.7
 74
     0
 49
-12.7
 74
     0
  0
LTYPE
  5
13E3
330
13BC
100
AcDbSymbolTableRecord
100
AcDbLinetypeTableRecord
  2
ACAD_ISO10W100
 70
     0
  3
ISO Strichpunktlinie __ . __ . __ . __ . __ . _
 72
    65
 73
     4
 40
18.0
 49
12.0
 74
     0
 49
-3.0
 74
     0
 49
0.0
 74
     0
 49
-3.0
 74
     0
  0
ENDTAB
  0
TABLE
  2
LAYER
  5
13B9
330
0
100
AcDbSymbolTable
 70
    12
  0
LAYER
  5
13C7
330
13B9
100
AcDbSymbolTableRecord
100
AcDbLayerTableRecord
  2
0
 70
     0
 62
     7
  6
CONTINUOUS
370
    -3
390
13C6
  0
LAYER
  5
13DD
330
13B9
100
AcDbSymbolTableRecord
100
AcDbLayerTableRecord
  2
SK2
 70
     0
 62
     7
  6
CONTINUOUS
370
    -3
390
13C6
  0
LAYER
  5
13E4
330
13B9
100
AcDbSymbolTableRecord
100
AcDbLayerTableRecord
  2
RAHMEN
 70
     0
 62
     7
  6
CONTINUOUS
370
    -3
390
13C6
  0
LAYER
  5
13E5
330
13B9
100
AcDbSymbolTableRecord
100
AcDbLayerTableRecord
  2
TEXT
 70
     0
 62
     2
  6
CONTINUOUS
370
    -3
390
13C6
  0
LAYER
  5
13E6
330
13B9
100
AcDbSymbolTableRecord
100
AcDbLayerTableRecord
  2
HILFSLINIEN
 70
     0
 62
     5
  6
CONTINUOUS
370
    -3
390
13C6
  0
LAYER
  5
13E7
330
13B9
100
AcDbSymbolTableRecord
100
AcDbLayerTableRecord
  2
DEFPOINTS
 70
     0
 62
     7
  6
CONTINUOUS
290
     0
370
    -3
390
13C6
  0
LAYER
  5
13E8
330
13B9
100
AcDbSymbolTableRecord
100
AcDbLayerTableRecord
  2
NOCUT
 70
     0
 62
     7
  6
CONTINUOUS
370
    -3
390
13C6
  0
LAYER
  5
13E9
330
13B9
100
AcDbSymbolTableRecord
100
AcDbLayerTableRecord
  2
SK4
 70
     0
 62
     2
  6
ACAD_ISO10W100
370
    -3
390
13C6
  0
LAYER
  5
13EA
330
13B9
100
AcDbSymbolTableRecord
100
AcDbLayerTableRecord
  2
1
 70
     0
 62
     4
  6
CONTINUOUS
370
    -3
390
13C6
  0
LAYER
  5
13EB
330
13B9
100
AcDbSymbolTableRecord
100
AcDbLayerTableRecord
  2
KONTUR
 70
     0
 62
     1
  6
CONTINUOUS
370
    -3
390
13C6
  0
LAYER
  5
13EC
330
13B9
100
AcDbSymbolTableRecord
100
AcDbLayerTableRecord
  2
BEMASSUNG
 70
     0
 62
     4
  6
CONTINUOUS
370
    -3
390
13C6
  0
LAYER
  5
13ED
330
13B9
100
AcDbSymbolTableRecord
100
AcDbLayerTableRecord
  2
MITTELLINIEN
 70
     0
 62
     7
  6
MITTE2
370
    -3
390
13C6
  0
ENDTAB
  0
TABLE
  2
STYLE
  5
13BA
330
0
100
AcDbSymbolTable
 70
     4
  0
STYLE
  5
13C8
330
13BA
100
AcDbSymbolTableRecord
100
AcDbTextStyleTableRecord
  2
STANDARD
 70
     0
 40
0.0
 41
1.0
 50
0.0
 71
     0
 42
5.0
  3
txt
  4

  0
STYLE
  5
13DE
330
13BA
100
AcDbSymbolTableRecord
100
AcDbTextStyleTableRecord
  2
ROMANS
 70
     0
 40
0.0
 41
0.75
 50
0.0
 71
     0
 42
3.5
  3
romans
  4

  0
STYLE
  5
13EE
330
13BA
100
AcDbSymbolTableRecord
100
AcDbTextStyleTableRecord
  2
ROMAND
 70
     0
 40
0.0
 41
0.75
 50
0.0
 71
     0
 42
3.5
  3
romand
  4

  0
STYLE
  5
13EF
330
13BA
100
AcDbSymbolTableRecord
100
AcDbTextStyleTableRecord
  2

 70
     1
 40
0.0
 41
1.0
 50
0.0
 71
     0
 42
3.5
  3
ltypeshp.shx
  4

  0
ENDTAB
  0
TABLE
  2
VIEW
  5
13BD
330
0
100
AcDbSymbolTable
 70
     0
  0
ENDTAB
  0
TABLE
  2
UCS
  5
13BE
330
0
100
AcDbSymbolTable
 70
     0
  0
ENDTAB
  0
TABLE
  2
APPID
  5
13C0
330
0
100
AcDbSymbolTable
 70
     4
  0
APPID
  5
13C9
330
13C0
100
AcDbSymbolTableRecord
100
AcDbRegAppTableRecord
  2
ACAD
 70
     0
  0
APPID
  5
13F0
330
13C0
100
AcDbSymbolTableRecord
100
AcDbRegAppTableRecord
  2
ACAD_PSEXT
 70
     0
  0
APPID
  5
13F1
330
13C0
100
AcDbSymbolTableRecord
100
AcDbRegAppTableRecord
  2
ACAECLAYERSTANDARD
 70
     0
  0
APPID
  5
13F2
330
13C0
100
AcDbSymbolTableRecord
100
AcDbRegAppTableRecord
  2
ACAD_DSTYLE_DIMTEXT_FILL
 70
     0
  0
ENDTAB
  0
TABLE
  2
DIMSTYLE
  5
13C1
330
0
100
AcDbSymbolTable
 70
     6
100
AcDbDimStyleTable
 71
     0
  0
DIMSTYLE
105
13F3
102
{ACAD_REACTORS
330
1040
330
10BC
330
12DD
330
12DE
330
12DF
330
12E0
102
}
330
13C1
100
AcDbSymbolTableRecord
100
AcDbDimStyleTableRecord
  2
STANDARD
 70
     0
 41
3.5
 42
0.5
 43
10.0
 44
1.5
 48
0.000000001
 73
     0
 74
     0
 77
     1
 78
     8
140
3.5
141
0.5
146
0.7
147
1.5
172
     1
271
     8
272
     8
279
     2
284
     8
285
     8
286
     8
340
13DE
  0
DIMSTYLE
105
13F4
330
13C1
100
AcDbSymbolTableRecord
100
AcDbDimStyleTableRecord
  2
STANDARD$4
 70
     0
 41
3.5
 42
0.5
 43
10.0
 44
1.5
 48
0.000000001
 73
     0
 77
     1
 78
     8
140
3.5
141
0.5
146
0.7
147
1.5
172
     1
271
     8
272
     8
279
     2
284
     8
285
     8
286
     8
340
13DE
  0
DIMSTYLE
105
13F5
330
13C1
100
AcDbSymbolTableRecord
100
AcDbDimStyleTableRecord
  2
DURCHMESSER
 70
     0
  3
%%c <> 
 41
3.5
 42
0.5
 43
8.0
 44
2.0
 73
     0
 74
     0
 77
     1
 78
     8
140
3.5
141
0.5
146
0.7142857142857145
147
2.0
172
     1
176
   256
177
   256
178
   256
271
     8
272
     8
279
     2
284
     8
285
     8
286
     8
340
13DE
  0
DIMSTYLE
105
13F6
330
13C1
100
AcDbSymbolTableRecord
100
AcDbDimStyleTableRecord
  2
DTOL-06
 70
     0
  3
%%c <> 
 41
3.5
 42
0.5
 43
8.0
 44
2.0
 47
0.2
 48
0.2
 71
     1
 73
     0
 74
     0
 77
     1
 78
     8
140
3.5
141
0.5
146
0.7142857142857145
147
2.0
172
     1
271
     8
272
     8
279
     2
284
     8
285
     8
286
     8
340
13DE
  0
DIMSTYLE
105
13F7
330
13C1
100
AcDbSymbolTableRecord
100
AcDbDimStyleTableRecord
  2
DTOL-07
 70
     0
  3
%%c <> 
 41
3.5
 42
0.5
 43
8.0
 44
2.0
 47
0.5
 71
     1
 73
     0
 74
     0
 77
     1
 78
     8
140
3.5
141
0.5
146
0.7142857142857145
147
2.0
172
     1
271
     8
272
     8
279
     2
284
     8
285
     8
286
     8
340
13DE
  0
DIMSTYLE
105
13F8
330
13C1
100
AcDbSymbolTableRecord
100
AcDbDimStyleTableRecord
  2
DTOL-08
 70
     0
  3
%%c <> 
 41
3.5
 42
0.5
 43
8.0
 44
2.0
 48
0.5
 71
     1
 73
     0
 74
     0
 77
     1
 78
     8
140
3.5
141
0.5
146
0.7142857142857145
147
2.0
172
     1
271
     8
272
     8
279
     2
284
     8
285
     8
286
     8
340
13DE
  0
ENDTAB
  0
TABLE
  2
BLOCK_RECORD
  5
13B8
330
0
100
AcDbSymbolTable
 70
    45
  0
BLOCK_RECORD
  5
13D9
330
13B8
100
AcDbSymbolTableRecord
100
AcDbBlockTableRecord
  2
*Model_Space
340
13DC
  0
BLOCK_RECORD
  5
13D5
330
13B8
100
AcDbSymbolTableRecord
100
AcDbBlockTableRecord
  2
*Paper_Space
340
13D8
  0
BLOCK_RECORD
  5
13FD
330
13B8
100
AcDbSymbolTableRecord
100
AcDbBlockTableRecord
  2
$MODEL_SPACE
340
0
  0
BLOCK_RECORD
  5
13FF
330
13B8
100
AcDbSymbolTableRecord
100
AcDbBlockTableRecord
  2
$PAPER_SPACE
340
0
  0
BLOCK_RECORD
  5
1401
330
13B8
100
AcDbSymbolTableRecord
100
AcDbBlockTableRecord
  2
A3
340
0
  0
BLOCK_RECORD
  5
1403
330
13B8
100
AcDbSymbolTableRecord
100
AcDbBlockTableRecord
  2
KOPF2
340
0
  0
BLOCK_RECORD
  5
1405
330
13B8
100
AcDbSymbolTableRecord
100
AcDbBlockTableRecord
  2
KOPF4
340
0
  0
BLOCK_RECORD
  5
1407
330
13B8
100
AcDbSymbolTableRecord
100
AcDbBlockTableRecord
  2
ZEICHNUNGS-KOPF1-APRIL-05
340
0
  0
BLOCK_RECORD
  5
1409
330
13B8
100
AcDbSymbolTableRecord
100
AcDbBlockTableRecord
  2
A3-APRIL-05
340
0
  0
BLOCK_RECORD
  5
140B
330
13B8
100
AcDbSymbolTableRecord
100
AcDbBlockTableRecord
  2
AENDERUNGS-KOPF1-_1-6_-APR
340
0
  0
BLOCK_RECORD
  5
140D
330
13B8
100
AcDbSymbolTableRecord
100
AcDbBlockTableRecord
  2
A2-APRIL-05
340
0
  0
BLOCK_RECORD
  5
140F
330
13B8
100
AcDbSymbolTableRecord
100
AcDbBlockTableRecord
  2
A4-APRIL-05
340
0
  0
BLOCK_RECORD
  5
1411
330
13B8
100
AcDbSymbolTableRecord
100
AcDbBlockTableRecord
  2
AENDERUNGS-KOPF1-_1-6_
340
0
  0
BLOCK_RECORD
  5
1413
330
13B8
100
AcDbSymbolTableRecord
100
AcDbBlockTableRecord
  2
AENDERUNGS-KOPF1-_1-6_-A4-
340
0
  0
BLOCK_RECORD
  5
1415
330
13B8
100
AcDbSymbolTableRecord
100
AcDbBlockTableRecord
  2
AENDERUNGS-KOPF1-_1-4_-A4-
340
0
  0
BLOCK_RECORD
  5
1417
330
13B8
100
AcDbSymbolTableRecord
100
AcDbBlockTableRecord
  2
*D13
340
0
  0
BLOCK_RECORD
  5
1419
330
13B8
100
AcDbSymbolTableRecord
100
AcDbBlockTableRecord
  2
*U14
340
0
102
{BLKREFS
331
117B
102
}
  0
BLOCK_RECORD
  5
141B
330
13B8
100
AcDbSymbolTableRecord
100
AcDbBlockTableRecord
  2
*D15
340
0
  0
BLOCK_RECORD
  5
141D
330
13B8
100
AcDbSymbolTableRecord
100
AcDbBlockTableRecord
  2
*U16
340
0
102
{BLKREFS
331
1090
102
}
  0
BLOCK_RECORD
  5
141F
330
13B8
100
AcDbSymbolTableRecord
100
AcDbBlockTableRecord
  2
*D17
340
0
  0
BLOCK_RECORD
  5
1421
330
13B8
100
AcDbSymbolTableRecord
100
AcDbBlockTableRecord
  2
*U18
340
0
102
{BLKREFS
331
1099
102
}
  0
BLOCK_RECORD
  5
1423
330
13B8
100
AcDbSymbolTableRecord
100
AcDbBlockTableRecord
  2
*D19
340
0
  0
BLOCK_RECORD
  5
1425
330
13B8
100
AcDbSymbolTableRecord
100
AcDbBlockTableRecord
  2
*U20
340
0
102
{BLKREFS
331
1196
102
}
  0
BLOCK_RECORD
  5
1427
330
13B8
100
AcDbSymbolTableRecord
100
AcDbBlockTableRecord
  2
*D21
340
0
  0
BLOCK_RECORD
  5
1429
330
13B8
100
AcDbSymbolTableRecord
100
AcDbBlockTableRecord
  2
*U22
340
0
102
{BLKREFS
331
1184
102
}
  0
BLOCK_RECORD
  5
142B
330
13B8
100
AcDbSymbolTableRecord
100
AcDbBlockTableRecord
  2
*D23
340
0
  0
BLOCK_RECORD
  5
142D
330
13B8
100
AcDbSymbolTableRecord
100
AcDbBlockTableRecord
  2
*U24
340
0
102
{BLKREFS
331
118D
102
}
  0
BLOCK_RECORD
  5
142F
330
13B8
100
AcDbSymbolTableRecord
100
AcDbBlockTableRecord
  2
*D25
340
0
  0
BLOCK_RECORD
  5
1431
330
13B8
100
AcDbSymbolTableRecord
100
AcDbBlockTableRecord
  2
*U26
340
0
102
{BLKREFS
331
1131
102
}
  0
BLOCK_RECORD
  5
1433
330
13B8
100
AcDbSymbolTableRecord
100
AcDbBlockTableRecord
  2
*D27
340
0
  0
BLOCK_RECORD
  5
1435
330
13B8
100
AcDbSymbolTableRecord
100
AcDbBlockTableRecord
  2
*U28
340
0
102
{BLKREFS
331
11A1
102
}
  0
BLOCK_RECORD
  5
1437
330
13B8
100
AcDbSymbolTableRecord
100
AcDbBlockTableRecord
  2
*D29
340
0
  0
BLOCK_RECORD
  5
1439
330
13B8
100
AcDbSymbolTableRecord
100
AcDbBlockTableRecord
  2
*U30
340
0
102
{BLKREFS
331
1269
102
}
  0
BLOCK_RECORD
  5
143A
330
13B8
100
AcDbSymbolTableRecord
100
AcDbBlockTableRecord
  2
*D31
340
0
  0
BLOCK_RECORD
  5
143C
330
13B8
100
AcDbSymbolTableRecord
100
AcDbBlockTableRecord
  2
*U32
340
0
102
{BLKREFS
331
1275
102
}
  0
BLOCK_RECORD
  5
143D
330
13B8
100
AcDbSymbolTableRecord
100
AcDbBlockTableRecord
  2
*D33
340
0
  0
BLOCK_RECORD
  5
143F
330
13B8
100
AcDbSymbolTableRecord
100
AcDbBlockTableRecord
  2
*U34
340
0
102
{BLKREFS
331
1281
102
}
  0
BLOCK_RECORD
  5
1440
330
13B8
100
AcDbSymbolTableRecord
100
AcDbBlockTableRecord
  2
*D35
340
0
  0
BLOCK_RECORD
  5
1442
330
13B8
100
AcDbSymbolTableRecord
100
AcDbBlockTableRecord
  2
*U36
340
0
102
{BLKREFS
331
128D
102
}
  0
BLOCK_RECORD
  5
1443
330
13B8
100
AcDbSymbolTableRecord
100
AcDbBlockTableRecord
  2
*D37
340
0
  0
BLOCK_RECORD
  5
1445
330
13B8
100
AcDbSymbolTableRecord
100
AcDbBlockTableRecord
  2
*U38
340
0
102
{BLKREFS
331
138B
102
}
  0
BLOCK_RECORD
  5
1446
330
13B8
100
AcDbSymbolTableRecord
100
AcDbBlockTableRecord
  2
*D39
340
0
  0
BLOCK_RECORD
  5
1448
330
13B8
100
AcDbSymbolTableRecord
100
AcDbBlockTableRecord
  2
*U40
340
0
102
{BLKREFS
331
1382
102
}
  0
BLOCK_RECORD
  5
1449
330
13B8
100
AcDbSymbolTableRecord
100
AcDbBlockTableRecord
  2
*D41
340
0
  0
BLOCK_RECORD
  5
144B
330
13B8
100
AcDbSymbolTableRecord
100
AcDbBlockTableRecord
  2
*U42
340
0
102
{BLKREFS
331
1370
102
}
  0
BLOCK_RECORD
  5
144C
330
13B8
100
AcDbSymbolTableRecord
100
AcDbBlockTableRecord
  2
*D43
340
0
  0
BLOCK_RECORD
  5
144E
330
13B8
100
AcDbSymbolTableRecord
100
AcDbBlockTableRecord
  2
*U44
340
0
102
{BLKREFS
331
1379
102
}
  0
ENDTAB
  0
ENDSEC
  0
SECTION
  2
BLOCKS
  0
BLOCK
  5
13DA
330
13D9
100
AcDbEntity
  8
0
100
AcDbBlockBegin
  2
*Model_Space
 70
     0
 10
0.0
 20
0.0
 30
0.0
  3
*Model_Space
  1

  0
ENDBLK
  5
13DB
330
13D9
100
AcDbEntity
  8
0
100
AcDbBlockEnd
  0
BLOCK
  5
13D6
330
13D5
100
AcDbEntity
 67
     1
  8
0
100
AcDbBlockBegin
  2
*Paper_Space
 70
     0
 10
0.0
 20
0.0
 30
0.0
  3
*Paper_Space
  1

  0
ENDBLK
  5
13D7
330
13D5
100
AcDbEntity
 67
     1
  8
0
100
AcDbBlockEnd
  0
BLOCK
  5
13FE
330
13FD
100
AcDbEntity
  8
0
100
AcDbBlockBegin
  2
$MODEL_SPACE
 70
     0
 10
0.0
 20
0.0
 30
0.0
  3
$MODEL_SPACE
  1

  0
ENDBLK
  5
11FB
330
13FD
100
AcDbEntity
  8
0
100
AcDbBlockEnd
  0
BLOCK
  5
1400
330
13FF
100
AcDbEntity
  8
0
100
AcDbBlockBegin
  2
$PAPER_SPACE
 70
     0
 10
0.0
 20
0.0
 30
0.0
  3
$PAPER_SPACE
  1

  0
ENDBLK
  5
11F7
330
13FF
100
AcDbEntity
  8
0
100
AcDbBlockEnd
  0
BLOCK
  5
1402
330
1401
100
AcDbEntity
  8
0
100
AcDbBlockBegin
  2
A3
 70
     0
 10
0.0
 20
0.0
 30
0.0
  3
A3
  1

  0
LINE
  5
4E
330
1401
100
AcDbEntity
  8
RAHMEN
100
AcDbLine
 10
0.0
 20
0.0
 30
0.0
 11
420.0
 21
0.0
 31
0.0
  0
LINE
  5
4F
330
1401
100
AcDbEntity
  8
RAHMEN
100
AcDbLine
 10
420.0
 20
0.0
 30
0.0
 11
420.0
 21
297.0
 31
0.0
  0
LINE
  5
50
330
1401
100
AcDbEntity
  8
RAHMEN
100
AcDbLine
 10
420.0
 20
297.0
 30
0.0
 11
0.0
 21
297.0
 31
0.0
  0
LINE
  5
51
330
1401
100
AcDbEntity
  8
RAHMEN
100
AcDbLine
 10
0.0
 20
297.0
 30
0.0
 11
0.0
 21
0.0
 31
0.0
  0
LINE
  5
52
330
1401
100
AcDbEntity
  8
0
100
AcDbLine
 10
0.0
 20
0.0
 30
0.0
 11
0.0
 21
0.0
 31
0.0
  0
LINE
  5
53
330
1401
100
AcDbEntity
  8
RAHMEN
 62
     1
100
AcDbLine
 10
20.0
 20
5.0
 30
0.0
 11
415.0
 21
5.0
 31
0.0
  0
LINE
  5
54
330
1401
100
AcDbEntity
  8
RAHMEN
 62
     1
100
AcDbLine
 10
415.0
 20
5.0
 30
0.0
 11
415.0
 21
292.0
 31
0.0
  0
LINE
  5
55
330
1401
100
AcDbEntity
  8
RAHMEN
 62
     1
100
AcDbLine
 10
415.0
 20
292.0
 30
0.0
 11
20.0
 21
292.0
 31
0.0
  0
LINE
  5
56
330
1401
100
AcDbEntity
  8
RAHMEN
 62
     1
100
AcDbLine
 10
20.0
 20
292.0
 30
0.0
 11
20.0
 21
5.0
 31
0.0
  0
LINE
  5
57
330
1401
100
AcDbEntity
  8
0
100
AcDbLine
 10
20.0
 20
5.0
 30
0.0
 11
20.0
 21
5.0
 31
0.0
  0
LINE
  5
58
330
1401
100
AcDbEntity
  8
RAHMEN
100
AcDbLine
 10
230.0
 20
0.0
 30
0.0
 11
230.0
 21
5.0
 31
0.0
  0
LINE
  5
59
330
1401
100
AcDbEntity
  8
RAHMEN
100
AcDbLine
 10
230.0
 20
292.0
 30
0.0
 11
230.0
 21
297.0
 31
0.0
  0
LINE
  5
5A
330
1401
100
AcDbEntity
  8
RAHMEN
100
AcDbLine
 10
125.0
 20
0.0
 30
0.0
 11
125.0
 21
5.0
 31
0.0
  0
LINE
  5
5B
330
1401
100
AcDbEntity
  8
RAHMEN
100
AcDbLine
 10
125.0
 20
292.0
 30
0.0
 11
125.0
 21
297.0
 31
0.0
  0
ENDBLK
  5
5C
330
1401
100
AcDbEntity
  8
0
100
AcDbBlockEnd
  0
BLOCK
  5
1404
330
1403
100
AcDbEntity
  8
0
100
AcDbBlockBegin
  2
KOPF2
 70
     2
 10
0.0
 20
0.0
 30
0.0
  3
KOPF2
  1

  0
LINE
  5
5E
330
1403
100
AcDbEntity
  8
0
100
AcDbLine
 10
0.0
 20
297.0
 30
0.0
 11
0.0
 21
0.0
 31
0.0
  0
LINE
  5
5F
330
1403
100
AcDbEntity
  8
0
100
AcDbLine
 10
0.0
 20
0.0
 30
0.0
 11
0.0
 21
0.0
 31
0.0
  0
LINE
  5
60
330
1403
100
AcDbEntity
  8
RAHMEN
100
AcDbLine
 10
0.0
 20
148.5
 30
0.0
 11
4.080403395846737
 21
148.5
 31
0.0
  0
LINE
  5
61
330
1403
100
AcDbEntity
  8
HILFSLINIEN
100
AcDbLine
 10
18.75
 20
0.0
 30
0.0
 11
18.75
 21
2.0
 31
0.0
  0
LINE
  5
62
330
1403
100
AcDbEntity
  8
HILFSLINIEN
100
AcDbLine
 10
18.75
 20
2.0
 30
0.0
 11
15.0
 21
2.0
 31
0.0
  0
CIRCLE
  5
63
330
1403
100
AcDbEntity
  8
TEXT
100
AcDbCircle
 10
16.875
 20
2.0
 30
0.0
 40
1.7
  0
LINE
  5
64
330
1403
100
AcDbEntity
  8
HILFSLINIEN
100
AcDbLine
 10
13.75
 20
0.0
 30
0.0
 11
13.75
 21
2.0
 31
0.0
  0
LINE
  5
65
330
1403
100
AcDbEntity
  8
HILFSLINIEN
100
AcDbLine
 10
13.75
 20
2.0
 30
0.0
 11
10.0
 21
2.0
 31
0.0
  0
CIRCLE
  5
66
330
1403
100
AcDbEntity
  8
TEXT
100
AcDbCircle
 10
11.875
 20
2.0
 30
0.0
 40
1.7
  0
LINE
  5
67
330
1403
100
AcDbEntity
  8
HILFSLINIEN
100
AcDbLine
 10
8.75
 20
0.0
 30
0.0
 11
8.75
 21
2.0
 31
0.0
  0
LINE
  5
68
330
1403
100
AcDbEntity
  8
HILFSLINIEN
100
AcDbLine
 10
8.75
 20
2.0
 30
0.0
 11
5.0
 21
2.0
 31
0.0
  0
CIRCLE
  5
69
330
1403
100
AcDbEntity
  8
TEXT
100
AcDbCircle
 10
6.875
 20
2.0
 30
0.0
 40
1.7
  0
TEXT
  5
6A
330
1403
100
AcDbEntity
  8
TEXT
100
AcDbText
 10
7.875
 20
1.392857142857142
 30
0.0
 40
2.0
  1
1
 50
90.0
 41
0.75
  7
ROMANS
 72
     4
 11
6.875
 21
2.0
 31
0.0
100
AcDbText
  0
TEXT
  5
6B
330
1403
100
AcDbEntity
  8
TEXT
100
AcDbText
 10
12.875
 20
1.285714285714285
 30
0.0
 40
2.0
  1
2
 50
90.0
 41
0.75
  7
ROMANS
 72
     4
 11
11.875
 21
2.0
 31
0.0
100
AcDbText
  0
TEXT
  5
6C
330
1403
100
AcDbEntity
  8
TEXT
100
AcDbText
 10
17.875
 20
1.285714285714285
 30
0.0
 40
2.0
  1
3
 50
90.0
 41
0.75
  7
ROMANS
 72
     4
 11
16.875
 21
2.0
 31
0.0
100
AcDbText
  0
LINE
  5
6D
330
1403
100
AcDbEntity
  8
HILFSLINIEN
100
AcDbLine
 10
18.75
 20
207.0
 30
0.0
 11
18.75
 21
209.0
 31
0.0
  0
LINE
  5
6E
330
1403
100
AcDbEntity
  8
HILFSLINIEN
100
AcDbLine
 10
18.75
 20
209.0
 30
0.0
 11
15.0
 21
209.0
 31
0.0
  0
CIRCLE
  5
6F
330
1403
100
AcDbEntity
  8
TEXT
100
AcDbCircle
 10
16.875
 20
209.0
 30
0.0
 40
1.7
  0
LINE
  5
70
330
1403
100
AcDbEntity
  8
HILFSLINIEN
100
AcDbLine
 10
13.75
 20
207.0
 30
0.0
 11
13.75
 21
209.0
 31
0.0
  0
LINE
  5
71
330
1403
100
AcDbEntity
  8
HILFSLINIEN
100
AcDbLine
 10
13.75
 20
209.0
 30
0.0
 11
10.0
 21
209.0
 31
0.0
  0
CIRCLE
  5
72
330
1403
100
AcDbEntity
  8
TEXT
100
AcDbCircle
 10
11.875
 20
209.0
 30
0.0
 40
1.7
  0
LINE
  5
73
330
1403
100
AcDbEntity
  8
HILFSLINIEN
100
AcDbLine
 10
8.75
 20
207.0
 30
0.0
 11
8.75
 21
209.0
 31
0.0
  0
LINE
  5
74
330
1403
100
AcDbEntity
  8
HILFSLINIEN
100
AcDbLine
 10
8.75
 20
209.0
 30
0.0
 11
5.0
 21
209.0
 31
0.0
  0
CIRCLE
  5
75
330
1403
100
AcDbEntity
  8
TEXT
100
AcDbCircle
 10
6.875
 20
209.0
 30
0.0
 40
1.7
  0
TEXT
  5
76
330
1403
100
AcDbEntity
  8
TEXT
100
AcDbText
 10
7.875
 20
208.25
 30
0.0
 40
2.0
  1
4
 50
90.0
 41
0.75
  7
ROMANS
 72
     4
 11
6.875
 21
209.0
 31
0.0
100
AcDbText
  0
TEXT
  5
77
330
1403
100
AcDbEntity
  8
TEXT
100
AcDbText
 10
12.875
 20
208.2857142857143
 30
0.0
 40
2.0
  1
5
 50
90.0
 41
0.75
  7
ROMANS
 72
     4
 11
11.875
 21
209.0
 31
0.0
100
AcDbText
  0
TEXT
  5
78
330
1403
100
AcDbEntity
  8
TEXT
100
AcDbText
 10
17.875
 20
208.25
 30
0.0
 40
2.0
  1
6
 50
90.0
 41
0.75
  7
ROMANS
 72
     4
 11
16.875
 21
209.0
 31
0.0
100
AcDbText
  0
LINE
  5
79
330
1403
100
AcDbEntity
  8
HILFSLINIEN
100
AcDbLine
 10
3.75
 20
0.0
 30
0.0
 11
3.75
 21
4.5
 31
0.0
  0
LINE
  5
7A
330
1403
100
AcDbEntity
  8
HILFSLINIEN
100
AcDbLine
 10
3.75
 20
4.5
 30
0.0
 11
18.75
 21
4.5
 31
0.0
  0
LINE
  5
7B
330
1403
100
AcDbEntity
  8
HILFSLINIEN
100
AcDbLine
 10
18.75
 20
60.0
 30
0.0
 11
18.75
 21
61.0
 31
0.0
  0
LINE
  5
7C
330
1403
100
AcDbEntity
  8
HILFSLINIEN
100
AcDbLine
 10
18.75
 20
61.0
 30
0.0
 11
3.75
 21
61.0
 31
0.0
  0
LINE
  5
7D
330
1403
100
AcDbEntity
  8
HILFSLINIEN
100
AcDbLine
 10
18.75
 20
75.0
 30
0.0
 11
18.75
 21
76.0
 31
0.0
  0
LINE
  5
7E
330
1403
100
AcDbEntity
  8
HILFSLINIEN
100
AcDbLine
 10
18.75
 20
76.0
 30
0.0
 11
3.75
 21
76.0
 31
0.0
  0
LINE
  5
7F
330
1403
100
AcDbEntity
  8
HILFSLINIEN
100
AcDbLine
 10
18.75
 20
207.0
 30
0.0
 11
18.75
 21
211.5
 31
0.0
  0
LINE
  5
80
330
1403
100
AcDbEntity
  8
HILFSLINIEN
100
AcDbLine
 10
18.75
 20
211.5
 30
0.0
 11
3.75
 21
211.5
 31
0.0
  0
LINE
  5
81
330
1403
100
AcDbEntity
  8
HILFSLINIEN
100
AcDbLine
 10
18.75
 20
267.0
 30
0.0
 11
18.75
 21
268.0
 31
0.0
  0
LINE
  5
82
330
1403
100
AcDbEntity
  8
HILFSLINIEN
100
AcDbLine
 10
18.75
 20
268.0
 30
0.0
 11
3.75
 21
268.0
 31
0.0
  0
LINE
  5
83
330
1403
100
AcDbEntity
  8
HILFSLINIEN
100
AcDbLine
 10
18.75
 20
282.0
 30
0.0
 11
18.75
 21
283.0
 31
0.0
  0
LINE
  5
84
330
1403
100
AcDbEntity
  8
HILFSLINIEN
100
AcDbLine
 10
18.75
 20
283.0
 30
0.0
 11
3.75
 21
283.0
 31
0.0
  0
LINE
  5
85
330
1403
100
AcDbEntity
  8
0
100
AcDbLine
 10
0.0
 20
297.0
 30
0.0
 11
0.0
 21
0.0
 31
0.0
  0
LINE
  5
86
330
1403
100
AcDbEntity
  8
HILFSLINIEN
100
AcDbLine
 10
3.75
 20
0.0
 30
0.0
 11
3.75
 21
60.0
 31
0.0
  0
LINE
  5
87
330
1403
100
AcDbEntity
  8
HILFSLINIEN
100
AcDbLine
 10
8.75
 20
0.0
 30
0.0
 11
8.75
 21
60.0
 31
0.0
  0
LINE
  5
88
330
1403
100
AcDbEntity
  8
HILFSLINIEN
100
AcDbLine
 10
13.75
 20
0.0
 30
0.0
 11
13.75
 21
60.0
 31
0.0
  0
LINE
  5
89
330
1403
100
AcDbEntity
  8
HILFSLINIEN
100
AcDbLine
 10
18.75
 20
0.0
 30
0.0
 11
18.75
 21
60.0
 31
0.0
  0
LINE
  5
8A
330
1403
100
AcDbEntity
  8
HILFSLINIEN
100
AcDbLine
 10
3.75
 20
0.0
 30
0.0
 11
3.75
 21
60.0
 31
0.0
  0
LINE
  5
8B
330
1403
100
AcDbEntity
  8
HILFSLINIEN
100
AcDbLine
 10
8.75
 20
0.0
 30
0.0
 11
8.75
 21
60.0
 31
0.0
  0
LINE
  5
8C
330
1403
100
AcDbEntity
  8
HILFSLINIEN
100
AcDbLine
 10
13.75
 20
0.0
 30
0.0
 11
13.75
 21
60.0
 31
0.0
  0
LINE
  5
8D
330
1403
100
AcDbEntity
  8
HILFSLINIEN
100
AcDbLine
 10
18.75
 20
0.0
 30
0.0
 11
18.75
 21
60.0
 31
0.0
  0
LINE
  5
8E
330
1403
100
AcDbEntity
  8
HILFSLINIEN
100
AcDbLine
 10
5.0
 20
0.0
 30
0.0
 11
4.25
 21
0.0
 31
0.0
  0
LINE
  5
8F
330
1403
100
AcDbEntity
  8
HILFSLINIEN
100
AcDbLine
 10
5.0
 20
0.0
 30
0.0
 11
3.75
 21
0.0
 31
0.0
  0
LINE
  5
90
330
1403
100
AcDbEntity
  8
HILFSLINIEN
100
AcDbLine
 10
5.0
 20
0.0
 30
0.0
 11
4.25
 21
0.0
 31
0.0
  0
LINE
  5
91
330
1403
100
AcDbEntity
  8
HILFSLINIEN
100
AcDbLine
 10
5.0
 20
0.0
 30
0.0
 11
3.75
 21
0.0
 31
0.0
  0
LINE
  5
92
330
1403
100
AcDbEntity
  8
0
100
AcDbLine
 10
0.0
 20
0.0
 30
0.0
 11
0.0
 21
0.0
 31
0.0
  0
TEXT
  5
93
330
1403
100
AcDbEntity
  8
TEXT
100
AcDbText
 10
3.749999999999999
 20
23.70535714285714
 30
0.0
 40
2.5
  1
Änderung
 50
90.0
 41
0.75
  7
ROMANS
 72
     1
 11
3.75
 21
30.0
 31
0.0
100
AcDbText
  0
LINE
  5
94
330
1403
100
AcDbEntity
  8
0
100
AcDbLine
 10
20.0
 20
5.0
 30
0.0
 11
20.0
 21
5.0
 31
0.0
  0
LINE
  5
95
330
1403
100
AcDbEntity
  8
RAHMEN
100
AcDbLine
 10
0.0
 20
148.5
 30
0.0
 11
4.080403395846737
 21
148.5
 31
0.0
  0
LINE
  5
96
330
1403
100
AcDbEntity
  8
HILFSLINIEN
100
AcDbLine
 10
3.75
 20
75.0
 30
0.0
 11
3.75
 21
90.0
 31
0.0
  0
LINE
  5
97
330
1403
100
AcDbEntity
  8
HILFSLINIEN
100
AcDbLine
 10
8.75
 20
75.0
 30
0.0
 11
8.75
 21
90.0
 31
0.0
  0
TEXT
  5
98
330
1403
100
AcDbEntity
  8
TEXT
100
AcDbText
 10
3.749999999999999
 20
78.48214285714286
 30
0.0
 40
2.5
  1
Name
 50
90.0
 41
0.75
  7
ROMANS
 72
     1
 11
3.75
 21
82.5
 31
0.0
100
AcDbText
  0
LINE
  5
99
330
1403
100
AcDbEntity
  8
HILFSLINIEN
100
AcDbLine
 10
3.75
 20
75.0
 30
0.0
 11
3.75
 21
90.0
 31
0.0
  0
LINE
  5
9A
330
1403
100
AcDbEntity
  8
HILFSLINIEN
100
AcDbLine
 10
8.75
 20
75.0
 30
0.0
 11
8.75
 21
90.0
 31
0.0
  0
LINE
  5
9B
330
1403
100
AcDbEntity
  8
HILFSLINIEN
100
AcDbLine
 10
3.75
 20
60.0
 30
0.0
 11
3.75
 21
75.0
 31
0.0
  0
LINE
  5
9C
330
1403
100
AcDbEntity
  8
HILFSLINIEN
100
AcDbLine
 10
8.75
 20
60.0
 30
0.0
 11
8.75
 21
75.0
 31
0.0
  0
TEXT
  5
9D
330
1403
100
AcDbEntity
  8
TEXT
100
AcDbText
 10
3.749999999999999
 20
62.99107142857143
 30
0.0
 40
2.5
  1
Datum
 50
90.0
 41
0.75
  7
ROMANS
 72
     1
 11
3.75
 21
67.5
 31
0.0
100
AcDbText
  0
LINE
  5
9E
330
1403
100
AcDbEntity
  8
HILFSLINIEN
100
AcDbLine
 10
3.75
 20
60.0
 30
0.0
 11
3.75
 21
75.0
 31
0.0
  0
LINE
  5
9F
330
1403
100
AcDbEntity
  8
HILFSLINIEN
100
AcDbLine
 10
8.75
 20
60.0
 30
0.0
 11
8.75
 21
75.0
 31
0.0
  0
LINE
  5
A0
330
1403
100
AcDbEntity
  8
HILFSLINIEN
100
AcDbLine
 10
13.75
 20
75.0
 30
0.0
 11
13.75
 21
90.0
 31
0.0
  0
LINE
  5
A1
330
1403
100
AcDbEntity
  8
HILFSLINIEN
100
AcDbLine
 10
18.75
 20
75.0
 30
0.0
 11
18.75
 21
90.0
 31
0.0
  0
LINE
  5
A2
330
1403
100
AcDbEntity
  8
HILFSLINIEN
100
AcDbLine
 10
13.75
 20
75.0
 30
0.0
 11
13.75
 21
90.0
 31
0.0
  0
LINE
  5
A3
330
1403
100
AcDbEntity
  8
HILFSLINIEN
100
AcDbLine
 10
18.75
 20
75.0
 30
0.0
 11
18.75
 21
90.0
 31
0.0
  0
LINE
  5
A4
330
1403
100
AcDbEntity
  8
HILFSLINIEN
100
AcDbLine
 10
13.75
 20
60.0
 30
0.0
 11
13.75
 21
75.0
 31
0.0
  0
LINE
  5
A5
330
1403
100
AcDbEntity
  8
HILFSLINIEN
100
AcDbLine
 10
18.75
 20
60.0
 30
0.0
 11
18.75
 21
75.0
 31
0.0
  0
LINE
  5
A6
330
1403
100
AcDbEntity
  8
HILFSLINIEN
100
AcDbLine
 10
13.75
 20
60.0
 30
0.0
 11
13.75
 21
75.0
 31
0.0
  0
LINE
  5
A7
330
1403
100
AcDbEntity
  8
HILFSLINIEN
100
AcDbLine
 10
18.75
 20
60.0
 30
0.0
 11
18.75
 21
75.0
 31
0.0
  0
TEXT
  5
A8
330
1403
100
AcDbEntity
  8
TEXT
100
AcDbText
 10
3.749999999999999
 20
230.7053571428571
 30
0.0
 40
2.5
  1
Änderung
 50
90.0
 41
0.75
  7
ROMANS
 72
     1
 11
3.75
 21
237.0
 31
0.0
100
AcDbText
  0
LINE
  5
A9
330
1403
100
AcDbEntity
  8
HILFSLINIEN
100
AcDbLine
 10
18.75
 20
207.0
 30
0.0
 11
18.75
 21
267.0
 31
0.0
  0
LINE
  5
AA
330
1403
100
AcDbEntity
  8
HILFSLINIEN
100
AcDbLine
 10
13.75
 20
207.0
 30
0.0
 11
13.75
 21
267.0
 31
0.0
  0
LINE
  5
AB
330
1403
100
AcDbEntity
  8
HILFSLINIEN
100
AcDbLine
 10
8.75
 20
207.0
 30
0.0
 11
8.75
 21
267.0
 31
0.0
  0
LINE
  5
AC
330
1403
100
AcDbEntity
  8
HILFSLINIEN
100
AcDbLine
 10
3.75
 20
207.0
 30
0.0
 11
3.75
 21
267.0
 31
0.0
  0
LINE
  5
AD
330
1403
100
AcDbEntity
  8
HILFSLINIEN
100
AcDbLine
 10
5.0
 20
207.0
 30
0.0
 11
3.75
 21
207.0
 31
0.0
  0
LINE
  5
AE
330
1403
100
AcDbEntity
  8
HILFSLINIEN
100
AcDbLine
 10
5.0
 20
207.0
 30
0.0
 11
4.25
 21
207.0
 31
0.0
  0
TEXT
  5
AF
330
1403
100
AcDbEntity
  8
TEXT
100
AcDbText
 10
3.749999999999999
 20
285.4821428571428
 30
0.0
 40
2.5
  1
Name
 50
90.0
 41
0.75
  7
ROMANS
 72
     1
 11
3.75
 21
289.5
 31
0.0
100
AcDbText
  0
LINE
  5
B0
330
1403
100
AcDbEntity
  8
HILFSLINIEN
100
AcDbLine
 10
8.75
 20
282.0
 30
0.0
 11
8.75
 21
297.0
 31
0.0
  0
LINE
  5
B1
330
1403
100
AcDbEntity
  8
HILFSLINIEN
100
AcDbLine
 10
3.75
 20
282.0
 30
0.0
 11
3.75
 21
297.0
 31
0.0
  0
TEXT
  5
B2
330
1403
100
AcDbEntity
  8
TEXT
100
AcDbText
 10
3.749999999999999
 20
269.9910714285715
 30
0.0
 40
2.5
  1
Datum
 50
90.0
 41
0.75
  7
ROMANS
 72
     1
 11
3.75
 21
274.5
 31
0.0
100
AcDbText
  0
LINE
  5
B3
330
1403
100
AcDbEntity
  8
HILFSLINIEN
100
AcDbLine
 10
8.75
 20
267.0
 30
0.0
 11
8.75
 21
282.0
 31
0.0
  0
LINE
  5
B4
330
1403
100
AcDbEntity
  8
HILFSLINIEN
100
AcDbLine
 10
3.75
 20
267.0
 30
0.0
 11
3.75
 21
282.0
 31
0.0
  0
LINE
  5
B5
330
1403
100
AcDbEntity
  8
HILFSLINIEN
100
AcDbLine
 10
18.75
 20
282.0
 30
0.0
 11
18.75
 21
297.0
 31
0.0
  0
LINE
  5
B6
330
1403
100
AcDbEntity
  8
HILFSLINIEN
100
AcDbLine
 10
13.75
 20
282.0
 30
0.0
 11
13.75
 21
297.0
 31
0.0
  0
LINE
  5
B7
330
1403
100
AcDbEntity
  8
HILFSLINIEN
100
AcDbLine
 10
18.75
 20
267.0
 30
0.0
 11
18.75
 21
282.0
 31
0.0
  0
LINE
  5
B8
330
1403
100
AcDbEntity
  8
HILFSLINIEN
100
AcDbLine
 10
13.75
 20
267.0
 30
0.0
 11
13.75
 21
282.0
 31
0.0
  0
LINE
  5
B9
330
1403
100
AcDbEntity
  8
0
100
AcDbLine
 10
0.0
 20
297.0
 30
0.0
 11
0.0
 21
0.0
 31
0.0
  0
LINE
  5
BA
330
1403
100
AcDbEntity
  8
RAHMEN
100
AcDbLine
 10
0.0
 20
90.0
 30
0.0
 11
0.0
 21
0.0
 31
0.0
  0
LINE
  5
BB
330
1403
100
AcDbEntity
  8
RAHMEN
100
AcDbLine
 10
0.0
 20
0.0
 30
0.0
 11
0.0
 21
90.0
 31
0.0
  0
LINE
  5
BC
330
1403
100
AcDbEntity
  8
RAHMEN
100
AcDbLine
 10
5.0
 20
0.0
 30
0.0
 11
5.0
 21
90.0
 31
0.0
  0
LINE
  5
BD
330
1403
100
AcDbEntity
  8
RAHMEN
100
AcDbLine
 10
10.0
 20
0.0
 30
0.0
 11
10.0
 21
90.0
 31
0.0
  0
LINE
  5
BE
330
1403
100
AcDbEntity
  8
RAHMEN
100
AcDbLine
 10
15.0
 20
0.0
 30
0.0
 11
15.0
 21
90.0
 31
0.0
  0
LINE
  5
BF
330
1403
100
AcDbEntity
  8
RAHMEN
100
AcDbLine
 10
0.0
 20
0.0
 30
0.0
 11
20.0
 21
0.0
 31
0.0
  0
LINE
  5
C0
330
1403
100
AcDbEntity
  8
RAHMEN
100
AcDbLine
 10
0.0
 20
0.0
 30
0.0
 11
5.0
 21
0.0
 31
0.0
  0
LINE
  5
C1
330
1403
100
AcDbEntity
  8
0
100
AcDbLine
 10
0.0
 20
0.0
 30
0.0
 11
0.0
 21
0.0
 31
0.0
  0
LINE
  5
C2
330
1403
100
AcDbEntity
  8
0
100
AcDbLine
 10
20.0
 20
5.0
 30
0.0
 11
20.0
 21
5.0
 31
0.0
  0
LINE
  5
C3
330
1403
100
AcDbEntity
  8
RAHMEN
100
AcDbLine
 10
0.0
 20
90.0
 30
0.0
 11
20.0
 21
90.0
 31
0.0
  0
LINE
  5
C4
330
1403
100
AcDbEntity
  8
RAHMEN
100
AcDbLine
 10
0.0
 20
60.0
 30
0.0
 11
20.0
 21
60.0
 31
0.0
  0
LINE
  5
C5
330
1403
100
AcDbEntity
  8
RAHMEN
100
AcDbLine
 10
0.0
 20
75.0
 30
0.0
 11
20.0
 21
75.0
 31
0.0
  0
LINE
  5
C6
330
1403
100
AcDbEntity
  8
RAHMEN
100
AcDbLine
 10
0.0
 20
148.5
 30
0.0
 11
7.544638271345935
 21
148.5
 31
0.0
  0
LINE
  5
C7
330
1403
100
AcDbEntity
  8
RAHMEN
100
AcDbLine
 10
15.0
 20
207.0
 30
0.0
 11
15.0
 21
297.0
 31
0.0
  0
LINE
  5
C8
330
1403
100
AcDbEntity
  8
RAHMEN
100
AcDbLine
 10
10.0
 20
207.0
 30
0.0
 11
10.0
 21
297.0
 31
0.0
  0
LINE
  5
C9
330
1403
100
AcDbEntity
  8
RAHMEN
100
AcDbLine
 10
5.0
 20
207.0
 30
0.0
 11
5.0
 21
297.0
 31
0.0
  0
LINE
  5
CA
330
1403
100
AcDbEntity
  8
RAHMEN
100
AcDbLine
 10
0.0
 20
207.0
 30
0.0
 11
0.0
 21
297.0
 31
0.0
  0
LINE
  5
CB
330
1403
100
AcDbEntity
  8
RAHMEN
100
AcDbLine
 10
0.0
 20
297.0
 30
0.0
 11
0.0
 21
207.0
 31
0.0
  0
LINE
  5
CC
330
1403
100
AcDbEntity
  8
RAHMEN
100
AcDbLine
 10
0.0
 20
207.0
 30
0.0
 11
20.0
 21
207.0
 31
0.0
  0
LINE
  5
CD
330
1403
100
AcDbEntity
  8
RAHMEN
100
AcDbLine
 10
0.0
 20
207.0
 30
0.0
 11
5.0
 21
207.0
 31
0.0
  0
LINE
  5
CE
330
1403
100
AcDbEntity
  8
RAHMEN
100
AcDbLine
 10
0.0
 20
282.0
 30
0.0
 11
20.0
 21
282.0
 31
0.0
  0
LINE
  5
CF
330
1403
100
AcDbEntity
  8
RAHMEN
100
AcDbLine
 10
0.0
 20
267.0
 30
0.0
 11
20.0
 21
267.0
 31
0.0
  0
LINE
  5
D0
330
1403
100
AcDbEntity
  8
RAHMEN
100
AcDbLine
 10
0.0
 20
297.0
 30
0.0
 11
20.0
 21
297.0
 31
0.0
  0
ATTDEF
  5
D1
330
1403
100
AcDbEntity
  8
TEXT
100
AcDbText
 10
8.75
 20
4.5
 30
0.0
 40
2.5
  1

 50
90.0
 41
0.75
  7
ROMANS
100
AcDbAttributeDefinition
  3
1-Änderung-Text
  2
1
 70
     0
  0
ATTDEF
  5
D2
330
1403
100
AcDbEntity
  8
TEXT
100
AcDbText
 10
8.75
 20
61.0
 30
0.0
 40
2.5
  1

 50
90.0
 41
0.75
  7
ROMANS
100
AcDbAttributeDefinition
  3
1-Änderung-Datum
  2
2
 70
     0
  0
ATTDEF
  5
D3
330
1403
100
AcDbEntity
  8
TEXT
100
AcDbText
 10
8.75
 20
76.0
 30
0.0
 40
2.5
  1

 50
90.0
 41
0.75
  7
ROMANS
100
AcDbAttributeDefinition
  3
1-Änderung-Name
  2
3
 70
     0
  0
ATTDEF
  5
D4
330
1403
100
AcDbEntity
  8
TEXT
100
AcDbText
 10
13.75
 20
4.5
 30
0.0
 40
2.5
  1

 50
90.0
 41
0.75
  7
ROMANS
100
AcDbAttributeDefinition
  3
2-Änderung-Text
  2
4
 70
     0
  0
ATTDEF
  5
D5
330
1403
100
AcDbEntity
  8
TEXT
100
AcDbText
 10
13.75
 20
61.0
 30
0.0
 40
2.5
  1

 50
90.0
 41
0.75
  7
ROMANS
100
AcDbAttributeDefinition
  3
2-Änderung-Datum
  2
5
 70
     0
  0
ATTDEF
  5
D6
330
1403
100
AcDbEntity
  8
TEXT
100
AcDbText
 10
13.75
 20
76.0
 30
0.0
 40
2.5
  1

 50
90.0
 41
0.75
  7
ROMANS
100
AcDbAttributeDefinition
  3
2-Änderung-Name
  2
6
 70
     0
  0
ATTDEF
  5
D7
330
1403
100
AcDbEntity
  8
TEXT
100
AcDbText
 10
18.75
 20
4.5
 30
0.0
 40
2.5
  1

 50
90.0
 41
0.75
  7
ROMANS
100
AcDbAttributeDefinition
  3
3-Änderung-Text
  2
7
 70
     0
  0
ATTDEF
  5
D8
330
1403
100
AcDbEntity
  8
TEXT
100
AcDbText
 10
18.75
 20
61.0
 30
0.0
 40
2.5
  1

 50
90.0
 41
0.75
  7
ROMANS
100
AcDbAttributeDefinition
  3
3-Änderung-Datum
  2
8
 70
     0
  0
ATTDEF
  5
D9
330
1403
100
AcDbEntity
  8
TEXT
100
AcDbText
 10
18.75
 20
76.0
 30
0.0
 40
2.5
  1

 50
90.0
 41
0.75
  7
ROMANS
100
AcDbAttributeDefinition
  3
3-Änderung-Name
  2
9
 70
     0
  0
ATTDEF
  5
DA
330
1403
100
AcDbEntity
  8
TEXT
100
AcDbText
 10
8.75
 20
211.5
 30
0.0
 40
2.5
  1

 50
90.0
 41
0.75
  7
ROMANS
100
AcDbAttributeDefinition
  3
4-Änderung-Text
  2
10
 70
     0
  0
ATTDEF
  5
DB
330
1403
100
AcDbEntity
  8
TEXT
100
AcDbText
 10
8.75
 20
268.0
 30
0.0
 40
2.5
  1

 50
90.0
 41
0.75
  7
ROMANS
100
AcDbAttributeDefinition
  3
4-Änderung-Datum
  2
11
 70
     0
  0
ATTDEF
  5
DC
330
1403
100
AcDbEntity
  8
TEXT
100
AcDbText
 10
8.75
 20
283.0
 30
0.0
 40
2.5
  1

 50
90.0
 41
0.75
  7
ROMANS
100
AcDbAttributeDefinition
  3
4-Änderung-Name
  2
12
 70
     0
  0
ATTDEF
  5
DD
330
1403
100
AcDbEntity
  8
TEXT
100
AcDbText
 10
13.75
 20
211.5
 30
0.0
 40
2.5
  1

 50
90.0
 41
0.75
  7
ROMANS
100
AcDbAttributeDefinition
  3
5-Änderung-Text
  2
13
 70
     0
  0
ATTDEF
  5
DE
330
1403
100
AcDbEntity
  8
TEXT
100
AcDbText
 10
13.75
 20
268.0
 30
0.0
 40
2.5
  1

 50
90.0
 41
0.75
  7
ROMANS
100
AcDbAttributeDefinition
  3
5-Änderung-Datum
  2
14
 70
     0
  0
ATTDEF
  5
DF
330
1403
100
AcDbEntity
  8
TEXT
100
AcDbText
 10
13.75
 20
283.0
 30
0.0
 40
2.5
  1

 50
90.0
 41
0.75
  7
ROMANS
100
AcDbAttributeDefinition
  3
5-Änderung-Name
  2
15
 70
     0
  0
ATTDEF
  5
E0
330
1403
100
AcDbEntity
  8
TEXT
100
AcDbText
 10
18.75
 20
211.5
 30
0.0
 40
2.5
  1

 50
90.0
 41
0.75
  7
ROMANS
100
AcDbAttributeDefinition
  3
6-Änderung-Text
  2
16
 70
     0
  0
ATTDEF
  5
E1
330
1403
100
AcDbEntity
  8
TEXT
100
AcDbText
 10
18.75
 20
268.0
 30
0.0
 40
2.5
  1

 50
90.0
 41
0.75
  7
ROMANS
100
AcDbAttributeDefinition
  3
6-Änderung-Datum
  2
17
 70
     0
  0
ATTDEF
  5
E2
330
1403
100
AcDbEntity
  8
TEXT
100
AcDbText
 10
18.75
 20
283.0
 30
0.0
 40
2.5
  1

 50
90.0
 41
0.75
  7
ROMANS
100
AcDbAttributeDefinition
  3
6-Änderung-Name
  2
18
 70
     0
  0
LINE
  5
E3
330
1403
100
AcDbEntity
  8
HILFSLINIEN
100
AcDbLine
 10
20.0
 20
297.0
 30
0.0
 11
20.0
 21
0.0
 31
0.0
  0
LINE
  5
E4
330
1403
100
AcDbEntity
  8
HILFSLINIEN
100
AcDbLine
 10
0.0
 20
183.5
 30
0.0
 11
20.0
 21
183.5
 31
0.0
  0
LINE
  5
E5
330
1403
100
AcDbEntity
  8
HILFSLINIEN
100
AcDbLine
 10
0.0
 20
113.5
 30
0.0
 11
20.0
 21
113.5
 31
0.0
  0
TEXT
  5
E6
330
1403
100
AcDbEntity
  8
TEXT
100
AcDbText
 10
9.847940365286088
 20
113.5
 30
0.0
 40
1.8
  1
Diese Unterlagen bleiben unser Eigentum. Vervielfältigungen, Anfertigungen
 50
90.0
 41
0.6727073036792985
  7
ROMANS
 72
     5
 11
9.847940365286088
 21
183.5
 31
0.0
100
AcDbText
  0
TEXT
  5
E7
330
1403
100
AcDbEntity
  8
TEXT
100
AcDbText
 10
12.7622260795718
 20
113.5
 30
0.0
 40
1.8
  1
von Aufzeichnungen bezüglich des Inhaltes, die Weitergabe, auch des In-
 50
90.0
 41
0.6721536351165966
  7
ROMANS
 72
     5
 11
12.7622260795718
 21
183.5
 31
0.0
100
AcDbText
  0
TEXT
  5
E8
330
1403
100
AcDbEntity
  8
TEXT
100
AcDbText
 10
15.67651179385752
 20
113.5
 30
0.0
 40
1.8
  1
haltes an Dritte, sowie Verwertung des Inhaltes durch den Empfänger oder
 50
90.0
 41
0.6564844587352628
  7
ROMANS
 72
     5
 11
15.67651179385752
 21
183.5
 31
0.0
100
AcDbText
  0
TEXT
  5
E9
330
1403
100
AcDbEntity
  8
TEXT
100
AcDbText
 10
18.59079750814321
 20
113.5
 30
0.0
 40
1.8
  1
auf dessen Vermittlung durch Dritte, sind unzulässig und strafbar.
 50
90.0
 41
0.7451338199513366
  7
ROMANS
 72
     5
 11
18.59079750814321
 21
183.5
 31
0.0
100
AcDbText
  0
LINE
  5
EA
330
1403
100
AcDbEntity
  8
HILFSLINIEN
100
AcDbLine
 10
9.871991918659212
 20
113.4923292010233
 30
0.0
 11
9.871991918659212
 21
183.5399722751536
 31
0.0
  0
LINE
  5
EB
330
1403
100
AcDbEntity
  8
RAHMEN
100
AcDbLine
 10
20.0
 20
0.0
 30
0.0
 11
20.0
 21
5.0
 31
0.0
  0
LINE
  5
EC
330
1403
100
AcDbEntity
  8
RAHMEN
100
AcDbLine
 10
20.0
 20
297.0
 30
0.0
 11
20.0
 21
292.0
 31
0.0
  0
ENDBLK
  5
ED
330
1403
100
AcDbEntity
  8
0
100
AcDbBlockEnd
  0
BLOCK
  5
1406
330
1405
100
AcDbEntity
  8
0
100
AcDbBlockBegin
  2
KOPF4
 70
     2
 10
0.0
 20
0.0
 30
0.0
  3
KOPF4
  1

  0
LINE
  5
33E
330
1405
100
AcDbEntity
  8
RAHMEN
 62
     1
100
AcDbLine
 10
-140.0000402299779
 20
25.0
 30
0.0
 11
-185.0000402299779
 21
25.0
 31
0.0
  0
LINE
  5
33F
330
1405
100
AcDbEntity
  8
RAHMEN
 62
     1
100
AcDbLine
 10
-140.0000402299779
 20
30.0
 30
0.0
 11
-185.0000402299779
 21
30.0
 31
0.0
  0
LINE
  5
340
330
1405
100
AcDbEntity
  8
RAHMEN
 62
     1
100
AcDbLine
 10
-0.0000402299779694
 20
55.0
 30
0.0
 11
-185.0000402299779
 21
55.0
 31
0.0
  0
LINE
  5
341
330
1405
100
AcDbEntity
  8
RAHMEN
 62
     1
100
AcDbLine
 10
-0.0000402299779694
 20
50.0
 30
0.0
 11
-185.0000402299779
 21
50.0
 31
0.0
  0
LINE
  5
342
330
1405
100
AcDbEntity
  8
RAHMEN
 62
     1
100
AcDbLine
 10
-0.0000402299779694
 20
45.0
 30
0.0
 11
-185.0000402299779
 21
45.0
 31
0.0
  0
LINE
  5
343
330
1405
100
AcDbEntity
  8
RAHMEN
 62
     1
100
AcDbLine
 10
-0.0000402299779694
 20
40.0
 30
0.0
 11
-185.0000402299779
 21
40.0
 31
0.0
  0
LINE
  5
344
330
1405
100
AcDbEntity
  8
RAHMEN
 62
     1
100
AcDbLine
 10
-79.19579999999998
 20
20.0
 30
0.0
 11
-185.0000402299779
 21
20.0
 31
0.0
  0
LINE
  5
345
330
1405
100
AcDbEntity
  8
RAHMEN
 62
     1
100
AcDbLine
 10
-185.0000402299779
 20
0.0
 30
0.0
 11
-79.19579999999998
 21
0.0
 31
0.0
  0
LINE
  5
346
330
1405
100
AcDbEntity
  8
RAHMEN
 62
     1
100
AcDbLine
 10
-183.1958
 20
55.0
 30
0.0
 11
-0.0000402299779694
 21
55.0
 31
0.0
  0
LINE
  5
347
330
1405
100
AcDbEntity
  8
RAHMEN
 62
     1
100
AcDbLine
 10
-183.1958
 20
0.0
 30
0.0
 11
-0.0000402299779694
 21
0.0
 31
0.0
  0
LINE
  5
348
330
1405
100
AcDbEntity
  8
RAHMEN
 62
     1
100
AcDbLine
 10
-70.00004022997794
 20
15.0
 30
0.0
 11
-185.0000402299779
 21
15.0
 31
0.0
  0
LINE
  5
349
330
1405
100
AcDbEntity
  8
RAHMEN
 62
     1
100
AcDbLine
 10
-70.00004022997794
 20
20.0
 30
0.0
 11
-185.0000402299779
 21
20.0
 31
0.0
  0
LINE
  5
34A
330
1405
100
AcDbEntity
  8
RAHMEN
 62
     1
100
AcDbLine
 10
-185.0000402299779
 20
0.0
 30
0.0
 11
-185.0000402299779
 21
55.0
 31
0.0
  0
LINE
  5
34B
330
1405
100
AcDbEntity
  8
RAHMEN
 62
     1
100
AcDbLine
 10
-185.0000402299779
 20
0.0
 30
0.0
 11
-183.1958
 21
0.0
 31
0.0
  0
LINE
  5
34C
330
1405
100
AcDbEntity
  8
RAHMEN
 62
     1
100
AcDbLine
 10
-183.1958
 20
0.0
 30
0.0
 11
-183.1958
 21
0.0
 31
0.0
  0
LINE
  5
34D
330
1405
100
AcDbEntity
  8
RAHMEN
 62
     1
100
AcDbLine
 10
-175.1958
 20
10.0
 30
0.0
 11
-175.1958
 21
25.0
 31
0.0
  0
LINE
  5
34E
330
1405
100
AcDbEntity
  8
RAHMEN
 62
     1
100
AcDbLine
 10
-59.19579999999999
 20
20.0
 30
0.0
 11
-0.0000402299779694
 21
20.0
 31
0.0
  0
LINE
  5
34F
330
1405
100
AcDbEntity
  8
HILFSLINIEN
 62
     5
100
AcDbLine
 10
-140.0000402299779
 20
30.0
 30
0.0
 11
-0.0000402299779694
 21
30.0
 31
0.0
  0
LINE
  5
350
330
1405
100
AcDbEntity
  8
HILFSLINIEN
 62
     5
100
AcDbLine
 10
-142.5000402299779
 20
2.5
 30
0.0
 11
-142.5000402299779
 21
10.0
 31
0.0
  0
LINE
  5
351
330
1405
100
AcDbEntity
  8
RAHMEN
 62
     1
100
AcDbLine
 10
-157.1958
 20
10.0
 30
0.0
 11
-157.1958
 21
25.0
 31
0.0
  0
LINE
  5
352
330
1405
100
AcDbEntity
  8
RAHMEN
 62
     1
100
AcDbLine
 10
-150.0000402299779
 20
40.0
 30
0.0
 11
-150.0000402299779
 21
55.0
 31
0.0
  0
LINE
  5
353
330
1405
100
AcDbEntity
  8
RAHMEN
 62
     1
100
AcDbLine
 10
-140.0000402299779
 20
10.0
 30
0.0
 11
-140.0000402299779
 21
55.0
 31
0.0
  0
LINE
  5
354
330
1405
100
AcDbEntity
  8
HILFSLINIEN
 62
     5
100
AcDbLine
 10
-112.5000402299779
 20
10.0
 30
0.0
 11
-112.5000402299779
 21
2.5
 31
0.0
  0
LINE
  5
355
330
1405
100
AcDbEntity
  8
RAHMEN
 62
     1
100
AcDbLine
 10
-70.00004022997794
 20
0.0
 30
0.0
 11
-70.00004022997797
 21
20.0
 31
0.0
  0
LINE
  5
356
330
1405
100
AcDbEntity
  8
RAHMEN
 62
     1
100
AcDbLine
 10
-79.19579999999998
 20
0.0
 30
0.0
 11
-59.19579999999999
 21
0.0
 31
0.0
  0
LINE
  5
357
330
1405
100
AcDbEntity
  8
RAHMEN
 62
     1
100
AcDbLine
 10
-59.19579999999999
 20
20.0
 30
0.0
 11
-79.19579999999998
 21
20.0
 31
0.0
  0
LINE
  5
358
330
1405
100
AcDbEntity
  8
RAHMEN
 62
     1
100
AcDbLine
 10
-70.00004022997797
 20
40.0
 30
0.0
 11
-70.00004022997797
 21
55.0
 31
0.0
  0
LINE
  5
359
330
1405
100
AcDbEntity
  8
RAHMEN
 62
     1
100
AcDbLine
 10
-50.00004022997794
 20
0.0000000000000355
 30
0.0
 11
-50.00004022997797
 21
20.00000000000003
 31
0.0
  0
LINE
  5
35A
330
1405
100
AcDbEntity
  8
RAHMEN
 62
     1
100
AcDbLine
 10
-50.00004022997797
 20
40.0
 30
0.0
 11
-50.00004022997797
 21
55.0
 31
0.0
  0
LINE
  5
35B
330
1405
100
AcDbEntity
  8
RAHMEN
 62
     1
100
AcDbLine
 10
-40.00004022997797
 20
40.0
 30
0.0
 11
-40.00004022997797
 21
55.0
 31
0.0
  0
LINE
  5
35C
330
1405
100
AcDbEntity
  8
RAHMEN
 62
     1
100
AcDbLine
 10
-0.0000402299779694
 20
0.0
 30
0.0
 11
-0.0000402299779694
 21
55.0
 31
0.0
  0
LINE
  5
35D
330
1405
100
AcDbEntity
  8
RAHMEN
 62
     1
100
AcDbLine
 10
-20.00004022997797
 20
40.0
 30
0.0
 11
-20.00004022997797
 21
55.0
 31
0.0
  0
LINE
  5
35E
330
1405
100
AcDbEntity
  8
HILFSLINIEN
 62
     5
100
AcDbLine
 10
-0.0000402299779694
 20
45.75
 30
0.0
 11
-20.00004022997797
 21
45.75
 31
0.0
  0
LINE
  5
35F
330
1405
100
AcDbEntity
  8
HILFSLINIEN
 62
     5
100
AcDbLine
 10
-0.0000402299779694
 20
50.75
 30
0.0
 11
-20.00004022997797
 21
50.75
 31
0.0
  0
LINE
  5
360
330
1405
100
AcDbEntity
  8
HILFSLINIEN
 62
     5
100
AcDbLine
 10
-140.0000402299779
 20
32.5
 30
0.0
 11
-185.0000402299779
 21
32.5
 31
0.0
  0
LINE
  5
361
330
1405
100
AcDbEntity
  8
HILFSLINIEN
 62
     5
100
AcDbLine
 10
-140.0000402299779
 20
22.0
 30
0.0
 11
-0.0000402299779694
 21
22.0
 31
0.0
  0
LINE
  5
362
330
1405
100
AcDbEntity
  8
RAHMEN
 62
     1
100
AcDbLine
 10
-70.00004022997794
 20
10.0
 30
0.0
 11
-185.0000402299779
 21
10.0
 31
0.0
  0
LINE
  5
363
330
1405
100
AcDbEntity
  8
HILFSLINIEN
 62
     5
100
AcDbLine
 10
-0.0000402299779694
 20
2.499999999999999
 30
0.0
 11
-50.00004022997794
 21
2.499999999999999
 31
0.0
  0
LINE
  5
364
330
1405
100
AcDbEntity
  8
HILFSLINIEN
 62
     5
100
AcDbLine
 10
-0.0000402299779694
 20
41.0
 30
0.0
 11
-185.0000402299779
 21
41.0
 31
0.0
  0
LINE
  5
365
330
1405
100
AcDbEntity
  8
HILFSLINIEN
 62
     5
100
AcDbLine
 10
-140.0000402299779
 20
26.0
 30
0.0
 11
-185.0000402299779
 21
26.0
 31
0.0
  0
LINE
  5
366
330
1405
100
AcDbEntity
  8
HILFSLINIEN
 62
     5
100
AcDbLine
 10
-140.0000402299779
 20
21.0
 30
0.0
 11
-185.0000402299779
 21
21.0
 31
0.0
  0
LINE
  5
367
330
1405
100
AcDbEntity
  8
HILFSLINIEN
 62
     5
100
AcDbLine
 10
-0.0000402299779694
 20
16.00000000000001
 30
0.0
 11
-140.0000402299779
 21
16.0
 31
0.0
  0
LINE
  5
368
330
1405
100
AcDbEntity
  8
HILFSLINIEN
 62
     5
100
AcDbLine
 10
-70.00004022997796
 20
11.00000000000001
 30
0.0
 11
-140.0000402299779
 21
11.0
 31
0.0
  0
LINE
  5
369
330
1405
100
AcDbEntity
  8
HILFSLINIEN
 62
     5
100
AcDbLine
 10
-140.0000402299779
 20
10.75
 30
0.0
 11
-157.1958
 21
10.75
 31
0.0
  0
LINE
  5
36A
330
1405
100
AcDbEntity
  8
HILFSLINIEN
 62
     5
100
AcDbLine
 10
-175.1958
 20
16.0
 30
0.0
 11
-185.0000402299779
 21
16.0
 31
0.0
  0
LINE
  5
36B
330
1405
100
AcDbEntity
  8
HILFSLINIEN
 62
     5
100
AcDbLine
 10
-175.1958
 20
11.0
 30
0.0
 11
-185.0000402299779
 21
11.0
 31
0.0
  0
LINE
  5
36C
330
1405
100
AcDbEntity
  8
HILFSLINIEN
 62
     5
100
AcDbLine
 10
-140.0000402299779
 20
15.75
 30
0.0
 11
-157.1958
 21
15.75
 31
0.0
  0
TEXT
  5
36D
330
1405
100
AcDbEntity
  8
TEXT
100
AcDbText
 10
-178.3544303916816
 20
41.08052227112436
 30
0.0
 40
2.5
  1
Artikel-Nummer
 41
0.75
  7
ROMANS
 72
     1
 11
-167.1044303916816
 21
41.08052227112436
 31
0.0
100
AcDbText
  0
TEXT
  5
36E
330
1405
100
AcDbEntity
  8
TEXT
100
AcDbText
 10
-147.1932643448926
 20
41.08052227112436
 30
0.0
 40
2.5
  1
Teil
 41
0.75
  7
ROMANS
 72
     1
 11
-145.0950500591783
 21
41.08052227112436
 31
0.0
100
AcDbText
  0
TEXT
  5
36F
330
1405
100
AcDbEntity
  8
TEXT
100
AcDbText
 10
-174.4901878787306
 20
25.97728905893306
 30
0.0
 40
2.5
  1
Artikel-Nummer
 41
0.75
  7
ROMANS
 72
     1
 11
-163.2401878787306
 21
25.97728905893306
 31
0.0
100
AcDbText
  0
TEXT
  5
370
330
1405
100
AcDbEntity
  8
TEXT
100
AcDbText
 10
-171.1093269294519
 20
20.94287798820262
 30
0.0
 40
2.5
  1
Datum
 41
0.75
  7
ROMANS
 72
     1
 11
-166.6003983580233
 21
20.94287798820262
 31
0.0
100
AcDbText
  0
TEXT
  5
371
330
1405
100
AcDbEntity
  8
TEXT
100
AcDbText
 10
-152.8091390371002
 20
20.94287798820262
 30
0.0
 40
2.5
  1
Name
 41
0.75
  7
ROMANS
 72
     1
 11
-148.7912818942431
 21
20.94287798820262
 31
0.0
100
AcDbText
  0
TEXT
  5
372
330
1405
100
AcDbEntity
  8
TEXT
100
AcDbText
 10
-184.0734942356386
 20
16.07628075171095
 30
0.0
 40
2.5
  1
Gez.:
 41
0.75
  7
ROMANS
100
AcDbText
  0
TEXT
  5
373
330
1405
100
AcDbEntity
  8
TEXT
100
AcDbText
 10
-183.9054843273598
 20
11.0418696809805
 30
0.0
 40
2.5
  1
Gepr.:
 41
0.75
  7
ROMANS
100
AcDbText
  0
TEXT
  5
374
330
1405
100
AcDbEntity
  8
TEXT
100
AcDbText
 10
-139.0466702729225
 20
11.0418696809805
 30
0.0
 40
2.5
  1
Ersatz für:
 41
0.75
  7
ROMANS
100
AcDbText
  0
TEXT
  5
375
330
1405
100
AcDbEntity
  8
TEXT
100
AcDbText
 10
-138.8786603646438
 20
16.07628075171095
 30
0.0
 40
2.5
  1
Nicht tolerierte Maße nach DIN 7168-m
 41
0.75
  7
ROMANS
100
AcDbText
  0
TEXT
  5
376
330
1405
100
AcDbEntity
  8
TEXT
100
AcDbText
 10
-139.0294041087637
 20
2.483371168461284
 30
0.0
 40
2.5
  1
Bohrfutterfabrik
 41
0.75
  7
ROMANS
 72
     1
 11
-127.9579755373352
 21
2.483371168461284
 31
0.0
100
AcDbText
  0
TEXT
  5
377
330
1405
100
AcDbEntity
  8
TEXT
100
AcDbText
 10
-65.84064642411387
 20
16.07628075171095
 30
0.0
 40
2.5
  1
Maßstab
 41
0.75
  7
ROMANS
 72
     1
 11
-60.0817178526853
 21
16.07628075171095
 31
0.0
100
AcDbText
  0
TEXT
  5
378
330
1405
100
AcDbEntity
  8
TEXT
100
AcDbText
 10
-40.97557871727793
 20
15.90846691747219
 30
0.0
 40
2.5
  1
Zeichnungs-Nummer
 41
0.75
  7
ROMANS
 72
     1
 11
-25.97557871727794
 21
15.90846691747219
 31
0.0
100
AcDbText
  0
TEXT
  5
379
330
1405
100
AcDbEntity
  8
TEXT
100
AcDbText
 10
-113.7505336845391
 20
40.91270887648915
 30
0.0
 40
2.5
  1
Benennung
 41
0.75
  7
ROMANS
 72
     1
 11
-106.1166051131106
 21
40.91270887648915
 31
0.0
100
AcDbText
  0
TEXT
  5
37A
330
1405
100
AcDbEntity
  8
TEXT
100
AcDbText
 10
-68.88692223012085
 20
41.08052227112436
 30
0.0
 40
2.5
  1
Zeichng.-Nr.
 41
0.75
  7
ROMANS
 72
     1
 11
-59.91370794440658
 21
41.08052227112436
 31
0.0
100
AcDbText
  0
TEXT
  5
37B
330
1405
100
AcDbEntity
  8
TEXT
100
AcDbText
 10
-48.84469849768938
 20
41.08052227112436
 30
0.0
 40
2.5
  1
Stück
 41
0.75
  7
ROMANS
 72
     1
 11
-44.96076992626082
 21
41.08052227112436
 31
0.0
100
AcDbText
  0
TEXT
  5
37C
330
1405
100
AcDbEntity
  8
TEXT
100
AcDbText
 10
-37.10844604823094
 20
41.08052227112436
 30
0.0
 40
2.5
  1
Werkstoff
 41
0.75
  7
ROMANS
 72
     1
 11
-30.67987461965952
 21
41.08052227112436
 31
0.0
100
AcDbText
  0
TEXT
  5
37D
330
1405
100
AcDbEntity
  8
TEXT
100
AcDbText
 10
-16.02024238394536
 20
41.08052227112436
 30
0.0
 40
2.5
  1
Rohmaß
 41
0.75
  7
ROMANS
 72
     1
 11
-10.3505995268025
 21
41.08052227112436
 31
0.0
100
AcDbText
  0
TEXT
  5
37E
330
1405
100
AcDbEntity
  8
TEXT
 62
     1
100
AcDbText
 10
-183.6163752712799
 20
2.472465488844568
 30
0.0
 40
5.0
  1
Josef Albrecht
 41
0.75
  7
ROMAND
100
AcDbText
  0
TEXT
  5
37F
330
1405
100
AcDbEntity
  8
TEXT
 62
     1
100
AcDbText
 10
-113.9761284192554
 20
2.472465488844568
 30
0.0
 40
5.0
  1
73249 Wernau
 41
0.75
  7
ROMAND
100
AcDbText
  0
LINE
  5
380
330
1405
100
AcDbEntity
  8
HILFSLINIEN
100
AcDbLine
 10
-70.00004022997796
 20
11.00000000000001
 30
0.0
 11
-50.00004022997796
 21
11.00000000000004
 31
0.0
  0
LINE
  5
381
330
1405
100
AcDbEntity
  8
HILFSLINIEN
 62
     5
100
AcDbLine
 10
-50.00004022997794
 20
2.499999999999999
 30
0.0
 11
-70.00004022997794
 21
2.499999999999999
 31
0.0
  0
LINE
  5
382
330
1405
100
AcDbEntity
  8
HILFSLINIEN
 62
     5
100
AcDbLine
 10
-70.00004022997794
 20
2.499999999999999
 30
0.0
 11
-185.0000402299779
 21
2.5
 31
0.0
  0
LINE
  5
383
330
1405
100
AcDbEntity
  8
HILFSLINIEN
 62
     5
100
AcDbLine
 10
-150.0000402299779
 20
50.75
 30
0.0
 11
-185.0000402299779
 21
50.75
 31
0.0
  0
LINE
  5
384
330
1405
100
AcDbEntity
  8
HILFSLINIEN
 62
     5
100
AcDbLine
 10
-140.0000402299779
 20
50.75
 30
0.0
 11
-150.0000402299779
 21
50.75
 31
0.0
  0
LINE
  5
385
330
1405
100
AcDbEntity
  8
HILFSLINIEN
 62
     5
100
AcDbLine
 10
-70.00004022997797
 20
50.74999999999999
 30
0.0
 11
-140.0000402299779
 21
50.75
 31
0.0
  0
LINE
  5
386
330
1405
100
AcDbEntity
  8
HILFSLINIEN
 62
     5
100
AcDbLine
 10
-50.00004022997797
 20
50.74999999999999
 30
0.0
 11
-70.00004022997797
 21
50.75
 31
0.0
  0
LINE
  5
387
330
1405
100
AcDbEntity
  8
HILFSLINIEN
 62
     5
100
AcDbLine
 10
-40.00004022997797
 20
50.74999999999999
 30
0.0
 11
-50.00004022997797
 21
50.75
 31
0.0
  0
LINE
  5
388
330
1405
100
AcDbEntity
  8
HILFSLINIEN
 62
     5
100
AcDbLine
 10
-20.00004022997797
 20
50.75
 30
0.0
 11
-40.00004022997797
 21
50.75
 31
0.0
  0
LINE
  5
389
330
1405
100
AcDbEntity
  8
HILFSLINIEN
 62
     5
100
AcDbLine
 10
-150.0000402299779
 20
45.75
 30
0.0
 11
-185.0000402299779
 21
45.75
 31
0.0
  0
LINE
  5
38A
330
1405
100
AcDbEntity
  8
HILFSLINIEN
 62
     5
100
AcDbLine
 10
-140.0000402299779
 20
45.75
 30
0.0
 11
-150.0000402299779
 21
45.75
 31
0.0
  0
LINE
  5
38B
330
1405
100
AcDbEntity
  8
HILFSLINIEN
 62
     5
100
AcDbLine
 10
-70.00004022997797
 20
45.75
 30
0.0
 11
-140.0000402299779
 21
45.75
 31
0.0
  0
LINE
  5
38C
330
1405
100
AcDbEntity
  8
HILFSLINIEN
 62
     5
100
AcDbLine
 10
-40.00004022997798
 20
45.75000000000001
 30
0.0
 11
-50.6537323585501
 21
45.75
 31
0.0
  0
LINE
  5
38D
330
1405
100
AcDbEntity
  8
HILFSLINIEN
 62
     5
100
AcDbLine
 10
-20.00004022997797
 20
45.75
 30
0.0
 11
-40.00004022997797
 21
45.75
 31
0.0
  0
LINE
  5
38E
330
1405
100
AcDbEntity
  8
HILFSLINIEN
100
AcDbLine
 10
-70.00004022997797
 20
45.75
 30
0.0
 11
-50.00004022997797
 21
45.75
 31
0.0
  0
LINE
  5
38F
330
1405
100
AcDbEntity
  8
HILFSLINIEN
 62
     5
100
AcDbLine
 10
-157.1958
 20
15.75
 30
0.0
 11
-175.1958
 21
15.75
 31
0.0
  0
LINE
  5
390
330
1405
100
AcDbEntity
  8
HILFSLINIEN
 62
     5
100
AcDbLine
 10
-157.1958
 20
10.75
 30
0.0
 11
-175.1958
 21
10.75
 31
0.0
  0
ATTDEF
  5
391
330
1405
100
AcDbEntity
  8
TEXT
 62
     1
100
AcDbText
 10
-70.0
 20
30.0
 30
0.0
 40
7.5
  1

 41
0.75
  7
ROMAND
 72
     1
 11
-70.0
 21
30.0
 31
0.0
100
AcDbAttributeDefinition
  3
Zeichn.-Name(29Z)
  2
1
 70
     0
  0
ATTDEF
  5
392
330
1405
100
AcDbEntity
  8
TEXT
 62
     1
100
AcDbText
 10
-70.0
 20
22.0
 30
0.0
 40
5.0
  1

 41
0.75
  7
ROMAND
 72
     1
 11
-70.0
 21
22.0
 31
0.0
100
AcDbAttributeDefinition
  3
Zusatzinfo(40Z)
  2
2
 70
     0
  0
ATTDEF
  5
393
330
1405
100
AcDbEntity
  8
TEXT
 62
     1
100
AcDbText
 10
-25.0
 20
2.5
 30
0.0
 40
7.5
  1

 41
0.75
  7
ROMAND
 72
     1
 11
-25.0
 21
2.5
 31
0.0
100
AcDbAttributeDefinition
  3
Zeichn.-Nummer
  2
3
 70
     0
  0
ATTDEF
  5
394
330
1405
100
AcDbEntity
  8
TEXT
 62
     1
100
AcDbText
 10
-162.5
 20
32.5
 30
0.0
 40
5.0
  1

 41
0.65
  7
ROMAND
 72
     1
 11
-162.5
 21
32.5
 31
0.0
100
AcDbAttributeDefinition
  3
Art.-Nummer
  2
4
 70
     0
  0
ATTDEF
  5
395
330
1405
100
AcDbEntity
  8
TEXT
 62
     1
100
AcDbText
 10
-60.0
 20
2.5
 30
0.0
 40
7.5
  1

 41
0.75
  7
ROMAND
 72
     1
 11
-60.0
 21
2.5
 31
0.0
100
AcDbAttributeDefinition
  3
Maßstab 1
  2
5
 70
     0
  0
ATTDEF
  5
396
330
1405
100
AcDbEntity
  8
TEXT
100
AcDbText
 10
-60.0
 20
11.0
 30
0.0
 40
3.5
  1

 41
0.75
  7
ROMAND
 72
     1
 11
-60.0
 21
11.0
 31
0.0
100
AcDbAttributeDefinition
  3
Maßstab 2
  2
6
 70
     0
  0
ATTDEF
  5
397
330
1405
100
AcDbEntity
  8
TEXT
100
AcDbText
 10
-166.1958
 20
15.75
 30
0.0
 40
3.5
  1

 41
0.75
  7
ROMAND
 72
     1
 11
-166.1958
 21
15.75
 31
0.0
100
AcDbAttributeDefinition
  3
Gez.Datum(6Z)
  2
7
 70
     0
  0
ATTDEF
  5
398
330
1405
100
AcDbEntity
  8
TEXT
100
AcDbText
 10
-148.5979
 20
15.75
 30
0.0
 40
3.5
  1

 41
0.75
  7
ROMAND
 72
     1
 11
-148.5979
 21
15.75
 31
0.0
100
AcDbAttributeDefinition
  3
Gez.Name(Kurzz.)
  2
8
 70
     0
  0
ATTDEF
  5
399
330
1405
100
AcDbEntity
  8
TEXT
100
AcDbText
 10
-166.1958
 20
10.75
 30
0.0
 40
3.5
  1

 41
0.75
  7
ROMAND
 72
     1
 11
-166.1958
 21
10.75
 31
0.0
100
AcDbAttributeDefinition
  3
Gepr.Datum(6Z)
  2
9
 70
     0
  0
ATTDEF
  5
39A
330
1405
100
AcDbEntity
  8
TEXT
100
AcDbText
 10
-148.5979
 20
10.75
 30
0.0
 40
3.5
  1

 41
0.75
  7
ROMAND
 72
     1
 11
-148.5979
 21
10.75
 31
0.0
100
AcDbAttributeDefinition
  3
Gepr.Name(Kurzz.)
  2
10
 70
     0
  0
ATTDEF
  5
39B
330
1405
100
AcDbEntity
  8
TEXT
100
AcDbText
 10
-121.2618
 20
11.1168
 30
0.0
 40
2.5
  1

 41
0.75
  7
ROMAND
100
AcDbAttributeDefinition
  3
Ersatz für
  2
11
 70
     0
  0
ATTDEF
  5
39C
330
1405
100
AcDbEntity
  8
TEXT
100
AcDbText
 10
-167.5
 20
45.75
 30
0.0
 40
3.5
  1

 41
0.65
  7
ROMAND
 72
     1
 11
-167.5
 21
45.75
 31
0.0
100
AcDbAttributeDefinition
  3
Pos.-Art.-Nr.
  2
12
 70
     0
  0
ATTDEF
  5
39D
330
1405
100
AcDbEntity
  8
TEXT
100
AcDbText
 10
-143.3633
 20
45.7664
 30
0.0
 40
3.5
  1

 41
0.65
  7
ROMAND
 72
     2
 11
-143.3633
 21
45.7664
 31
0.0
100
AcDbAttributeDefinition
  3
Teil
  2
13
 70
     0
  0
ATTDEF
  5
39E
330
1405
100
AcDbEntity
  8
TEXT
100
AcDbText
 10
-137.7383
 20
45.7664
 30
0.0
 40
3.5
  1

 41
0.65
  7
ROMAND
100
AcDbAttributeDefinition
  3
Benennung
  2
14
 70
     0
  0
ATTDEF
  5
39F
330
1405
100
AcDbEntity
  8
TEXT
100
AcDbText
 10
-69.6524
 20
45.7664
 30
0.0
 40
3.5
  1

 41
0.65
  7
ROMAND
100
AcDbAttributeDefinition
  3
Zeichn.-Nr.
  2
15
 70
     0
  0
ATTDEF
  5
3A0
330
1405
100
AcDbEntity
  8
TEXT
100
AcDbText
 10
-45.3269
 20
45.75
 30
0.0
 40
3.5
  1

 41
0.65
  7
ROMAND
 72
     1
 11
-45.3269
 21
45.75
 31
0.0
100
AcDbAttributeDefinition
  3
Stück
  2
16
 70
     0
  0
ATTDEF
  5
3A1
330
1405
100
AcDbEntity
  8
TEXT
100
AcDbText
 10
-39.9789
 20
45.7664
 30
0.0
 40
3.5
  1

 41
0.65
  7
ROMAND
100
AcDbAttributeDefinition
  3
Werkstoff
  2
17
 70
     0
  0
ATTDEF
  5
3A2
330
1405
100
AcDbEntity
  8
TEXT
100
AcDbText
 10
-19.3555
 20
45.7664
 30
0.0
 40
3.5
  1

 41
0.6
  7
ROMAND
100
AcDbAttributeDefinition
  3
Rohmaß
  2
18
 70
     0
  0
TEXT
  5
3A3
330
1405
100
AcDbEntity
  8
TEXT
100
AcDbText
 10
-183.8076187041216
 20
20.45208064093261
 30
0.0
 40
3.5
  1
CAD
 41
0.75
  7
ROMAND
100
AcDbText
  0
ATTDEF
  5
3A4
330
1405
100
AcDbEntity
  8
TEXT
100
AcDbText
 10
-167.5
 20
50.75
 30
0.0
 40
3.5
  1

 41
0.65
  7
ROMAND
 72
     1
 11
-167.5
 21
50.75
 31
0.0
100
AcDbAttributeDefinition
  3
Pos.-Art.-Nr.
  2
19
 70
     0
  0
ATTDEF
  5
3A5
330
1405
100
AcDbEntity
  8
TEXT
100
AcDbText
 10
-143.3633
 20
50.75
 30
0.0
 40
3.5
  1

 41
0.65
  7
ROMAND
 72
     2
 11
-143.3633
 21
50.75
 31
0.0
100
AcDbAttributeDefinition
  3
Teil
  2
20
 70
     0
  0
ATTDEF
  5
3A6
330
1405
100
AcDbEntity
  8
TEXT
100
AcDbText
 10
-137.7383
 20
50.8276
 30
0.0
 40
3.5
  1

 41
0.65
  7
ROMAND
100
AcDbAttributeDefinition
  3
Benennung
  2
21
 70
     0
  0
ATTDEF
  5
3A7
330
1405
100
AcDbEntity
  8
TEXT
100
AcDbText
 10
-69.6524
 20
50.8276
 30
0.0
 40
3.5
  1

 41
0.65
  7
ROMAND
100
AcDbAttributeDefinition
  3
Zeichng.-Nr.
  2
22
 70
     0
  0
ATTDEF
  5
3A8
330
1405
100
AcDbEntity
  8
TEXT
100
AcDbText
 10
-45.3269
 20
50.8276
 30
0.0
 40
3.5
  1

 41
0.65
  7
ROMAND
 72
     1
 11
-45.3269
 21
50.8276
 31
0.0
100
AcDbAttributeDefinition
  3
Stück
  2
23
 70
     0
  0
ATTDEF
  5
3A9
330
1405
100
AcDbEntity
  8
TEXT
100
AcDbText
 10
-39.9789
 20
50.8276
 30
0.0
 40
3.5
  1

 41
0.65
  7
ROMAND
100
AcDbAttributeDefinition
  3
Werkstoff
  2
24
 70
     0
  0
ATTDEF
  5
3AA
330
1405
100
AcDbEntity
  8
TEXT
100
AcDbText
 10
-19.3555
 20
50.8276
 30
0.0
 40
3.5
  1

 41
0.6
  7
ROMAND
100
AcDbAttributeDefinition
  3
Rohmaß
  2
25
 70
     0
  0
ENDBLK
  5
3AC
330
1405
100
AcDbEntity
  8
0
100
AcDbBlockEnd
  0
BLOCK
  5
1408
330
1407
100
AcDbEntity
  8
0
100
AcDbBlockBegin
  2
ZEICHNUNGS-KOPF1-APRIL-05
 70
     2
 10
0.0
 20
0.0
 30
0.0
  3
ZEICHNUNGS-KOPF1-APRIL-05
  1

  0
LINE
  5
81F
330
1407
100
AcDbEntity
  8
RAHMEN
 62
     1
100
AcDbLine
 10
-140.0000402299779
 20
25.0
 30
0.0
 11
-185.0000402299779
 21
25.0
 31
0.0
  0
LINE
  5
820
330
1407
100
AcDbEntity
  8
RAHMEN
 62
     1
100
AcDbLine
 10
-140.0000402299779
 20
30.0
 30
0.0
 11
-185.0000402299779
 21
30.0
 31
0.0
  0
LINE
  5
821
330
1407
100
AcDbEntity
  8
RAHMEN
 62
     1
100
AcDbLine
 10
-0.0000402299779694
 20
55.0
 30
0.0
 11
-185.0000402299779
 21
55.0
 31
0.0
  0
LINE
  5
822
330
1407
100
AcDbEntity
  8
RAHMEN
 62
     1
100
AcDbLine
 10
-0.0000402299779694
 20
50.0
 30
0.0
 11
-185.0000402299779
 21
50.0
 31
0.0
  0
LINE
  5
823
330
1407
100
AcDbEntity
  8
RAHMEN
 62
     1
100
AcDbLine
 10
-0.0000402299779694
 20
45.0
 30
0.0
 11
-185.0000402299779
 21
45.0
 31
0.0
  0
LINE
  5
824
330
1407
100
AcDbEntity
  8
RAHMEN
 62
     1
100
AcDbLine
 10
-0.0000402299779694
 20
40.0
 30
0.0
 11
-185.0000402299779
 21
40.0
 31
0.0
  0
LINE
  5
825
330
1407
100
AcDbEntity
  8
RAHMEN
 62
     1
100
AcDbLine
 10
-79.19579999999998
 20
20.0
 30
0.0
 11
-185.0000402299779
 21
20.0
 31
0.0
  0
LINE
  5
826
330
1407
100
AcDbEntity
  8
RAHMEN
 62
     1
100
AcDbLine
 10
-185.0000402299779
 20
0.0
 30
0.0
 11
-79.19579999999998
 21
0.0
 31
0.0
  0
LINE
  5
827
330
1407
100
AcDbEntity
  8
RAHMEN
 62
     1
100
AcDbLine
 10
-183.1958
 20
55.0
 30
0.0
 11
-0.0000402299779694
 21
55.0
 31
0.0
  0
LINE
  5
828
330
1407
100
AcDbEntity
  8
RAHMEN
 62
     1
100
AcDbLine
 10
-183.1958
 20
0.0
 30
0.0
 11
-0.0000402299779694
 21
0.0
 31
0.0
  0
LINE
  5
829
330
1407
100
AcDbEntity
  8
RAHMEN
 62
     1
100
AcDbLine
 10
-73.00004022997796
 20
15.0
 30
0.0
 11
-185.0000402299779
 21
15.0
 31
0.0
  0
LINE
  5
82A
330
1407
100
AcDbEntity
  8
RAHMEN
 62
     1
100
AcDbLine
 10
-70.00004022997794
 20
20.0
 30
0.0
 11
-185.0000402299779
 21
20.0
 31
0.0
  0
LINE
  5
82B
330
1407
100
AcDbEntity
  8
RAHMEN
 62
     1
100
AcDbLine
 10
-185.0000402299779
 20
0.0
 30
0.0
 11
-185.0000402299779
 21
55.0
 31
0.0
  0
LINE
  5
82C
330
1407
100
AcDbEntity
  8
RAHMEN
 62
     1
100
AcDbLine
 10
-185.0000402299779
 20
0.0
 30
0.0
 11
-183.1958
 21
0.0
 31
0.0
  0
LINE
  5
82D
330
1407
100
AcDbEntity
  8
RAHMEN
 62
     1
100
AcDbLine
 10
-183.1958
 20
0.0
 30
0.0
 11
-183.1958
 21
0.0
 31
0.0
  0
LINE
  5
82E
330
1407
100
AcDbEntity
  8
RAHMEN
 62
     1
100
AcDbLine
 10
-175.1958
 20
10.0
 30
0.0
 11
-175.1958
 21
25.0
 31
0.0
  0
LINE
  5
82F
330
1407
100
AcDbEntity
  8
RAHMEN
 62
     1
100
AcDbLine
 10
-59.19579999999999
 20
20.0
 30
0.0
 11
-0.0000402299779694
 21
20.0
 31
0.0
  0
LINE
  5
830
330
1407
100
AcDbEntity
  8
HILFSLINIEN
 62
     5
100
AcDbLine
 10
-140.0000402299779
 20
30.0
 30
0.0
 11
-0.0000402299779694
 21
30.0
 31
0.0
  0
LINE
  5
831
330
1407
100
AcDbEntity
  8
HILFSLINIEN
 62
     5
100
AcDbLine
 10
-142.5000402299779
 20
2.5
 30
0.0
 11
-142.5000402299779
 21
10.0
 31
0.0
  0
LINE
  5
832
330
1407
100
AcDbEntity
  8
RAHMEN
 62
     1
100
AcDbLine
 10
-157.1958
 20
10.0
 30
0.0
 11
-157.1958
 21
25.0
 31
0.0
  0
LINE
  5
833
330
1407
100
AcDbEntity
  8
RAHMEN
 62
     1
100
AcDbLine
 10
-150.0000402299779
 20
40.0
 30
0.0
 11
-150.0000402299779
 21
55.0
 31
0.0
  0
LINE
  5
834
330
1407
100
AcDbEntity
  8
RAHMEN
 62
     1
100
AcDbLine
 10
-140.0000402299779
 20
10.0
 30
0.0
 11
-140.0000402299779
 21
55.0
 31
0.0
  0
LINE
  5
835
330
1407
100
AcDbEntity
  8
HILFSLINIEN
 62
     5
100
AcDbLine
 10
-112.5000402299779
 20
10.0
 30
0.0
 11
-112.5000402299779
 21
2.5
 31
0.0
  0
LINE
  5
836
330
1407
100
AcDbEntity
  8
RAHMEN
 62
     1
100
AcDbLine
 10
-73.00004022997794
 20
0.0
 30
0.0
 11
-73.00004022997796
 21
20.0
 31
0.0
  0
LINE
  5
837
330
1407
100
AcDbEntity
  8
RAHMEN
 62
     1
100
AcDbLine
 10
-79.19579999999998
 20
0.0
 30
0.0
 11
-59.19579999999999
 21
0.0
 31
0.0
  0
LINE
  5
838
330
1407
100
AcDbEntity
  8
RAHMEN
 62
     1
100
AcDbLine
 10
-59.19579999999999
 20
20.0
 30
0.0
 11
-79.19579999999998
 21
20.0
 31
0.0
  0
LINE
  5
839
330
1407
100
AcDbEntity
  8
RAHMEN
 62
     1
100
AcDbLine
 10
-70.00004022997797
 20
40.0
 30
0.0
 11
-70.00004022997797
 21
55.0
 31
0.0
  0
LINE
  5
83A
330
1407
100
AcDbEntity
  8
RAHMEN
 62
     1
100
AcDbLine
 10
-58.00004022997794
 20
0.0000000000000355
 30
0.0
 11
-58.00004022997796
 21
20.00000000000003
 31
0.0
  0
LINE
  5
83B
330
1407
100
AcDbEntity
  8
RAHMEN
 62
     1
100
AcDbLine
 10
-50.00004022997797
 20
40.0
 30
0.0
 11
-50.00004022997797
 21
55.0
 31
0.0
  0
LINE
  5
83C
330
1407
100
AcDbEntity
  8
RAHMEN
 62
     1
100
AcDbLine
 10
-40.00004022997797
 20
40.0
 30
0.0
 11
-40.00004022997797
 21
55.0
 31
0.0
  0
LINE
  5
83D
330
1407
100
AcDbEntity
  8
RAHMEN
 62
     1
100
AcDbLine
 10
-0.0000402299779694
 20
0.0
 30
0.0
 11
-0.0000402299779694
 21
55.0
 31
0.0
  0
LINE
  5
83E
330
1407
100
AcDbEntity
  8
RAHMEN
 62
     1
100
AcDbLine
 10
-20.00004022997797
 20
40.0
 30
0.0
 11
-20.00004022997797
 21
55.0
 31
0.0
  0
LINE
  5
83F
330
1407
100
AcDbEntity
  8
HILFSLINIEN
 62
     5
100
AcDbLine
 10
-0.0000402299779694
 20
45.75
 30
0.0
 11
-20.00004022997797
 21
45.75
 31
0.0
  0
LINE
  5
840
330
1407
100
AcDbEntity
  8
HILFSLINIEN
 62
     5
100
AcDbLine
 10
-0.0000402299779694
 20
50.75
 30
0.0
 11
-20.00004022997797
 21
50.75
 31
0.0
  0
LINE
  5
841
330
1407
100
AcDbEntity
  8
HILFSLINIEN
 62
     5
100
AcDbLine
 10
-140.0000402299779
 20
32.5
 30
0.0
 11
-185.0000402299779
 21
32.5
 31
0.0
  0
LINE
  5
842
330
1407
100
AcDbEntity
  8
HILFSLINIEN
 62
     5
100
AcDbLine
 10
-140.0000402299779
 20
22.0
 30
0.0
 11
-0.0000402299779694
 21
22.0
 31
0.0
  0
LINE
  5
843
330
1407
100
AcDbEntity
  8
RAHMEN
 62
     1
100
AcDbLine
 10
-73.00004022997796
 20
10.0
 30
0.0
 11
-185.0000402299779
 21
10.0
 31
0.0
  0
LINE
  5
844
330
1407
100
AcDbEntity
  8
HILFSLINIEN
 62
     5
100
AcDbLine
 10
-0.0000402299779694
 20
2.499999999999999
 30
0.0
 11
-50.00004022997794
 21
2.499999999999999
 31
0.0
  0
LINE
  5
845
330
1407
100
AcDbEntity
  8
HILFSLINIEN
 62
     5
100
AcDbLine
 10
-0.0000402299779694
 20
41.0
 30
0.0
 11
-185.0000402299779
 21
41.0
 31
0.0
  0
LINE
  5
846
330
1407
100
AcDbEntity
  8
HILFSLINIEN
 62
     5
100
AcDbLine
 10
-140.0000402299779
 20
26.0
 30
0.0
 11
-185.0000402299779
 21
26.0
 31
0.0
  0
LINE
  5
847
330
1407
100
AcDbEntity
  8
HILFSLINIEN
 62
     5
100
AcDbLine
 10
-140.0000402299779
 20
21.0
 30
0.0
 11
-185.0000402299779
 21
21.0
 31
0.0
  0
LINE
  5
848
330
1407
100
AcDbEntity
  8
HILFSLINIEN
 62
     5
100
AcDbLine
 10
-0.0000402299779694
 20
16.00000000000001
 30
0.0
 11
-140.0000402299779
 21
16.0
 31
0.0
  0
LINE
  5
849
330
1407
100
AcDbEntity
  8
HILFSLINIEN
 62
     5
100
AcDbLine
 10
-70.00004022997796
 20
11.00000000000001
 30
0.0
 11
-140.0000402299779
 21
11.0
 31
0.0
  0
LINE
  5
84A
330
1407
100
AcDbEntity
  8
HILFSLINIEN
 62
     5
100
AcDbLine
 10
-140.0000402299779
 20
10.75
 30
0.0
 11
-157.1958
 21
10.75
 31
0.0
  0
LINE
  5
84B
330
1407
100
AcDbEntity
  8
HILFSLINIEN
 62
     5
100
AcDbLine
 10
-175.1958
 20
16.0
 30
0.0
 11
-185.0000402299779
 21
16.0
 31
0.0
  0
LINE
  5
84C
330
1407
100
AcDbEntity
  8
HILFSLINIEN
 62
     5
100
AcDbLine
 10
-175.1958
 20
11.0
 30
0.0
 11
-185.0000402299779
 21
11.0
 31
0.0
  0
LINE
  5
84D
330
1407
100
AcDbEntity
  8
HILFSLINIEN
 62
     5
100
AcDbLine
 10
-140.0000402299779
 20
15.75
 30
0.0
 11
-157.1958
 21
15.75
 31
0.0
  0
TEXT
  5
84E
330
1407
100
AcDbEntity
  8
TEXT
100
AcDbText
 10
-178.3544303916816
 20
41.08052227112436
 30
0.0
 40
2.5
  1
Artikel-Nummer
 41
0.75
  7
ROMANS
 72
     1
 11
-167.1044303916816
 21
41.08052227112436
 31
0.0
100
AcDbText
  0
TEXT
  5
84F
330
1407
100
AcDbEntity
  8
TEXT
100
AcDbText
 10
-147.1932643448926
 20
41.08052227112436
 30
0.0
 40
2.5
  1
Teil
 41
0.75
  7
ROMANS
 72
     1
 11
-145.0950500591783
 21
41.08052227112436
 31
0.0
100
AcDbText
  0
TEXT
  5
850
330
1407
100
AcDbEntity
  8
TEXT
100
AcDbText
 10
-174.4901878787306
 20
25.97728905893306
 30
0.0
 40
2.5
  1
Artikel-Nummer
 41
0.75
  7
ROMANS
 72
     1
 11
-163.2401878787306
 21
25.97728905893306
 31
0.0
100
AcDbText
  0
TEXT
  5
851
330
1407
100
AcDbEntity
  8
TEXT
100
AcDbText
 10
-171.1093269294519
 20
20.94287798820262
 30
0.0
 40
2.5
  1
Datum
 41
0.75
  7
ROMANS
 72
     1
 11
-166.6003983580233
 21
20.94287798820262
 31
0.0
100
AcDbText
  0
TEXT
  5
852
330
1407
100
AcDbEntity
  8
TEXT
100
AcDbText
 10
-152.8091390371002
 20
20.94287798820262
 30
0.0
 40
2.5
  1
Name
 41
0.75
  7
ROMANS
 72
     1
 11
-148.7912818942431
 21
20.94287798820262
 31
0.0
100
AcDbText
  0
TEXT
  5
853
330
1407
100
AcDbEntity
  8
TEXT
100
AcDbText
 10
-184.0734942356386
 20
16.07628075171095
 30
0.0
 40
2.5
  1
Gez.:
 41
0.75
  7
ROMANS
100
AcDbText
  0
TEXT
  5
854
330
1407
100
AcDbEntity
  8
TEXT
100
AcDbText
 10
-183.9054843273598
 20
11.0418696809805
 30
0.0
 40
2.5
  1
Gepr.:
 41
0.75
  7
ROMANS
100
AcDbText
  0
TEXT
  5
855
330
1407
100
AcDbEntity
  8
TEXT
100
AcDbText
 10
-139.0466702729225
 20
11.0418696809805
 30
0.0
 40
2.5
  1
Ersatz für:
 41
0.75
  7
ROMANS
100
AcDbText
  0
TEXT
  5
856
330
1407
100
AcDbEntity
  8
TEXT
100
AcDbText
 10
-138.8786603646438
 20
16.07628075171095
 30
0.0
 40
2.5
  1
Nicht tolerierte Maße nach DIN 7168-m
 41
0.75
  7
ROMANS
100
AcDbText
  0
TEXT
  5
857
330
1407
100
AcDbEntity
  8
TEXT
100
AcDbText
 10
-141.0294041087638
 20
2.483371168461284
 30
0.0
 40
2.5
  1
Bohrfutterfabrik
 41
0.75
  7
ROMANS
 72
     1
 11
-129.9579755373352
 21
2.483371168461284
 31
0.0
100
AcDbText
  0
TEXT
  5
858
330
1407
100
AcDbEntity
  8
TEXT
100
AcDbText
 10
-71.34064642411388
 20
16.07628075171095
 30
0.0
 40
2.5
  1
Maßstab
 41
0.75
  7
ROMANS
 72
     1
 11
-65.58171785268531
 21
16.07628075171095
 31
0.0
100
AcDbText
  0
TEXT
  5
859
330
1407
100
AcDbEntity
  8
TEXT
100
AcDbText
 10
-48.97557871727793
 20
15.90846691747219
 30
0.0
 40
2.5
  1
Zeichnungs-Nummer
 41
0.75
  7
ROMANS
 72
     1
 11
-33.97557871727794
 21
15.90846691747219
 31
0.0
100
AcDbText
  0
TEXT
  5
85A
330
1407
100
AcDbEntity
  8
TEXT
100
AcDbText
 10
-113.7505336845391
 20
40.91270887648915
 30
0.0
 40
2.5
  1
Benennung
 41
0.75
  7
ROMANS
 72
     1
 11
-106.1166051131106
 21
40.91270887648915
 31
0.0
100
AcDbText
  0
TEXT
  5
85B
330
1407
100
AcDbEntity
  8
TEXT
100
AcDbText
 10
-68.88692223012085
 20
41.08052227112436
 30
0.0
 40
2.5
  1
Zeichng.-Nr.
 41
0.75
  7
ROMANS
 72
     1
 11
-59.91370794440658
 21
41.08052227112436
 31
0.0
100
AcDbText
  0
TEXT
  5
85C
330
1407
100
AcDbEntity
  8
TEXT
100
AcDbText
 10
-48.84469849768938
 20
41.08052227112436
 30
0.0
 40
2.5
  1
Stück
 41
0.75
  7
ROMANS
 72
     1
 11
-44.96076992626082
 21
41.08052227112436
 31
0.0
100
AcDbText
  0
TEXT
  5
85D
330
1407
100
AcDbEntity
  8
TEXT
100
AcDbText
 10
-37.10844604823094
 20
41.08052227112436
 30
0.0
 40
2.5
  1
Werkstoff
 41
0.75
  7
ROMANS
 72
     1
 11
-30.67987461965952
 21
41.08052227112436
 31
0.0
100
AcDbText
  0
TEXT
  5
85E
330
1407
100
AcDbEntity
  8
TEXT
100
AcDbText
 10
-16.02024238394536
 20
41.08052227112436
 30
0.0
 40
2.5
  1
Rohmaß
 41
0.75
  7
ROMANS
 72
     1
 11
-10.3505995268025
 21
41.08052227112436
 31
0.0
100
AcDbText
  0
TEXT
  5
85F
330
1407
100
AcDbEntity
  8
TEXT
 62
     1
100
AcDbText
 10
-184.6163752712799
 20
2.472465488844568
 30
0.0
 40
5.0
  1
Josef Albrecht
 41
0.75
  7
ROMAND
100
AcDbText
  0
TEXT
  5
860
330
1407
100
AcDbEntity
  8
TEXT
 62
     1
100
AcDbText
 10
-116.9761284192554
 20
2.472465488844568
 30
0.0
 40
5.0
  1
73249 Wernau
 41
0.75
  7
ROMAND
100
AcDbText
  0
LINE
  5
861
330
1407
100
AcDbEntity
  8
HILFSLINIEN
100
AcDbLine
 10
-70.00004022997796
 20
11.00000000000001
 30
0.0
 11
-50.00004022997796
 21
11.00000000000004
 31
0.0
  0
LINE
  5
862
330
1407
100
AcDbEntity
  8
HILFSLINIEN
 62
     5
100
AcDbLine
 10
-50.00004022997794
 20
2.499999999999999
 30
0.0
 11
-70.00004022997794
 21
2.499999999999999
 31
0.0
  0
LINE
  5
863
330
1407
100
AcDbEntity
  8
HILFSLINIEN
 62
     5
100
AcDbLine
 10
-70.00004022997794
 20
2.499999999999999
 30
0.0
 11
-185.0000402299779
 21
2.5
 31
0.0
  0
LINE
  5
864
330
1407
100
AcDbEntity
  8
HILFSLINIEN
 62
     5
100
AcDbLine
 10
-150.0000402299779
 20
50.75
 30
0.0
 11
-185.0000402299779
 21
50.75
 31
0.0
  0
LINE
  5
865
330
1407
100
AcDbEntity
  8
HILFSLINIEN
 62
     5
100
AcDbLine
 10
-140.0000402299779
 20
50.75
 30
0.0
 11
-150.0000402299779
 21
50.75
 31
0.0
  0
LINE
  5
866
330
1407
100
AcDbEntity
  8
HILFSLINIEN
 62
     5
100
AcDbLine
 10
-70.00004022997797
 20
50.74999999999999
 30
0.0
 11
-140.0000402299779
 21
50.75
 31
0.0
  0
LINE
  5
867
330
1407
100
AcDbEntity
  8
HILFSLINIEN
 62
     5
100
AcDbLine
 10
-50.00004022997797
 20
50.74999999999999
 30
0.0
 11
-70.00004022997797
 21
50.75
 31
0.0
  0
LINE
  5
868
330
1407
100
AcDbEntity
  8
HILFSLINIEN
 62
     5
100
AcDbLine
 10
-40.00004022997797
 20
50.74999999999999
 30
0.0
 11
-50.00004022997797
 21
50.75
 31
0.0
  0
LINE
  5
869
330
1407
100
AcDbEntity
  8
HILFSLINIEN
 62
     5
100
AcDbLine
 10
-20.00004022997797
 20
50.75
 30
0.0
 11
-40.00004022997797
 21
50.75
 31
0.0
  0
LINE
  5
86A
330
1407
100
AcDbEntity
  8
HILFSLINIEN
 62
     5
100
AcDbLine
 10
-150.0000402299779
 20
45.75
 30
0.0
 11
-185.0000402299779
 21
45.75
 31
0.0
  0
LINE
  5
86B
330
1407
100
AcDbEntity
  8
HILFSLINIEN
 62
     5
100
AcDbLine
 10
-140.0000402299779
 20
45.75
 30
0.0
 11
-150.0000402299779
 21
45.75
 31
0.0
  0
LINE
  5
86C
330
1407
100
AcDbEntity
  8
HILFSLINIEN
 62
     5
100
AcDbLine
 10
-70.00004022997797
 20
45.75
 30
0.0
 11
-140.0000402299779
 21
45.75
 31
0.0
  0
LINE
  5
86D
330
1407
100
AcDbEntity
  8
HILFSLINIEN
 62
     5
100
AcDbLine
 10
-40.00004022997798
 20
45.75000000000001
 30
0.0
 11
-50.6537323585501
 21
45.75
 31
0.0
  0
LINE
  5
86E
330
1407
100
AcDbEntity
  8
HILFSLINIEN
 62
     5
100
AcDbLine
 10
-20.00004022997797
 20
45.75
 30
0.0
 11
-40.00004022997797
 21
45.75
 31
0.0
  0
LINE
  5
86F
330
1407
100
AcDbEntity
  8
HILFSLINIEN
100
AcDbLine
 10
-70.00004022997797
 20
45.75
 30
0.0
 11
-50.00004022997797
 21
45.75
 31
0.0
  0
LINE
  5
870
330
1407
100
AcDbEntity
  8
HILFSLINIEN
 62
     5
100
AcDbLine
 10
-157.1958
 20
15.75
 30
0.0
 11
-175.1958
 21
15.75
 31
0.0
  0
LINE
  5
871
330
1407
100
AcDbEntity
  8
HILFSLINIEN
 62
     5
100
AcDbLine
 10
-157.1958
 20
10.75
 30
0.0
 11
-175.1958
 21
10.75
 31
0.0
  0
ATTDEF
  5
872
330
1407
100
AcDbEntity
  8
TEXT
 62
     1
100
AcDbText
 10
-70.0
 20
30.0
 30
0.0
 40
7.5
  1

 41
0.75
  7
ROMAND
 72
     1
 11
-70.0
 21
30.0
 31
0.0
100
AcDbAttributeDefinition
  3
Zeichn.-Name(29Z)
  2
1
 70
     0
  0
ATTDEF
  5
873
330
1407
100
AcDbEntity
  8
TEXT
 62
     1
100
AcDbText
 10
-70.0
 20
22.0
 30
0.0
 40
5.0
  1

 41
0.75
  7
ROMAND
 72
     1
 11
-70.0
 21
22.0
 31
0.0
100
AcDbAttributeDefinition
  3
Zusatzinfo(40Z)
  2
2
 70
     0
  0
ATTDEF
  5
874
330
1407
100
AcDbEntity
  8
TEXT
 62
     1
100
AcDbText
 10
-33.0
 20
2.5
 30
0.0
 40
7.5
  1

 41
0.75
  7
ROMAND
 72
     1
 11
-33.0
 21
2.5
 31
0.0
100
AcDbAttributeDefinition
  3
Zeichn.-Nummer
  2
3
 70
     0
  0
ATTDEF
  5
875
330
1407
100
AcDbEntity
  8
TEXT
 62
     1
100
AcDbText
 10
-162.5
 20
32.5
 30
0.0
 40
5.0
  1

 41
0.65
  7
ROMAND
 72
     1
 11
-162.5
 21
32.5
 31
0.0
100
AcDbAttributeDefinition
  3
Art.-Nummer
  2
4
 70
     0
  0
ATTDEF
  5
876
330
1407
100
AcDbEntity
  8
TEXT
 62
     1
100
AcDbText
 10
-65.5
 20
2.5
 30
0.0
 40
7.5
  1

 41
0.75
  7
ROMAND
 72
     1
 11
-65.5
 21
2.5
 31
0.0
100
AcDbAttributeDefinition
  3
Maßstab 1
  2
2:1
 70
     0
  0
ATTDEF
  5
877
330
1407
100
AcDbEntity
  8
TEXT
100
AcDbText
 10
-65.5
 20
11.0
 30
0.0
 40
3.5
  1

 41
0.75
  7
ROMAND
 72
     1
 11
-65.5
 21
11.0
 31
0.0
100
AcDbAttributeDefinition
  3
Maßstab 2
  2
6
 70
     0
  0
ATTDEF
  5
878
330
1407
100
AcDbEntity
  8
TEXT
100
AcDbText
 10
-166.1958
 20
15.75
 30
0.0
 40
3.5
  1

 41
0.75
  7
ROMAND
 72
     1
 11
-166.1958
 21
15.75
 31
0.0
100
AcDbAttributeDefinition
  3
Gez.Datum(6Z)
  2
7
 70
     0
  0
ATTDEF
  5
879
330
1407
100
AcDbEntity
  8
TEXT
100
AcDbText
 10
-148.5979
 20
15.75
 30
0.0
 40
3.5
  1

 41
0.75
  7
ROMAND
 72
     1
 11
-148.5979
 21
15.75
 31
0.0
100
AcDbAttributeDefinition
  3
Gez.Name(Kurzz.)
  2
8
 70
     0
  0
ATTDEF
  5
87A
330
1407
100
AcDbEntity
  8
TEXT
100
AcDbText
 10
-166.1958
 20
10.75
 30
0.0
 40
3.5
  1

 41
0.75
  7
ROMAND
 72
     1
 11
-166.1958
 21
10.75
 31
0.0
100
AcDbAttributeDefinition
  3
Gepr.Datum(6Z)
  2
9
 70
     0
  0
ATTDEF
  5
87B
330
1407
100
AcDbEntity
  8
TEXT
100
AcDbText
 10
-148.5979
 20
10.75
 30
0.0
 40
3.5
  1

 41
0.75
  7
ROMAND
 72
     1
 11
-148.5979
 21
10.75
 31
0.0
100
AcDbAttributeDefinition
  3
Gepr.Name(Kurzz.)
  2
10
 70
     0
  0
ATTDEF
  5
87C
330
1407
100
AcDbEntity
  8
TEXT
100
AcDbText
 10
-121.2618
 20
11.1168
 30
0.0
 40
2.5
  1

 41
0.75
  7
ROMAND
100
AcDbAttributeDefinition
  3
Ersatz für
  2
11
 70
     0
  0
ATTDEF
  5
87D
330
1407
100
AcDbEntity
  8
TEXT
100
AcDbText
 10
-167.5
 20
45.75
 30
0.0
 40
3.5
  1

 41
0.65
  7
ROMAND
 72
     1
 11
-167.5
 21
45.75
 31
0.0
100
AcDbAttributeDefinition
  3
Pos.-Art.-Nr.
  2
12
 70
     0
  0
ATTDEF
  5
87E
330
1407
100
AcDbEntity
  8
TEXT
100
AcDbText
 10
-143.3633
 20
45.7664
 30
0.0
 40
3.5
  1

 41
0.65
  7
ROMAND
 72
     2
 11
-143.3633
 21
45.7664
 31
0.0
100
AcDbAttributeDefinition
  3
Teil
  2
13
 70
     0
  0
ATTDEF
  5
87F
330
1407
100
AcDbEntity
  8
TEXT
100
AcDbText
 10
-137.7383
 20
45.7664
 30
0.0
 40
3.5
  1

 41
0.65
  7
ROMAND
100
AcDbAttributeDefinition
  3
Benennung
  2
14
 70
     0
  0
ATTDEF
  5
880
330
1407
100
AcDbEntity
  8
TEXT
100
AcDbText
 10
-69.6524
 20
45.7664
 30
0.0
 40
3.5
  1

 41
0.65
  7
ROMAND
100
AcDbAttributeDefinition
  3
Zeichn.-Nr.
  2
15
 70
     0
  0
ATTDEF
  5
881
330
1407
100
AcDbEntity
  8
TEXT
100
AcDbText
 10
-45.3269
 20
45.75
 30
0.0
 40
3.5
  1

 41
0.65
  7
ROMAND
 72
     1
 11
-45.3269
 21
45.75
 31
0.0
100
AcDbAttributeDefinition
  3
Stück
  2
16
 70
     0
  0
ATTDEF
  5
882
330
1407
100
AcDbEntity
  8
TEXT
100
AcDbText
 10
-39.9789
 20
45.7664
 30
0.0
 40
3.5
  1

 41
0.65
  7
ROMAND
100
AcDbAttributeDefinition
  3
Werkstoff
  2
17
 70
     0
  0
ATTDEF
  5
883
330
1407
100
AcDbEntity
  8
TEXT
100
AcDbText
 10
-19.3555
 20
45.7664
 30
0.0
 40
3.5
  1

 41
0.6
  7
ROMAND
100
AcDbAttributeDefinition
  3
Rohmaß
  2
18
 70
     0
  0
TEXT
  5
884
330
1407
100
AcDbEntity
  8
TEXT
100
AcDbText
 10
-183.8076187041216
 20
20.45208064093261
 30
0.0
 40
3.5
  1
CAD
 41
0.75
  7
ROMAND
100
AcDbText
  0
ATTDEF
  5
885
330
1407
100
AcDbEntity
  8
TEXT
100
AcDbText
 10
-167.5
 20
50.75
 30
0.0
 40
3.5
  1

 41
0.65
  7
ROMAND
 72
     1
 11
-167.5
 21
50.75
 31
0.0
100
AcDbAttributeDefinition
  3
Pos.-Art.-Nr.
  2
19
 70
     0
  0
ATTDEF
  5
886
330
1407
100
AcDbEntity
  8
TEXT
100
AcDbText
 10
-143.3633
 20
50.75
 30
0.0
 40
3.5
  1

 41
0.65
  7
ROMAND
 72
     2
 11
-143.3633
 21
50.75
 31
0.0
100
AcDbAttributeDefinition
  3
Teil
  2
20
 70
     0
  0
ATTDEF
  5
887
330
1407
100
AcDbEntity
  8
TEXT
100
AcDbText
 10
-137.7383
 20
50.8276
 30
0.0
 40
3.5
  1

 41
0.65
  7
ROMAND
100
AcDbAttributeDefinition
  3
Benennung
  2
21
 70
     0
  0
ATTDEF
  5
888
330
1407
100
AcDbEntity
  8
TEXT
100
AcDbText
 10
-69.6524
 20
50.8276
 30
0.0
 40
3.5
  1

 41
0.65
  7
ROMAND
100
AcDbAttributeDefinition
  3
Zeichng.-Nr.
  2
22
 70
     0
  0
ATTDEF
  5
889
330
1407
100
AcDbEntity
  8
TEXT
100
AcDbText
 10
-45.3269
 20
50.8276
 30
0.0
 40
3.5
  1

 41
0.65
  7
ROMAND
 72
     1
 11
-45.3269
 21
50.8276
 31
0.0
100
AcDbAttributeDefinition
  3
Stück
  2
23
 70
     0
  0
ATTDEF
  5
88A
330
1407
100
AcDbEntity
  8
TEXT
100
AcDbText
 10
-39.9789
 20
50.8276
 30
0.0
 40
3.5
  1

 41
0.65
  7
ROMAND
100
AcDbAttributeDefinition
  3
Werkstoff
  2
24
 70
     0
  0
ATTDEF
  5
88B
330
1407
100
AcDbEntity
  8
TEXT
100
AcDbText
 10
-19.3555
 20
50.8276
 30
0.0
 40
3.5
  1

 41
0.6
  7
ROMAND
100
AcDbAttributeDefinition
  3
Rohmaß
  2
25
 70
     0
  0
LINE
  5
88C
330
1407
100
AcDbEntity
  8
RAHMEN
 62
     1
100
AcDbLine
 10
-8.000040229977939
 20
0.0000000000001066
 30
0.0
 11
-8.000040229977969
 21
20.00000000000011
 31
0.0
  0
LINE
  5
88D
330
1407
100
AcDbEntity
  8
RAHMEN
 62
     1
100
AcDbLine
 10
-8.000040229977955
 20
10.0
 30
0.0
 11
-0.0000402299779694
 21
10.0
 31
0.0
  0
TEXT
  5
88E
330
1407
100
AcDbEntity
  8
TEXT
100
AcDbText
 10
-7.132066093341332
 20
16.07628075171095
 30
0.0
 40
2.5
  1
Blatt
 41
0.75
  7
ROMANS
 72
     1
 11
-3.828494664769904
 21
16.07628075171095
 31
0.0
100
AcDbText
  0
TEXT
  5
88F
330
1407
100
AcDbEntity
  8
TEXT
100
AcDbText
 10
-6.658712932013695
 20
4.116519058859505
 30
0.0
 40
2.5
  1
A  
 41
0.75
  7
ROMANS
 72
     1
 11
-3.980141503442267
 21
4.116519058859505
 31
0.0
100
AcDbText
  0
ATTDEF
  5
890
330
1407
100
AcDbEntity
  8
TEXT
100
AcDbText
 10
-4.000040229977956
 20
12.10218727492742
 30
0.0
 40
2.5
  1

 41
0.75
  7
ROMANS
 72
     1
 11
-4.000040229977956
 21
12.10218727492742
 31
0.0
100
AcDbAttributeDefinition
  3
Blatt
  2
1(1)
 70
     0
  0
ATTDEF
  5
891
330
1407
100
AcDbEntity
  8
TEXT
100
AcDbText
 10
-1.50004022997796
 20
4.102187274927416
 30
0.0
 40
2.5
  1

 41
0.75
  7
ROMANS
 72
     2
 11
-1.50004022997796
 21
4.102187274927416
 31
0.0
100
AcDbAttributeDefinition
  3
Bl.
  2
4
 70
     0
  0
ENDBLK
  5
801
330
1407
100
AcDbEntity
  8
0
100
AcDbBlockEnd
  0
BLOCK
  5
140A
330
1409
100
AcDbEntity
  8
0
100
AcDbBlockBegin
  2
A3-APRIL-05
 70
     0
 10
0.0
 20
0.0
 30
0.0
  3
A3-APRIL-05
  1

  0
LINE
  5
8B1
330
1409
100
AcDbEntity
  8
RAHMEN
100
AcDbLine
 10
0.0
 20
0.0
 30
0.0
 11
420.0
 21
0.0
 31
0.0
  0
LINE
  5
8B2
330
1409
100
AcDbEntity
  8
RAHMEN
100
AcDbLine
 10
420.0
 20
0.0
 30
0.0
 11
420.0
 21
297.0
 31
0.0
  0
LINE
  5
8B3
330
1409
100
AcDbEntity
  8
RAHMEN
100
AcDbLine
 10
420.0
 20
297.0
 30
0.0
 11
0.0
 21
297.0
 31
0.0
  0
LINE
  5
8B4
330
1409
100
AcDbEntity
  8
RAHMEN
100
AcDbLine
 10
0.0
 20
297.0
 30
0.0
 11
0.0
 21
0.0
 31
0.0
  0
LINE
  5
8B5
330
1409
100
AcDbEntity
  8
0
100
AcDbLine
 10
0.0
 20
0.0
 30
0.0
 11
0.0
 21
0.0
 31
0.0
  0
LINE
  5
8B6
330
1409
100
AcDbEntity
  8
RAHMEN
 62
     1
100
AcDbLine
 10
25.0
 20
5.0
 30
0.0
 11
415.0
 21
5.0
 31
0.0
  0
LINE
  5
8B7
330
1409
100
AcDbEntity
  8
RAHMEN
 62
     1
100
AcDbLine
 10
415.0
 20
5.0
 30
0.0
 11
415.0
 21
292.0
 31
0.0
  0
LINE
  5
8B8
330
1409
100
AcDbEntity
  8
RAHMEN
 62
     1
100
AcDbLine
 10
415.0
 20
292.0
 30
0.0
 11
25.0
 21
292.0
 31
0.0
  0
LINE
  5
8B9
330
1409
100
AcDbEntity
  8
RAHMEN
 62
     1
100
AcDbLine
 10
25.0
 20
292.0
 30
0.0
 11
25.0
 21
5.0
 31
0.0
  0
LINE
  5
8BA
330
1409
100
AcDbEntity
  8
0
100
AcDbLine
 10
25.0
 20
5.0
 30
0.0
 11
25.0
 21
5.0
 31
0.0
  0
LINE
  5
8BB
330
1409
100
AcDbEntity
  8
RAHMEN
100
AcDbLine
 10
230.0
 20
0.0
 30
0.0
 11
230.0
 21
5.0
 31
0.0
  0
LINE
  5
8BC
330
1409
100
AcDbEntity
  8
RAHMEN
100
AcDbLine
 10
230.0
 20
292.0
 30
0.0
 11
230.0
 21
297.0
 31
0.0
  0
LINE
  5
8BD
330
1409
100
AcDbEntity
  8
RAHMEN
100
AcDbLine
 10
125.0
 20
0.0
 30
0.0
 11
125.0
 21
5.0
 31
0.0
  0
LINE
  5
8BE
330
1409
100
AcDbEntity
  8
RAHMEN
100
AcDbLine
 10
125.0
 20
292.0
 30
0.0
 11
125.0
 21
297.0
 31
0.0
  0
ENDBLK
  5
8C0
330
1409
100
AcDbEntity
  8
0
100
AcDbBlockEnd
  0
BLOCK
  5
140C
330
140B
100
AcDbEntity
  8
0
100
AcDbBlockBegin
  2
AENDERUNGS-KOPF1-_1-6_-APR
 70
     2
 10
0.0
 20
0.0
 30
0.0
  3
AENDERUNGS-KOPF1-_1-6_-APR
  1

  0
LINE
  5
99F
330
140B
100
AcDbEntity
  8
RAHMEN
100
AcDbLine
 10
0.0
 20
297.0
 30
0.0
 11
0.0
 21
0.0
 31
0.0
  0
LINE
  5
9A0
330
140B
100
AcDbEntity
  8
0
100
AcDbLine
 10
5.0
 20
5.0
 30
0.0
 11
5.0
 21
5.0
 31
0.0
  0
LINE
  5
9A1
330
140B
100
AcDbEntity
  8
HILFSLINIEN
100
AcDbLine
 10
18.75
 20
0.0
 30
0.0
 11
18.75
 21
2.0
 31
0.0
  0
LINE
  5
9A2
330
140B
100
AcDbEntity
  8
HILFSLINIEN
100
AcDbLine
 10
18.75
 20
2.0
 30
0.0
 11
15.0
 21
2.0
 31
0.0
  0
CIRCLE
  5
9A3
330
140B
100
AcDbEntity
  8
TEXT
100
AcDbCircle
 10
21.875
 20
7.0
 30
0.0
 40
1.7
  0
LINE
  5
9A4
330
140B
100
AcDbEntity
  8
HILFSLINIEN
100
AcDbLine
 10
13.75
 20
0.0
 30
0.0
 11
13.75
 21
2.0
 31
0.0
  0
LINE
  5
9A5
330
140B
100
AcDbEntity
  8
HILFSLINIEN
100
AcDbLine
 10
13.75
 20
2.0
 30
0.0
 11
10.0
 21
2.0
 31
0.0
  0
CIRCLE
  5
9A6
330
140B
100
AcDbEntity
  8
TEXT
100
AcDbCircle
 10
16.875
 20
7.0
 30
0.0
 40
1.7
  0
LINE
  5
9A7
330
140B
100
AcDbEntity
  8
HILFSLINIEN
100
AcDbLine
 10
8.75
 20
0.0
 30
0.0
 11
8.75
 21
2.0
 31
0.0
  0
LINE
  5
9A8
330
140B
100
AcDbEntity
  8
HILFSLINIEN
100
AcDbLine
 10
8.75
 20
2.0
 30
0.0
 11
5.0
 21
2.0
 31
0.0
  0
CIRCLE
  5
9A9
330
140B
100
AcDbEntity
  8
TEXT
100
AcDbCircle
 10
11.875
 20
7.0
 30
0.0
 40
1.7
  0
TEXT
  5
9AA
330
140B
100
AcDbEntity
  8
TEXT
100
AcDbText
 10
12.875
 20
6.392857142857143
 30
0.0
 40
2.0
  1
1
 50
90.0
 41
0.75
  7
ROMANS
 72
     4
 11
11.875
 21
7.0
 31
0.0
100
AcDbText
  0
TEXT
  5
9AB
330
140B
100
AcDbEntity
  8
TEXT
100
AcDbText
 10
17.875
 20
6.285714285714285
 30
0.0
 40
2.0
  1
2
 50
90.0
 41
0.75
  7
ROMANS
 72
     4
 11
16.875
 21
7.0
 31
0.0
100
AcDbText
  0
TEXT
  5
9AC
330
140B
100
AcDbEntity
  8
TEXT
100
AcDbText
 10
22.875
 20
6.285714285714285
 30
0.0
 40
2.0
  1
3
 50
90.0
 41
0.75
  7
ROMANS
 72
     4
 11
21.875
 21
7.0
 31
0.0
100
AcDbText
  0
LINE
  5
9AD
330
140B
100
AcDbEntity
  8
HILFSLINIEN
100
AcDbLine
 10
18.75
 20
207.0
 30
0.0
 11
18.75
 21
209.0
 31
0.0
  0
LINE
  5
9AE
330
140B
100
AcDbEntity
  8
HILFSLINIEN
100
AcDbLine
 10
18.75
 20
209.0
 30
0.0
 11
15.0
 21
209.0
 31
0.0
  0
CIRCLE
  5
9AF
330
140B
100
AcDbEntity
  8
TEXT
100
AcDbCircle
 10
21.875
 20
204.0
 30
0.0
 40
1.7
  0
LINE
  5
9B0
330
140B
100
AcDbEntity
  8
HILFSLINIEN
100
AcDbLine
 10
13.75
 20
207.0
 30
0.0
 11
13.75
 21
209.0
 31
0.0
  0
LINE
  5
9B1
330
140B
100
AcDbEntity
  8
HILFSLINIEN
100
AcDbLine
 10
13.75
 20
209.0
 30
0.0
 11
10.0
 21
209.0
 31
0.0
  0
CIRCLE
  5
9B2
330
140B
100
AcDbEntity
  8
TEXT
100
AcDbCircle
 10
16.875
 20
204.0
 30
0.0
 40
1.7
  0
LINE
  5
9B3
330
140B
100
AcDbEntity
  8
HILFSLINIEN
100
AcDbLine
 10
8.75
 20
207.0
 30
0.0
 11
8.75
 21
209.0
 31
0.0
  0
LINE
  5
9B4
330
140B
100
AcDbEntity
  8
HILFSLINIEN
100
AcDbLine
 10
8.75
 20
209.0
 30
0.0
 11
5.0
 21
209.0
 31
0.0
  0
CIRCLE
  5
9B5
330
140B
100
AcDbEntity
  8
TEXT
100
AcDbCircle
 10
11.875
 20
204.0
 30
0.0
 40
1.7
  0
TEXT
  5
9B6
330
140B
100
AcDbEntity
  8
TEXT
100
AcDbText
 10
12.875
 20
203.25
 30
0.0
 40
2.0
  1
4
 50
90.0
 41
0.75
  7
ROMANS
 72
     4
 11
11.875
 21
204.0
 31
0.0
100
AcDbText
  0
TEXT
  5
9B7
330
140B
100
AcDbEntity
  8
TEXT
100
AcDbText
 10
17.875
 20
203.2857142857143
 30
0.0
 40
2.0
  1
5
 50
90.0
 41
0.75
  7
ROMANS
 72
     4
 11
16.875
 21
204.0
 31
0.0
100
AcDbText
  0
TEXT
  5
9B8
330
140B
100
AcDbEntity
  8
TEXT
100
AcDbText
 10
22.875
 20
203.25
 30
0.0
 40
2.0
  1
6
 50
90.0
 41
0.75
  7
ROMANS
 72
     4
 11
21.875
 21
204.0
 31
0.0
100
AcDbText
  0
LINE
  5
9B9
330
140B
100
AcDbEntity
  8
HILFSLINIEN
100
AcDbLine
 10
3.75
 20
0.0
 30
0.0
 11
3.75
 21
4.5
 31
0.0
  0
LINE
  5
9BA
330
140B
100
AcDbEntity
  8
HILFSLINIEN
100
AcDbLine
 10
3.75
 20
4.5
 30
0.0
 11
18.75
 21
4.5
 31
0.0
  0
LINE
  5
9BB
330
140B
100
AcDbEntity
  8
HILFSLINIEN
100
AcDbLine
 10
18.75
 20
60.0
 30
0.0
 11
18.75
 21
61.0
 31
0.0
  0
LINE
  5
9BC
330
140B
100
AcDbEntity
  8
HILFSLINIEN
100
AcDbLine
 10
18.75
 20
61.0
 30
0.0
 11
3.75
 21
61.0
 31
0.0
  0
LINE
  5
9BD
330
140B
100
AcDbEntity
  8
HILFSLINIEN
100
AcDbLine
 10
18.75
 20
75.0
 30
0.0
 11
18.75
 21
76.0
 31
0.0
  0
LINE
  5
9BE
330
140B
100
AcDbEntity
  8
HILFSLINIEN
100
AcDbLine
 10
18.75
 20
76.0
 30
0.0
 11
3.75
 21
76.0
 31
0.0
  0
LINE
  5
9BF
330
140B
100
AcDbEntity
  8
HILFSLINIEN
100
AcDbLine
 10
18.75
 20
207.0
 30
0.0
 11
18.75
 21
211.5
 31
0.0
  0
LINE
  5
9C0
330
140B
100
AcDbEntity
  8
HILFSLINIEN
100
AcDbLine
 10
18.75
 20
211.5
 30
0.0
 11
3.75
 21
211.5
 31
0.0
  0
LINE
  5
9C1
330
140B
100
AcDbEntity
  8
HILFSLINIEN
100
AcDbLine
 10
18.75
 20
267.0
 30
0.0
 11
18.75
 21
268.0
 31
0.0
  0
LINE
  5
9C2
330
140B
100
AcDbEntity
  8
HILFSLINIEN
100
AcDbLine
 10
18.75
 20
268.0
 30
0.0
 11
3.75
 21
268.0
 31
0.0
  0
LINE
  5
9C3
330
140B
100
AcDbEntity
  8
HILFSLINIEN
100
AcDbLine
 10
18.75
 20
282.0
 30
0.0
 11
18.75
 21
283.0
 31
0.0
  0
LINE
  5
9C4
330
140B
100
AcDbEntity
  8
HILFSLINIEN
100
AcDbLine
 10
18.75
 20
283.0
 30
0.0
 11
3.75
 21
283.0
 31
0.0
  0
LINE
  5
9C5
330
140B
100
AcDbEntity
  8
HILFSLINIEN
100
AcDbLine
 10
3.75
 20
0.0
 30
0.0
 11
3.75
 21
60.0
 31
0.0
  0
LINE
  5
9C6
330
140B
100
AcDbEntity
  8
HILFSLINIEN
100
AcDbLine
 10
8.75
 20
0.0
 30
0.0
 11
8.75
 21
60.0
 31
0.0
  0
LINE
  5
9C7
330
140B
100
AcDbEntity
  8
HILFSLINIEN
100
AcDbLine
 10
13.75
 20
0.0
 30
0.0
 11
13.75
 21
60.0
 31
0.0
  0
LINE
  5
9C8
330
140B
100
AcDbEntity
  8
HILFSLINIEN
100
AcDbLine
 10
18.75
 20
0.0
 30
0.0
 11
18.75
 21
60.0
 31
0.0
  0
LINE
  5
9C9
330
140B
100
AcDbEntity
  8
HILFSLINIEN
100
AcDbLine
 10
3.75
 20
0.0
 30
0.0
 11
3.75
 21
60.0
 31
0.0
  0
LINE
  5
9CA
330
140B
100
AcDbEntity
  8
HILFSLINIEN
100
AcDbLine
 10
8.75
 20
0.0
 30
0.0
 11
8.75
 21
60.0
 31
0.0
  0
LINE
  5
9CB
330
140B
100
AcDbEntity
  8
HILFSLINIEN
100
AcDbLine
 10
13.75
 20
0.0
 30
0.0
 11
13.75
 21
60.0
 31
0.0
  0
LINE
  5
9CC
330
140B
100
AcDbEntity
  8
HILFSLINIEN
100
AcDbLine
 10
18.75
 20
0.0
 30
0.0
 11
18.75
 21
60.0
 31
0.0
  0
LINE
  5
9CD
330
140B
100
AcDbEntity
  8
HILFSLINIEN
100
AcDbLine
 10
5.0
 20
0.0
 30
0.0
 11
4.25
 21
0.0
 31
0.0
  0
LINE
  5
9CE
330
140B
100
AcDbEntity
  8
HILFSLINIEN
100
AcDbLine
 10
5.0
 20
0.0
 30
0.0
 11
3.75
 21
0.0
 31
0.0
  0
LINE
  5
9CF
330
140B
100
AcDbEntity
  8
HILFSLINIEN
100
AcDbLine
 10
5.0
 20
0.0
 30
0.0
 11
4.25
 21
0.0
 31
0.0
  0
LINE
  5
9D0
330
140B
100
AcDbEntity
  8
HILFSLINIEN
100
AcDbLine
 10
5.0
 20
0.0
 30
0.0
 11
3.75
 21
0.0
 31
0.0
  0
LINE
  5
9D1
330
140B
100
AcDbEntity
  8
0
100
AcDbLine
 10
5.0
 20
5.0
 30
0.0
 11
5.0
 21
5.0
 31
0.0
  0
TEXT
  5
9D2
330
140B
100
AcDbEntity
  8
TEXT
100
AcDbText
 10
8.75
 20
28.70535714285714
 30
0.0
 40
2.5
  1
Änderung
 50
90.0
 41
0.75
  7
ROMANS
 72
     1
 11
8.75
 21
35.0
 31
0.0
100
AcDbText
  0
LINE
  5
9D3
330
140B
100
AcDbEntity
  8
0
100
AcDbLine
 10
25.0
 20
10.0
 30
0.0
 11
25.0
 21
10.0
 31
0.0
  0
LINE
  5
9D4
330
140B
100
AcDbEntity
  8
HILFSLINIEN
100
AcDbLine
 10
3.75
 20
75.0
 30
0.0
 11
3.75
 21
90.0
 31
0.0
  0
LINE
  5
9D5
330
140B
100
AcDbEntity
  8
HILFSLINIEN
100
AcDbLine
 10
8.75
 20
75.0
 30
0.0
 11
8.75
 21
90.0
 31
0.0
  0
TEXT
  5
9D6
330
140B
100
AcDbEntity
  8
TEXT
100
AcDbText
 10
8.75
 20
83.48214285714286
 30
0.0
 40
2.5
  1
Name
 50
90.0
 41
0.75
  7
ROMANS
 72
     1
 11
8.75
 21
87.5
 31
0.0
100
AcDbText
  0
LINE
  5
9D7
330
140B
100
AcDbEntity
  8
HILFSLINIEN
100
AcDbLine
 10
3.75
 20
75.0
 30
0.0
 11
3.75
 21
90.0
 31
0.0
  0
LINE
  5
9D8
330
140B
100
AcDbEntity
  8
HILFSLINIEN
100
AcDbLine
 10
8.75
 20
75.0
 30
0.0
 11
8.75
 21
90.0
 31
0.0
  0
LINE
  5
9D9
330
140B
100
AcDbEntity
  8
HILFSLINIEN
100
AcDbLine
 10
3.75
 20
60.0
 30
0.0
 11
3.75
 21
75.0
 31
0.0
  0
LINE
  5
9DA
330
140B
100
AcDbEntity
  8
HILFSLINIEN
100
AcDbLine
 10
8.75
 20
60.0
 30
0.0
 11
8.75
 21
75.0
 31
0.0
  0
TEXT
  5
9DB
330
140B
100
AcDbEntity
  8
TEXT
100
AcDbText
 10
8.75
 20
67.99107142857143
 30
0.0
 40
2.5
  1
Datum
 50
90.0
 41
0.75
  7
ROMANS
 72
     1
 11
8.75
 21
72.5
 31
0.0
100
AcDbText
  0
LINE
  5
9DC
330
140B
100
AcDbEntity
  8
HILFSLINIEN
100
AcDbLine
 10
3.75
 20
60.0
 30
0.0
 11
3.75
 21
75.0
 31
0.0
  0
LINE
  5
9DD
330
140B
100
AcDbEntity
  8
HILFSLINIEN
100
AcDbLine
 10
8.75
 20
60.0
 30
0.0
 11
8.75
 21
75.0
 31
0.0
  0
LINE
  5
9DE
330
140B
100
AcDbEntity
  8
HILFSLINIEN
100
AcDbLine
 10
13.75
 20
75.0
 30
0.0
 11
13.75
 21
90.0
 31
0.0
  0
LINE
  5
9DF
330
140B
100
AcDbEntity
  8
HILFSLINIEN
100
AcDbLine
 10
18.75
 20
75.0
 30
0.0
 11
18.75
 21
90.0
 31
0.0
  0
LINE
  5
9E0
330
140B
100
AcDbEntity
  8
HILFSLINIEN
100
AcDbLine
 10
13.75
 20
75.0
 30
0.0
 11
13.75
 21
90.0
 31
0.0
  0
LINE
  5
9E1
330
140B
100
AcDbEntity
  8
HILFSLINIEN
100
AcDbLine
 10
18.75
 20
75.0
 30
0.0
 11
18.75
 21
90.0
 31
0.0
  0
LINE
  5
9E2
330
140B
100
AcDbEntity
  8
HILFSLINIEN
100
AcDbLine
 10
13.75
 20
60.0
 30
0.0
 11
13.75
 21
75.0
 31
0.0
  0
LINE
  5
9E3
330
140B
100
AcDbEntity
  8
HILFSLINIEN
100
AcDbLine
 10
18.75
 20
60.0
 30
0.0
 11
18.75
 21
75.0
 31
0.0
  0
LINE
  5
9E4
330
140B
100
AcDbEntity
  8
HILFSLINIEN
100
AcDbLine
 10
13.75
 20
60.0
 30
0.0
 11
13.75
 21
75.0
 31
0.0
  0
LINE
  5
9E5
330
140B
100
AcDbEntity
  8
HILFSLINIEN
100
AcDbLine
 10
18.75
 20
60.0
 30
0.0
 11
18.75
 21
75.0
 31
0.0
  0
TEXT
  5
9E6
330
140B
100
AcDbEntity
  8
TEXT
100
AcDbText
 10
8.75
 20
225.7053571428571
 30
0.0
 40
2.5
  1
Änderung
 50
90.0
 41
0.75
  7
ROMANS
 72
     1
 11
8.75
 21
232.0
 31
0.0
100
AcDbText
  0
LINE
  5
9E7
330
140B
100
AcDbEntity
  8
HILFSLINIEN
100
AcDbLine
 10
18.75
 20
207.0
 30
0.0
 11
18.75
 21
267.0
 31
0.0
  0
LINE
  5
9E8
330
140B
100
AcDbEntity
  8
HILFSLINIEN
100
AcDbLine
 10
13.75
 20
207.0
 30
0.0
 11
13.75
 21
267.0
 31
0.0
  0
LINE
  5
9E9
330
140B
100
AcDbEntity
  8
HILFSLINIEN
100
AcDbLine
 10
8.75
 20
207.0
 30
0.0
 11
8.75
 21
267.0
 31
0.0
  0
LINE
  5
9EA
330
140B
100
AcDbEntity
  8
HILFSLINIEN
100
AcDbLine
 10
3.75
 20
207.0
 30
0.0
 11
3.75
 21
267.0
 31
0.0
  0
LINE
  5
9EB
330
140B
100
AcDbEntity
  8
HILFSLINIEN
100
AcDbLine
 10
5.0
 20
207.0
 30
0.0
 11
3.75
 21
207.0
 31
0.0
  0
LINE
  5
9EC
330
140B
100
AcDbEntity
  8
HILFSLINIEN
100
AcDbLine
 10
5.0
 20
207.0
 30
0.0
 11
4.25
 21
207.0
 31
0.0
  0
TEXT
  5
9ED
330
140B
100
AcDbEntity
  8
TEXT
100
AcDbText
 10
8.75
 20
280.4821428571429
 30
0.0
 40
2.5
  1
Name
 50
90.0
 41
0.75
  7
ROMANS
 72
     1
 11
8.75
 21
284.5
 31
0.0
100
AcDbText
  0
LINE
  5
9EE
330
140B
100
AcDbEntity
  8
HILFSLINIEN
100
AcDbLine
 10
8.75
 20
282.0
 30
0.0
 11
8.75
 21
297.0
 31
0.0
  0
LINE
  5
9EF
330
140B
100
AcDbEntity
  8
HILFSLINIEN
100
AcDbLine
 10
3.75
 20
282.0
 30
0.0
 11
3.75
 21
297.0
 31
0.0
  0
TEXT
  5
9F0
330
140B
100
AcDbEntity
  8
TEXT
100
AcDbText
 10
8.75
 20
264.9910714285714
 30
0.0
 40
2.5
  1
Datum
 50
90.0
 41
0.75
  7
ROMANS
 72
     1
 11
8.75
 21
269.5
 31
0.0
100
AcDbText
  0
LINE
  5
9F1
330
140B
100
AcDbEntity
  8
HILFSLINIEN
100
AcDbLine
 10
8.75
 20
267.0
 30
0.0
 11
8.75
 21
282.0
 31
0.0
  0
LINE
  5
9F2
330
140B
100
AcDbEntity
  8
HILFSLINIEN
100
AcDbLine
 10
3.75
 20
267.0
 30
0.0
 11
3.75
 21
282.0
 31
0.0
  0
LINE
  5
9F3
330
140B
100
AcDbEntity
  8
HILFSLINIEN
100
AcDbLine
 10
18.75
 20
282.0
 30
0.0
 11
18.75
 21
297.0
 31
0.0
  0
LINE
  5
9F4
330
140B
100
AcDbEntity
  8
HILFSLINIEN
100
AcDbLine
 10
13.75
 20
282.0
 30
0.0
 11
13.75
 21
297.0
 31
0.0
  0
LINE
  5
9F5
330
140B
100
AcDbEntity
  8
HILFSLINIEN
100
AcDbLine
 10
18.75
 20
267.0
 30
0.0
 11
18.75
 21
282.0
 31
0.0
  0
LINE
  5
9F6
330
140B
100
AcDbEntity
  8
HILFSLINIEN
100
AcDbLine
 10
13.75
 20
267.0
 30
0.0
 11
13.75
 21
282.0
 31
0.0
  0
LINE
  5
9F7
330
140B
100
AcDbEntity
  8
RAHMEN
100
AcDbLine
 10
5.0
 20
95.0
 30
0.0
 11
5.0
 21
5.0
 31
0.0
  0
LINE
  5
9F8
330
140B
100
AcDbEntity
  8
RAHMEN
100
AcDbLine
 10
5.0
 20
5.0
 30
0.0
 11
5.0
 21
95.0
 31
0.0
  0
LINE
  5
9F9
330
140B
100
AcDbEntity
  8
RAHMEN
100
AcDbLine
 10
10.0
 20
5.0
 30
0.0
 11
10.0
 21
95.0
 31
0.0
  0
LINE
  5
9FA
330
140B
100
AcDbEntity
  8
RAHMEN
100
AcDbLine
 10
15.0
 20
5.0
 30
0.0
 11
15.0
 21
95.0
 31
0.0
  0
LINE
  5
9FB
330
140B
100
AcDbEntity
  8
RAHMEN
100
AcDbLine
 10
20.0
 20
5.0
 30
0.0
 11
20.0
 21
95.0
 31
0.0
  0
LINE
  5
9FC
330
140B
100
AcDbEntity
  8
RAHMEN
100
AcDbLine
 10
5.0
 20
5.0
 30
0.0
 11
25.0
 21
5.0
 31
0.0
  0
LINE
  5
9FD
330
140B
100
AcDbEntity
  8
RAHMEN
100
AcDbLine
 10
5.0
 20
5.0
 30
0.0
 11
10.0
 21
5.0
 31
0.0
  0
LINE
  5
9FE
330
140B
100
AcDbEntity
  8
0
100
AcDbLine
 10
5.0
 20
5.0
 30
0.0
 11
5.0
 21
5.0
 31
0.0
  0
LINE
  5
9FF
330
140B
100
AcDbEntity
  8
0
100
AcDbLine
 10
25.0
 20
10.0
 30
0.0
 11
25.0
 21
10.0
 31
0.0
  0
LINE
  5
A00
330
140B
100
AcDbEntity
  8
RAHMEN
100
AcDbLine
 10
5.0
 20
95.0
 30
0.0
 11
25.0
 21
95.0
 31
0.0
  0
LINE
  5
A01
330
140B
100
AcDbEntity
  8
RAHMEN
100
AcDbLine
 10
5.0
 20
65.0
 30
0.0
 11
25.0
 21
65.0
 31
0.0
  0
LINE
  5
A02
330
140B
100
AcDbEntity
  8
RAHMEN
100
AcDbLine
 10
5.0
 20
80.0
 30
0.0
 11
25.0
 21
80.0
 31
0.0
  0
LINE
  5
A03
330
140B
100
AcDbEntity
  8
RAHMEN
100
AcDbLine
 10
4.99999999999999
 20
148.5
 30
0.0
 11
10.62201290201812
 21
148.5
 31
0.0
  0
LINE
  5
A04
330
140B
100
AcDbEntity
  8
RAHMEN
100
AcDbLine
 10
20.0
 20
202.0
 30
0.0
 11
20.0
 21
292.0
 31
0.0
  0
LINE
  5
A05
330
140B
100
AcDbEntity
  8
RAHMEN
100
AcDbLine
 10
15.0
 20
202.0
 30
0.0
 11
15.0
 21
292.0
 31
0.0
  0
LINE
  5
A06
330
140B
100
AcDbEntity
  8
RAHMEN
100
AcDbLine
 10
10.0
 20
202.0
 30
0.0
 11
10.0
 21
292.0
 31
0.0
  0
LINE
  5
A07
330
140B
100
AcDbEntity
  8
RAHMEN
100
AcDbLine
 10
5.0
 20
202.0
 30
0.0
 11
5.0
 21
292.0
 31
0.0
  0
LINE
  5
A08
330
140B
100
AcDbEntity
  8
RAHMEN
100
AcDbLine
 10
5.0
 20
292.0
 30
0.0
 11
5.0
 21
202.0
 31
0.0
  0
LINE
  5
A09
330
140B
100
AcDbEntity
  8
RAHMEN
100
AcDbLine
 10
5.0
 20
202.0
 30
0.0
 11
25.0
 21
202.0
 31
0.0
  0
LINE
  5
A0A
330
140B
100
AcDbEntity
  8
RAHMEN
100
AcDbLine
 10
5.0
 20
202.0
 30
0.0
 11
10.0
 21
202.0
 31
0.0
  0
LINE
  5
A0B
330
140B
100
AcDbEntity
  8
RAHMEN
100
AcDbLine
 10
5.0
 20
277.0
 30
0.0
 11
25.0
 21
277.0
 31
0.0
  0
LINE
  5
A0C
330
140B
100
AcDbEntity
  8
RAHMEN
100
AcDbLine
 10
5.0
 20
262.0
 30
0.0
 11
25.0
 21
262.0
 31
0.0
  0
LINE
  5
A0D
330
140B
100
AcDbEntity
  8
RAHMEN
100
AcDbLine
 10
5.0
 20
292.0
 30
0.0
 11
25.0
 21
292.0
 31
0.0
  0
ATTDEF
  5
A0E
330
140B
100
AcDbEntity
  8
TEXT
100
AcDbText
 10
13.75
 20
9.5
 30
0.0
 40
2.5
  1

 50
90.0
 41
0.75
  7
ROMANS
100
AcDbAttributeDefinition
  3
1-Änderung-Text
  2
1
 70
     0
  0
ATTDEF
  5
A0F
330
140B
100
AcDbEntity
  8
TEXT
100
AcDbText
 10
13.75
 20
66.0
 30
0.0
 40
2.5
  1

 50
90.0
 41
0.75
  7
ROMANS
100
AcDbAttributeDefinition
  3
1-Änderung-Datum
  2
2
 70
     0
  0
ATTDEF
  5
A10
330
140B
100
AcDbEntity
  8
TEXT
100
AcDbText
 10
13.75
 20
81.0
 30
0.0
 40
2.5
  1

 50
90.0
 41
0.75
  7
ROMANS
100
AcDbAttributeDefinition
  3
1-Änderung-Name
  2
3
 70
     0
  0
ATTDEF
  5
A11
330
140B
100
AcDbEntity
  8
TEXT
100
AcDbText
 10
18.75
 20
9.5
 30
0.0
 40
2.5
  1

 50
90.0
 41
0.75
  7
ROMANS
100
AcDbAttributeDefinition
  3
2-Änderung-Text
  2
4
 70
     0
  0
ATTDEF
  5
A12
330
140B
100
AcDbEntity
  8
TEXT
100
AcDbText
 10
18.75
 20
66.0
 30
0.0
 40
2.5
  1

 50
90.0
 41
0.75
  7
ROMANS
100
AcDbAttributeDefinition
  3
2-Änderung-Datum
  2
5
 70
     0
  0
ATTDEF
  5
A13
330
140B
100
AcDbEntity
  8
TEXT
100
AcDbText
 10
18.75
 20
81.0
 30
0.0
 40
2.5
  1

 50
90.0
 41
0.75
  7
ROMANS
100
AcDbAttributeDefinition
  3
2-Änderung-Name
  2
6
 70
     0
  0
ATTDEF
  5
A14
330
140B
100
AcDbEntity
  8
TEXT
100
AcDbText
 10
23.75
 20
9.5
 30
0.0
 40
2.5
  1

 50
90.0
 41
0.75
  7
ROMANS
100
AcDbAttributeDefinition
  3
3-Änderung-Text
  2
7
 70
     0
  0
ATTDEF
  5
A15
330
140B
100
AcDbEntity
  8
TEXT
100
AcDbText
 10
23.75
 20
66.0
 30
0.0
 40
2.5
  1

 50
90.0
 41
0.75
  7
ROMANS
100
AcDbAttributeDefinition
  3
3-Änderung-Datum
  2
8
 70
     0
  0
ATTDEF
  5
A16
330
140B
100
AcDbEntity
  8
TEXT
100
AcDbText
 10
23.75
 20
81.0
 30
0.0
 40
2.5
  1

 50
90.0
 41
0.75
  7
ROMANS
100
AcDbAttributeDefinition
  3
3-Änderung-Name
  2
9
 70
     0
  0
ATTDEF
  5
A17
330
140B
100
AcDbEntity
  8
TEXT
100
AcDbText
 10
13.75
 20
206.5
 30
0.0
 40
2.5
  1

 50
90.0
 41
0.75
  7
ROMANS
100
AcDbAttributeDefinition
  3
4-Änderung-Text
  2
10
 70
     0
  0
ATTDEF
  5
A18
330
140B
100
AcDbEntity
  8
TEXT
100
AcDbText
 10
13.75
 20
263.0
 30
0.0
 40
2.5
  1

 50
90.0
 41
0.75
  7
ROMANS
100
AcDbAttributeDefinition
  3
4-Änderung-Datum
  2
11
 70
     0
  0
ATTDEF
  5
A19
330
140B
100
AcDbEntity
  8
TEXT
100
AcDbText
 10
13.75
 20
278.0
 30
0.0
 40
2.5
  1

 50
90.0
 41
0.75
  7
ROMANS
100
AcDbAttributeDefinition
  3
4-Änderung-Name
  2
12
 70
     0
  0
ATTDEF
  5
A1A
330
140B
100
AcDbEntity
  8
TEXT
100
AcDbText
 10
18.75
 20
206.5
 30
0.0
 40
2.5
  1

 50
90.0
 41
0.75
  7
ROMANS
100
AcDbAttributeDefinition
  3
5-Änderung-Text
  2
13
 70
     0
  0
ATTDEF
  5
A1B
330
140B
100
AcDbEntity
  8
TEXT
100
AcDbText
 10
18.75
 20
263.0
 30
0.0
 40
2.5
  1

 50
90.0
 41
0.75
  7
ROMANS
100
AcDbAttributeDefinition
  3
5-Änderung-Datum
  2
14
 70
     0
  0
ATTDEF
  5
A1C
330
140B
100
AcDbEntity
  8
TEXT
100
AcDbText
 10
18.75
 20
278.0
 30
0.0
 40
2.5
  1

 50
90.0
 41
0.75
  7
ROMANS
100
AcDbAttributeDefinition
  3
5-Änderung-Name
  2
15
 70
     0
  0
ATTDEF
  5
A1D
330
140B
100
AcDbEntity
  8
TEXT
100
AcDbText
 10
23.75
 20
206.5
 30
0.0
 40
2.5
  1

 50
90.0
 41
0.75
  7
ROMANS
100
AcDbAttributeDefinition
  3
6-Änderung-Text
  2
16
 70
     0
  0
ATTDEF
  5
A1E
330
140B
100
AcDbEntity
  8
TEXT
100
AcDbText
 10
23.75
 20
263.0
 30
0.0
 40
2.5
  1

 50
90.0
 41
0.75
  7
ROMANS
100
AcDbAttributeDefinition
  3
6-Änderung-Datum
  2
17
 70
     0
  0
ATTDEF
  5
A1F
330
140B
100
AcDbEntity
  8
TEXT
100
AcDbText
 10
23.75
 20
278.0
 30
0.0
 40
2.5
  1

 50
90.0
 41
0.75
  7
ROMANS
100
AcDbAttributeDefinition
  3
6-Änderung-Name
  2
18
 70
     0
  0
LINE
  5
A20
330
140B
100
AcDbEntity
  8
HILFSLINIEN
100
AcDbLine
 10
20.0
 20
297.0
 30
0.0
 11
20.0
 21
0.0
 31
0.0
  0
LINE
  5
A21
330
140B
100
AcDbEntity
  8
HILFSLINIEN
100
AcDbLine
 10
0.0
 20
183.5
 30
0.0
 11
20.0
 21
183.5
 31
0.0
  0
LINE
  5
A22
330
140B
100
AcDbEntity
  8
HILFSLINIEN
100
AcDbLine
 10
0.0
 20
113.5
 30
0.0
 11
20.0
 21
113.5
 31
0.0
  0
TEXT
  5
A23
330
140B
100
AcDbEntity
  8
TEXT
100
AcDbText
 10
14.84794036528609
 20
113.5
 30
0.0
 40
1.8
  1
Diese Unterlagen bleiben unser Eigentum. Vervielfältigungen, Anfertigungen
 50
90.0
 41
0.6727073036792982
  7
ROMANS
 72
     5
 11
14.84794036528609
 21
183.5
 31
0.0
100
AcDbText
  0
TEXT
  5
A24
330
140B
100
AcDbEntity
  8
TEXT
100
AcDbText
 10
17.7622260795718
 20
113.5
 30
0.0
 40
1.8
  1
von Aufzeichnungen bezüglich des Inhaltes, die Weitergabe, auch des In-
 50
90.0
 41
0.6721536351165979
  7
ROMANS
 72
     5
 11
17.7622260795718
 21
183.5
 31
0.0
100
AcDbText
  0
TEXT
  5
A25
330
140B
100
AcDbEntity
  8
TEXT
100
AcDbText
 10
20.67651179385752
 20
113.5
 30
0.0
 40
1.8
  1
haltes an Dritte, sowie Verwertung des Inhaltes durch den Empfänger oder
 50
90.0
 41
0.6564844587352626
  7
ROMANS
 72
     5
 11
20.67651179385752
 21
183.5
 31
0.0
100
AcDbText
  0
TEXT
  5
A26
330
140B
100
AcDbEntity
  8
TEXT
100
AcDbText
 10
23.59079750814323
 20
113.5
 30
0.0
 40
1.8
  1
auf dessen Vermittlung durch Dritte, sind unzulässig und strafbar.
 50
90.0
 41
0.7451338199513366
  7
ROMANS
 72
     5
 11
23.59079750814323
 21
183.5
 31
0.0
100
AcDbText
  0
LINE
  5
A27
330
140B
100
AcDbEntity
  8
HILFSLINIEN
100
AcDbLine
 10
9.871991918659212
 20
113.4923292010233
 30
0.0
 11
9.871991918659212
 21
183.5399722751536
 31
0.0
  0
LINE
  5
A28
330
140B
100
AcDbEntity
  8
RAHMEN
100
AcDbLine
 10
25.0
 20
5.0
 30
0.0
 11
25.0
 21
10.0
 31
0.0
  0
LINE
  5
A29
330
140B
100
AcDbEntity
  8
RAHMEN
100
AcDbLine
 10
25.0
 20
292.0
 30
0.0
 11
25.0
 21
287.0
 31
0.0
  0
LINE
  5
A2A
330
140B
100
AcDbEntity
  8
RAHMEN
100
AcDbLine
 10
5.0
 20
202.0
 30
0.0
 11
4.999999999999978
 21
95.0
 31
0.0
  0
ENDBLK
  5
953
330
140B
100
AcDbEntity
  8
0
100
AcDbBlockEnd
  0
BLOCK
  5
140E
330
140D
100
AcDbEntity
  8
0
100
AcDbBlockBegin
  2
A2-APRIL-05
 70
     0
 10
0.0
 20
0.0
 30
0.0
  3
A2-APRIL-05
  1

  0
LINE
  5
98B
330
140D
100
AcDbEntity
  8
RAHMEN
100
AcDbLine
 10
0.0
 20
0.0
 30
0.0
 11
594.0
 21
0.0
 31
0.0
  0
LINE
  5
98C
330
140D
100
AcDbEntity
  8
RAHMEN
100
AcDbLine
 10
594.0
 20
0.0
 30
0.0
 11
594.0
 21
420.0
 31
0.0
  0
LINE
  5
98D
330
140D
100
AcDbEntity
  8
RAHMEN
100
AcDbLine
 10
594.0
 20
420.0
 30
0.0
 11
0.0
 21
420.0
 31
0.0
  0
LINE
  5
98E
330
140D
100
AcDbEntity
  8
RAHMEN
100
AcDbLine
 10
0.0
 20
420.0
 30
0.0
 11
0.0
 21
0.0
 31
0.0
  0
LINE
  5
98F
330
140D
100
AcDbEntity
  8
0
100
AcDbLine
 10
0.0
 20
0.0
 30
0.0
 11
0.0
 21
0.0
 31
0.0
  0
LINE
  5
990
330
140D
100
AcDbEntity
  8
RAHMEN
 62
     1
100
AcDbLine
 10
25.0
 20
5.0
 30
0.0
 11
589.0
 21
5.0
 31
0.0
  0
LINE
  5
991
330
140D
100
AcDbEntity
  8
RAHMEN
 62
     1
100
AcDbLine
 10
589.0
 20
5.0
 30
0.0
 11
589.0
 21
415.0
 31
0.0
  0
LINE
  5
992
330
140D
100
AcDbEntity
  8
RAHMEN
 62
     1
100
AcDbLine
 10
589.0
 20
415.0
 30
0.0
 11
25.0
 21
415.0
 31
0.0
  0
LINE
  5
993
330
140D
100
AcDbEntity
  8
RAHMEN
 62
     1
100
AcDbLine
 10
25.0
 20
415.0
 30
0.0
 11
25.0
 21
5.0
 31
0.0
  0
LINE
  5
994
330
140D
100
AcDbEntity
  8
0
100
AcDbLine
 10
20.0
 20
5.0
 30
0.0
 11
20.0
 21
5.0
 31
0.0
  0
LINE
  5
995
330
140D
100
AcDbEntity
  8
RAHMEN
100
AcDbLine
 10
402.0
 20
0.0
 30
0.0
 11
402.0
 21
5.0
 31
0.0
  0
LINE
  5
996
330
140D
100
AcDbEntity
  8
RAHMEN
100
AcDbLine
 10
210.0
 20
0.0
 30
0.0
 11
210.0
 21
5.0
 31
0.0
  0
LINE
  5
997
330
140D
100
AcDbEntity
  8
RAHMEN
100
AcDbLine
 10
0.0
 20
297.0
 30
0.0
 11
5.0
 21
297.0
 31
0.0
  0
LINE
  5
998
330
140D
100
AcDbEntity
  8
RAHMEN
100
AcDbLine
 10
105.0
 20
420.0
 30
0.0
 11
105.0
 21
415.0
 31
0.0
  0
LINE
  5
999
330
140D
100
AcDbEntity
  8
RAHMEN
100
AcDbLine
 10
210.0
 20
415.0
 30
0.0
 11
210.0
 21
420.0
 31
0.0
  0
LINE
  5
99A
330
140D
100
AcDbEntity
  8
RAHMEN
100
AcDbLine
 10
402.0
 20
415.0
 30
0.0
 11
402.0
 21
420.0
 31
0.0
  0
LINE
  5
99B
330
140D
100
AcDbEntity
  8
RAHMEN
100
AcDbLine
 10
589.0
 20
297.0
 30
0.0
 11
594.0
 21
297.0
 31
0.0
  0
ENDBLK
  5
99D
330
140D
100
AcDbEntity
  8
0
100
AcDbBlockEnd
  0
BLOCK
  5
1410
330
140F
100
AcDbEntity
  8
0
100
AcDbBlockBegin
  2
A4-APRIL-05
 70
     0
 10
0.0
 20
0.0
 30
0.0
  3
A4-APRIL-05
  1

  0
LINE
  5
CA5
330
140F
100
AcDbEntity
  8
RAHMEN
100
AcDbLine
 10
0.0
 20
0.0
 30
0.0
 11
210.0
 21
0.0
 31
0.0
  0
LINE
  5
CA6
330
140F
100
AcDbEntity
  8
RAHMEN
100
AcDbLine
 10
210.0
 20
0.0
 30
0.0
 11
210.0
 21
297.0
 31
0.0
  0
LINE
  5
CA7
330
140F
100
AcDbEntity
  8
RAHMEN
100
AcDbLine
 10
210.0
 20
297.0
 30
0.0
 11
0.0
 21
297.0
 31
0.0
  0
LINE
  5
CA8
330
140F
100
AcDbEntity
  8
RAHMEN
100
AcDbLine
 10
0.0
 20
297.0
 30
0.0
 11
0.0
 21
0.0
 31
0.0
  0
LINE
  5
CA9
330
140F
100
AcDbEntity
  8
0
100
AcDbLine
 10
0.0
 20
0.0
 30
0.0
 11
0.0
 21
0.0
 31
0.0
  0
LINE
  5
CAA
330
140F
100
AcDbEntity
  8
RAHMEN
 62
     1
100
AcDbLine
 10
20.0
 20
5.0
 30
0.0
 11
205.0
 21
5.0
 31
0.0
  0
LINE
  5
CAB
330
140F
100
AcDbEntity
  8
RAHMEN
 62
     1
100
AcDbLine
 10
205.0
 20
5.0
 30
0.0
 11
205.0
 21
292.0
 31
0.0
  0
LINE
  5
CAC
330
140F
100
AcDbEntity
  8
RAHMEN
 62
     1
100
AcDbLine
 10
205.0
 20
292.0
 30
0.0
 11
20.0
 21
292.0
 31
0.0
  0
LINE
  5
CAD
330
140F
100
AcDbEntity
  8
RAHMEN
 62
     1
100
AcDbLine
 10
20.0
 20
292.0
 30
0.0
 11
20.0
 21
5.0
 31
0.0
  0
ENDBLK
  5
B6C
330
140F
100
AcDbEntity
  8
0
100
AcDbBlockEnd
  0
BLOCK
  5
1412
330
1411
100
AcDbEntity
  8
0
100
AcDbBlockBegin
  2
AENDERUNGS-KOPF1-_1-6_
 70
     2
 10
0.0
 20
0.0
 30
0.0
  3
AENDERUNGS-KOPF1-_1-6_
  1

  0
LINE
  5
B70
330
1411
100
AcDbEntity
  8
0
100
AcDbLine
 10
0.0
 20
297.0
 30
0.0
 11
0.0
 21
0.0
 31
0.0
  0
LINE
  5
B71
330
1411
100
AcDbEntity
  8
0
100
AcDbLine
 10
0.0
 20
0.0
 30
0.0
 11
0.0
 21
0.0
 31
0.0
  0
LINE
  5
B72
330
1411
100
AcDbEntity
  8
RAHMEN
100
AcDbLine
 10
0.0
 20
148.5
 30
0.0
 11
4.080403395846737
 21
148.5
 31
0.0
  0
LINE
  5
B73
330
1411
100
AcDbEntity
  8
HILFSLINIEN
100
AcDbLine
 10
18.75
 20
0.0
 30
0.0
 11
18.75
 21
2.0
 31
0.0
  0
LINE
  5
B74
330
1411
100
AcDbEntity
  8
HILFSLINIEN
100
AcDbLine
 10
18.75
 20
2.0
 30
0.0
 11
15.0
 21
2.0
 31
0.0
  0
CIRCLE
  5
B75
330
1411
100
AcDbEntity
  8
TEXT
100
AcDbCircle
 10
16.875
 20
2.0
 30
0.0
 40
1.7
  0
LINE
  5
B76
330
1411
100
AcDbEntity
  8
HILFSLINIEN
100
AcDbLine
 10
13.75
 20
0.0
 30
0.0
 11
13.75
 21
2.0
 31
0.0
  0
LINE
  5
B77
330
1411
100
AcDbEntity
  8
HILFSLINIEN
100
AcDbLine
 10
13.75
 20
2.0
 30
0.0
 11
10.0
 21
2.0
 31
0.0
  0
CIRCLE
  5
B78
330
1411
100
AcDbEntity
  8
TEXT
100
AcDbCircle
 10
11.875
 20
2.0
 30
0.0
 40
1.7
  0
LINE
  5
B79
330
1411
100
AcDbEntity
  8
HILFSLINIEN
100
AcDbLine
 10
8.75
 20
0.0
 30
0.0
 11
8.75
 21
2.0
 31
0.0
  0
LINE
  5
B7A
330
1411
100
AcDbEntity
  8
HILFSLINIEN
100
AcDbLine
 10
8.75
 20
2.0
 30
0.0
 11
5.0
 21
2.0
 31
0.0
  0
CIRCLE
  5
B7B
330
1411
100
AcDbEntity
  8
TEXT
100
AcDbCircle
 10
6.875
 20
2.0
 30
0.0
 40
1.7
  0
TEXT
  5
B7C
330
1411
100
AcDbEntity
  8
TEXT
100
AcDbText
 10
7.875
 20
1.392857142857142
 30
0.0
 40
2.0
  1
1
 50
90.0
 41
0.75
  7
ROMANS
 72
     4
 11
6.875
 21
2.0
 31
0.0
100
AcDbText
  0
TEXT
  5
B7D
330
1411
100
AcDbEntity
  8
TEXT
100
AcDbText
 10
12.875
 20
1.285714285714285
 30
0.0
 40
2.0
  1
2
 50
90.0
 41
0.75
  7
ROMANS
 72
     4
 11
11.875
 21
2.0
 31
0.0
100
AcDbText
  0
TEXT
  5
B7E
330
1411
100
AcDbEntity
  8
TEXT
100
AcDbText
 10
17.875
 20
1.285714285714285
 30
0.0
 40
2.0
  1
3
 50
90.0
 41
0.75
  7
ROMANS
 72
     4
 11
16.875
 21
2.0
 31
0.0
100
AcDbText
  0
LINE
  5
B7F
330
1411
100
AcDbEntity
  8
HILFSLINIEN
100
AcDbLine
 10
18.75
 20
207.0
 30
0.0
 11
18.75
 21
209.0
 31
0.0
  0
LINE
  5
B80
330
1411
100
AcDbEntity
  8
HILFSLINIEN
100
AcDbLine
 10
18.75
 20
209.0
 30
0.0
 11
15.0
 21
209.0
 31
0.0
  0
CIRCLE
  5
B81
330
1411
100
AcDbEntity
  8
TEXT
100
AcDbCircle
 10
16.875
 20
209.0
 30
0.0
 40
1.7
  0
LINE
  5
B82
330
1411
100
AcDbEntity
  8
HILFSLINIEN
100
AcDbLine
 10
13.75
 20
207.0
 30
0.0
 11
13.75
 21
209.0
 31
0.0
  0
LINE
  5
B83
330
1411
100
AcDbEntity
  8
HILFSLINIEN
100
AcDbLine
 10
13.75
 20
209.0
 30
0.0
 11
10.0
 21
209.0
 31
0.0
  0
CIRCLE
  5
B84
330
1411
100
AcDbEntity
  8
TEXT
100
AcDbCircle
 10
11.875
 20
209.0
 30
0.0
 40
1.7
  0
LINE
  5
B85
330
1411
100
AcDbEntity
  8
HILFSLINIEN
100
AcDbLine
 10
8.75
 20
207.0
 30
0.0
 11
8.75
 21
209.0
 31
0.0
  0
LINE
  5
B86
330
1411
100
AcDbEntity
  8
HILFSLINIEN
100
AcDbLine
 10
8.75
 20
209.0
 30
0.0
 11
5.0
 21
209.0
 31
0.0
  0
CIRCLE
  5
B87
330
1411
100
AcDbEntity
  8
TEXT
100
AcDbCircle
 10
6.875
 20
209.0
 30
0.0
 40
1.7
  0
TEXT
  5
B88
330
1411
100
AcDbEntity
  8
TEXT
100
AcDbText
 10
7.875
 20
208.25
 30
0.0
 40
2.0
  1
4
 50
90.0
 41
0.75
  7
ROMANS
 72
     4
 11
6.875
 21
209.0
 31
0.0
100
AcDbText
  0
TEXT
  5
B89
330
1411
100
AcDbEntity
  8
TEXT
100
AcDbText
 10
12.875
 20
208.2857142857143
 30
0.0
 40
2.0
  1
5
 50
90.0
 41
0.75
  7
ROMANS
 72
     4
 11
11.875
 21
209.0
 31
0.0
100
AcDbText
  0
TEXT
  5
B8A
330
1411
100
AcDbEntity
  8
TEXT
100
AcDbText
 10
17.875
 20
208.25
 30
0.0
 40
2.0
  1
6
 50
90.0
 41
0.75
  7
ROMANS
 72
     4
 11
16.875
 21
209.0
 31
0.0
100
AcDbText
  0
LINE
  5
B8B
330
1411
100
AcDbEntity
  8
HILFSLINIEN
100
AcDbLine
 10
3.75
 20
0.0
 30
0.0
 11
3.75
 21
4.5
 31
0.0
  0
LINE
  5
B8C
330
1411
100
AcDbEntity
  8
HILFSLINIEN
100
AcDbLine
 10
3.75
 20
4.5
 30
0.0
 11
18.75
 21
4.5
 31
0.0
  0
LINE
  5
B8D
330
1411
100
AcDbEntity
  8
HILFSLINIEN
100
AcDbLine
 10
18.75
 20
60.0
 30
0.0
 11
18.75
 21
61.0
 31
0.0
  0
LINE
  5
B8E
330
1411
100
AcDbEntity
  8
HILFSLINIEN
100
AcDbLine
 10
18.75
 20
61.0
 30
0.0
 11
3.75
 21
61.0
 31
0.0
  0
LINE
  5
B8F
330
1411
100
AcDbEntity
  8
HILFSLINIEN
100
AcDbLine
 10
18.75
 20
75.0
 30
0.0
 11
18.75
 21
76.0
 31
0.0
  0
LINE
  5
B90
330
1411
100
AcDbEntity
  8
HILFSLINIEN
100
AcDbLine
 10
18.75
 20
76.0
 30
0.0
 11
3.75
 21
76.0
 31
0.0
  0
LINE
  5
B91
330
1411
100
AcDbEntity
  8
HILFSLINIEN
100
AcDbLine
 10
18.75
 20
207.0
 30
0.0
 11
18.75
 21
211.5
 31
0.0
  0
LINE
  5
B92
330
1411
100
AcDbEntity
  8
HILFSLINIEN
100
AcDbLine
 10
18.75
 20
211.5
 30
0.0
 11
3.75
 21
211.5
 31
0.0
  0
LINE
  5
B93
330
1411
100
AcDbEntity
  8
HILFSLINIEN
100
AcDbLine
 10
18.75
 20
267.0
 30
0.0
 11
18.75
 21
268.0
 31
0.0
  0
LINE
  5
B94
330
1411
100
AcDbEntity
  8
HILFSLINIEN
100
AcDbLine
 10
18.75
 20
268.0
 30
0.0
 11
3.75
 21
268.0
 31
0.0
  0
LINE
  5
B95
330
1411
100
AcDbEntity
  8
HILFSLINIEN
100
AcDbLine
 10
18.75
 20
282.0
 30
0.0
 11
18.75
 21
283.0
 31
0.0
  0
LINE
  5
B96
330
1411
100
AcDbEntity
  8
HILFSLINIEN
100
AcDbLine
 10
18.75
 20
283.0
 30
0.0
 11
3.75
 21
283.0
 31
0.0
  0
LINE
  5
B97
330
1411
100
AcDbEntity
  8
0
100
AcDbLine
 10
0.0
 20
297.0
 30
0.0
 11
0.0
 21
0.0
 31
0.0
  0
LINE
  5
B98
330
1411
100
AcDbEntity
  8
HILFSLINIEN
100
AcDbLine
 10
3.75
 20
0.0
 30
0.0
 11
3.75
 21
60.0
 31
0.0
  0
LINE
  5
B99
330
1411
100
AcDbEntity
  8
HILFSLINIEN
100
AcDbLine
 10
8.75
 20
0.0
 30
0.0
 11
8.75
 21
60.0
 31
0.0
  0
LINE
  5
B9A
330
1411
100
AcDbEntity
  8
HILFSLINIEN
100
AcDbLine
 10
13.75
 20
0.0
 30
0.0
 11
13.75
 21
60.0
 31
0.0
  0
LINE
  5
B9B
330
1411
100
AcDbEntity
  8
HILFSLINIEN
100
AcDbLine
 10
18.75
 20
0.0
 30
0.0
 11
18.75
 21
60.0
 31
0.0
  0
LINE
  5
B9C
330
1411
100
AcDbEntity
  8
HILFSLINIEN
100
AcDbLine
 10
3.75
 20
0.0
 30
0.0
 11
3.75
 21
60.0
 31
0.0
  0
LINE
  5
B9D
330
1411
100
AcDbEntity
  8
HILFSLINIEN
100
AcDbLine
 10
8.75
 20
0.0
 30
0.0
 11
8.75
 21
60.0
 31
0.0
  0
LINE
  5
B9E
330
1411
100
AcDbEntity
  8
HILFSLINIEN
100
AcDbLine
 10
13.75
 20
0.0
 30
0.0
 11
13.75
 21
60.0
 31
0.0
  0
LINE
  5
B9F
330
1411
100
AcDbEntity
  8
HILFSLINIEN
100
AcDbLine
 10
18.75
 20
0.0
 30
0.0
 11
18.75
 21
60.0
 31
0.0
  0
LINE
  5
BA0
330
1411
100
AcDbEntity
  8
HILFSLINIEN
100
AcDbLine
 10
5.0
 20
0.0
 30
0.0
 11
4.25
 21
0.0
 31
0.0
  0
LINE
  5
BA1
330
1411
100
AcDbEntity
  8
HILFSLINIEN
100
AcDbLine
 10
5.0
 20
0.0
 30
0.0
 11
3.75
 21
0.0
 31
0.0
  0
LINE
  5
BA2
330
1411
100
AcDbEntity
  8
HILFSLINIEN
100
AcDbLine
 10
5.0
 20
0.0
 30
0.0
 11
4.25
 21
0.0
 31
0.0
  0
LINE
  5
BA3
330
1411
100
AcDbEntity
  8
HILFSLINIEN
100
AcDbLine
 10
5.0
 20
0.0
 30
0.0
 11
3.75
 21
0.0
 31
0.0
  0
LINE
  5
BA4
330
1411
100
AcDbEntity
  8
0
100
AcDbLine
 10
0.0
 20
0.0
 30
0.0
 11
0.0
 21
0.0
 31
0.0
  0
TEXT
  5
BA5
330
1411
100
AcDbEntity
  8
TEXT
100
AcDbText
 10
3.749999999999999
 20
23.70535714285714
 30
0.0
 40
2.5
  1
Änderung
 50
90.0
 41
0.75
  7
ROMANS
 72
     1
 11
3.75
 21
30.0
 31
0.0
100
AcDbText
  0
LINE
  5
BA6
330
1411
100
AcDbEntity
  8
0
100
AcDbLine
 10
20.0
 20
5.0
 30
0.0
 11
20.0
 21
5.0
 31
0.0
  0
LINE
  5
BA7
330
1411
100
AcDbEntity
  8
RAHMEN
100
AcDbLine
 10
0.0
 20
148.5
 30
0.0
 11
4.080403395846737
 21
148.5
 31
0.0
  0
LINE
  5
BA8
330
1411
100
AcDbEntity
  8
HILFSLINIEN
100
AcDbLine
 10
3.75
 20
75.0
 30
0.0
 11
3.75
 21
90.0
 31
0.0
  0
LINE
  5
BA9
330
1411
100
AcDbEntity
  8
HILFSLINIEN
100
AcDbLine
 10
8.75
 20
75.0
 30
0.0
 11
8.75
 21
90.0
 31
0.0
  0
TEXT
  5
BAA
330
1411
100
AcDbEntity
  8
TEXT
100
AcDbText
 10
3.749999999999999
 20
78.48214285714286
 30
0.0
 40
2.5
  1
Name
 50
90.0
 41
0.75
  7
ROMANS
 72
     1
 11
3.75
 21
82.5
 31
0.0
100
AcDbText
  0
LINE
  5
BAB
330
1411
100
AcDbEntity
  8
HILFSLINIEN
100
AcDbLine
 10
3.75
 20
75.0
 30
0.0
 11
3.75
 21
90.0
 31
0.0
  0
LINE
  5
BAC
330
1411
100
AcDbEntity
  8
HILFSLINIEN
100
AcDbLine
 10
8.75
 20
75.0
 30
0.0
 11
8.75
 21
90.0
 31
0.0
  0
LINE
  5
BAD
330
1411
100
AcDbEntity
  8
HILFSLINIEN
100
AcDbLine
 10
3.75
 20
60.0
 30
0.0
 11
3.75
 21
75.0
 31
0.0
  0
LINE
  5
BAE
330
1411
100
AcDbEntity
  8
HILFSLINIEN
100
AcDbLine
 10
8.75
 20
60.0
 30
0.0
 11
8.75
 21
75.0
 31
0.0
  0
TEXT
  5
BAF
330
1411
100
AcDbEntity
  8
TEXT
100
AcDbText
 10
3.749999999999999
 20
62.99107142857143
 30
0.0
 40
2.5
  1
Datum
 50
90.0
 41
0.75
  7
ROMANS
 72
     1
 11
3.75
 21
67.5
 31
0.0
100
AcDbText
  0
LINE
  5
BB0
330
1411
100
AcDbEntity
  8
HILFSLINIEN
100
AcDbLine
 10
3.75
 20
60.0
 30
0.0
 11
3.75
 21
75.0
 31
0.0
  0
LINE
  5
BB1
330
1411
100
AcDbEntity
  8
HILFSLINIEN
100
AcDbLine
 10
8.75
 20
60.0
 30
0.0
 11
8.75
 21
75.0
 31
0.0
  0
LINE
  5
BB2
330
1411
100
AcDbEntity
  8
HILFSLINIEN
100
AcDbLine
 10
13.75
 20
75.0
 30
0.0
 11
13.75
 21
90.0
 31
0.0
  0
LINE
  5
BB3
330
1411
100
AcDbEntity
  8
HILFSLINIEN
100
AcDbLine
 10
18.75
 20
75.0
 30
0.0
 11
18.75
 21
90.0
 31
0.0
  0
LINE
  5
BB4
330
1411
100
AcDbEntity
  8
HILFSLINIEN
100
AcDbLine
 10
13.75
 20
75.0
 30
0.0
 11
13.75
 21
90.0
 31
0.0
  0
LINE
  5
BB5
330
1411
100
AcDbEntity
  8
HILFSLINIEN
100
AcDbLine
 10
18.75
 20
75.0
 30
0.0
 11
18.75
 21
90.0
 31
0.0
  0
LINE
  5
BB6
330
1411
100
AcDbEntity
  8
HILFSLINIEN
100
AcDbLine
 10
13.75
 20
60.0
 30
0.0
 11
13.75
 21
75.0
 31
0.0
  0
LINE
  5
BB7
330
1411
100
AcDbEntity
  8
HILFSLINIEN
100
AcDbLine
 10
18.75
 20
60.0
 30
0.0
 11
18.75
 21
75.0
 31
0.0
  0
LINE
  5
BB8
330
1411
100
AcDbEntity
  8
HILFSLINIEN
100
AcDbLine
 10
13.75
 20
60.0
 30
0.0
 11
13.75
 21
75.0
 31
0.0
  0
LINE
  5
BB9
330
1411
100
AcDbEntity
  8
HILFSLINIEN
100
AcDbLine
 10
18.75
 20
60.0
 30
0.0
 11
18.75
 21
75.0
 31
0.0
  0
TEXT
  5
BBA
330
1411
100
AcDbEntity
  8
TEXT
100
AcDbText
 10
3.749999999999999
 20
230.7053571428571
 30
0.0
 40
2.5
  1
Änderung
 50
90.0
 41
0.75
  7
ROMANS
 72
     1
 11
3.75
 21
237.0
 31
0.0
100
AcDbText
  0
LINE
  5
BBB
330
1411
100
AcDbEntity
  8
HILFSLINIEN
100
AcDbLine
 10
18.75
 20
207.0
 30
0.0
 11
18.75
 21
267.0
 31
0.0
  0
LINE
  5
BBC
330
1411
100
AcDbEntity
  8
HILFSLINIEN
100
AcDbLine
 10
13.75
 20
207.0
 30
0.0
 11
13.75
 21
267.0
 31
0.0
  0
LINE
  5
BBD
330
1411
100
AcDbEntity
  8
HILFSLINIEN
100
AcDbLine
 10
8.75
 20
207.0
 30
0.0
 11
8.75
 21
267.0
 31
0.0
  0
LINE
  5
BBE
330
1411
100
AcDbEntity
  8
HILFSLINIEN
100
AcDbLine
 10
3.75
 20
207.0
 30
0.0
 11
3.75
 21
267.0
 31
0.0
  0
LINE
  5
BBF
330
1411
100
AcDbEntity
  8
HILFSLINIEN
100
AcDbLine
 10
5.0
 20
207.0
 30
0.0
 11
3.75
 21
207.0
 31
0.0
  0
LINE
  5
BC0
330
1411
100
AcDbEntity
  8
HILFSLINIEN
100
AcDbLine
 10
5.0
 20
207.0
 30
0.0
 11
4.25
 21
207.0
 31
0.0
  0
TEXT
  5
BC1
330
1411
100
AcDbEntity
  8
TEXT
100
AcDbText
 10
3.749999999999999
 20
285.4821428571428
 30
0.0
 40
2.5
  1
Name
 50
90.0
 41
0.75
  7
ROMANS
 72
     1
 11
3.75
 21
289.5
 31
0.0
100
AcDbText
  0
LINE
  5
BC2
330
1411
100
AcDbEntity
  8
HILFSLINIEN
100
AcDbLine
 10
8.75
 20
282.0
 30
0.0
 11
8.75
 21
297.0
 31
0.0
  0
LINE
  5
BC3
330
1411
100
AcDbEntity
  8
HILFSLINIEN
100
AcDbLine
 10
3.75
 20
282.0
 30
0.0
 11
3.75
 21
297.0
 31
0.0
  0
TEXT
  5
BC4
330
1411
100
AcDbEntity
  8
TEXT
100
AcDbText
 10
3.749999999999999
 20
269.9910714285715
 30
0.0
 40
2.5
  1
Datum
 50
90.0
 41
0.75
  7
ROMANS
 72
     1
 11
3.75
 21
274.5
 31
0.0
100
AcDbText
  0
LINE
  5
BC5
330
1411
100
AcDbEntity
  8
HILFSLINIEN
100
AcDbLine
 10
8.75
 20
267.0
 30
0.0
 11
8.75
 21
282.0
 31
0.0
  0
LINE
  5
BC6
330
1411
100
AcDbEntity
  8
HILFSLINIEN
100
AcDbLine
 10
3.75
 20
267.0
 30
0.0
 11
3.75
 21
282.0
 31
0.0
  0
LINE
  5
BC7
330
1411
100
AcDbEntity
  8
HILFSLINIEN
100
AcDbLine
 10
18.75
 20
282.0
 30
0.0
 11
18.75
 21
297.0
 31
0.0
  0
LINE
  5
BC8
330
1411
100
AcDbEntity
  8
HILFSLINIEN
100
AcDbLine
 10
13.75
 20
282.0
 30
0.0
 11
13.75
 21
297.0
 31
0.0
  0
LINE
  5
BC9
330
1411
100
AcDbEntity
  8
HILFSLINIEN
100
AcDbLine
 10
18.75
 20
267.0
 30
0.0
 11
18.75
 21
282.0
 31
0.0
  0
LINE
  5
BCA
330
1411
100
AcDbEntity
  8
HILFSLINIEN
100
AcDbLine
 10
13.75
 20
267.0
 30
0.0
 11
13.75
 21
282.0
 31
0.0
  0
LINE
  5
BCB
330
1411
100
AcDbEntity
  8
0
100
AcDbLine
 10
0.0
 20
297.0
 30
0.0
 11
0.0
 21
0.0
 31
0.0
  0
LINE
  5
BCC
330
1411
100
AcDbEntity
  8
RAHMEN
100
AcDbLine
 10
0.0
 20
90.0
 30
0.0
 11
0.0
 21
0.0
 31
0.0
  0
LINE
  5
BCD
330
1411
100
AcDbEntity
  8
RAHMEN
100
AcDbLine
 10
0.0
 20
0.0
 30
0.0
 11
0.0
 21
90.0
 31
0.0
  0
LINE
  5
BCE
330
1411
100
AcDbEntity
  8
RAHMEN
100
AcDbLine
 10
5.0
 20
0.0
 30
0.0
 11
5.0
 21
90.0
 31
0.0
  0
LINE
  5
BCF
330
1411
100
AcDbEntity
  8
RAHMEN
100
AcDbLine
 10
10.0
 20
0.0
 30
0.0
 11
10.0
 21
90.0
 31
0.0
  0
LINE
  5
BD0
330
1411
100
AcDbEntity
  8
RAHMEN
100
AcDbLine
 10
15.0
 20
0.0
 30
0.0
 11
15.0
 21
90.0
 31
0.0
  0
LINE
  5
BD1
330
1411
100
AcDbEntity
  8
RAHMEN
100
AcDbLine
 10
0.0
 20
0.0
 30
0.0
 11
20.0
 21
0.0
 31
0.0
  0
LINE
  5
BD2
330
1411
100
AcDbEntity
  8
RAHMEN
100
AcDbLine
 10
0.0
 20
0.0
 30
0.0
 11
5.0
 21
0.0
 31
0.0
  0
LINE
  5
BD3
330
1411
100
AcDbEntity
  8
0
100
AcDbLine
 10
0.0
 20
0.0
 30
0.0
 11
0.0
 21
0.0
 31
0.0
  0
LINE
  5
BD4
330
1411
100
AcDbEntity
  8
0
100
AcDbLine
 10
20.0
 20
5.0
 30
0.0
 11
20.0
 21
5.0
 31
0.0
  0
LINE
  5
BD5
330
1411
100
AcDbEntity
  8
RAHMEN
100
AcDbLine
 10
0.0
 20
90.0
 30
0.0
 11
20.0
 21
90.0
 31
0.0
  0
LINE
  5
BD6
330
1411
100
AcDbEntity
  8
RAHMEN
100
AcDbLine
 10
0.0
 20
60.0
 30
0.0
 11
20.0
 21
60.0
 31
0.0
  0
LINE
  5
BD7
330
1411
100
AcDbEntity
  8
RAHMEN
100
AcDbLine
 10
0.0
 20
75.0
 30
0.0
 11
20.0
 21
75.0
 31
0.0
  0
LINE
  5
BD8
330
1411
100
AcDbEntity
  8
RAHMEN
100
AcDbLine
 10
0.0
 20
148.5
 30
0.0
 11
7.544638271345935
 21
148.5
 31
0.0
  0
LINE
  5
BD9
330
1411
100
AcDbEntity
  8
RAHMEN
100
AcDbLine
 10
15.0
 20
207.0
 30
0.0
 11
15.0
 21
297.0
 31
0.0
  0
LINE
  5
BDA
330
1411
100
AcDbEntity
  8
RAHMEN
100
AcDbLine
 10
10.0
 20
207.0
 30
0.0
 11
10.0
 21
297.0
 31
0.0
  0
LINE
  5
BDB
330
1411
100
AcDbEntity
  8
RAHMEN
100
AcDbLine
 10
5.0
 20
207.0
 30
0.0
 11
5.0
 21
297.0
 31
0.0
  0
LINE
  5
BDC
330
1411
100
AcDbEntity
  8
RAHMEN
100
AcDbLine
 10
0.0
 20
207.0
 30
0.0
 11
0.0
 21
297.0
 31
0.0
  0
LINE
  5
BDD
330
1411
100
AcDbEntity
  8
RAHMEN
100
AcDbLine
 10
0.0
 20
297.0
 30
0.0
 11
0.0
 21
207.0
 31
0.0
  0
LINE
  5
BDE
330
1411
100
AcDbEntity
  8
RAHMEN
100
AcDbLine
 10
0.0
 20
207.0
 30
0.0
 11
20.0
 21
207.0
 31
0.0
  0
LINE
  5
BDF
330
1411
100
AcDbEntity
  8
RAHMEN
100
AcDbLine
 10
0.0
 20
207.0
 30
0.0
 11
5.0
 21
207.0
 31
0.0
  0
LINE
  5
BE0
330
1411
100
AcDbEntity
  8
RAHMEN
100
AcDbLine
 10
0.0
 20
282.0
 30
0.0
 11
20.0
 21
282.0
 31
0.0
  0
LINE
  5
BE1
330
1411
100
AcDbEntity
  8
RAHMEN
100
AcDbLine
 10
0.0
 20
267.0
 30
0.0
 11
20.0
 21
267.0
 31
0.0
  0
LINE
  5
BE2
330
1411
100
AcDbEntity
  8
RAHMEN
100
AcDbLine
 10
0.0
 20
297.0
 30
0.0
 11
20.0
 21
297.0
 31
0.0
  0
ATTDEF
  5
BE3
330
1411
100
AcDbEntity
  8
TEXT
100
AcDbText
 10
8.75
 20
4.5
 30
0.0
 40
2.5
  1

 50
90.0
 41
0.75
  7
ROMANS
100
AcDbAttributeDefinition
  3
1-Änderung-Text
  2
1
 70
     0
  0
ATTDEF
  5
BE4
330
1411
100
AcDbEntity
  8
TEXT
100
AcDbText
 10
8.75
 20
61.0
 30
0.0
 40
2.5
  1

 50
90.0
 41
0.75
  7
ROMANS
100
AcDbAttributeDefinition
  3
1-Änderung-Datum
  2
2
 70
     0
  0
ATTDEF
  5
BE5
330
1411
100
AcDbEntity
  8
TEXT
100
AcDbText
 10
8.75
 20
76.0
 30
0.0
 40
2.5
  1

 50
90.0
 41
0.75
  7
ROMANS
100
AcDbAttributeDefinition
  3
1-Änderung-Name
  2
3
 70
     0
  0
ATTDEF
  5
BE6
330
1411
100
AcDbEntity
  8
TEXT
100
AcDbText
 10
13.75
 20
4.5
 30
0.0
 40
2.5
  1

 50
90.0
 41
0.75
  7
ROMANS
100
AcDbAttributeDefinition
  3
2-Änderung-Text
  2
4
 70
     0
  0
ATTDEF
  5
BE7
330
1411
100
AcDbEntity
  8
TEXT
100
AcDbText
 10
13.75
 20
61.0
 30
0.0
 40
2.5
  1

 50
90.0
 41
0.75
  7
ROMANS
100
AcDbAttributeDefinition
  3
2-Änderung-Datum
  2
5
 70
     0
  0
ATTDEF
  5
BE8
330
1411
100
AcDbEntity
  8
TEXT
100
AcDbText
 10
13.75
 20
76.0
 30
0.0
 40
2.5
  1

 50
90.0
 41
0.75
  7
ROMANS
100
AcDbAttributeDefinition
  3
2-Änderung-Name
  2
6
 70
     0
  0
ATTDEF
  5
BE9
330
1411
100
AcDbEntity
  8
TEXT
100
AcDbText
 10
18.75
 20
4.5
 30
0.0
 40
2.5
  1

 50
90.0
 41
0.75
  7
ROMANS
100
AcDbAttributeDefinition
  3
3-Änderung-Text
  2
7
 70
     0
  0
ATTDEF
  5
BEA
330
1411
100
AcDbEntity
  8
TEXT
100
AcDbText
 10
18.75
 20
61.0
 30
0.0
 40
2.5
  1

 50
90.0
 41
0.75
  7
ROMANS
100
AcDbAttributeDefinition
  3
3-Änderung-Datum
  2
8
 70
     0
  0
ATTDEF
  5
BEB
330
1411
100
AcDbEntity
  8
TEXT
100
AcDbText
 10
18.75
 20
76.0
 30
0.0
 40
2.5
  1

 50
90.0
 41
0.75
  7
ROMANS
100
AcDbAttributeDefinition
  3
3-Änderung-Name
  2
9
 70
     0
  0
ATTDEF
  5
BEC
330
1411
100
AcDbEntity
  8
TEXT
100
AcDbText
 10
8.75
 20
211.5
 30
0.0
 40
2.5
  1

 50
90.0
 41
0.75
  7
ROMANS
100
AcDbAttributeDefinition
  3
4-Änderung-Text
  2
10
 70
     0
  0
ATTDEF
  5
BED
330
1411
100
AcDbEntity
  8
TEXT
100
AcDbText
 10
8.75
 20
268.0
 30
0.0
 40
2.5
  1

 50
90.0
 41
0.75
  7
ROMANS
100
AcDbAttributeDefinition
  3
4-Änderung-Datum
  2
11
 70
     0
  0
ATTDEF
  5
BEE
330
1411
100
AcDbEntity
  8
TEXT
100
AcDbText
 10
8.75
 20
283.0
 30
0.0
 40
2.5
  1

 50
90.0
 41
0.75
  7
ROMANS
100
AcDbAttributeDefinition
  3
4-Änderung-Name
  2
12
 70
     0
  0
ATTDEF
  5
BEF
330
1411
100
AcDbEntity
  8
TEXT
100
AcDbText
 10
13.75
 20
211.5
 30
0.0
 40
2.5
  1

 50
90.0
 41
0.75
  7
ROMANS
100
AcDbAttributeDefinition
  3
5-Änderung-Text
  2
13
 70
     0
  0
ATTDEF
  5
BF0
330
1411
100
AcDbEntity
  8
TEXT
100
AcDbText
 10
13.75
 20
268.0
 30
0.0
 40
2.5
  1

 50
90.0
 41
0.75
  7
ROMANS
100
AcDbAttributeDefinition
  3
5-Änderung-Datum
  2
14
 70
     0
  0
ATTDEF
  5
BF1
330
1411
100
AcDbEntity
  8
TEXT
100
AcDbText
 10
13.75
 20
283.0
 30
0.0
 40
2.5
  1

 50
90.0
 41
0.75
  7
ROMANS
100
AcDbAttributeDefinition
  3
5-Änderung-Name
  2
15
 70
     0
  0
ATTDEF
  5
BF2
330
1411
100
AcDbEntity
  8
TEXT
100
AcDbText
 10
18.75
 20
211.5
 30
0.0
 40
2.5
  1

 50
90.0
 41
0.75
  7
ROMANS
100
AcDbAttributeDefinition
  3
6-Änderung-Text
  2
16
 70
     0
  0
ATTDEF
  5
BF3
330
1411
100
AcDbEntity
  8
TEXT
100
AcDbText
 10
18.75
 20
268.0
 30
0.0
 40
2.5
  1

 50
90.0
 41
0.75
  7
ROMANS
100
AcDbAttributeDefinition
  3
6-Änderung-Datum
  2
17
 70
     0
  0
ATTDEF
  5
BF4
330
1411
100
AcDbEntity
  8
TEXT
100
AcDbText
 10
18.75
 20
283.0
 30
0.0
 40
2.5
  1

 50
90.0
 41
0.75
  7
ROMANS
100
AcDbAttributeDefinition
  3
6-Änderung-Name
  2
18
 70
     0
  0
LINE
  5
BF5
330
1411
100
AcDbEntity
  8
HILFSLINIEN
100
AcDbLine
 10
20.0
 20
297.0
 30
0.0
 11
20.0
 21
0.0
 31
0.0
  0
LINE
  5
BF6
330
1411
100
AcDbEntity
  8
HILFSLINIEN
100
AcDbLine
 10
0.0
 20
183.5
 30
0.0
 11
20.0
 21
183.5
 31
0.0
  0
LINE
  5
BF7
330
1411
100
AcDbEntity
  8
HILFSLINIEN
100
AcDbLine
 10
0.0
 20
113.5
 30
0.0
 11
20.0
 21
113.5
 31
0.0
  0
TEXT
  5
BF8
330
1411
100
AcDbEntity
  8
TEXT
100
AcDbText
 10
9.847940365286088
 20
113.5
 30
0.0
 40
1.8
  1
Diese Unterlagen bleiben unser Eigentum. Vervielfältigungen, Anfertigungen
 50
90.0
 41
0.672707303679298
  7
ROMANS
 72
     5
 11
9.847940365286088
 21
183.5
 31
0.0
100
AcDbText
  0
TEXT
  5
BF9
330
1411
100
AcDbEntity
  8
TEXT
100
AcDbText
 10
12.7622260795718
 20
113.5
 30
0.0
 40
1.8
  1
von Aufzeichnungen bezüglich des Inhaltes, die Weitergabe, auch des In-
 50
90.0
 41
0.6721536351165966
  7
ROMANS
 72
     5
 11
12.7622260795718
 21
183.5
 31
0.0
100
AcDbText
  0
TEXT
  5
BFA
330
1411
100
AcDbEntity
  8
TEXT
100
AcDbText
 10
15.67651179385752
 20
113.5
 30
0.0
 40
1.8
  1
haltes an Dritte, sowie Verwertung des Inhaltes durch den Empfänger oder
 50
90.0
 41
0.656484458735263
  7
ROMANS
 72
     5
 11
15.67651179385752
 21
183.5
 31
0.0
100
AcDbText
  0
TEXT
  5
BFB
330
1411
100
AcDbEntity
  8
TEXT
100
AcDbText
 10
18.59079750814321
 20
113.5
 30
0.0
 40
1.8
  1
auf dessen Vermittlung durch Dritte, sind unzulässig und strafbar.
 50
90.0
 41
0.7451338199513366
  7
ROMANS
 72
     5
 11
18.59079750814321
 21
183.5
 31
0.0
100
AcDbText
  0
LINE
  5
BFC
330
1411
100
AcDbEntity
  8
HILFSLINIEN
100
AcDbLine
 10
9.871991918659212
 20
113.4923292010233
 30
0.0
 11
9.871991918659212
 21
183.5399722751536
 31
0.0
  0
LINE
  5
BFD
330
1411
100
AcDbEntity
  8
RAHMEN
100
AcDbLine
 10
20.0
 20
0.0
 30
0.0
 11
20.0
 21
5.0
 31
0.0
  0
LINE
  5
BFE
330
1411
100
AcDbEntity
  8
RAHMEN
100
AcDbLine
 10
20.0
 20
297.0
 30
0.0
 11
20.0
 21
292.0
 31
0.0
  0
ENDBLK
  5
C00
330
1411
100
AcDbEntity
  8
0
100
AcDbBlockEnd
  0
BLOCK
  5
1414
330
1413
100
AcDbEntity
  8
0
100
AcDbBlockBegin
  2
AENDERUNGS-KOPF1-_1-6_-A4-
 70
     2
 10
0.0
 20
0.0
 30
0.0
  3
AENDERUNGS-KOPF1-_1-6_-A4-
  1

  0
LINE
  5
C03
330
1413
100
AcDbEntity
  8
RAHMEN
100
AcDbLine
 10
0.0
 20
297.0
 30
0.0
 11
0.0
 21
0.0
 31
0.0
  0
LINE
  5
C04
330
1413
100
AcDbEntity
  8
0
100
AcDbLine
 10
0.0
 20
5.0
 30
0.0
 11
0.0
 21
5.0
 31
0.0
  0
LINE
  5
C05
330
1413
100
AcDbEntity
  8
HILFSLINIEN
100
AcDbLine
 10
18.75
 20
0.0
 30
0.0
 11
18.75
 21
2.0
 31
0.0
  0
LINE
  5
C06
330
1413
100
AcDbEntity
  8
HILFSLINIEN
100
AcDbLine
 10
18.75
 20
2.0
 30
0.0
 11
15.0
 21
2.0
 31
0.0
  0
CIRCLE
  5
C07
330
1413
100
AcDbEntity
  8
TEXT
100
AcDbCircle
 10
16.875
 20
7.0
 30
0.0
 40
1.7
  0
LINE
  5
C08
330
1413
100
AcDbEntity
  8
HILFSLINIEN
100
AcDbLine
 10
13.75
 20
0.0
 30
0.0
 11
13.75
 21
2.0
 31
0.0
  0
LINE
  5
C09
330
1413
100
AcDbEntity
  8
HILFSLINIEN
100
AcDbLine
 10
13.75
 20
2.0
 30
0.0
 11
10.0
 21
2.0
 31
0.0
  0
CIRCLE
  5
C0A
330
1413
100
AcDbEntity
  8
TEXT
100
AcDbCircle
 10
11.875
 20
7.0
 30
0.0
 40
1.7
  0
LINE
  5
C0B
330
1413
100
AcDbEntity
  8
HILFSLINIEN
100
AcDbLine
 10
8.75
 20
0.0
 30
0.0
 11
8.75
 21
2.0
 31
0.0
  0
LINE
  5
C0C
330
1413
100
AcDbEntity
  8
HILFSLINIEN
100
AcDbLine
 10
8.75
 20
2.0
 30
0.0
 11
5.0
 21
2.0
 31
0.0
  0
CIRCLE
  5
C0D
330
1413
100
AcDbEntity
  8
TEXT
100
AcDbCircle
 10
6.875
 20
7.0
 30
0.0
 40
1.7
  0
TEXT
  5
C0E
330
1413
100
AcDbEntity
  8
TEXT
100
AcDbText
 10
7.875
 20
6.392857142857143
 30
0.0
 40
2.0
  1
1
 50
90.0
 41
0.75
  7
ROMANS
 72
     4
 11
6.875
 21
7.0
 31
0.0
100
AcDbText
  0
TEXT
  5
C0F
330
1413
100
AcDbEntity
  8
TEXT
100
AcDbText
 10
12.875
 20
6.285714285714285
 30
0.0
 40
2.0
  1
2
 50
90.0
 41
0.75
  7
ROMANS
 72
     4
 11
11.875
 21
7.0
 31
0.0
100
AcDbText
  0
TEXT
  5
C10
330
1413
100
AcDbEntity
  8
TEXT
100
AcDbText
 10
17.875
 20
6.285714285714285
 30
0.0
 40
2.0
  1
3
 50
90.0
 41
0.75
  7
ROMANS
 72
     4
 11
16.875
 21
7.0
 31
0.0
100
AcDbText
  0
LINE
  5
C11
330
1413
100
AcDbEntity
  8
HILFSLINIEN
100
AcDbLine
 10
18.75
 20
207.0
 30
0.0
 11
18.75
 21
209.0
 31
0.0
  0
LINE
  5
C12
330
1413
100
AcDbEntity
  8
HILFSLINIEN
100
AcDbLine
 10
18.75
 20
209.0
 30
0.0
 11
15.0
 21
209.0
 31
0.0
  0
CIRCLE
  5
C13
330
1413
100
AcDbEntity
  8
TEXT
100
AcDbCircle
 10
16.875
 20
204.0
 30
0.0
 40
1.7
  0
LINE
  5
C14
330
1413
100
AcDbEntity
  8
HILFSLINIEN
100
AcDbLine
 10
13.75
 20
207.0
 30
0.0
 11
13.75
 21
209.0
 31
0.0
  0
LINE
  5
C15
330
1413
100
AcDbEntity
  8
HILFSLINIEN
100
AcDbLine
 10
13.75
 20
209.0
 30
0.0
 11
10.0
 21
209.0
 31
0.0
  0
CIRCLE
  5
C16
330
1413
100
AcDbEntity
  8
TEXT
100
AcDbCircle
 10
11.875
 20
204.0
 30
0.0
 40
1.7
  0
LINE
  5
C17
330
1413
100
AcDbEntity
  8
HILFSLINIEN
100
AcDbLine
 10
8.75
 20
207.0
 30
0.0
 11
8.75
 21
209.0
 31
0.0
  0
LINE
  5
C18
330
1413
100
AcDbEntity
  8
HILFSLINIEN
100
AcDbLine
 10
8.75
 20
209.0
 30
0.0
 11
5.0
 21
209.0
 31
0.0
  0
CIRCLE
  5
C19
330
1413
100
AcDbEntity
  8
TEXT
100
AcDbCircle
 10
6.875
 20
204.0
 30
0.0
 40
1.7
  0
TEXT
  5
C1A
330
1413
100
AcDbEntity
  8
TEXT
100
AcDbText
 10
7.875
 20
203.25
 30
0.0
 40
2.0
  1
4
 50
90.0
 41
0.75
  7
ROMANS
 72
     4
 11
6.875
 21
204.0
 31
0.0
100
AcDbText
  0
TEXT
  5
C1B
330
1413
100
AcDbEntity
  8
TEXT
100
AcDbText
 10
12.875
 20
203.2857142857143
 30
0.0
 40
2.0
  1
5
 50
90.0
 41
0.75
  7
ROMANS
 72
     4
 11
11.875
 21
204.0
 31
0.0
100
AcDbText
  0
TEXT
  5
C1C
330
1413
100
AcDbEntity
  8
TEXT
100
AcDbText
 10
17.875
 20
203.25
 30
0.0
 40
2.0
  1
6
 50
90.0
 41
0.75
  7
ROMANS
 72
     4
 11
16.875
 21
204.0
 31
0.0
100
AcDbText
  0
LINE
  5
C1D
330
1413
100
AcDbEntity
  8
HILFSLINIEN
100
AcDbLine
 10
3.75
 20
0.0
 30
0.0
 11
3.75
 21
4.5
 31
0.0
  0
LINE
  5
C1E
330
1413
100
AcDbEntity
  8
HILFSLINIEN
100
AcDbLine
 10
3.75
 20
4.5
 30
0.0
 11
18.75
 21
4.5
 31
0.0
  0
LINE
  5
C1F
330
1413
100
AcDbEntity
  8
HILFSLINIEN
100
AcDbLine
 10
18.75
 20
60.0
 30
0.0
 11
18.75
 21
61.0
 31
0.0
  0
LINE
  5
C20
330
1413
100
AcDbEntity
  8
HILFSLINIEN
100
AcDbLine
 10
18.75
 20
61.0
 30
0.0
 11
3.75
 21
61.0
 31
0.0
  0
LINE
  5
C21
330
1413
100
AcDbEntity
  8
HILFSLINIEN
100
AcDbLine
 10
18.75
 20
75.0
 30
0.0
 11
18.75
 21
76.0
 31
0.0
  0
LINE
  5
C22
330
1413
100
AcDbEntity
  8
HILFSLINIEN
100
AcDbLine
 10
18.75
 20
76.0
 30
0.0
 11
3.75
 21
76.0
 31
0.0
  0
LINE
  5
C23
330
1413
100
AcDbEntity
  8
HILFSLINIEN
100
AcDbLine
 10
18.75
 20
207.0
 30
0.0
 11
18.75
 21
211.5
 31
0.0
  0
LINE
  5
C24
330
1413
100
AcDbEntity
  8
HILFSLINIEN
100
AcDbLine
 10
18.75
 20
211.5
 30
0.0
 11
3.75
 21
211.5
 31
0.0
  0
LINE
  5
C25
330
1413
100
AcDbEntity
  8
HILFSLINIEN
100
AcDbLine
 10
18.75
 20
267.0
 30
0.0
 11
18.75
 21
268.0
 31
0.0
  0
LINE
  5
C26
330
1413
100
AcDbEntity
  8
HILFSLINIEN
100
AcDbLine
 10
18.75
 20
268.0
 30
0.0
 11
3.75
 21
268.0
 31
0.0
  0
LINE
  5
C27
330
1413
100
AcDbEntity
  8
HILFSLINIEN
100
AcDbLine
 10
18.75
 20
282.0
 30
0.0
 11
18.75
 21
283.0
 31
0.0
  0
LINE
  5
C28
330
1413
100
AcDbEntity
  8
HILFSLINIEN
100
AcDbLine
 10
18.75
 20
283.0
 30
0.0
 11
3.75
 21
283.0
 31
0.0
  0
LINE
  5
C29
330
1413
100
AcDbEntity
  8
HILFSLINIEN
100
AcDbLine
 10
3.75
 20
0.0
 30
0.0
 11
3.75
 21
60.0
 31
0.0
  0
LINE
  5
C2A
330
1413
100
AcDbEntity
  8
HILFSLINIEN
100
AcDbLine
 10
8.75
 20
0.0
 30
0.0
 11
8.75
 21
60.0
 31
0.0
  0
LINE
  5
C2B
330
1413
100
AcDbEntity
  8
HILFSLINIEN
100
AcDbLine
 10
13.75
 20
0.0
 30
0.0
 11
13.75
 21
60.0
 31
0.0
  0
LINE
  5
C2C
330
1413
100
AcDbEntity
  8
HILFSLINIEN
100
AcDbLine
 10
18.75
 20
0.0
 30
0.0
 11
18.75
 21
60.0
 31
0.0
  0
LINE
  5
C2D
330
1413
100
AcDbEntity
  8
HILFSLINIEN
100
AcDbLine
 10
3.75
 20
0.0
 30
0.0
 11
3.75
 21
60.0
 31
0.0
  0
LINE
  5
C2E
330
1413
100
AcDbEntity
  8
HILFSLINIEN
100
AcDbLine
 10
8.75
 20
0.0
 30
0.0
 11
8.75
 21
60.0
 31
0.0
  0
LINE
  5
C2F
330
1413
100
AcDbEntity
  8
HILFSLINIEN
100
AcDbLine
 10
13.75
 20
0.0
 30
0.0
 11
13.75
 21
60.0
 31
0.0
  0
LINE
  5
C30
330
1413
100
AcDbEntity
  8
HILFSLINIEN
100
AcDbLine
 10
18.75
 20
0.0
 30
0.0
 11
18.75
 21
60.0
 31
0.0
  0
LINE
  5
C31
330
1413
100
AcDbEntity
  8
HILFSLINIEN
100
AcDbLine
 10
5.0
 20
0.0
 30
0.0
 11
4.25
 21
0.0
 31
0.0
  0
LINE
  5
C32
330
1413
100
AcDbEntity
  8
HILFSLINIEN
100
AcDbLine
 10
5.0
 20
0.0
 30
0.0
 11
3.75
 21
0.0
 31
0.0
  0
LINE
  5
C33
330
1413
100
AcDbEntity
  8
HILFSLINIEN
100
AcDbLine
 10
5.0
 20
0.0
 30
0.0
 11
4.25
 21
0.0
 31
0.0
  0
LINE
  5
C34
330
1413
100
AcDbEntity
  8
HILFSLINIEN
100
AcDbLine
 10
5.0
 20
0.0
 30
0.0
 11
3.75
 21
0.0
 31
0.0
  0
LINE
  5
C35
330
1413
100
AcDbEntity
  8
0
100
AcDbLine
 10
0.0
 20
5.0
 30
0.0
 11
0.0
 21
5.0
 31
0.0
  0
TEXT
  5
C36
330
1413
100
AcDbEntity
  8
TEXT
100
AcDbText
 10
3.749999999999999
 20
28.70535714285714
 30
0.0
 40
2.5
  1
Änderung
 50
90.0
 41
0.75
  7
ROMANS
 72
     1
 11
3.75
 21
35.0
 31
0.0
100
AcDbText
  0
LINE
  5
C37
330
1413
100
AcDbEntity
  8
0
100
AcDbLine
 10
20.0
 20
10.0
 30
0.0
 11
20.0
 21
10.0
 31
0.0
  0
LINE
  5
C38
330
1413
100
AcDbEntity
  8
HILFSLINIEN
100
AcDbLine
 10
3.75
 20
75.0
 30
0.0
 11
3.75
 21
90.0
 31
0.0
  0
LINE
  5
C39
330
1413
100
AcDbEntity
  8
HILFSLINIEN
100
AcDbLine
 10
8.75
 20
75.0
 30
0.0
 11
8.75
 21
90.0
 31
0.0
  0
TEXT
  5
C3A
330
1413
100
AcDbEntity
  8
TEXT
100
AcDbText
 10
3.749999999999999
 20
83.48214285714286
 30
0.0
 40
2.5
  1
Name
 50
90.0
 41
0.75
  7
ROMANS
 72
     1
 11
3.75
 21
87.5
 31
0.0
100
AcDbText
  0
LINE
  5
C3B
330
1413
100
AcDbEntity
  8
HILFSLINIEN
100
AcDbLine
 10
3.75
 20
75.0
 30
0.0
 11
3.75
 21
90.0
 31
0.0
  0
LINE
  5
C3C
330
1413
100
AcDbEntity
  8
HILFSLINIEN
100
AcDbLine
 10
8.75
 20
75.0
 30
0.0
 11
8.75
 21
90.0
 31
0.0
  0
LINE
  5
C3D
330
1413
100
AcDbEntity
  8
HILFSLINIEN
100
AcDbLine
 10
3.75
 20
60.0
 30
0.0
 11
3.75
 21
75.0
 31
0.0
  0
LINE
  5
C3E
330
1413
100
AcDbEntity
  8
HILFSLINIEN
100
AcDbLine
 10
8.75
 20
60.0
 30
0.0
 11
8.75
 21
75.0
 31
0.0
  0
TEXT
  5
C3F
330
1413
100
AcDbEntity
  8
TEXT
100
AcDbText
 10
3.749999999999999
 20
67.99107142857143
 30
0.0
 40
2.5
  1
Datum
 50
90.0
 41
0.75
  7
ROMANS
 72
     1
 11
3.75
 21
72.5
 31
0.0
100
AcDbText
  0
LINE
  5
C40
330
1413
100
AcDbEntity
  8
HILFSLINIEN
100
AcDbLine
 10
3.75
 20
60.0
 30
0.0
 11
3.75
 21
75.0
 31
0.0
  0
LINE
  5
C41
330
1413
100
AcDbEntity
  8
HILFSLINIEN
100
AcDbLine
 10
8.75
 20
60.0
 30
0.0
 11
8.75
 21
75.0
 31
0.0
  0
LINE
  5
C42
330
1413
100
AcDbEntity
  8
HILFSLINIEN
100
AcDbLine
 10
13.75
 20
75.0
 30
0.0
 11
13.75
 21
90.0
 31
0.0
  0
LINE
  5
C43
330
1413
100
AcDbEntity
  8
HILFSLINIEN
100
AcDbLine
 10
18.75
 20
75.0
 30
0.0
 11
18.75
 21
90.0
 31
0.0
  0
LINE
  5
C44
330
1413
100
AcDbEntity
  8
HILFSLINIEN
100
AcDbLine
 10
13.75
 20
75.0
 30
0.0
 11
13.75
 21
90.0
 31
0.0
  0
LINE
  5
C45
330
1413
100
AcDbEntity
  8
HILFSLINIEN
100
AcDbLine
 10
18.75
 20
75.0
 30
0.0
 11
18.75
 21
90.0
 31
0.0
  0
LINE
  5
C46
330
1413
100
AcDbEntity
  8
HILFSLINIEN
100
AcDbLine
 10
13.75
 20
60.0
 30
0.0
 11
13.75
 21
75.0
 31
0.0
  0
LINE
  5
C47
330
1413
100
AcDbEntity
  8
HILFSLINIEN
100
AcDbLine
 10
18.75
 20
60.0
 30
0.0
 11
18.75
 21
75.0
 31
0.0
  0
LINE
  5
C48
330
1413
100
AcDbEntity
  8
HILFSLINIEN
100
AcDbLine
 10
13.75
 20
60.0
 30
0.0
 11
13.75
 21
75.0
 31
0.0
  0
LINE
  5
C49
330
1413
100
AcDbEntity
  8
HILFSLINIEN
100
AcDbLine
 10
18.75
 20
60.0
 30
0.0
 11
18.75
 21
75.0
 31
0.0
  0
TEXT
  5
C4A
330
1413
100
AcDbEntity
  8
TEXT
100
AcDbText
 10
3.749999999999999
 20
225.7053571428571
 30
0.0
 40
2.5
  1
Änderung
 50
90.0
 41
0.75
  7
ROMANS
 72
     1
 11
3.75
 21
232.0
 31
0.0
100
AcDbText
  0
LINE
  5
C4B
330
1413
100
AcDbEntity
  8
HILFSLINIEN
100
AcDbLine
 10
18.75
 20
207.0
 30
0.0
 11
18.75
 21
267.0
 31
0.0
  0
LINE
  5
C4C
330
1413
100
AcDbEntity
  8
HILFSLINIEN
100
AcDbLine
 10
13.75
 20
207.0
 30
0.0
 11
13.75
 21
267.0
 31
0.0
  0
LINE
  5
C4D
330
1413
100
AcDbEntity
  8
HILFSLINIEN
100
AcDbLine
 10
8.75
 20
207.0
 30
0.0
 11
8.75
 21
267.0
 31
0.0
  0
LINE
  5
C4E
330
1413
100
AcDbEntity
  8
HILFSLINIEN
100
AcDbLine
 10
3.75
 20
207.0
 30
0.0
 11
3.75
 21
267.0
 31
0.0
  0
LINE
  5
C4F
330
1413
100
AcDbEntity
  8
HILFSLINIEN
100
AcDbLine
 10
5.0
 20
207.0
 30
0.0
 11
3.75
 21
207.0
 31
0.0
  0
LINE
  5
C50
330
1413
100
AcDbEntity
  8
HILFSLINIEN
100
AcDbLine
 10
5.0
 20
207.0
 30
0.0
 11
4.25
 21
207.0
 31
0.0
  0
TEXT
  5
C51
330
1413
100
AcDbEntity
  8
TEXT
100
AcDbText
 10
3.749999999999999
 20
280.4821428571429
 30
0.0
 40
2.5
  1
Name
 50
90.0
 41
0.75
  7
ROMANS
 72
     1
 11
3.75
 21
284.5
 31
0.0
100
AcDbText
  0
LINE
  5
C52
330
1413
100
AcDbEntity
  8
HILFSLINIEN
100
AcDbLine
 10
8.75
 20
282.0
 30
0.0
 11
8.75
 21
297.0
 31
0.0
  0
LINE
  5
C53
330
1413
100
AcDbEntity
  8
HILFSLINIEN
100
AcDbLine
 10
3.75
 20
282.0
 30
0.0
 11
3.75
 21
297.0
 31
0.0
  0
TEXT
  5
C54
330
1413
100
AcDbEntity
  8
TEXT
100
AcDbText
 10
3.749999999999999
 20
264.9910714285714
 30
0.0
 40
2.5
  1
Datum
 50
90.0
 41
0.75
  7
ROMANS
 72
     1
 11
3.75
 21
269.5
 31
0.0
100
AcDbText
  0
LINE
  5
C55
330
1413
100
AcDbEntity
  8
HILFSLINIEN
100
AcDbLine
 10
8.75
 20
267.0
 30
0.0
 11
8.75
 21
282.0
 31
0.0
  0
LINE
  5
C56
330
1413
100
AcDbEntity
  8
HILFSLINIEN
100
AcDbLine
 10
3.75
 20
267.0
 30
0.0
 11
3.75
 21
282.0
 31
0.0
  0
LINE
  5
C57
330
1413
100
AcDbEntity
  8
HILFSLINIEN
100
AcDbLine
 10
18.75
 20
282.0
 30
0.0
 11
18.75
 21
297.0
 31
0.0
  0
LINE
  5
C58
330
1413
100
AcDbEntity
  8
HILFSLINIEN
100
AcDbLine
 10
13.75
 20
282.0
 30
0.0
 11
13.75
 21
297.0
 31
0.0
  0
LINE
  5
C59
330
1413
100
AcDbEntity
  8
HILFSLINIEN
100
AcDbLine
 10
18.75
 20
267.0
 30
0.0
 11
18.75
 21
282.0
 31
0.0
  0
LINE
  5
C5A
330
1413
100
AcDbEntity
  8
HILFSLINIEN
100
AcDbLine
 10
13.75
 20
267.0
 30
0.0
 11
13.75
 21
282.0
 31
0.0
  0
LINE
  5
C5B
330
1413
100
AcDbEntity
  8
RAHMEN
100
AcDbLine
 10
0.0
 20
95.0
 30
0.0
 11
0.0
 21
5.0
 31
0.0
  0
LINE
  5
C5C
330
1413
100
AcDbEntity
  8
RAHMEN
100
AcDbLine
 10
0.0
 20
5.0
 30
0.0
 11
0.0
 21
95.0
 31
0.0
  0
LINE
  5
C5D
330
1413
100
AcDbEntity
  8
RAHMEN
100
AcDbLine
 10
5.0
 20
5.0
 30
0.0
 11
5.0
 21
95.0
 31
0.0
  0
LINE
  5
C5E
330
1413
100
AcDbEntity
  8
RAHMEN
100
AcDbLine
 10
10.0
 20
5.0
 30
0.0
 11
10.0
 21
95.0
 31
0.0
  0
LINE
  5
C5F
330
1413
100
AcDbEntity
  8
RAHMEN
100
AcDbLine
 10
15.0
 20
5.0
 30
0.0
 11
15.0
 21
95.0
 31
0.0
  0
LINE
  5
C60
330
1413
100
AcDbEntity
  8
RAHMEN
100
AcDbLine
 10
0.0
 20
5.0
 30
0.0
 11
20.0
 21
5.0
 31
0.0
  0
LINE
  5
C61
330
1413
100
AcDbEntity
  8
RAHMEN
100
AcDbLine
 10
0.0
 20
5.0
 30
0.0
 11
5.0
 21
5.0
 31
0.0
  0
LINE
  5
C62
330
1413
100
AcDbEntity
  8
0
100
AcDbLine
 10
0.0
 20
5.0
 30
0.0
 11
0.0
 21
5.0
 31
0.0
  0
LINE
  5
C63
330
1413
100
AcDbEntity
  8
0
100
AcDbLine
 10
20.0
 20
10.0
 30
0.0
 11
20.0
 21
10.0
 31
0.0
  0
LINE
  5
C64
330
1413
100
AcDbEntity
  8
RAHMEN
100
AcDbLine
 10
0.0
 20
95.0
 30
0.0
 11
20.0
 21
95.0
 31
0.0
  0
LINE
  5
C65
330
1413
100
AcDbEntity
  8
RAHMEN
100
AcDbLine
 10
0.0
 20
65.0
 30
0.0
 11
20.0
 21
65.0
 31
0.0
  0
LINE
  5
C66
330
1413
100
AcDbEntity
  8
RAHMEN
100
AcDbLine
 10
0.0
 20
80.0
 30
0.0
 11
20.0
 21
80.0
 31
0.0
  0
LINE
  5
C67
330
1413
100
AcDbEntity
  8
RAHMEN
100
AcDbLine
 10
-0.0000000000000098
 20
148.5
 30
0.0
 11
5.622012902018127
 21
148.5
 31
0.0
  0
LINE
  5
C68
330
1413
100
AcDbEntity
  8
RAHMEN
100
AcDbLine
 10
15.0
 20
202.0
 30
0.0
 11
15.0
 21
292.0
 31
0.0
  0
LINE
  5
C69
330
1413
100
AcDbEntity
  8
RAHMEN
100
AcDbLine
 10
10.0
 20
202.0
 30
0.0
 11
10.0
 21
292.0
 31
0.0
  0
LINE
  5
C6A
330
1413
100
AcDbEntity
  8
RAHMEN
100
AcDbLine
 10
5.0
 20
202.0
 30
0.0
 11
5.0
 21
292.0
 31
0.0
  0
LINE
  5
C6B
330
1413
100
AcDbEntity
  8
RAHMEN
100
AcDbLine
 10
0.0
 20
202.0
 30
0.0
 11
0.0
 21
292.0
 31
0.0
  0
LINE
  5
C6C
330
1413
100
AcDbEntity
  8
RAHMEN
100
AcDbLine
 10
0.0
 20
292.0
 30
0.0
 11
0.0
 21
202.0
 31
0.0
  0
LINE
  5
C6D
330
1413
100
AcDbEntity
  8
RAHMEN
100
AcDbLine
 10
0.0
 20
202.0
 30
0.0
 11
20.0
 21
202.0
 31
0.0
  0
LINE
  5
C6E
330
1413
100
AcDbEntity
  8
RAHMEN
100
AcDbLine
 10
0.0
 20
202.0
 30
0.0
 11
5.0
 21
202.0
 31
0.0
  0
LINE
  5
C6F
330
1413
100
AcDbEntity
  8
RAHMEN
100
AcDbLine
 10
0.0
 20
277.0
 30
0.0
 11
20.0
 21
277.0
 31
0.0
  0
LINE
  5
C70
330
1413
100
AcDbEntity
  8
RAHMEN
100
AcDbLine
 10
0.0
 20
262.0
 30
0.0
 11
20.0
 21
262.0
 31
0.0
  0
LINE
  5
C71
330
1413
100
AcDbEntity
  8
RAHMEN
100
AcDbLine
 10
0.0
 20
292.0
 30
0.0
 11
20.0
 21
292.0
 31
0.0
  0
ATTDEF
  5
C72
330
1413
100
AcDbEntity
  8
TEXT
100
AcDbText
 10
8.75
 20
9.5
 30
0.0
 40
2.5
  1

 50
90.0
 41
0.75
  7
ROMANS
100
AcDbAttributeDefinition
  3
1-Änderung-Text
  2
1
 70
     0
  0
ATTDEF
  5
C73
330
1413
100
AcDbEntity
  8
TEXT
100
AcDbText
 10
8.75
 20
66.0
 30
0.0
 40
2.5
  1

 50
90.0
 41
0.75
  7
ROMANS
100
AcDbAttributeDefinition
  3
1-Änderung-Datum
  2
2
 70
     0
  0
ATTDEF
  5
C74
330
1413
100
AcDbEntity
  8
TEXT
100
AcDbText
 10
8.75
 20
81.0
 30
0.0
 40
2.5
  1

 50
90.0
 41
0.75
  7
ROMANS
100
AcDbAttributeDefinition
  3
1-Änderung-Name
  2
3
 70
     0
  0
ATTDEF
  5
C75
330
1413
100
AcDbEntity
  8
TEXT
100
AcDbText
 10
13.75
 20
9.5
 30
0.0
 40
2.5
  1

 50
90.0
 41
0.75
  7
ROMANS
100
AcDbAttributeDefinition
  3
2-Änderung-Text
  2
4
 70
     0
  0
ATTDEF
  5
C76
330
1413
100
AcDbEntity
  8
TEXT
100
AcDbText
 10
13.75
 20
66.0
 30
0.0
 40
2.5
  1

 50
90.0
 41
0.75
  7
ROMANS
100
AcDbAttributeDefinition
  3
2-Änderung-Datum
  2
5
 70
     0
  0
ATTDEF
  5
C77
330
1413
100
AcDbEntity
  8
TEXT
100
AcDbText
 10
13.75
 20
81.0
 30
0.0
 40
2.5
  1

 50
90.0
 41
0.75
  7
ROMANS
100
AcDbAttributeDefinition
  3
2-Änderung-Name
  2
6
 70
     0
  0
ATTDEF
  5
C78
330
1413
100
AcDbEntity
  8
TEXT
100
AcDbText
 10
18.75
 20
9.5
 30
0.0
 40
2.5
  1

 50
90.0
 41
0.75
  7
ROMANS
100
AcDbAttributeDefinition
  3
3-Änderung-Text
  2
7
 70
     0
  0
ATTDEF
  5
C79
330
1413
100
AcDbEntity
  8
TEXT
100
AcDbText
 10
18.75
 20
66.0
 30
0.0
 40
2.5
  1

 50
90.0
 41
0.75
  7
ROMANS
100
AcDbAttributeDefinition
  3
3-Änderung-Datum
  2
8
 70
     0
  0
ATTDEF
  5
C7A
330
1413
100
AcDbEntity
  8
TEXT
100
AcDbText
 10
18.75
 20
81.0
 30
0.0
 40
2.5
  1

 50
90.0
 41
0.75
  7
ROMANS
100
AcDbAttributeDefinition
  3
3-Änderung-Name
  2
9
 70
     0
  0
ATTDEF
  5
C7B
330
1413
100
AcDbEntity
  8
TEXT
100
AcDbText
 10
8.75
 20
206.5
 30
0.0
 40
2.5
  1

 50
90.0
 41
0.75
  7
ROMANS
100
AcDbAttributeDefinition
  3
4-Änderung-Text
  2
10
 70
     0
  0
ATTDEF
  5
C7C
330
1413
100
AcDbEntity
  8
TEXT
100
AcDbText
 10
8.75
 20
263.0
 30
0.0
 40
2.5
  1

 50
90.0
 41
0.75
  7
ROMANS
100
AcDbAttributeDefinition
  3
4-Änderung-Datum
  2
11
 70
     0
  0
ATTDEF
  5
C7D
330
1413
100
AcDbEntity
  8
TEXT
100
AcDbText
 10
8.75
 20
278.0
 30
0.0
 40
2.5
  1

 50
90.0
 41
0.75
  7
ROMANS
100
AcDbAttributeDefinition
  3
4-Änderung-Name
  2
12
 70
     0
  0
ATTDEF
  5
C7E
330
1413
100
AcDbEntity
  8
TEXT
100
AcDbText
 10
13.75
 20
206.5
 30
0.0
 40
2.5
  1

 50
90.0
 41
0.75
  7
ROMANS
100
AcDbAttributeDefinition
  3
5-Änderung-Text
  2
13
 70
     0
  0
ATTDEF
  5
C7F
330
1413
100
AcDbEntity
  8
TEXT
100
AcDbText
 10
13.75
 20
263.0
 30
0.0
 40
2.5
  1

 50
90.0
 41
0.75
  7
ROMANS
100
AcDbAttributeDefinition
  3
5-Änderung-Datum
  2
14
 70
     0
  0
ATTDEF
  5
C80
330
1413
100
AcDbEntity
  8
TEXT
100
AcDbText
 10
13.75
 20
278.0
 30
0.0
 40
2.5
  1

 50
90.0
 41
0.75
  7
ROMANS
100
AcDbAttributeDefinition
  3
5-Änderung-Name
  2
15
 70
     0
  0
ATTDEF
  5
C81
330
1413
100
AcDbEntity
  8
TEXT
100
AcDbText
 10
18.75
 20
206.5
 30
0.0
 40
2.5
  1

 50
90.0
 41
0.75
  7
ROMANS
100
AcDbAttributeDefinition
  3
6-Änderung-Text
  2
16
 70
     0
  0
ATTDEF
  5
C82
330
1413
100
AcDbEntity
  8
TEXT
100
AcDbText
 10
18.75
 20
263.0
 30
0.0
 40
2.5
  1

 50
90.0
 41
0.75
  7
ROMANS
100
AcDbAttributeDefinition
  3
6-Änderung-Datum
  2
17
 70
     0
  0
ATTDEF
  5
C83
330
1413
100
AcDbEntity
  8
TEXT
100
AcDbText
 10
18.75
 20
278.0
 30
0.0
 40
2.5
  1

 50
90.0
 41
0.75
  7
ROMANS
100
AcDbAttributeDefinition
  3
6-Änderung-Name
  2
18
 70
     0
  0
LINE
  5
C84
330
1413
100
AcDbEntity
  8
HILFSLINIEN
100
AcDbLine
 10
20.0
 20
297.0
 30
0.0
 11
20.0
 21
0.0
 31
0.0
  0
LINE
  5
C85
330
1413
100
AcDbEntity
  8
HILFSLINIEN
100
AcDbLine
 10
0.0
 20
183.5
 30
0.0
 11
20.0
 21
183.5
 31
0.0
  0
LINE
  5
C86
330
1413
100
AcDbEntity
  8
HILFSLINIEN
100
AcDbLine
 10
0.0
 20
113.5
 30
0.0
 11
20.0
 21
113.5
 31
0.0
  0
TEXT
  5
C87
330
1413
100
AcDbEntity
  8
TEXT
100
AcDbText
 10
9.847940365286088
 20
113.5
 30
0.0
 40
1.8
  1
Diese Unterlagen bleiben unser Eigentum. Vervielfältigungen, Anfertigungen
 50
90.0
 41
0.6727073036792985
  7
ROMANS
 72
     5
 11
9.847940365286088
 21
183.5
 31
0.0
100
AcDbText
  0
TEXT
  5
C88
330
1413
100
AcDbEntity
  8
TEXT
100
AcDbText
 10
12.7622260795718
 20
113.5
 30
0.0
 40
1.8
  1
von Aufzeichnungen bezüglich des Inhaltes, die Weitergabe, auch des In-
 50
90.0
 41
0.6721536351165966
  7
ROMANS
 72
     5
 11
12.7622260795718
 21
183.5
 31
0.0
100
AcDbText
  0
TEXT
  5
C89
330
1413
100
AcDbEntity
  8
TEXT
100
AcDbText
 10
15.67651179385752
 20
113.5
 30
0.0
 40
1.8
  1
haltes an Dritte, sowie Verwertung des Inhaltes durch den Empfänger oder
 50
90.0
 41
0.656484458735263
  7
ROMANS
 72
     5
 11
15.67651179385752
 21
183.5
 31
0.0
100
AcDbText
  0
TEXT
  5
C8A
330
1413
100
AcDbEntity
  8
TEXT
100
AcDbText
 10
18.59079750814321
 20
113.5
 30
0.0
 40
1.8
  1
auf dessen Vermittlung durch Dritte, sind unzulässig und strafbar.
 50
90.0
 41
0.7451338199513364
  7
ROMANS
 72
     5
 11
18.59079750814321
 21
183.5
 31
0.0
100
AcDbText
  0
LINE
  5
C8B
330
1413
100
AcDbEntity
  8
HILFSLINIEN
100
AcDbLine
 10
9.871991918659212
 20
113.4923292010233
 30
0.0
 11
9.871991918659212
 21
183.5399722751536
 31
0.0
  0
LINE
  5
C8C
330
1413
100
AcDbEntity
  8
RAHMEN
100
AcDbLine
 10
20.0
 20
5.0
 30
0.0
 11
20.0
 21
10.0
 31
0.0
  0
LINE
  5
C8D
330
1413
100
AcDbEntity
  8
RAHMEN
100
AcDbLine
 10
20.0
 20
292.0
 30
0.0
 11
20.0
 21
287.0
 31
0.0
  0
LINE
  5
C8E
330
1413
100
AcDbEntity
  8
RAHMEN
100
AcDbLine
 10
0.0
 20
202.0
 30
0.0
 11
-0.0000000000000195
 21
95.0
 31
0.0
  0
ENDBLK
  5
C90
330
1413
100
AcDbEntity
  8
0
100
AcDbBlockEnd
  0
BLOCK
  5
1416
330
1415
100
AcDbEntity
  8
0
100
AcDbBlockBegin
  2
AENDERUNGS-KOPF1-_1-4_-A4-
 70
     2
 10
0.0
 20
0.0
 30
0.0
  3
AENDERUNGS-KOPF1-_1-4_-A4-
  1

  0
LINE
  5
D59
330
1415
100
AcDbEntity
  8
RAHMEN
100
AcDbLine
 10
0.0
 20
297.0
 30
0.0
 11
0.0
 21
0.0
 31
0.0
  0
LINE
  5
D5A
330
1415
100
AcDbEntity
  8
0
100
AcDbLine
 10
5.0
 20
5.0
 30
0.0
 11
5.0
 21
5.0
 31
0.0
  0
LINE
  5
D5B
330
1415
100
AcDbEntity
  8
HILFSLINIEN
100
AcDbLine
 10
18.75
 20
0.0
 30
0.0
 11
18.75
 21
2.0
 31
0.0
  0
LINE
  5
D5C
330
1415
100
AcDbEntity
  8
HILFSLINIEN
100
AcDbLine
 10
18.75
 20
2.0
 30
0.0
 11
15.0
 21
2.0
 31
0.0
  0
LINE
  5
D5D
330
1415
100
AcDbEntity
  8
HILFSLINIEN
100
AcDbLine
 10
13.75
 20
0.0
 30
0.0
 11
13.75
 21
2.0
 31
0.0
  0
LINE
  5
D5E
330
1415
100
AcDbEntity
  8
HILFSLINIEN
100
AcDbLine
 10
13.75
 20
2.0
 30
0.0
 11
10.0
 21
2.0
 31
0.0
  0
CIRCLE
  5
D5F
330
1415
100
AcDbEntity
  8
TEXT
100
AcDbCircle
 10
16.875
 20
7.0
 30
0.0
 40
1.7
  0
LINE
  5
D60
330
1415
100
AcDbEntity
  8
HILFSLINIEN
100
AcDbLine
 10
8.75
 20
0.0
 30
0.0
 11
8.75
 21
2.0
 31
0.0
  0
LINE
  5
D61
330
1415
100
AcDbEntity
  8
HILFSLINIEN
100
AcDbLine
 10
8.75
 20
2.0
 30
0.0
 11
5.0
 21
2.0
 31
0.0
  0
CIRCLE
  5
D62
330
1415
100
AcDbEntity
  8
TEXT
100
AcDbCircle
 10
11.875
 20
7.0
 30
0.0
 40
1.7
  0
TEXT
  5
D63
330
1415
100
AcDbEntity
  8
TEXT
100
AcDbText
 10
12.875
 20
6.392857142857143
 30
0.0
 40
2.0
  1
1
 50
90.0
 41
0.75
  7
ROMANS
 72
     4
 11
11.875
 21
7.0
 31
0.0
100
AcDbText
  0
TEXT
  5
D64
330
1415
100
AcDbEntity
  8
TEXT
100
AcDbText
 10
17.875
 20
6.285714285714285
 30
0.0
 40
2.0
  1
2
 50
90.0
 41
0.75
  7
ROMANS
 72
     4
 11
16.875
 21
7.0
 31
0.0
100
AcDbText
  0
LINE
  5
D65
330
1415
100
AcDbEntity
  8
HILFSLINIEN
100
AcDbLine
 10
18.75
 20
207.0
 30
0.0
 11
18.75
 21
209.0
 31
0.0
  0
LINE
  5
D66
330
1415
100
AcDbEntity
  8
HILFSLINIEN
100
AcDbLine
 10
18.75
 20
209.0
 30
0.0
 11
15.0
 21
209.0
 31
0.0
  0
LINE
  5
D67
330
1415
100
AcDbEntity
  8
HILFSLINIEN
100
AcDbLine
 10
13.75
 20
207.0
 30
0.0
 11
13.75
 21
209.0
 31
0.0
  0
LINE
  5
D68
330
1415
100
AcDbEntity
  8
HILFSLINIEN
100
AcDbLine
 10
13.75
 20
209.0
 30
0.0
 11
10.0
 21
209.0
 31
0.0
  0
CIRCLE
  5
D69
330
1415
100
AcDbEntity
  8
TEXT
100
AcDbCircle
 10
16.875
 20
204.0
 30
0.0
 40
1.7
  0
LINE
  5
D6A
330
1415
100
AcDbEntity
  8
HILFSLINIEN
100
AcDbLine
 10
8.75
 20
207.0
 30
0.0
 11
8.75
 21
209.0
 31
0.0
  0
LINE
  5
D6B
330
1415
100
AcDbEntity
  8
HILFSLINIEN
100
AcDbLine
 10
8.75
 20
209.0
 30
0.0
 11
5.0
 21
209.0
 31
0.0
  0
CIRCLE
  5
D6C
330
1415
100
AcDbEntity
  8
TEXT
100
AcDbCircle
 10
11.875
 20
204.0
 30
0.0
 40
1.7
  0
TEXT
  5
D6D
330
1415
100
AcDbEntity
  8
TEXT
100
AcDbText
 10
12.875
 20
203.2857142857143
 30
0.0
 40
2.0
  1
3
 50
90.0
 41
0.75
  7
ROMANS
 72
     4
 11
11.875
 21
204.0
 31
0.0
100
AcDbText
  0
TEXT
  5
D6E
330
1415
100
AcDbEntity
  8
TEXT
100
AcDbText
 10
17.875
 20
203.25
 30
0.0
 40
2.0
  1
4
 50
90.0
 41
0.75
  7
ROMANS
 72
     4
 11
16.875
 21
204.0
 31
0.0
100
AcDbText
  0
LINE
  5
D6F
330
1415
100
AcDbEntity
  8
HILFSLINIEN
100
AcDbLine
 10
3.75
 20
0.0
 30
0.0
 11
3.75
 21
4.5
 31
0.0
  0
LINE
  5
D70
330
1415
100
AcDbEntity
  8
HILFSLINIEN
100
AcDbLine
 10
3.75
 20
4.5
 30
0.0
 11
18.75
 21
4.5
 31
0.0
  0
LINE
  5
D71
330
1415
100
AcDbEntity
  8
HILFSLINIEN
100
AcDbLine
 10
18.75
 20
60.0
 30
0.0
 11
18.75
 21
61.0
 31
0.0
  0
LINE
  5
D72
330
1415
100
AcDbEntity
  8
HILFSLINIEN
100
AcDbLine
 10
18.75
 20
61.0
 30
0.0
 11
3.75
 21
61.0
 31
0.0
  0
LINE
  5
D73
330
1415
100
AcDbEntity
  8
HILFSLINIEN
100
AcDbLine
 10
18.75
 20
75.0
 30
0.0
 11
18.75
 21
76.0
 31
0.0
  0
LINE
  5
D74
330
1415
100
AcDbEntity
  8
HILFSLINIEN
100
AcDbLine
 10
18.75
 20
76.0
 30
0.0
 11
3.75
 21
76.0
 31
0.0
  0
LINE
  5
D75
330
1415
100
AcDbEntity
  8
HILFSLINIEN
100
AcDbLine
 10
18.75
 20
207.0
 30
0.0
 11
18.75
 21
211.5
 31
0.0
  0
LINE
  5
D76
330
1415
100
AcDbEntity
  8
HILFSLINIEN
100
AcDbLine
 10
18.75
 20
211.5
 30
0.0
 11
3.75
 21
211.5
 31
0.0
  0
LINE
  5
D77
330
1415
100
AcDbEntity
  8
HILFSLINIEN
100
AcDbLine
 10
18.75
 20
267.0
 30
0.0
 11
18.75
 21
268.0
 31
0.0
  0
LINE
  5
D78
330
1415
100
AcDbEntity
  8
HILFSLINIEN
100
AcDbLine
 10
18.75
 20
268.0
 30
0.0
 11
3.75
 21
268.0
 31
0.0
  0
LINE
  5
D79
330
1415
100
AcDbEntity
  8
HILFSLINIEN
100
AcDbLine
 10
18.75
 20
282.0
 30
0.0
 11
18.75
 21
283.0
 31
0.0
  0
LINE
  5
D7A
330
1415
100
AcDbEntity
  8
HILFSLINIEN
100
AcDbLine
 10
18.75
 20
283.0
 30
0.0
 11
3.75
 21
283.0
 31
0.0
  0
LINE
  5
D7B
330
1415
100
AcDbEntity
  8
HILFSLINIEN
100
AcDbLine
 10
3.75
 20
0.0
 30
0.0
 11
3.75
 21
60.0
 31
0.0
  0
LINE
  5
D7C
330
1415
100
AcDbEntity
  8
HILFSLINIEN
100
AcDbLine
 10
8.75
 20
0.0
 30
0.0
 11
8.75
 21
60.0
 31
0.0
  0
LINE
  5
D7D
330
1415
100
AcDbEntity
  8
HILFSLINIEN
100
AcDbLine
 10
13.75
 20
0.0
 30
0.0
 11
13.75
 21
60.0
 31
0.0
  0
LINE
  5
D7E
330
1415
100
AcDbEntity
  8
HILFSLINIEN
100
AcDbLine
 10
18.75
 20
0.0
 30
0.0
 11
18.75
 21
60.0
 31
0.0
  0
LINE
  5
D7F
330
1415
100
AcDbEntity
  8
HILFSLINIEN
100
AcDbLine
 10
3.75
 20
0.0
 30
0.0
 11
3.75
 21
60.0
 31
0.0
  0
LINE
  5
D80
330
1415
100
AcDbEntity
  8
HILFSLINIEN
100
AcDbLine
 10
8.75
 20
0.0
 30
0.0
 11
8.75
 21
60.0
 31
0.0
  0
LINE
  5
D81
330
1415
100
AcDbEntity
  8
HILFSLINIEN
100
AcDbLine
 10
13.75
 20
0.0
 30
0.0
 11
13.75
 21
60.0
 31
0.0
  0
LINE
  5
D82
330
1415
100
AcDbEntity
  8
HILFSLINIEN
100
AcDbLine
 10
18.75
 20
0.0
 30
0.0
 11
18.75
 21
60.0
 31
0.0
  0
LINE
  5
D83
330
1415
100
AcDbEntity
  8
HILFSLINIEN
100
AcDbLine
 10
5.0
 20
0.0
 30
0.0
 11
4.25
 21
0.0
 31
0.0
  0
LINE
  5
D84
330
1415
100
AcDbEntity
  8
HILFSLINIEN
100
AcDbLine
 10
5.0
 20
0.0
 30
0.0
 11
3.75
 21
0.0
 31
0.0
  0
LINE
  5
D85
330
1415
100
AcDbEntity
  8
HILFSLINIEN
100
AcDbLine
 10
5.0
 20
0.0
 30
0.0
 11
4.25
 21
0.0
 31
0.0
  0
LINE
  5
D86
330
1415
100
AcDbEntity
  8
HILFSLINIEN
100
AcDbLine
 10
5.0
 20
0.0
 30
0.0
 11
3.75
 21
0.0
 31
0.0
  0
LINE
  5
D87
330
1415
100
AcDbEntity
  8
0
100
AcDbLine
 10
5.0
 20
5.0
 30
0.0
 11
5.0
 21
5.0
 31
0.0
  0
TEXT
  5
D88
330
1415
100
AcDbEntity
  8
TEXT
100
AcDbText
 10
8.75
 20
28.70535714285714
 30
0.0
 40
2.5
  1
Änderung
 50
90.0
 41
0.75
  7
ROMANS
 72
     1
 11
8.75
 21
35.0
 31
0.0
100
AcDbText
  0
LINE
  5
D89
330
1415
100
AcDbEntity
  8
0
100
AcDbLine
 10
25.0
 20
10.0
 30
0.0
 11
25.0
 21
10.0
 31
0.0
  0
LINE
  5
D8A
330
1415
100
AcDbEntity
  8
HILFSLINIEN
100
AcDbLine
 10
3.75
 20
75.0
 30
0.0
 11
3.75
 21
90.0
 31
0.0
  0
LINE
  5
D8B
330
1415
100
AcDbEntity
  8
HILFSLINIEN
100
AcDbLine
 10
8.75
 20
75.0
 30
0.0
 11
8.75
 21
90.0
 31
0.0
  0
TEXT
  5
D8C
330
1415
100
AcDbEntity
  8
TEXT
100
AcDbText
 10
8.75
 20
83.48214285714286
 30
0.0
 40
2.5
  1
Name
 50
90.0
 41
0.75
  7
ROMANS
 72
     1
 11
8.75
 21
87.5
 31
0.0
100
AcDbText
  0
LINE
  5
D8D
330
1415
100
AcDbEntity
  8
HILFSLINIEN
100
AcDbLine
 10
3.75
 20
75.0
 30
0.0
 11
3.75
 21
90.0
 31
0.0
  0
LINE
  5
D8E
330
1415
100
AcDbEntity
  8
HILFSLINIEN
100
AcDbLine
 10
8.75
 20
75.0
 30
0.0
 11
8.75
 21
90.0
 31
0.0
  0
LINE
  5
D8F
330
1415
100
AcDbEntity
  8
HILFSLINIEN
100
AcDbLine
 10
3.75
 20
60.0
 30
0.0
 11
3.75
 21
75.0
 31
0.0
  0
LINE
  5
D90
330
1415
100
AcDbEntity
  8
HILFSLINIEN
100
AcDbLine
 10
8.75
 20
60.0
 30
0.0
 11
8.75
 21
75.0
 31
0.0
  0
TEXT
  5
D91
330
1415
100
AcDbEntity
  8
TEXT
100
AcDbText
 10
8.75
 20
67.99107142857143
 30
0.0
 40
2.5
  1
Datum
 50
90.0
 41
0.75
  7
ROMANS
 72
     1
 11
8.75
 21
72.5
 31
0.0
100
AcDbText
  0
LINE
  5
D92
330
1415
100
AcDbEntity
  8
HILFSLINIEN
100
AcDbLine
 10
3.75
 20
60.0
 30
0.0
 11
3.75
 21
75.0
 31
0.0
  0
LINE
  5
D93
330
1415
100
AcDbEntity
  8
HILFSLINIEN
100
AcDbLine
 10
8.75
 20
60.0
 30
0.0
 11
8.75
 21
75.0
 31
0.0
  0
LINE
  5
D94
330
1415
100
AcDbEntity
  8
HILFSLINIEN
100
AcDbLine
 10
13.75
 20
75.0
 30
0.0
 11
13.75
 21
90.0
 31
0.0
  0
LINE
  5
D95
330
1415
100
AcDbEntity
  8
HILFSLINIEN
100
AcDbLine
 10
18.75
 20
75.0
 30
0.0
 11
18.75
 21
90.0
 31
0.0
  0
LINE
  5
D96
330
1415
100
AcDbEntity
  8
HILFSLINIEN
100
AcDbLine
 10
13.75
 20
75.0
 30
0.0
 11
13.75
 21
90.0
 31
0.0
  0
LINE
  5
D97
330
1415
100
AcDbEntity
  8
HILFSLINIEN
100
AcDbLine
 10
18.75
 20
75.0
 30
0.0
 11
18.75
 21
90.0
 31
0.0
  0
LINE
  5
D98
330
1415
100
AcDbEntity
  8
HILFSLINIEN
100
AcDbLine
 10
13.75
 20
60.0
 30
0.0
 11
13.75
 21
75.0
 31
0.0
  0
LINE
  5
D99
330
1415
100
AcDbEntity
  8
HILFSLINIEN
100
AcDbLine
 10
18.75
 20
60.0
 30
0.0
 11
18.75
 21
75.0
 31
0.0
  0
LINE
  5
D9A
330
1415
100
AcDbEntity
  8
HILFSLINIEN
100
AcDbLine
 10
13.75
 20
60.0
 30
0.0
 11
13.75
 21
75.0
 31
0.0
  0
LINE
  5
D9B
330
1415
100
AcDbEntity
  8
HILFSLINIEN
100
AcDbLine
 10
18.75
 20
60.0
 30
0.0
 11
18.75
 21
75.0
 31
0.0
  0
TEXT
  5
D9C
330
1415
100
AcDbEntity
  8
TEXT
100
AcDbText
 10
8.75
 20
225.7053571428571
 30
0.0
 40
2.5
  1
Änderung
 50
90.0
 41
0.75
  7
ROMANS
 72
     1
 11
8.75
 21
232.0
 31
0.0
100
AcDbText
  0
LINE
  5
D9D
330
1415
100
AcDbEntity
  8
HILFSLINIEN
100
AcDbLine
 10
18.75
 20
207.0
 30
0.0
 11
18.75
 21
267.0
 31
0.0
  0
LINE
  5
D9E
330
1415
100
AcDbEntity
  8
HILFSLINIEN
100
AcDbLine
 10
13.75
 20
207.0
 30
0.0
 11
13.75
 21
267.0
 31
0.0
  0
LINE
  5
D9F
330
1415
100
AcDbEntity
  8
HILFSLINIEN
100
AcDbLine
 10
8.75
 20
207.0
 30
0.0
 11
8.75
 21
267.0
 31
0.0
  0
LINE
  5
DA0
330
1415
100
AcDbEntity
  8
HILFSLINIEN
100
AcDbLine
 10
3.75
 20
207.0
 30
0.0
 11
3.75
 21
267.0
 31
0.0
  0
LINE
  5
DA1
330
1415
100
AcDbEntity
  8
HILFSLINIEN
100
AcDbLine
 10
5.0
 20
207.0
 30
0.0
 11
3.75
 21
207.0
 31
0.0
  0
LINE
  5
DA2
330
1415
100
AcDbEntity
  8
HILFSLINIEN
100
AcDbLine
 10
5.0
 20
207.0
 30
0.0
 11
4.25
 21
207.0
 31
0.0
  0
TEXT
  5
DA3
330
1415
100
AcDbEntity
  8
TEXT
100
AcDbText
 10
8.75
 20
280.4821428571429
 30
0.0
 40
2.5
  1
Name
 50
90.0
 41
0.75
  7
ROMANS
 72
     1
 11
8.75
 21
284.5
 31
0.0
100
AcDbText
  0
LINE
  5
DA4
330
1415
100
AcDbEntity
  8
HILFSLINIEN
100
AcDbLine
 10
8.75
 20
282.0
 30
0.0
 11
8.75
 21
297.0
 31
0.0
  0
LINE
  5
DA5
330
1415
100
AcDbEntity
  8
HILFSLINIEN
100
AcDbLine
 10
3.75
 20
282.0
 30
0.0
 11
3.75
 21
297.0
 31
0.0
  0
TEXT
  5
DA6
330
1415
100
AcDbEntity
  8
TEXT
100
AcDbText
 10
8.75
 20
264.9910714285714
 30
0.0
 40
2.5
  1
Datum
 50
90.0
 41
0.75
  7
ROMANS
 72
     1
 11
8.75
 21
269.5
 31
0.0
100
AcDbText
  0
LINE
  5
DA7
330
1415
100
AcDbEntity
  8
HILFSLINIEN
100
AcDbLine
 10
8.75
 20
267.0
 30
0.0
 11
8.75
 21
282.0
 31
0.0
  0
LINE
  5
DA8
330
1415
100
AcDbEntity
  8
HILFSLINIEN
100
AcDbLine
 10
3.75
 20
267.0
 30
0.0
 11
3.75
 21
282.0
 31
0.0
  0
LINE
  5
DA9
330
1415
100
AcDbEntity
  8
HILFSLINIEN
100
AcDbLine
 10
18.75
 20
282.0
 30
0.0
 11
18.75
 21
297.0
 31
0.0
  0
LINE
  5
DAA
330
1415
100
AcDbEntity
  8
HILFSLINIEN
100
AcDbLine
 10
13.75
 20
282.0
 30
0.0
 11
13.75
 21
297.0
 31
0.0
  0
LINE
  5
DAB
330
1415
100
AcDbEntity
  8
HILFSLINIEN
100
AcDbLine
 10
18.75
 20
267.0
 30
0.0
 11
18.75
 21
282.0
 31
0.0
  0
LINE
  5
DAC
330
1415
100
AcDbEntity
  8
HILFSLINIEN
100
AcDbLine
 10
13.75
 20
267.0
 30
0.0
 11
13.75
 21
282.0
 31
0.0
  0
LINE
  5
DAD
330
1415
100
AcDbEntity
  8
RAHMEN
100
AcDbLine
 10
5.0
 20
95.0
 30
0.0
 11
5.0
 21
5.0
 31
0.0
  0
LINE
  5
DAE
330
1415
100
AcDbEntity
  8
RAHMEN
100
AcDbLine
 10
5.0
 20
5.0
 30
0.0
 11
5.0
 21
95.0
 31
0.0
  0
LINE
  5
DAF
330
1415
100
AcDbEntity
  8
RAHMEN
100
AcDbLine
 10
10.0
 20
5.0
 30
0.0
 11
10.0
 21
95.0
 31
0.0
  0
LINE
  5
DB0
330
1415
100
AcDbEntity
  8
RAHMEN
100
AcDbLine
 10
15.0
 20
5.0
 30
0.0
 11
15.0
 21
95.0
 31
0.0
  0
LINE
  5
DB1
330
1415
100
AcDbEntity
  8
RAHMEN
100
AcDbLine
 10
20.0
 20
5.0
 30
0.0
 11
20.0
 21
95.0
 31
0.0
  0
LINE
  5
DB2
330
1415
100
AcDbEntity
  8
RAHMEN
100
AcDbLine
 10
5.0
 20
5.0
 30
0.0
 11
20.0
 21
5.0
 31
0.0
  0
LINE
  5
DB3
330
1415
100
AcDbEntity
  8
RAHMEN
100
AcDbLine
 10
5.0
 20
5.0
 30
0.0
 11
10.0
 21
5.0
 31
0.0
  0
LINE
  5
DB4
330
1415
100
AcDbEntity
  8
0
100
AcDbLine
 10
5.0
 20
5.0
 30
0.0
 11
5.0
 21
5.0
 31
0.0
  0
LINE
  5
DB5
330
1415
100
AcDbEntity
  8
0
100
AcDbLine
 10
25.0
 20
10.0
 30
0.0
 11
25.0
 21
10.0
 31
0.0
  0
LINE
  5
DB6
330
1415
100
AcDbEntity
  8
RAHMEN
100
AcDbLine
 10
5.0
 20
95.0
 30
0.0
 11
20.0
 21
95.0
 31
0.0
  0
LINE
  5
DB7
330
1415
100
AcDbEntity
  8
RAHMEN
100
AcDbLine
 10
5.0
 20
65.0
 30
0.0
 11
20.0
 21
65.0
 31
0.0
  0
LINE
  5
DB8
330
1415
100
AcDbEntity
  8
RAHMEN
100
AcDbLine
 10
5.0
 20
80.0
 30
0.0
 11
20.0
 21
80.0
 31
0.0
  0
LINE
  5
DB9
330
1415
100
AcDbEntity
  8
RAHMEN
100
AcDbLine
 10
-0.0000000000000098
 20
148.5
 30
0.0
 11
4.99999999999999
 21
148.5
 31
0.0
  0
LINE
  5
DBA
330
1415
100
AcDbEntity
  8
RAHMEN
100
AcDbLine
 10
20.0
 20
202.0
 30
0.0
 11
20.0
 21
292.0
 31
0.0
  0
LINE
  5
DBB
330
1415
100
AcDbEntity
  8
RAHMEN
100
AcDbLine
 10
15.0
 20
202.0
 30
0.0
 11
15.0
 21
292.0
 31
0.0
  0
LINE
  5
DBC
330
1415
100
AcDbEntity
  8
RAHMEN
100
AcDbLine
 10
10.0
 20
202.0
 30
0.0
 11
10.0
 21
292.0
 31
0.0
  0
LINE
  5
DBD
330
1415
100
AcDbEntity
  8
RAHMEN
100
AcDbLine
 10
5.0
 20
202.0
 30
0.0
 11
5.0
 21
292.0
 31
0.0
  0
LINE
  5
DBE
330
1415
100
AcDbEntity
  8
RAHMEN
100
AcDbLine
 10
5.0
 20
292.0
 30
0.0
 11
5.0
 21
202.0
 31
0.0
  0
LINE
  5
DBF
330
1415
100
AcDbEntity
  8
RAHMEN
100
AcDbLine
 10
5.0
 20
202.0
 30
0.0
 11
20.0
 21
202.0
 31
0.0
  0
LINE
  5
DC0
330
1415
100
AcDbEntity
  8
RAHMEN
100
AcDbLine
 10
5.0
 20
202.0
 30
0.0
 11
10.0
 21
202.0
 31
0.0
  0
LINE
  5
DC1
330
1415
100
AcDbEntity
  8
RAHMEN
100
AcDbLine
 10
5.0
 20
277.0
 30
0.0
 11
20.0
 21
277.0
 31
0.0
  0
LINE
  5
DC2
330
1415
100
AcDbEntity
  8
RAHMEN
100
AcDbLine
 10
5.0
 20
262.0
 30
0.0
 11
20.0
 21
262.0
 31
0.0
  0
LINE
  5
DC3
330
1415
100
AcDbEntity
  8
RAHMEN
100
AcDbLine
 10
5.0
 20
292.0
 30
0.0
 11
20.0
 21
292.0
 31
0.0
  0
ATTDEF
  5
DC4
330
1415
100
AcDbEntity
  8
TEXT
100
AcDbText
 10
13.75
 20
9.5
 30
0.0
 40
2.5
  1

 50
90.0
 41
0.75
  7
ROMANS
100
AcDbAttributeDefinition
  3
1-Änderung-Text
  2
1
 70
     0
  0
ATTDEF
  5
DC5
330
1415
100
AcDbEntity
  8
TEXT
100
AcDbText
 10
13.75
 20
66.0
 30
0.0
 40
2.5
  1

 50
90.0
 41
0.75
  7
ROMANS
100
AcDbAttributeDefinition
  3
1-Änderung-Datum
  2
2
 70
     0
  0
ATTDEF
  5
DC6
330
1415
100
AcDbEntity
  8
TEXT
100
AcDbText
 10
13.75
 20
81.0
 30
0.0
 40
2.5
  1

 50
90.0
 41
0.75
  7
ROMANS
100
AcDbAttributeDefinition
  3
1-Änderung-Name
  2
3
 70
     0
  0
ATTDEF
  5
DC7
330
1415
100
AcDbEntity
  8
TEXT
100
AcDbText
 10
18.75
 20
9.5
 30
0.0
 40
2.5
  1

 50
90.0
 41
0.75
  7
ROMANS
100
AcDbAttributeDefinition
  3
2-Änderung-Text
  2
4
 70
     0
  0
ATTDEF
  5
DC8
330
1415
100
AcDbEntity
  8
TEXT
100
AcDbText
 10
18.75
 20
66.0
 30
0.0
 40
2.5
  1

 50
90.0
 41
0.75
  7
ROMANS
100
AcDbAttributeDefinition
  3
2-Änderung-Datum
  2
5
 70
     0
  0
ATTDEF
  5
DC9
330
1415
100
AcDbEntity
  8
TEXT
100
AcDbText
 10
18.75
 20
81.0
 30
0.0
 40
2.5
  1

 50
90.0
 41
0.75
  7
ROMANS
100
AcDbAttributeDefinition
  3
2-Änderung-Name
  2
6
 70
     0
  0
ATTDEF
  5
DCA
330
1415
100
AcDbEntity
  8
TEXT
100
AcDbText
 10
13.75
 20
206.5
 30
0.0
 40
2.5
  1

 50
90.0
 41
0.75
  7
ROMANS
100
AcDbAttributeDefinition
  3
3-Änderung-Text
  2
7
 70
     0
  0
ATTDEF
  5
DCB
330
1415
100
AcDbEntity
  8
TEXT
100
AcDbText
 10
13.75
 20
263.0
 30
0.0
 40
2.5
  1

 50
90.0
 41
0.75
  7
ROMANS
100
AcDbAttributeDefinition
  3
3-Änderung-Datum
  2
8
 70
     0
  0
ATTDEF
  5
DCC
330
1415
100
AcDbEntity
  8
TEXT
100
AcDbText
 10
13.75
 20
278.0
 30
0.0
 40
2.5
  1

 50
90.0
 41
0.75
  7
ROMANS
100
AcDbAttributeDefinition
  3
3-Änderung-Name
  2
9
 70
     0
  0
ATTDEF
  5
DCD
330
1415
100
AcDbEntity
  8
TEXT
100
AcDbText
 10
18.75
 20
206.5
 30
0.0
 40
2.5
  1

 50
90.0
 41
0.75
  7
ROMANS
100
AcDbAttributeDefinition
  3
4-Änderung-Text
  2
10
 70
     0
  0
ATTDEF
  5
DCE
330
1415
100
AcDbEntity
  8
TEXT
100
AcDbText
 10
18.75
 20
263.0
 30
0.0
 40
2.5
  1

 50
90.0
 41
0.75
  7
ROMANS
100
AcDbAttributeDefinition
  3
4-Änderung-Datum
  2
11
 70
     0
  0
ATTDEF
  5
DCF
330
1415
100
AcDbEntity
  8
TEXT
100
AcDbText
 10
18.75
 20
278.0
 30
0.0
 40
2.5
  1

 50
90.0
 41
0.75
  7
ROMANS
100
AcDbAttributeDefinition
  3
4-Änderung-Name
  2
12
 70
     0
  0
LINE
  5
DD0
330
1415
100
AcDbEntity
  8
HILFSLINIEN
100
AcDbLine
 10
20.0
 20
297.0
 30
0.0
 11
20.0
 21
0.0
 31
0.0
  0
LINE
  5
DD1
330
1415
100
AcDbEntity
  8
HILFSLINIEN
100
AcDbLine
 10
0.0
 20
183.5
 30
0.0
 11
20.0
 21
183.5
 31
0.0
  0
LINE
  5
DD2
330
1415
100
AcDbEntity
  8
HILFSLINIEN
100
AcDbLine
 10
0.0
 20
113.5
 30
0.0
 11
20.0
 21
113.5
 31
0.0
  0
TEXT
  5
DD3
330
1415
100
AcDbEntity
  8
TEXT
100
AcDbText
 10
9.847940365286088
 20
113.5
 30
0.0
 40
1.8
  1
Diese Unterlagen bleiben unser Eigentum. Vervielfältigungen, Anfertigungen
 50
90.0
 41
0.6727073036792985
  7
ROMANS
 72
     5
 11
9.847940365286088
 21
183.5
 31
0.0
100
AcDbText
  0
TEXT
  5
DD4
330
1415
100
AcDbEntity
  8
TEXT
100
AcDbText
 10
12.7622260795718
 20
113.5
 30
0.0
 40
1.8
  1
von Aufzeichnungen bezüglich des Inhaltes, die Weitergabe, auch des In-
 50
90.0
 41
0.6721536351165966
  7
ROMANS
 72
     5
 11
12.7622260795718
 21
183.5
 31
0.0
100
AcDbText
  0
TEXT
  5
DD5
330
1415
100
AcDbEntity
  8
TEXT
100
AcDbText
 10
15.67651179385752
 20
113.5
 30
0.0
 40
1.8
  1
haltes an Dritte, sowie Verwertung des Inhaltes durch den Empfänger oder
 50
90.0
 41
0.656484458735263
  7
ROMANS
 72
     5
 11
15.67651179385752
 21
183.5
 31
0.0
100
AcDbText
  0
TEXT
  5
DD6
330
1415
100
AcDbEntity
  8
TEXT
100
AcDbText
 10
18.59079750814321
 20
113.5
 30
0.0
 40
1.8
  1
auf dessen Vermittlung durch Dritte, sind unzulässig und strafbar.
 50
90.0
 41
0.7451338199513364
  7
ROMANS
 72
     5
 11
18.59079750814321
 21
183.5
 31
0.0
100
AcDbText
  0
LINE
  5
DD7
330
1415
100
AcDbEntity
  8
HILFSLINIEN
100
AcDbLine
 10
9.871991918659212
 20
113.4923292010233
 30
0.0
 11
9.871991918659212
 21
183.5399722751536
 31
0.0
  0
LINE
  5
DD8
330
1415
100
AcDbEntity
  8
RAHMEN
100
AcDbLine
 10
0.0
 20
202.0
 30
0.0
 11
-0.0000000000000195
 21
95.0
 31
0.0
  0
LINE
  5
DD9
330
1415
100
AcDbEntity
  8
RAHMEN
100
AcDbLine
 10
5.0
 20
202.0
 30
0.0
 11
4.999999999999978
 21
95.0
 31
0.0
  0
ENDBLK
  5
D42
330
1415
100
AcDbEntity
  8
0
100
AcDbBlockEnd
  0
BLOCK
  5
1418
330
1417
100
AcDbEntity
  8
0
100
AcDbBlockBegin
  2
*D13
 70
     1
 10
0.0
 20
0.0
 30
0.0
  3
*D13
  1

  0
LINE
  5
1176
330
1417
100
AcDbEntity
  8
SK2
 62
     0
100
AcDbLine
 10
0.0
 20
0.5
 30
0.0
 11
0.000000000000005
 21
81.38535323701082
 31
0.0
  0
LINE
  5
1177
330
1417
100
AcDbEntity
  8
SK2
 62
     0
100
AcDbLine
 10
73.99999999999993
 20
18.49999999999994
 30
0.0
 11
73.99999999999993
 21
81.38535323701082
 31
0.0
  0
LINE
  5
1178
330
1417
100
AcDbEntity
  8
SK2
 62
     0
100
AcDbLine
 10
3.500000000000003
 20
79.88535323701075
 30
0.0
 11
70.49999999999996
 21
79.88535323701075
 31
0.0
  0
SOLID
  5
1179
330
1417
100
AcDbEntity
  8
SK2
 62
     0
100
AcDbTrace
 10
3.500000000000003
 20
80.46868657034414
 30
0.0
 11
3.500000000000003
 21
79.30201990367748
 31
0.0
 12
0.0000000000000049
 22
79.88535323701075
 32
0.0
 13
0.0000000000000049
 23
79.88535323701075
 33
0.0
  0
SOLID
  5
117A
330
1417
100
AcDbEntity
  8
SK2
 62
     0
100
AcDbTrace
 10
70.49999999999996
 20
80.46868657034414
 30
0.0
 11
70.49999999999996
 21
79.30201990367748
 31
0.0
 12
73.99999999999993
 22
79.88535323701075
 32
0.0
 13
73.99999999999993
 23
79.88535323701075
 33
0.0
  0
INSERT
  5
117B
330
1417
100
AcDbEntity
  8
SK2
100
AcDbBlockReference
  2
*U14
 10
0.0
 20
0.0
 30
0.0
  0
POINT
  5
117C
330
1417
100
AcDbEntity
  8
DEFPOINTS
 62
     0
100
AcDbPoint
 10
0.0
 20
0.0
 30
0.0
  0
POINT
  5
117D
330
1417
100
AcDbEntity
  8
DEFPOINTS
 62
     0
100
AcDbPoint
 10
73.99999999999993
 20
17.99999999999994
 30
0.0
  0
POINT
  5
117E
330
1417
100
AcDbEntity
  8
DEFPOINTS
 62
     0
100
AcDbPoint
 10
73.99999999999993
 20
79.88535323701075
 30
0.0
  0
ENDBLK
  5
104C
330
1417
100
AcDbEntity
  8
0
100
AcDbBlockEnd
  0
BLOCK
  5
141A
330
1419
100
AcDbEntity
  8
0
100
AcDbBlockBegin
  2
*U14
 70
     1
 10
0.0
 20
0.0
 30
0.0
  3
*U14
  1

  0
TEXT
  5
11C5
330
1419
100
AcDbEntity
  8
SK2
 62
     0
100
AcDbText
 10
34.43749999999998
 20
81.38535323701079
 30
0.0
 40
3.5
  1
74
 41
0.75
  7
ROMANS
100
AcDbText
  0
ENDBLK
  5
11C7
330
1419
100
AcDbEntity
  8
0
100
AcDbBlockEnd
  0
BLOCK
  5
141C
330
141B
100
AcDbEntity
  8
0
100
AcDbBlockBegin
  2
*D15
 70
     1
 10
0.0
 20
0.0
 30
0.0
  3
*D15
  1

  0
LINE
  5
108B
330
141B
100
AcDbEntity
  8
SK2
 62
     0
100
AcDbLine
 10
71.99999999999993
 20
20.49999999999994
 30
0.0
 11
99.01218708296596
 21
20.49999999999993
 31
0.0
  0
LINE
  5
108C
330
141B
100
AcDbEntity
  8
SK2
 62
     0
100
AcDbLine
 10
71.9999999999999
 20
-20.50000000000009
 30
0.0
 11
99.01218708296596
 21
-20.50000000000009
 31
0.0
  0
LINE
  5
108D
330
141B
100
AcDbEntity
  8
SK2
 62
     0
100
AcDbLine
 10
97.51218708296596
 20
16.99999999999993
 30
0.0
 11
97.51218708296596
 21
-17.00000000000009
 31
0.0
  0
SOLID
  5
108E
330
141B
100
AcDbEntity
  8
SK2
 62
     0
100
AcDbTrace
 10
96.92885374963267
 20
16.99999999999993
 30
0.0
 11
98.09552041629927
 21
16.99999999999993
 31
0.0
 12
97.51218708296596
 22
20.49999999999993
 32
0.0
 13
97.51218708296596
 23
20.49999999999993
 33
0.0
  0
SOLID
  5
108F
330
141B
100
AcDbEntity
  8
SK2
 62
     0
100
AcDbTrace
 10
96.92885374963267
 20
-17.00000000000009
 30
0.0
 11
98.09552041629927
 21
-17.00000000000009
 31
0.0
 12
97.51218708296596
 22
-20.50000000000009
 32
0.0
 13
97.51218708296596
 23
-20.50000000000009
 33
0.0
  0
INSERT
  5
1090
330
141B
100
AcDbEntity
  8
SK2
100
AcDbBlockReference
  2
*U16
 10
0.0
 20
0.0
 30
0.0
  0
POINT
  5
1091
330
141B
100
AcDbEntity
  8
DEFPOINTS
 62
     0
100
AcDbPoint
 10
71.49999999999993
 20
20.49999999999994
 30
0.0
  0
POINT
  5
1092
330
141B
100
AcDbEntity
  8
DEFPOINTS
 62
     0
100
AcDbPoint
 10
71.4999999999999
 20
-20.50000000000009
 30
0.0
  0
POINT
  5
1093
330
141B
100
AcDbEntity
  8
DEFPOINTS
 62
     0
100
AcDbPoint
 10
97.51218708296596
 20
-20.50000000000009
 30
0.0
  0
ENDBLK
  5
1059
330
141B
100
AcDbEntity
  8
0
100
AcDbBlockEnd
  0
BLOCK
  5
141E
330
141D
100
AcDbEntity
  8
0
100
AcDbBlockBegin
  2
*U16
 70
     1
 10
0.0
 20
0.0
 30
0.0
  3
*U16
  1

  0
TEXT
  5
11B9
330
141D
100
AcDbEntity
  8
SK2
 62
     0
100
AcDbText
 10
96.01218708296595
 20
-3.312500000000063
 30
0.0
 40
3.5
  1
\U+220541
 50
90.0
 41
0.75
  7
ROMANS
100
AcDbText
  0
ENDBLK
  5
11BB
330
141D
100
AcDbEntity
  8
0
100
AcDbBlockEnd
  0
BLOCK
  5
1420
330
141F
100
AcDbEntity
  8
0
100
AcDbBlockBegin
  2
*D17
 70
     1
 10
0.0
 20
0.0
 30
0.0
  3
*D17
  1

  0
LINE
  5
1094
330
141F
100
AcDbEntity
  8
SK2
 62
     0
100
AcDbLine
 10
45.09999999999961
 20
-25.0
 30
0.0
 11
111.4095491162293
 21
-25.00000000000002
 31
0.0
  0
LINE
  5
1095
330
141F
100
AcDbEntity
  8
SK2
 62
     0
100
AcDbLine
 10
45.09999999999965
 20
24.99999999999991
 30
0.0
 11
111.4095491162293
 21
24.99999999999989
 31
0.0
  0
LINE
  5
1096
330
141F
100
AcDbEntity
  8
SK2
 62
     0
100
AcDbLine
 10
109.9095491162293
 20
-21.50000000000002
 30
0.0
 11
109.9095491162293
 21
21.49999999999989
 31
0.0
  0
SOLID
  5
1097
330
141F
100
AcDbEntity
  8
SK2
 62
     0
100
AcDbTrace
 10
109.3262157828959
 20
-21.50000000000002
 30
0.0
 11
110.4928824495626
 21
-21.50000000000002
 31
0.0
 12
109.9095491162293
 22
-25.00000000000002
 32
0.0
 13
109.9095491162293
 23
-25.00000000000002
 33
0.0
  0
SOLID
  5
1098
330
141F
100
AcDbEntity
  8
SK2
 62
     0
100
AcDbTrace
 10
109.3262157828959
 20
21.49999999999989
 30
0.0
 11
110.4928824495626
 21
21.49999999999989
 31
0.0
 12
109.9095491162293
 22
24.99999999999989
 32
0.0
 13
109.9095491162293
 23
24.99999999999989
 33
0.0
  0
INSERT
  5
1099
330
141F
100
AcDbEntity
  8
SK2
100
AcDbBlockReference
  2
*U18
 10
0.0
 20
0.0
 30
0.0
  0
POINT
  5
109A
330
141F
100
AcDbEntity
  8
DEFPOINTS
 62
     0
100
AcDbPoint
 10
44.59999999999959
 20
-25.0
 30
0.0
  0
POINT
  5
109B
330
141F
100
AcDbEntity
  8
DEFPOINTS
 62
     0
100
AcDbPoint
 10
44.59999999999964
 20
24.99999999999991
 30
0.0
  0
POINT
  5
109C
330
141F
100
AcDbEntity
  8
DEFPOINTS
 62
     0
100
AcDbPoint
 10
109.9095491162293
 20
24.99999999999989
 30
0.0
  0
ENDBLK
  5
1078
330
141F
100
AcDbEntity
  8
0
100
AcDbBlockEnd
  0
BLOCK
  5
1422
330
1421
100
AcDbEntity
  8
0
100
AcDbBlockBegin
  2
*U18
 70
     1
 10
0.0
 20
0.0
 30
0.0
  3
*U18
  1

  0
TEXT
  5
11BD
330
1421
100
AcDbEntity
  8
SK2
 62
     0
100
AcDbText
 10
108.4095491162293
 20
-3.687500000000043
 30
0.0
 40
3.5
  1
\U+220550
 50
90.0
 41
0.75
  7
ROMANS
100
AcDbText
  0
ENDBLK
  5
11BF
330
1421
100
AcDbEntity
  8
0
100
AcDbBlockEnd
  0
BLOCK
  5
1424
330
1423
100
AcDbEntity
  8
0
100
AcDbBlockBegin
  2
*D19
 70
     1
 10
0.0
 20
0.0
 30
0.0
  3
*D19
  1

  0
LINE
  5
1191
330
1423
100
AcDbEntity
  8
SK2
 62
     0
100
AcDbLine
 10
73.99999999999993
 20
18.49999999999994
 30
0.0
 11
73.99999999999993
 21
51.44267661850538
 31
0.0
  0
LINE
  5
1192
330
1423
100
AcDbEntity
  8
SK2
 62
     0
100
AcDbLine
 10
57.29999999999993
 20
20.99999999999994
 30
0.0
 11
57.29999999999993
 21
51.44267661850538
 31
0.0
  0
LINE
  5
1193
330
1423
100
AcDbEntity
  8
SK2
 62
     0
100
AcDbLine
 10
70.49999999999996
 20
49.94267661850536
 30
0.0
 11
60.79999999999993
 21
49.94267661850536
 31
0.0
  0
SOLID
  5
1194
330
1423
100
AcDbEntity
  8
SK2
 62
     0
100
AcDbTrace
 10
70.49999999999996
 20
50.52600995183871
 30
0.0
 11
70.49999999999996
 21
49.35934328517205
 31
0.0
 12
73.99999999999993
 22
49.94267661850536
 32
0.0
 13
73.99999999999993
 23
49.94267661850536
 33
0.0
  0
SOLID
  5
1195
330
1423
100
AcDbEntity
  8
SK2
 62
     0
100
AcDbTrace
 10
60.79999999999993
 20
50.52600995183871
 30
0.0
 11
60.79999999999993
 21
49.35934328517205
 31
0.0
 12
57.29999999999993
 22
49.94267661850536
 32
0.0
 13
57.29999999999993
 23
49.94267661850536
 33
0.0
  0
INSERT
  5
1196
330
1423
100
AcDbEntity
  8
SK2
100
AcDbBlockReference
  2
*U20
 10
0.0
 20
0.0
 30
0.0
  0
POINT
  5
1197
330
1423
100
AcDbEntity
  8
DEFPOINTS
 62
     0
100
AcDbPoint
 10
73.99999999999993
 20
17.99999999999994
 30
0.0
  0
POINT
  5
1198
330
1423
100
AcDbEntity
  8
DEFPOINTS
 62
     0
100
AcDbPoint
 10
57.29999999999993
 20
20.49999999999994
 30
0.0
  0
POINT
  5
1199
330
1423
100
AcDbEntity
  8
DEFPOINTS
 62
     0
100
AcDbPoint
 10
57.29999999999993
 20
49.94267661850536
 30
0.0
  0
ENDBLK
  5
10A9
330
1423
100
AcDbEntity
  8
0
100
AcDbBlockEnd
  0
BLOCK
  5
1426
330
1425
100
AcDbEntity
  8
0
100
AcDbBlockBegin
  2
*U20
 70
     1
 10
0.0
 20
0.0
 30
0.0
  3
*U20
  1

  0
TEXT
  5
11D1
330
1425
100
AcDbEntity
  8
SK2
 62
     0
100
AcDbText
 10
61.08749999999993
 20
51.44267661850537
 30
0.0
 40
3.5
  1
16.7
 41
0.75
  7
ROMANS
100
AcDbText
  0
ENDBLK
  5
11D3
330
1425
100
AcDbEntity
  8
0
100
AcDbBlockEnd
  0
BLOCK
  5
1428
330
1427
100
AcDbEntity
  8
0
100
AcDbBlockBegin
  2
*D21
 70
     1
 10
0.0
 20
0.0
 30
0.0
  3
*D21
  1

  0
LINE
  5
117F
330
1427
100
AcDbEntity
  8
SK2
 62
     0
100
AcDbLine
 10
73.99999999999993
 20
18.49999999999994
 30
0.0
 11
73.99999999999993
 21
71.53595640948345
 31
0.0
  0
LINE
  5
1180
330
1427
100
AcDbEntity
  8
SK2
 62
     0
100
AcDbLine
 10
19.09999999999999
 20
32.27499999555624
 30
0.0
 11
19.09999999999999
 21
71.53595640948345
 31
0.0
  0
LINE
  5
1181
330
1427
100
AcDbEntity
  8
SK2
 62
     0
100
AcDbLine
 10
70.49999999999996
 20
70.03595640948343
 30
0.0
 11
22.59999999999999
 21
70.03595640948343
 31
0.0
  0
SOLID
  5
1182
330
1427
100
AcDbEntity
  8
SK2
 62
     0
100
AcDbTrace
 10
70.49999999999996
 20
70.61928974281676
 30
0.0
 11
70.49999999999996
 21
69.45262307615012
 31
0.0
 12
73.99999999999993
 22
70.03595640948343
 32
0.0
 13
73.99999999999993
 23
70.03595640948343
 33
0.0
  0
SOLID
  5
1183
330
1427
100
AcDbEntity
  8
SK2
 62
     0
100
AcDbTrace
 10
22.59999999999999
 20
70.61928974281676
 30
0.0
 11
22.59999999999999
 21
69.45262307615012
 31
0.0
 12
19.09999999999999
 22
70.03595640948343
 32
0.0
 13
19.09999999999999
 23
70.03595640948343
 33
0.0
  0
INSERT
  5
1184
330
1427
100
AcDbEntity
  8
SK2
100
AcDbBlockReference
  2
*U22
 10
0.0
 20
0.0
 30
0.0
  0
POINT
  5
1185
330
1427
100
AcDbEntity
  8
DEFPOINTS
 62
     0
100
AcDbPoint
 10
73.99999999999993
 20
17.99999999999994
 30
0.0
  0
POINT
  5
1186
330
1427
100
AcDbEntity
  8
DEFPOINTS
 62
     0
100
AcDbPoint
 10
19.09999999999999
 20
31.77499999555624
 30
0.0
  0
POINT
  5
1187
330
1427
100
AcDbEntity
  8
DEFPOINTS
 62
     0
100
AcDbPoint
 10
19.09999999999999
 20
70.03595640948343
 30
0.0
  0
ENDBLK
  5
10C8
330
1427
100
AcDbEntity
  8
0
100
AcDbBlockEnd
  0
BLOCK
  5
142A
330
1429
100
AcDbEntity
  8
0
100
AcDbBlockBegin
  2
*U22
 70
     1
 10
0.0
 20
0.0
 30
0.0
  3
*U22
  1

  0
TEXT
  5
11C9
330
1429
100
AcDbEntity
  8
SK2
 62
     0
100
AcDbText
 10
42.23749999999997
 20
71.53595640948345
 30
0.0
 40
3.5
  1
54.9
 41
0.75
  7
ROMANS
100
AcDbText
  0
ENDBLK
  5
11CB
330
1429
100
AcDbEntity
  8
0
100
AcDbBlockEnd
  0
BLOCK
  5
142C
330
142B
100
AcDbEntity
  8
0
100
AcDbBlockBegin
  2
*D23
 70
     1
 10
0.0
 20
0.0
 30
0.0
  3
*D23
  1

  0
LINE
  5
1188
330
142B
100
AcDbEntity
  8
SK2
 62
     0
100
AcDbLine
 10
73.99999999999993
 20
18.49999999999994
 30
0.0
 11
73.99999999999993
 21
61.5167417700627
 31
0.0
  0
LINE
  5
1189
330
142B
100
AcDbEntity
  8
SK2
 62
     0
100
AcDbLine
 10
44.59999999999964
 20
25.49999999999991
 30
0.0
 11
44.59999999999964
 21
61.5167417700627
 31
0.0
  0
LINE
  5
118A
330
142B
100
AcDbEntity
  8
SK2
 62
     0
100
AcDbLine
 10
70.49999999999996
 20
60.01674177006272
 30
0.0
 11
48.09999999999964
 21
60.01674177006272
 31
0.0
  0
SOLID
  5
118B
330
142B
100
AcDbEntity
  8
SK2
 62
     0
100
AcDbTrace
 10
70.49999999999996
 20
60.60007510339604
 30
0.0
 11
70.49999999999996
 21
59.43340843672935
 31
0.0
 12
73.99999999999993
 22
60.01674177006272
 32
0.0
 13
73.99999999999993
 23
60.01674177006272
 33
0.0
  0
SOLID
  5
118C
330
142B
100
AcDbEntity
  8
SK2
 62
     0
100
AcDbTrace
 10
48.09999999999964
 20
60.60007510339604
 30
0.0
 11
48.09999999999964
 21
59.43340843672935
 31
0.0
 12
44.59999999999964
 22
60.01674177006272
 32
0.0
 13
44.59999999999964
 23
60.01674177006272
 33
0.0
  0
INSERT
  5
118D
330
142B
100
AcDbEntity
  8
SK2
100
AcDbBlockReference
  2
*U24
 10
0.0
 20
0.0
 30
0.0
  0
POINT
  5
118E
330
142B
100
AcDbEntity
  8
DEFPOINTS
 62
     0
100
AcDbPoint
 10
73.99999999999993
 20
17.99999999999994
 30
0.0
  0
POINT
  5
118F
330
142B
100
AcDbEntity
  8
DEFPOINTS
 62
     0
100
AcDbPoint
 10
44.59999999999964
 20
24.99999999999991
 30
0.0
  0
POINT
  5
1190
330
142B
100
AcDbEntity
  8
DEFPOINTS
 62
     0
100
AcDbPoint
 10
44.59999999999964
 20
60.01674177006272
 30
0.0
  0
ENDBLK
  5
10F3
330
142B
100
AcDbEntity
  8
0
100
AcDbBlockEnd
  0
BLOCK
  5
142E
330
142D
100
AcDbEntity
  8
0
100
AcDbBlockBegin
  2
*U24
 70
     1
 10
0.0
 20
0.0
 30
0.0
  3
*U24
  1

  0
TEXT
  5
11CD
330
142D
100
AcDbEntity
  8
SK2
 62
     0
100
AcDbText
 10
54.86249999999981
 20
61.51674177006271
 30
0.0
 40
3.5
  1
29.4
 41
0.75
  7
ROMANS
100
AcDbText
  0
ENDBLK
  5
11CF
330
142D
100
AcDbEntity
  8
0
100
AcDbBlockEnd
  0
BLOCK
  5
1430
330
142F
100
AcDbEntity
  8
0
100
AcDbBlockBegin
  2
*D25
 70
     1
 10
0.0
 20
0.0
 30
0.0
  3
*D25
  1

  0
LINE
  5
112A
330
142F
100
AcDbEntity
  8
SK2
 62
     0
100
AcDbLine
 10
139.0392392136631
 20
156.5402342695728
 30
0.0
 11
139.0392392136631
 21
190.2944904917753
 31
0.0
  0
LINE
  5
112B
330
142F
100
AcDbEntity
  8
SK2
 62
     0
100
AcDbLine
 10
141.539239213663
 20
168.8507342695723
 30
0.0
 11
141.539239213663
 21
190.2944904917753
 31
0.0
  0
LINE
  5
112C
330
142F
100
AcDbEntity
  8
SK2
 62
     0
100
AcDbLine
 10
135.5392392136631
 20
188.7944904917754
 30
0.0
 11
132.0392392136631
 21
188.7944904917754
 31
0.0
  0
LINE
  5
112D
330
142F
100
AcDbEntity
  8
SK2
 62
     0
100
AcDbLine
 10
145.039239213663
 20
188.7944904917754
 30
0.0
 11
157.039239213663
 21
188.7944904917754
 31
0.0
  0
LINE
  5
112E
330
142F
100
AcDbEntity
  8
SK2
 62
     0
100
AcDbLine
 10
139.0392392136631
 20
188.7944904917754
 30
0.0
 11
141.539239213663
 21
188.7944904917754
 31
0.0
  0
SOLID
  5
112F
330
142F
100
AcDbEntity
  8
SK2
 62
     0
100
AcDbTrace
 10
135.5392392136631
 20
189.3778238251087
 30
0.0
 11
135.5392392136631
 21
188.211157158442
 31
0.0
 12
139.0392392136631
 22
188.7944904917754
 32
0.0
 13
139.0392392136631
 23
188.7944904917754
 33
0.0
  0
SOLID
  5
1130
330
142F
100
AcDbEntity
  8
SK2
 62
     0
100
AcDbTrace
 10
145.039239213663
 20
189.3778238251087
 30
0.0
 11
145.039239213663
 21
188.211157158442
 31
0.0
 12
141.539239213663
 22
188.7944904917754
 32
0.0
 13
141.539239213663
 23
188.7944904917754
 33
0.0
  0
INSERT
  5
1131
330
142F
100
AcDbEntity
  8
SK2
100
AcDbBlockReference
  2
*U26
 10
0.0
 20
0.0
 30
0.0
  0
POINT
  5
1132
330
142F
100
AcDbEntity
  8
DEFPOINTS
 62
     0
100
AcDbPoint
 10
139.0392392136631
 20
156.0402342695728
 30
0.0
  0
POINT
  5
1133
330
142F
100
AcDbEntity
  8
DEFPOINTS
 62
     0
100
AcDbPoint
 10
141.539239213663
 20
168.3507342695723
 30
0.0
  0
POINT
  5
1134
330
142F
100
AcDbEntity
  8
DEFPOINTS
 62
     0
100
AcDbPoint
 10
141.539239213663
 20
188.7944904917754
 30
0.0
  0
ENDBLK
  5
1135
330
142F
100
AcDbEntity
  8
0
100
AcDbBlockEnd
  0
BLOCK
  5
1432
330
1431
100
AcDbEntity
  8
0
100
AcDbBlockBegin
  2
*U26
 70
     1
 10
0.0
 20
0.0
 30
0.0
  3
*U26
  1

  0
TEXT
  5
11C1
330
1431
100
AcDbEntity
  8
SK2
 62
     0
100
AcDbText
 10
149.664239213663
 20
190.2944904917754
 30
0.0
 40
3.5
  1
2.5
 41
0.75
  7
ROMANS
100
AcDbText
  0
ENDBLK
  5
11C3
330
1431
100
AcDbEntity
  8
0
100
AcDbBlockEnd
  0
BLOCK
  5
1434
330
1433
100
AcDbEntity
  8
0
100
AcDbBlockBegin
  2
*D27
 70
     1
 10
0.0
 20
0.0
 30
0.0
  3
*D27
  1

  0
LINE
  5
119A
330
1433
100
AcDbEntity
  8
SK2
 62
     0
100
AcDbLine
 10
73.99999999999993
 20
0.499999999999915
 30
0.0
 11
73.99999999999993
 21
41.47831171968332
 31
0.0
  0
LINE
  5
119B
330
1433
100
AcDbEntity
  8
SK2
 62
     0
100
AcDbLine
 10
76.49999999999984
 20
12.81049999999934
 30
0.0
 11
76.49999999999984
 21
41.47831171968332
 31
0.0
  0
LINE
  5
119C
330
1433
100
AcDbEntity
  8
SK2
 62
     0
100
AcDbLine
 10
70.49999999999996
 20
39.97831171968336
 30
0.0
 11
66.99999999999993
 21
39.97831171968336
 31
0.0
  0
LINE
  5
119D
330
1433
100
AcDbEntity
  8
SK2
 62
     0
100
AcDbLine
 10
79.99999999999984
 20
39.97831171968336
 30
0.0
 11
91.99999999999985
 21
39.97831171968336
 31
0.0
  0
LINE
  5
119E
330
1433
100
AcDbEntity
  8
SK2
 62
     0
100
AcDbLine
 10
73.99999999999993
 20
39.97831171968336
 30
0.0
 11
76.49999999999984
 21
39.97831171968336
 31
0.0
  0
SOLID
  5
119F
330
1433
100
AcDbEntity
  8
SK2
 62
     0
100
AcDbTrace
 10
70.49999999999996
 20
40.56164505301668
 30
0.0
 11
70.49999999999996
 21
39.39497838635001
 31
0.0
 12
73.99999999999993
 22
39.97831171968336
 32
0.0
 13
73.99999999999993
 23
39.97831171968336
 33
0.0
  0
SOLID
  5
11A0
330
1433
100
AcDbEntity
  8
SK2
 62
     0
100
AcDbTrace
 10
79.99999999999984
 20
40.56164505301668
 30
0.0
 11
79.99999999999984
 21
39.39497838635001
 31
0.0
 12
76.49999999999984
 22
39.97831171968336
 32
0.0
 13
76.49999999999984
 23
39.97831171968336
 33
0.0
  0
INSERT
  5
11A1
330
1433
100
AcDbEntity
  8
SK2
100
AcDbBlockReference
  2
*U28
 10
0.0
 20
0.0
 30
0.0
  0
POINT
  5
11A2
330
1433
100
AcDbEntity
  8
DEFPOINTS
 62
     0
100
AcDbPoint
 10
73.99999999999993
 20
-0.0000000000000853
 30
0.0
  0
POINT
  5
11A3
330
1433
100
AcDbEntity
  8
DEFPOINTS
 62
     0
100
AcDbPoint
 10
76.49999999999984
 20
12.31049999999934
 30
0.0
  0
POINT
  5
11A4
330
1433
100
AcDbEntity
  8
DEFPOINTS
 62
     0
100
AcDbPoint
 10
76.49999999999984
 20
39.97831171968336
 30
0.0
  0
ENDBLK
  5
115F
330
1433
100
AcDbEntity
  8
0
100
AcDbBlockEnd
  0
BLOCK
  5
1436
330
1435
100
AcDbEntity
  8
0
100
AcDbBlockBegin
  2
*U28
 70
     1
 10
0.0
 20
0.0
 30
0.0
  3
*U28
  1

  0
TEXT
  5
11D5
330
1435
100
AcDbEntity
  8
SK2
 62
     0
100
AcDbText
 10
84.62499999999984
 20
41.47831171968332
 30
0.0
 40
3.5
  1
2.5
 41
0.75
  7
ROMANS
100
AcDbText
  0
ENDBLK
  5
11D7
330
1435
100
AcDbEntity
  8
0
100
AcDbBlockEnd
  0
BLOCK
  5
1438
330
1437
100
AcDbEntity
  8
0
100
AcDbBlockBegin
  2
*D29
 70
     1
 10
0.0
 20
0.0
 30
0.0
  3
*D29
  1

  0
LINE
  5
1264
330
1437
100
AcDbEntity
  8
BEMASSUNG
 62
     0
100
AcDbLine
 10
285.9537128462006
 20
255.4564105256423
 30
0.0
 11
285.9537128462006
 21
271.3959229568617
 31
0.0
  0
LINE
  5
1265
330
1437
100
AcDbEntity
  8
BEMASSUNG
 62
     0
100
AcDbLine
 10
266.2139668840441
 20
257.9564105256424
 30
0.0
 11
266.2139668840441
 21
271.3959229568617
 31
0.0
  0
LINE
  5
1266
330
1437
100
AcDbEntity
  8
BEMASSUNG
 62
     0
100
AcDbLine
 10
282.4537128462006
 20
269.8959229568617
 30
0.0
 11
269.7139668840441
 21
269.8959229568617
 31
0.0
  0
SOLID
  5
1267
330
1437
100
AcDbEntity
  8
BEMASSUNG
 62
     0
100
AcDbTrace
 10
282.4537128462006
 20
270.479256290195
 30
0.0
 11
282.4537128462006
 21
269.3125896235283
 31
0.0
 12
285.9537128462006
 22
269.8959229568617
 32
0.0
 13
285.9537128462006
 23
269.8959229568617
 33
0.0
  0
SOLID
  5
1268
330
1437
100
AcDbEntity
  8
BEMASSUNG
 62
     0
100
AcDbTrace
 10
269.7139668840441
 20
270.479256290195
 30
0.0
 11
269.7139668840441
 21
269.3125896235283
 31
0.0
 12
266.2139668840441
 22
269.8959229568617
 32
0.0
 13
266.2139668840441
 23
269.8959229568617
 33
0.0
  0
INSERT
  5
1269
330
1437
100
AcDbEntity
  8
SK2
100
AcDbBlockReference
  2
*U30
 10
0.0
 20
0.0
 30
0.0
  0
POINT
  5
126A
330
1437
100
AcDbEntity
  8
DEFPOINTS
 62
     0
100
AcDbPoint
 10
285.9537128462006
 20
254.9564105256423
 30
0.0
  0
POINT
  5
126B
330
1437
100
AcDbEntity
  8
DEFPOINTS
 62
     0
100
AcDbPoint
 10
266.2139668840441
 20
257.4564105256424
 30
0.0
  0
POINT
  5
126C
330
1437
100
AcDbEntity
  8
DEFPOINTS
 62
     0
100
AcDbPoint
 10
266.2139668840441
 20
269.8959229568617
 30
0.0
  0
ENDBLK
  5
126D
330
1437
100
AcDbEntity
  8
0
100
AcDbBlockEnd
  0
BLOCK
  5
144F
330
1439
100
AcDbEntity
  8
0
100
AcDbBlockBegin
  2
*U30
 70
     1
 10
0.0
 20
0.0
 30
0.0
  3
*U30
  1

  0
TEXT
  5
1399
330
1439
100
AcDbEntity
  8
BEMASSUNG
 62
     0
100
AcDbText
 10
273.5838398651224
 20
271.3959229568617
 30
0.0
 40
3.5
  1
20
 41
0.75
  7
ROMANS
100
AcDbText
  0
ENDBLK
  5
139B
330
1439
100
AcDbEntity
  8
0
100
AcDbBlockEnd
  0
BLOCK
  5
143B
330
143A
100
AcDbEntity
  8
0
100
AcDbBlockBegin
  2
*D31
 70
     1
 10
0.0
 20
0.0
 30
0.0
  3
*D31
  1

  0
LINE
  5
1270
330
143A
100
AcDbEntity
  8
BEMASSUNG
 62
     0
100
AcDbLine
 10
285.9537128462006
 20
255.4564105256423
 30
0.0
 11
285.9537128462006
 21
281.4275548095113
 31
0.0
  0
LINE
  5
1271
330
143A
100
AcDbEntity
  8
BEMASSUNG
 62
     0
100
AcDbLine
 10
257.5537128461999
 20
262.9564105256423
 30
0.0
 11
257.5537128461999
 21
281.4275548095113
 31
0.0
  0
LINE
  5
1272
330
143A
100
AcDbEntity
  8
BEMASSUNG
 62
     0
100
AcDbLine
 10
282.4537128462006
 20
279.9275548095113
 30
0.0
 11
261.0537128461999
 21
279.9275548095113
 31
0.0
  0
SOLID
  5
1273
330
143A
100
AcDbEntity
  8
BEMASSUNG
 62
     0
100
AcDbTrace
 10
282.4537128462006
 20
280.5108881428445
 30
0.0
 11
282.4537128462006
 21
279.344221476178
 31
0.0
 12
285.9537128462006
 22
279.9275548095113
 32
0.0
 13
285.9537128462006
 23
279.9275548095113
 33
0.0
  0
SOLID
  5
1274
330
143A
100
AcDbEntity
  8
BEMASSUNG
 62
     0
100
AcDbTrace
 10
261.0537128461999
 20
280.5108881428445
 30
0.0
 11
261.0537128461999
 21
279.344221476178
 31
0.0
 12
257.5537128461999
 22
279.9275548095113
 32
0.0
 13
257.5537128461999
 23
279.9275548095113
 33
0.0
  0
INSERT
  5
1275
330
143A
100
AcDbEntity
  8
SK2
100
AcDbBlockReference
  2
*U32
 10
0.0
 20
0.0
 30
0.0
  0
POINT
  5
1276
330
143A
100
AcDbEntity
  8
DEFPOINTS
 62
     0
100
AcDbPoint
 10
285.9537128462006
 20
254.9564105256423
 30
0.0
  0
POINT
  5
1277
330
143A
100
AcDbEntity
  8
DEFPOINTS
 62
     0
100
AcDbPoint
 10
257.5537128461999
 20
262.4564105256423
 30
0.0
  0
POINT
  5
1278
330
143A
100
AcDbEntity
  8
DEFPOINTS
 62
     0
100
AcDbPoint
 10
257.5537128461999
 20
279.9275548095113
 30
0.0
  0
ENDBLK
  5
1279
330
143A
100
AcDbEntity
  8
0
100
AcDbBlockEnd
  0
BLOCK
  5
1450
330
143C
100
AcDbEntity
  8
0
100
AcDbBlockBegin
  2
*U32
 70
     1
 10
0.0
 20
0.0
 30
0.0
  3
*U32
  1

  0
TEXT
  5
139D
330
143C
100
AcDbEntity
  8
BEMASSUNG
 62
     0
100
AcDbText
 10
267.3787128462003
 20
281.4275548095113
 30
0.0
 40
3.5
  1
28.5
 41
0.75
  7
ROMANS
100
AcDbText
  0
ENDBLK
  5
139F
330
143C
100
AcDbEntity
  8
0
100
AcDbBlockEnd
  0
BLOCK
  5
143E
330
143D
100
AcDbEntity
  8
0
100
AcDbBlockBegin
  2
*D33
 70
     1
 10
0.0
 20
0.0
 30
0.0
  3
*D33
  1

  0
LINE
  5
127C
330
143D
100
AcDbEntity
  8
BEMASSUNG
 62
     0
100
AcDbLine
 10
283.9537128462006
 20
217.4564105256425
 30
0.0
 11
305.9352876849496
 21
217.4564105256425
 31
0.0
  0
LINE
  5
127D
330
143D
100
AcDbEntity
  8
BEMASSUNG
 62
     0
100
AcDbLine
 10
283.9537128462006
 20
257.4564105256423
 30
0.0
 11
305.9352876849496
 21
257.4564105256423
 31
0.0
  0
LINE
  5
127E
330
143D
100
AcDbEntity
  8
BEMASSUNG
 62
     0
100
AcDbLine
 10
304.4352876849496
 20
220.9564105256425
 30
0.0
 11
304.4352876849496
 21
253.9564105256423
 31
0.0
  0
SOLID
  5
127F
330
143D
100
AcDbEntity
  8
BEMASSUNG
 62
     0
100
AcDbTrace
 10
303.8519543516163
 20
220.9564105256425
 30
0.0
 11
305.0186210182829
 21
220.9564105256425
 31
0.0
 12
304.4352876849496
 22
217.4564105256425
 32
0.0
 13
304.4352876849496
 23
217.4564105256425
 33
0.0
  0
SOLID
  5
1280
330
143D
100
AcDbEntity
  8
BEMASSUNG
 62
     0
100
AcDbTrace
 10
303.8519543516163
 20
253.9564105256423
 30
0.0
 11
305.0186210182829
 21
253.9564105256423
 31
0.0
 12
304.4352876849496
 22
257.4564105256423
 32
0.0
 13
304.4352876849496
 23
257.4564105256423
 33
0.0
  0
INSERT
  5
1281
330
143D
100
AcDbEntity
  8
SK2
100
AcDbBlockReference
  2
*U34
 10
0.0
 20
0.0
 30
0.0
  0
POINT
  5
1282
330
143D
100
AcDbEntity
  8
DEFPOINTS
 62
     0
100
AcDbPoint
 10
283.4537128462006
 20
217.4564105256425
 30
0.0
  0
POINT
  5
1283
330
143D
100
AcDbEntity
  8
DEFPOINTS
 62
     0
100
AcDbPoint
 10
283.4537128462006
 20
257.4564105256423
 30
0.0
  0
POINT
  5
1284
330
143D
100
AcDbEntity
  8
DEFPOINTS
 62
     0
100
AcDbPoint
 10
304.4352876849496
 20
257.4564105256423
 30
0.0
  0
ENDBLK
  5
1285
330
143D
100
AcDbEntity
  8
0
100
AcDbBlockEnd
  0
BLOCK
  5
1451
330
143F
100
AcDbEntity
  8
0
100
AcDbBlockBegin
  2
*U34
 70
     1
 10
0.0
 20
0.0
 30
0.0
  3
*U34
  1

  0
TEXT
  5
13A1
330
143F
100
AcDbEntity
  8
BEMASSUNG
 62
     0
100
AcDbText
 10
302.9352876849495
 20
233.7689105256425
 30
0.0
 40
3.5
  1
\U+220540
 50
90.0
 41
0.75
  7
ROMANS
100
AcDbText
  0
ENDBLK
  5
13A3
330
143F
100
AcDbEntity
  8
0
100
AcDbBlockEnd
  0
BLOCK
  5
1441
330
1440
100
AcDbEntity
  8
0
100
AcDbBlockBegin
  2
*D35
 70
     1
 10
0.0
 20
0.0
 30
0.0
  3
*D35
  1

  0
LINE
  5
1288
330
1440
100
AcDbEntity
  8
BEMASSUNG
 62
     0
100
AcDbLine
 10
258.0537128461999
 20
262.4564105256423
 30
0.0
 11
317.8904939148381
 21
262.4564105256423
 31
0.0
  0
LINE
  5
1289
330
1440
100
AcDbEntity
  8
BEMASSUNG
 62
     0
100
AcDbLine
 10
258.0537128461998
 20
212.4564105256424
 30
0.0
 11
317.8904939148381
 21
212.4564105256424
 31
0.0
  0
LINE
  5
128A
330
1440
100
AcDbEntity
  8
BEMASSUNG
 62
     0
100
AcDbLine
 10
316.3904939148381
 20
258.9564105256423
 30
0.0
 11
316.3904939148381
 21
215.9564105256424
 31
0.0
  0
SOLID
  5
128B
330
1440
100
AcDbEntity
  8
BEMASSUNG
 62
     0
100
AcDbTrace
 10
315.8071605815048
 20
258.9564105256423
 30
0.0
 11
316.9738272481714
 21
258.9564105256423
 31
0.0
 12
316.3904939148381
 22
262.4564105256423
 32
0.0
 13
316.3904939148381
 23
262.4564105256423
 33
0.0
  0
SOLID
  5
128C
330
1440
100
AcDbEntity
  8
BEMASSUNG
 62
     0
100
AcDbTrace
 10
315.8071605815048
 20
215.9564105256424
 30
0.0
 11
316.9738272481714
 21
215.9564105256424
 31
0.0
 12
316.3904939148381
 22
212.4564105256424
 32
0.0
 13
316.3904939148381
 23
212.4564105256424
 33
0.0
  0
INSERT
  5
128D
330
1440
100
AcDbEntity
  8
SK2
100
AcDbBlockReference
  2
*U36
 10
0.0
 20
0.0
 30
0.0
  0
POINT
  5
128E
330
1440
100
AcDbEntity
  8
DEFPOINTS
 62
     0
100
AcDbPoint
 10
257.5537128461999
 20
262.4564105256423
 30
0.0
  0
POINT
  5
128F
330
1440
100
AcDbEntity
  8
DEFPOINTS
 62
     0
100
AcDbPoint
 10
257.5537128461998
 20
212.4564105256424
 30
0.0
  0
POINT
  5
1290
330
1440
100
AcDbEntity
  8
DEFPOINTS
 62
     0
100
AcDbPoint
 10
316.3904939148381
 20
212.4564105256424
 30
0.0
  0
ENDBLK
  5
1291
330
1440
100
AcDbEntity
  8
0
100
AcDbBlockEnd
  0
BLOCK
  5
1452
330
1442
100
AcDbEntity
  8
0
100
AcDbBlockBegin
  2
*U36
 70
     1
 10
0.0
 20
0.0
 30
0.0
  3
*U36
  1

  0
TEXT
  5
13A5
330
1442
100
AcDbEntity
  8
BEMASSUNG
 62
     0
100
AcDbText
 10
314.890493914838
 20
233.7689105256424
 30
0.0
 40
3.5
  1
\U+220550
 50
90.0
 41
0.75
  7
ROMANS
100
AcDbText
  0
ENDBLK
  5
13A7
330
1442
100
AcDbEntity
  8
0
100
AcDbBlockEnd
  0
BLOCK
  5
1444
330
1443
100
AcDbEntity
  8
0
100
AcDbBlockBegin
  2
*D37
 70
     1
 10
0.0
 20
0.0
 30
0.0
  3
*D37
  1

  0
LINE
  5
1386
330
1443
100
AcDbEntity
  8
SK2
 62
     0
100
AcDbLine
 10
74.0000000000003
 20
17.99999999999997
 30
0.0
 11
74.0000000000003
 21
51.44267661850538
 31
0.0
  0
LINE
  5
1387
330
1443
100
AcDbEntity
  8
SK2
 62
     0
100
AcDbLine
 10
54.26025403784378
 20
20.50000000000009
 30
0.0
 11
54.26025403784378
 21
51.44267661850538
 31
0.0
  0
LINE
  5
1388
330
1443
100
AcDbEntity
  8
SK2
 62
     0
100
AcDbLine
 10
70.50000000000031
 20
49.94267661850538
 30
0.0
 11
57.76025403784378
 21
49.94267661850538
 31
0.0
  0
SOLID
  5
1389
330
1443
100
AcDbEntity
  8
SK2
 62
     0
100
AcDbTrace
 10
70.50000000000031
 20
50.52600995183873
 30
0.0
 11
70.50000000000031
 21
49.35934328517205
 31
0.0
 12
74.0000000000003
 22
49.94267661850538
 32
0.0
 13
74.0000000000003
 23
49.94267661850538
 33
0.0
  0
SOLID
  5
138A
330
1443
100
AcDbEntity
  8
SK2
 62
     0
100
AcDbTrace
 10
57.76025403784378
 20
50.52600995183873
 30
0.0
 11
57.76025403784378
 21
49.35934328517205
 31
0.0
 12
54.26025403784378
 22
49.94267661850538
 32
0.0
 13
54.26025403784378
 23
49.94267661850538
 33
0.0
  0
INSERT
  5
138B
330
1443
100
AcDbEntity
  8
SK2
100
AcDbBlockReference
  2
*U38
 10
0.0
 20
0.0
 30
0.0
  0
POINT
  5
138C
330
1443
100
AcDbEntity
  8
DEFPOINTS
 62
     0
100
AcDbPoint
 10
74.0000000000003
 20
17.49999999999997
 30
0.0
  0
POINT
  5
138D
330
1443
100
AcDbEntity
  8
DEFPOINTS
 62
     0
100
AcDbPoint
 10
54.26025403784378
 20
20.00000000000008
 30
0.0
  0
POINT
  5
138E
330
1443
100
AcDbEntity
  8
DEFPOINTS
 62
     0
100
AcDbPoint
 10
54.26025403784378
 20
49.94267661850538
 30
0.0
  0
ENDBLK
  5
12EC
330
1443
100
AcDbEntity
  8
0
100
AcDbBlockEnd
  0
BLOCK
  5
1456
330
1445
100
AcDbEntity
  8
0
100
AcDbBlockBegin
  2
*U38
 70
     1
 10
0.0
 20
0.0
 30
0.0
  3
*U38
  1

  0
TEXT
  5
13B5
330
1445
100
AcDbEntity
  8
SK2
 62
     0
100
AcDbText
 10
61.63012701892204
 20
51.44267661850538
 30
0.0
 40
3.5
  1
20
 41
0.75
  7
ROMANS
100
AcDbText
  0
ENDBLK
  5
13B7
330
1445
100
AcDbEntity
  8
0
100
AcDbBlockEnd
  0
BLOCK
  5
1447
330
1446
100
AcDbEntity
  8
0
100
AcDbBlockBegin
  2
*D39
 70
     1
 10
0.0
 20
0.0
 30
0.0
  3
*D39
  1

  0
LINE
  5
137D
330
1446
100
AcDbEntity
  8
SK2
 62
     0
100
AcDbLine
 10
74.0000000000003
 20
17.99999999999997
 30
0.0
 11
74.0000000000003
 21
61.48696980197326
 31
0.0
  0
LINE
  5
137E
330
1446
100
AcDbEntity
  8
SK2
 62
     0
100
AcDbLine
 10
45.59999999999958
 20
25.49999999999997
 30
0.0
 11
45.59999999999958
 21
61.48696980197326
 31
0.0
  0
LINE
  5
137F
330
1446
100
AcDbEntity
  8
SK2
 62
     0
100
AcDbLine
 10
70.50000000000031
 20
59.98696980197326
 30
0.0
 11
49.0999999999996
 21
59.98696980197326
 31
0.0
  0
SOLID
  5
1380
330
1446
100
AcDbEntity
  8
SK2
 62
     0
100
AcDbTrace
 10
70.50000000000031
 20
60.57030313530661
 30
0.0
 11
70.50000000000031
 21
59.40363646863993
 31
0.0
 12
74.0000000000003
 22
59.98696980197326
 32
0.0
 13
74.0000000000003
 23
59.98696980197326
 33
0.0
  0
SOLID
  5
1381
330
1446
100
AcDbEntity
  8
SK2
 62
     0
100
AcDbTrace
 10
49.0999999999996
 20
60.57030313530661
 30
0.0
 11
49.0999999999996
 21
59.40363646863993
 31
0.0
 12
45.59999999999958
 22
59.98696980197326
 32
0.0
 13
45.59999999999958
 23
59.98696980197326
 33
0.0
  0
INSERT
  5
1382
330
1446
100
AcDbEntity
  8
SK2
100
AcDbBlockReference
  2
*U40
 10
0.0
 20
0.0
 30
0.0
  0
POINT
  5
1383
330
1446
100
AcDbEntity
  8
DEFPOINTS
 62
     0
100
AcDbPoint
 10
74.0000000000003
 20
17.49999999999997
 30
0.0
  0
POINT
  5
1384
330
1446
100
AcDbEntity
  8
DEFPOINTS
 62
     0
100
AcDbPoint
 10
45.59999999999958
 20
24.99999999999997
 30
0.0
  0
POINT
  5
1385
330
1446
100
AcDbEntity
  8
DEFPOINTS
 62
     0
100
AcDbPoint
 10
45.59999999999958
 20
59.98696980197326
 30
0.0
  0
ENDBLK
  5
12F8
330
1446
100
AcDbEntity
  8
0
100
AcDbBlockEnd
  0
BLOCK
  5
1455
330
1448
100
AcDbEntity
  8
0
100
AcDbBlockBegin
  2
*U40
 70
     1
 10
0.0
 20
0.0
 30
0.0
  3
*U40
  1

  0
TEXT
  5
13B1
330
1448
100
AcDbEntity
  8
SK2
 62
     0
100
AcDbText
 10
55.42499999999993
 20
61.48696980197326
 30
0.0
 40
3.5
  1
28.5
 41
0.75
  7
ROMANS
100
AcDbText
  0
ENDBLK
  5
13B3
330
1448
100
AcDbEntity
  8
0
100
AcDbBlockEnd
  0
BLOCK
  5
144A
330
1449
100
AcDbEntity
  8
0
100
AcDbBlockBegin
  2
*D41
 70
     1
 10
0.0
 20
0.0
 30
0.0
  3
*D41
  1

  0
LINE
  5
136B
330
1449
100
AcDbEntity
  8
SK2
 62
     0
100
AcDbLine
 10
72.00000000000031
 20
-19.9999999999998
 30
0.0
 11
93.98157483874923
 21
-19.99999999999981
 31
0.0
  0
LINE
  5
136C
330
1449
100
AcDbEntity
  8
SK2
 62
     0
100
AcDbLine
 10
72.00000000000031
 20
19.99999999999997
 30
0.0
 11
93.98157483874923
 21
19.99999999999996
 31
0.0
  0
LINE
  5
136D
330
1449
100
AcDbEntity
  8
SK2
 62
     0
100
AcDbLine
 10
92.48157483874924
 20
-16.4999999999998
 30
0.0
 11
92.48157483874924
 21
16.49999999999996
 31
0.0
  0
SOLID
  5
136E
330
1449
100
AcDbEntity
  8
SK2
 62
     0
100
AcDbTrace
 10
91.89824150541591
 20
-16.4999999999998
 30
0.0
 11
93.06490817208258
 21
-16.4999999999998
 31
0.0
 12
92.48157483874924
 22
-19.99999999999981
 32
0.0
 13
92.48157483874924
 23
-19.99999999999981
 33
0.0
  0
SOLID
  5
136F
330
1449
100
AcDbEntity
  8
SK2
 62
     0
100
AcDbTrace
 10
91.89824150541591
 20
16.49999999999996
 30
0.0
 11
93.06490817208258
 21
16.49999999999996
 31
0.0
 12
92.48157483874924
 22
19.99999999999996
 32
0.0
 13
92.48157483874924
 23
19.99999999999996
 33
0.0
  0
INSERT
  5
1370
330
1449
100
AcDbEntity
  8
SK2
100
AcDbBlockReference
  2
*U42
 10
0.0
 20
0.0
 30
0.0
  0
POINT
  5
1371
330
1449
100
AcDbEntity
  8
DEFPOINTS
 62
     0
100
AcDbPoint
 10
71.50000000000031
 20
-19.9999999999998
 30
0.0
  0
POINT
  5
1372
330
1449
100
AcDbEntity
  8
DEFPOINTS
 62
     0
100
AcDbPoint
 10
71.50000000000031
 20
19.99999999999997
 30
0.0
  0
POINT
  5
1373
330
1449
100
AcDbEntity
  8
DEFPOINTS
 62
     0
100
AcDbPoint
 10
92.48157483874924
 20
19.99999999999996
 30
0.0
  0
ENDBLK
  5
1304
330
1449
100
AcDbEntity
  8
0
100
AcDbBlockEnd
  0
BLOCK
  5
1453
330
144B
100
AcDbEntity
  8
0
100
AcDbBlockBegin
  2
*U42
 70
     1
 10
0.0
 20
0.0
 30
0.0
  3
*U42
  1

  0
TEXT
  5
13A9
330
144B
100
AcDbEntity
  8
SK2
 62
     0
100
AcDbText
 10
90.98157483874924
 20
-3.687499999999904
 30
0.0
 40
3.5
  1
\U+220540
 50
90.0
 41
0.75
  7
ROMANS
100
AcDbText
  0
ENDBLK
  5
13AB
330
144B
100
AcDbEntity
  8
0
100
AcDbBlockEnd
  0
BLOCK
  5
144D
330
144C
100
AcDbEntity
  8
0
100
AcDbBlockBegin
  2
*D43
 70
     1
 10
0.0
 20
0.0
 30
0.0
  3
*D43
  1

  0
LINE
  5
1374
330
144C
100
AcDbEntity
  8
SK2
 62
     0
100
AcDbLine
 10
46.09999999999959
 20
24.99999999999997
 30
0.0
 11
105.9367810686377
 21
24.99999999999996
 31
0.0
  0
LINE
  5
1375
330
144C
100
AcDbEntity
  8
SK2
 62
     0
100
AcDbLine
 10
46.09999999999941
 20
-24.99999999999993
 30
0.0
 11
105.9367810686377
 21
-24.99999999999993
 31
0.0
  0
LINE
  5
1376
330
144C
100
AcDbEntity
  8
SK2
 62
     0
100
AcDbLine
 10
104.4367810686377
 20
21.49999999999995
 30
0.0
 11
104.4367810686377
 21
-21.49999999999993
 31
0.0
  0
SOLID
  5
1377
330
144C
100
AcDbEntity
  8
SK2
 62
     0
100
AcDbTrace
 10
103.8534477353044
 20
21.49999999999996
 30
0.0
 11
105.020114401971
 21
21.49999999999995
 31
0.0
 12
104.4367810686377
 22
24.99999999999996
 32
0.0
 13
104.4367810686377
 23
24.99999999999996
 33
0.0
  0
SOLID
  5
1378
330
144C
100
AcDbEntity
  8
SK2
 62
     0
100
AcDbTrace
 10
103.8534477353044
 20
-21.49999999999993
 30
0.0
 11
105.020114401971
 21
-21.49999999999993
 31
0.0
 12
104.4367810686377
 22
-24.99999999999993
 32
0.0
 13
104.4367810686377
 23
-24.99999999999993
 33
0.0
  0
INSERT
  5
1379
330
144C
100
AcDbEntity
  8
SK2
100
AcDbBlockReference
  2
*U44
 10
0.0
 20
0.0
 30
0.0
  0
POINT
  5
137A
330
144C
100
AcDbEntity
  8
DEFPOINTS
 62
     0
100
AcDbPoint
 10
45.59999999999958
 20
24.99999999999997
 30
0.0
  0
POINT
  5
137B
330
144C
100
AcDbEntity
  8
DEFPOINTS
 62
     0
100
AcDbPoint
 10
45.59999999999941
 20
-24.99999999999993
 30
0.0
  0
POINT
  5
137C
330
144C
100
AcDbEntity
  8
DEFPOINTS
 62
     0
100
AcDbPoint
 10
104.4367810686377
 20
-24.99999999999993
 30
0.0
  0
ENDBLK
  5
1310
330
144C
100
AcDbEntity
  8
0
100
AcDbBlockEnd
  0
BLOCK
  5
1454
330
144E
100
AcDbEntity
  8
0
100
AcDbBlockBegin
  2
*U44
 70
     1
 10
0.0
 20
0.0
 30
0.0
  3
*U44
  1

  0
TEXT
  5
13AD
330
144E
100
AcDbEntity
  8
SK2
 62
     0
100
AcDbText
 10
102.9367810686377
 20
-3.687499999999968
 30
0.0
 40
3.5
  1
\U+220550
 50
90.0
 41
0.75
  7
ROMANS
100
AcDbText
  0
ENDBLK
  5
13AF
330
144E
100
AcDbEntity
  8
0
100
AcDbBlockEnd
  0
ENDSEC
  0
SECTION
  2
ENTITIES
  0
LINE
  5
FCD
330
13D9
100
AcDbEntity
  8
1
100
AcDbLine
 10
1.599999999999994
 20
22.45833332875162
 30
0.0
 11
-45.21450642792497
 21
15.63121781204874
 31
0.0
1001
ACAD
1000
ASC_BOUNDS
1002
{
1070
    19
1005
0
1005
0
1002
}
  0
LINE
  5
FCE
330
13D9
100
AcDbEntity
  8
1
100
AcDbLine
 10
31.09999999999988
 20
24.09999999999997
 30
0.0
 11
31.10000000000039
 21
-0.000000000000032
 31
0.0
1001
ACAD
1000
ASC_BOUNDS
1002
{
1070
    19
1005
0
1002
}
  0
LINE
  5
FCF
330
13D9
100
AcDbEntity
  8
1
100
AcDbLine
 10
19.09999999999999
 20
31.77499999555624
 30
0.0
 11
15.08232848254212
 21
31.77499999555624
 31
0.0
1001
ACAD
1000
ASC_BOUNDS
1002
{
1070
    19
1005
0
1002
}
  0
ARC
  5
FD0
330
13D9
100
AcDbEntity
  8
1
100
AcDbCircle
 10
20.09999999999999
 20
25.999999998529
 30
0.0
 40
1.0
100
AcDbArc
 50
180.0
 51
270.0
1001
ACAD
1000
ASC_BOUNDS
1002
{
1070
    19
1005
0
1002
}
  0
LINE
  5
FD2
330
13D9
100
AcDbEntity
  8
1
100
AcDbLine
 10
20.09999999999999
 20
24.999999998529
 30
0.0
 11
30.6
 21
24.99999999852895
 31
0.0
1001
ACAD
1000
ASC_BOUNDS
1002
{
1070
    19
1005
0
1002
}
  0
LINE
  5
FD4
330
13D9
100
AcDbEntity
  8
1
100
AcDbLine
 10
31.09999999999999
 20
24.49999999852895
 30
0.0
 11
30.6
 21
24.99999999852895
 31
0.0
1001
ACAD
1000
ASC_BOUNDS
1002
{
1070
    19
1005
0
1002
}
  0
LINE
  5
FD5
330
13D9
100
AcDbEntity
  8
1
100
AcDbLine
 10
31.09999999999999
 20
24.50004022852891
 30
0.0
 11
31.09999999999999
 21
22.50000000487381
 31
0.0
1001
ACAD
1000
ASC_BOUNDS
1002
{
1070
    19
1005
0
1002
}
  0
LINE
  5
FD6
330
13D9
100
AcDbEntity
  8
1
100
AcDbLine
 10
19.09999999999999
 20
31.77499999555624
 30
0.0
 11
19.09999999999999
 21
25.999999998529
 31
0.0
1001
ACAD
1000
ASC_BOUNDS
1002
{
1070
    19
1005
0
1005
0
1002
}
  0
LINE
  5
FD7
330
13D9
100
AcDbEntity
  8
1
100
AcDbLine
 10
3.19999999999996
 20
22.09999999555629
 30
0.0
 11
1.599999999999994
 21
22.09999999555629
 31
0.0
1001
ACAD
1000
ASC_BOUNDS
1002
{
1070
    19
1005
0
1002
}
  0
LINE
  5
FD8
330
13D9
100
AcDbEntity
  8
1
100
AcDbLine
 10
12.97499999999999
 20
28.12499999555626
 30
0.0
 11
9.224999999999994
 21
28.12499999555626
 31
0.0
1001
ACAD
1000
ASC_BOUNDS
1002
{
1070
    19
1005
0
1002
}
  0
LINE
  5
FD9
330
13D9
100
AcDbEntity
  8
1
100
AcDbLine
 10
12.97499999999999
 20
28.12499999555626
 30
0.0
 11
15.08232848254212
 21
31.77499999555624
 31
0.0
1001
ACAD
1000
ASC_BOUNDS
1002
{
1070
    19
1005
0
1002
}
  0
LINE
  5
FDA
330
13D9
100
AcDbEntity
  8
1
100
AcDbLine
 10
3.19999999999996
 20
31.77499999555624
 30
0.0
 11
3.19999999999996
 21
22.09999999555629
 31
0.0
1001
ACAD
1000
ASC_BOUNDS
1002
{
1070
    19
1005
0
1005
0
1002
}
  0
LINE
  5
FDB
330
13D9
100
AcDbEntity
  8
1
100
AcDbLine
 10
7.117671517457918
 20
31.77499999555624
 30
0.0
 11
3.200000000000016
 21
31.77499999555624
 31
0.0
1001
ACAD
1000
ASC_BOUNDS
1002
{
1070
    19
1005
0
1002
}
  0
LINE
  5
FDC
330
13D9
100
AcDbEntity
  8
1
100
AcDbLine
 10
9.224999999999994
 20
28.12499999555626
 30
0.0
 11
7.117671517457918
 21
31.77499999555624
 31
0.0
1001
ACAD
1000
ASC_BOUNDS
1002
{
1070
    19
1005
0
1002
}
  0
LINE
  5
FDE
330
13D9
100
AcDbEntity
  8
1
100
AcDbLine
 10
1.599999999999994
 20
22.45833332875162
 30
0.0
 11
1.599999999999933
 21
22.09999999555629
 31
0.0
1001
ACAD
1000
ASC_BOUNDS
1002
{
1070
    19
1005
0
1002
}
  0
LINE
  5
FDF
330
13D9
100
AcDbEntity
  8
1
100
AcDbLine
 10
-45.21450642792497
 20
15.63121889204876
 30
0.0
 11
-50.16488151029742
 21
14.90928919296288
 31
0.0
1001
ACAD
1000
ASC_BOUNDS
1002
{
1070
    19
1005
0
1002
}
  0
LINE
  5
FE0
330
13D9
100
AcDbEntity
  8
1
100
AcDbLine
 10
-50.16488151029742
 20
14.90928811296288
 30
0.0
 11
-67.37316827158578
 21
12.39974629509194
 31
0.0
1001
ACAD
1000
ASC_BOUNDS
1002
{
1070
    19
1005
0
1002
}
  0
ARC
  5
FE1
330
13D9
100
AcDbEntity
  8
1
100
AcDbCircle
 10
-67.19999999999996
 20
11.21230671780139
 30
0.0
 40
1.199999999999999
100
AcDbArc
 50
98.29714496499949
 51
180.0
1001
ACAD
1000
ASC_BOUNDS
1002
{
1070
    19
1005
0
1002
}
  0
LINE
  5
FE2
330
13D9
100
AcDbEntity
  8
SK4
100
AcDbLine
 10
80.09831744752682
 20
-0.0000000000000847
 30
0.0
 11
-78.39999999999995
 21
0.0000000000000817
 31
0.0
  0
LINE
  5
FEB
330
13D9
100
AcDbEntity
  8
1
100
AcDbLine
 10
-68.39999999999993
 20
11.21230671780139
 30
0.0
 11
-68.39999999999993
 21
0.0000000000000817
 31
0.0
  0
LINE
  5
1023
330
13D9
100
AcDbEntity
  8
1
100
AcDbLine
 10
1.599999999999945
 20
-22.45833332875162
 30
0.0
 11
-45.21450642792502
 21
-15.63121781204866
 31
0.0
1001
ACAD
1000
ASC_BOUNDS
1002
{
1070
    19
1005
0
1005
0
1002
}
  0
LINE
  5
1024
330
13D9
100
AcDbEntity
  8
1
100
AcDbLine
 10
31.09999999999983
 20
-24.10000000000004
 30
0.0
 11
31.10000000000039
 21
-0.0000000000000346
 31
0.0
1001
ACAD
1000
ASC_BOUNDS
1002
{
1070
    19
1005
0
1002
}
  0
LINE
  5
1025
330
13D9
100
AcDbEntity
  8
1
100
AcDbLine
 10
19.09999999999993
 20
-31.77499999555629
 30
0.0
 11
15.08232848254206
 21
-31.77499999555627
 31
0.0
1001
ACAD
1000
ASC_BOUNDS
1002
{
1070
    19
1005
0
1002
}
  0
ARC
  5
1026
330
13D9
100
AcDbEntity
  8
1
100
AcDbCircle
 10
20.09999999999994
 20
-25.99999999852905
 30
0.0
 40
1.0
100
AcDbArc
 50
89.99999999999991
 51
179.9999999999999
1001
ACAD
1000
ASC_BOUNDS
1002
{
1070
    19
1005
0
1002
}
  0
LINE
  5
1028
330
13D9
100
AcDbEntity
  8
1
100
AcDbLine
 10
20.09999999999994
 20
-24.99999999852905
 30
0.0
 11
30.59999999999994
 21
-24.99999999852901
 31
0.0
1001
ACAD
1000
ASC_BOUNDS
1002
{
1070
    19
1005
0
1002
}
  0
LINE
  5
102A
330
13D9
100
AcDbEntity
  8
1
100
AcDbLine
 10
31.09999999999994
 20
-24.49999999852901
 30
0.0
 11
30.59999999999994
 21
-24.99999999852901
 31
0.0
1001
ACAD
1000
ASC_BOUNDS
1002
{
1070
    19
1005
0
1002
}
  0
LINE
  5
102B
330
13D9
100
AcDbEntity
  8
1
100
AcDbLine
 10
31.09999999999994
 20
-24.50004022852898
 30
0.0
 11
31.09999999999995
 21
-22.50000000487387
 31
0.0
1001
ACAD
1000
ASC_BOUNDS
1002
{
1070
    19
1005
0
1002
}
  0
LINE
  5
102C
330
13D9
100
AcDbEntity
  8
1
100
AcDbLine
 10
19.09999999999993
 20
-31.77499999555629
 30
0.0
 11
19.09999999999994
 21
-25.99999999852904
 31
0.0
1001
ACAD
1000
ASC_BOUNDS
1002
{
1070
    19
1005
0
1005
0
1002
}
  0
LINE
  5
102D
330
13D9
100
AcDbEntity
  8
1
100
AcDbLine
 10
3.199999999999911
 20
-22.09999999555629
 30
0.0
 11
1.599999999999945
 21
-22.09999999555629
 31
0.0
1001
ACAD
1000
ASC_BOUNDS
1002
{
1070
    19
1005
0
1002
}
  0
LINE
  5
102E
330
13D9
100
AcDbEntity
  8
1
100
AcDbLine
 10
12.97499999999993
 20
-28.12499999555629
 30
0.0
 11
9.224999999999935
 21
-28.12499999555628
 31
0.0
1001
ACAD
1000
ASC_BOUNDS
1002
{
1070
    19
1005
0
1002
}
  0
LINE
  5
102F
330
13D9
100
AcDbEntity
  8
1
100
AcDbLine
 10
12.97499999999993
 20
-28.12499999555629
 30
0.0
 11
15.08232848254206
 21
-31.77499999555627
 31
0.0
1001
ACAD
1000
ASC_BOUNDS
1002
{
1070
    19
1005
0
1002
}
  0
LINE
  5
1030
330
13D9
100
AcDbEntity
  8
1
100
AcDbLine
 10
3.199999999999891
 20
-31.77499999555625
 30
0.0
 11
3.199999999999911
 21
-22.09999999555629
 31
0.0
1001
ACAD
1000
ASC_BOUNDS
1002
{
1070
    19
1005
0
1005
0
1002
}
  0
LINE
  5
1031
330
13D9
100
AcDbEntity
  8
1
100
AcDbLine
 10
7.117671517457852
 20
-31.77499999555625
 30
0.0
 11
3.199999999999948
 21
-31.77499999555625
 31
0.0
1001
ACAD
1000
ASC_BOUNDS
1002
{
1070
    19
1005
0
1002
}
  0
LINE
  5
1032
330
13D9
100
AcDbEntity
  8
1
100
AcDbLine
 10
9.224999999999935
 20
-28.12499999555628
 30
0.0
 11
7.117671517457852
 21
-31.77499999555625
 31
0.0
1001
ACAD
1000
ASC_BOUNDS
1002
{
1070
    19
1005
0
1002
}
  0
LINE
  5
1033
330
13D9
100
AcDbEntity
  8
1
100
AcDbLine
 10
1.599999999999945
 20
-22.45833332875162
 30
0.0
 11
1.599999999999889
 21
-22.09999999555629
 31
0.0
1001
ACAD
1000
ASC_BOUNDS
1002
{
1070
    19
1005
0
1002
}
  0
LINE
  5
1034
330
13D9
100
AcDbEntity
  8
1
100
AcDbLine
 10
-45.21450642792502
 20
-15.63121889204867
 30
0.0
 11
-50.16488151029744
 21
-14.90928919296278
 31
0.0
1001
ACAD
1000
ASC_BOUNDS
1002
{
1070
    19
1005
0
1002
}
  0
LINE
  5
1035
330
13D9
100
AcDbEntity
  8
1
100
AcDbLine
 10
-50.16488151029744
 20
-14.90928811296277
 30
0.0
 11
-67.37316827158583
 21
-12.3997462950918
 31
0.0
1001
ACAD
1000
ASC_BOUNDS
1002
{
1070
    19
1005
0
1002
}
  0
ARC
  5
1036
330
13D9
100
AcDbEntity
  8
1
100
AcDbCircle
 10
-67.19999999999997
 20
-11.21230671780125
 30
0.0
 40
1.199999999999999
100
AcDbArc
 50
179.9999999999999
 51
261.7028550350004
1001
ACAD
1000
ASC_BOUNDS
1002
{
1070
    19
1005
0
1002
}
  0
LINE
  5
103F
330
13D9
100
AcDbEntity
  8
1
100
AcDbLine
 10
-68.39999999999998
 20
-11.21230671780125
 30
0.0
 11
-68.39999999999993
 21
0.0000000000000607
 31
0.0
  0
DIMENSION
  5
1040
330
13D9
100
AcDbEntity
  8
SK2
100
AcDbDimension
  2
*D13
 10
73.99999999999993
 20
79.88535323701075
 30
0.0
 11
36.99999999999998
 21
83.1353532370108
 31
0.0
 71
     5
 42
-1.0
  3
STANDARD
100
AcDbAlignedDimension
 13
0.0
 23
0.0
 33
0.0
 14
73.99999999999993
 24
17.99999999999994
 34
0.0
100
AcDbRotatedDimension
  0
DIMENSION
  5
10BC
330
13D9
100
AcDbEntity
  8
SK2
100
AcDbDimension
  2
*D21
 10
19.09999999999999
 20
70.03595640948343
 30
0.0
 11
46.54999999999996
 21
73.28595640948342
 31
0.0
 71
     5
 42
-1.0
  3
STANDARD
100
AcDbAlignedDimension
 13
73.99999999999993
 23
17.99999999999994
 33
0.0
 14
19.09999999999999
 24
31.77499999555624
 34
0.0
100
AcDbRotatedDimension
  0
LINE
  5
1147
330
13D9
100
AcDbEntity
  8
0
100
AcDbLine
 10
73.99999999999993
 20
-0.0000000000000853
 30
0.0
 11
73.99999999999993
 21
-0.0000000000000853
 31
0.0
  0
LINE
  5
1148
330
13D9
100
AcDbEntity
  8
0
100
AcDbLine
 10
73.99999999999993
 20
-0.09062795782026
 30
0.0
 11
73.99999999999993
 21
-0.09062795782026
 31
0.0
  0
LINE
  5
12BF
330
13D9
100
AcDbEntity
  8
1
100
AcDbLine
 10
54.26025403784378
 20
20.00000000000008
 30
0.0
 11
71.50000000000031
 21
19.99999999999997
 31
0.0
  0
LINE
  5
12C0
330
13D9
100
AcDbEntity
  8
1
100
AcDbLine
 10
45.60000000000004
 20
-24.99999999999993
 30
0.0
 11
32.00000000000004
 21
-24.9999999999998
 31
0.0
1001
ACAD
1000
ASC_BOUNDS
1002
{
1070
    19
1005
0
1005
0
1005
0
1002
}
  0
LINE
  5
12C1
330
13D9
100
AcDbEntity
  8
1
100
AcDbLine
 10
45.59999999999958
 20
24.99999999999997
 30
0.0
 11
32.00000000000027
 21
24.99999999999997
 31
0.0
1001
ACAD
1000
ASC_BOUNDS
1002
{
1070
    19
1005
0
1002
}
  0
LINE
  5
12C2
330
13D9
100
AcDbEntity
  8
1
100
AcDbLine
 10
74.0000000000003
 20
17.49999999999997
 30
0.0
 11
74.0000000000003
 21
-17.4999999999998
 31
0.0
1001
ACAD
1000
ASC_BOUNDS
1002
{
1070
    19
1005
0
1005
0
1005
0
1002
}
  0
LINE
  5
12C4
330
13D9
100
AcDbEntity
  8
1
100
AcDbLine
 10
31.10000000000017
 20
24.09999999999988
 30
0.0
 11
32.00000000000027
 21
25.00000000000009
 31
0.0
1001
ACAD
1000
ASC_BOUNDS
1002
{
1070
    19
1005
0
1002
}
  0
LINE
  5
12C6
330
13D9
100
AcDbEntity
  8
1
100
AcDbLine
 10
31.10000000000017
 20
-24.09999999999982
 30
0.0
 11
32.00000000000004
 21
-24.9999999999998
 31
0.0
1001
ACAD
1000
ASC_BOUNDS
1002
{
1070
    19
1005
0
1002
}
  0
ARC
  5
12C7
330
13D9
100
AcDbEntity
  8
1
100
AcDbCircle
 10
71.50000000000031
 20
17.49999999999997
 30
0.0
 40
2.5
100
AcDbArc
 50
0.0
 51
90.0
1001
ACAD
1000
ASC_BOUNDS
1002
{
1070
    19
1005
0
1005
0
1005
0
1002
}
  0
ARC
  5
12C8
330
13D9
100
AcDbEntity
  8
1
100
AcDbCircle
 10
71.50000000000031
 20
-17.4999999999998
 30
0.0
 40
2.5
100
AcDbArc
 50
270.0
 51
0.0
1001
ACAD
1000
ASC_BOUNDS
1002
{
1070
    19
1005
0
1005
0
1005
0
1002
}
  0
LINE
  5
12C9
330
13D9
100
AcDbEntity
  8
1
100
AcDbLine
 10
47.80000000000054
 20
23.00124932759715
 30
0.0
 11
49.06193771626377
 21
23.00124932759715
 31
0.0
  0
ARC
  5
12CA
330
13D9
100
AcDbEntity
  8
1
100
AcDbCircle
 10
47.80000000000054
 20
23.3012493275971
 30
0.0
 40
0.3
100
AcDbArc
 50
180.0
 51
270.0
  0
LINE
  5
12CB
330
13D9
100
AcDbEntity
  8
1
100
AcDbLine
 10
50.80000000000101
 20
21.24842190134396
 30
0.0
 11
52.09792387543453
 21
21.24842190134391
 31
0.0
  0
ARC
  5
12CC
330
13D9
100
AcDbEntity
  8
1
100
AcDbCircle
 10
50.80000000000101
 20
21.54842190134392
 30
0.0
 40
0.3
100
AcDbArc
 50
180.0
 51
270.0
  0
LINE
  5
12CD
330
13D9
100
AcDbEntity
  8
1
100
AcDbLine
 10
45.59999999999958
 20
24.99999999999997
 30
0.0
 11
47.50000000000059
 21
23.90303448853913
 31
0.0
  0
LINE
  5
12CE
330
13D9
100
AcDbEntity
  8
1
100
AcDbLine
 10
49.06193771626366
 20
23.00124932759721
 30
0.0
 11
50.50000000000037
 21
22.17098368097035
 31
0.0
  0
LINE
  5
12CF
330
13D9
100
AcDbEntity
  8
1
100
AcDbLine
 10
52.09792387543453
 20
21.24842190134391
 30
0.0
 11
54.26025403784378
 21
20.00000000000008
 31
0.0
  0
LINE
  5
12D0
330
13D9
100
AcDbEntity
  8
1
100
AcDbLine
 10
54.26025403784378
 20
-19.99999999999991
 30
0.0
 11
71.50000000000031
 21
-19.9999999999998
 31
0.0
  0
LINE
  5
12D1
330
13D9
100
AcDbEntity
  8
1
100
AcDbLine
 10
47.80000000000054
 20
-23.00124932759698
 30
0.0
 11
49.06193771626377
 21
-23.00124932759698
 31
0.0
  0
ARC
  5
12D2
330
13D9
100
AcDbEntity
  8
1
100
AcDbCircle
 10
47.80000000000054
 20
-23.30124932759693
 30
0.0
 40
0.3
100
AcDbArc
 50
90.0
 51
180.0
  0
LINE
  5
12D3
330
13D9
100
AcDbEntity
  8
1
100
AcDbLine
 10
50.80000000000101
 20
-21.24842190134379
 30
0.0
 11
52.09792387543453
 21
-21.24842190134373
 31
0.0
  0
ARC
  5
12D4
330
13D9
100
AcDbEntity
  8
1
100
AcDbCircle
 10
50.80000000000101
 20
-21.54842190134374
 30
0.0
 40
0.3
100
AcDbArc
 50
90.0
 51
180.0
  0
LINE
  5
12D5
330
13D9
100
AcDbEntity
  8
1
100
AcDbLine
 10
45.59999999999958
 20
-24.9999999999998
 30
0.0
 11
47.50000000000059
 21
-23.90303448853897
 31
0.0
  0
LINE
  5
12D6
330
13D9
100
AcDbEntity
  8
1
100
AcDbLine
 10
49.06193771626366
 20
-23.00124932759701
 30
0.0
 11
50.50000000000037
 21
-22.17098368097018
 31
0.0
  0
LINE
  5
12D7
330
13D9
100
AcDbEntity
  8
1
100
AcDbLine
 10
52.09792387543453
 20
-21.24842190134373
 30
0.0
 11
54.26025403784378
 21
-19.99999999999991
 31
0.0
  0
LINE
  5
12D9
330
13D9
100
AcDbEntity
  8
1
100
AcDbLine
 10
47.50000000000059
 20
23.90303448853913
 30
0.0
 11
47.50000000000055
 21
23.3012493275971
 31
0.0
  0
LINE
  5
12DA
330
13D9
100
AcDbEntity
  8
1
100
AcDbLine
 10
50.50000000000037
 20
22.17098368097035
 30
0.0
 11
50.500000000001
 21
21.54842190134392
 31
0.0
  0
LINE
  5
12DB
330
13D9
100
AcDbEntity
  8
1
100
AcDbLine
 10
50.50000000000037
 20
-22.17098368097018
 30
0.0
 11
50.500000000001
 21
-21.54842190134374
 31
0.0
  0
LINE
  5
12DC
330
13D9
100
AcDbEntity
  8
1
100
AcDbLine
 10
47.50000000000059
 20
-23.90303448853897
 30
0.0
 11
47.50000000000055
 21
-23.30124932759693
 31
0.0
  0
DIMENSION
  5
12DD
330
13D9
100
AcDbEntity
  8
SK2
100
AcDbDimension
  2
*D37
 10
54.26025403784378
 20
49.94267661850538
 30
0.0
 11
64.13012701892204
 21
53.19267661850538
 31
0.0
 71
     5
 42
-1.0
  3
STANDARD
100
AcDbAlignedDimension
 13
74.0000000000003
 23
17.49999999999997
 33
0.0
 14
54.26025403784378
 24
20.00000000000008
 34
0.0
100
AcDbRotatedDimension
1001
ACAD
1000
DSTYLE
1002
{
1070
   271
1070
     0
1002
}
  0
DIMENSION
  5
12DE
330
13D9
100
AcDbEntity
  8
SK2
100
AcDbDimension
  2
*D39
 10
45.59999999999958
 20
59.98696980197326
 30
0.0
 11
59.79999999999993
 21
63.23696980197325
 31
0.0
  1
28.5
 71
     5
 42
-1.0
  3
STANDARD
100
AcDbAlignedDimension
 13
74.0000000000003
 23
17.49999999999997
 33
0.0
 14
45.59999999999958
 24
24.99999999999997
 34
0.0
100
AcDbRotatedDimension
  0
DIMENSION
  5
12DF
330
13D9
100
AcDbEntity
  8
SK2
100
AcDbDimension
  2
*D41
 10
92.48157483874924
 20
19.99999999999996
 30
0.0
 11
89.23157483874925
 21
0.0000000000000942
 31
0.0
  1
%%c<>
 71
     5
 42
-1.0
  3
STANDARD
100
AcDbAlignedDimension
 13
71.50000000000031
 23
-19.9999999999998
 33
0.0
 14
71.50000000000031
 24
19.99999999999997
 34
0.0
 50
90.0
100
AcDbRotatedDimension
  0
DIMENSION
  5
12E0
330
13D9
100
AcDbEntity
  8
SK2
100
AcDbDimension
  2
*D43
 10
104.4367810686377
 20
-24.99999999999993
 30
0.0
 11
101.1867810686377
 21
0.0000000000000295
 31
0.0
  1
%%c<>
 71
     5
 42
-1.0
  3
STANDARD
100
AcDbAlignedDimension
 13
45.59999999999958
 23
24.99999999999997
 33
0.0
 14
45.59999999999941
 24
-24.99999999999993
 34
0.0
 50
90.0
100
AcDbRotatedDimension
  0
ENDSEC
  0
SECTION
  2
OBJECTS
  0
DICTIONARY
  5
13C3
330
0
100
AcDbDictionary
281
     1
  3
ACAD_COLOR
350
13D2
  3
ACAD_GROUP
350
13C4
  3
ACAD_LAYOUT
350
13D0
  3
ACAD_MATERIAL
350
13D1
  3
ACAD_MLINESTYLE
350
13CD
  3
ACAD_PLOTSETTINGS
350
13CF
  3
ACAD_PLOTSTYLENAME
350
13C5
  3
ACAD_TABLESTYLE
350
13D3
  3
ACDBHEADERROUNDTRIPXREC
350
145D
  3
AcDbVariableDictionary
350
1458
  0
DICTIONARY
  5
13D2
102
{ACAD_REACTORS
330
13C3
102
}
330
13C3
100
AcDbDictionary
281
     1
  0
DICTIONARY
  5
13C4
102
{ACAD_REACTORS
330
13C3
102
}
330
13C3
100
AcDbDictionary
281
     1
  0
DICTIONARY
  5
13D0
102
{ACAD_REACTORS
330
13C3
102
}
330
13C3
100
AcDbDictionary
281
     1
  3
Layout1
350
13D8
  3
Model
350
13DC
  0
DICTIONARY
  5
13D1
102
{ACAD_REACTORS
330
13C3
102
}
330
13C3
100
AcDbDictionary
281
     1
  0
DICTIONARY
  5
13CD
102
{ACAD_REACTORS
330
13C3
102
}
330
13C3
100
AcDbDictionary
281
     1
  3
Standard
350
13CE
  0
DICTIONARY
  5
13CF
102
{ACAD_REACTORS
330
13C3
102
}
330
13C3
100
AcDbDictionary
281
     1
  0
ACDBDICTIONARYWDFLT
  5
13C5
102
{ACAD_REACTORS
330
13C3
102
}
330
13C3
100
AcDbDictionary
281
     1
  3
Normal
350
13C6
100
AcDbDictionaryWithDefault
340
13C6
  0
DICTIONARY
  5
13D3
102
{ACAD_REACTORS
330
13C3
102
}
330
13C3
100
AcDbDictionary
281
     1
  3
Standard
350
13D4
  0
DICTIONARY
  5
145D
102
{ACAD_REACTORS
330
13C3
102
}
330
13C3
100
AcDbDictionary
281
     1
  0
DICTIONARY
  5
1458
102
{ACAD_REACTORS
330
13C3
102
}
330
13C3
100
AcDbDictionary
281
     1
  3
CTABLESTYLE
350
1459
  3
DIMASSOC
350
145A
  3
PROJECTNAME
350
145B
  0
LAYOUT
  5
13D8
102
{ACAD_XDICTIONARY
360
145E
102
}
102
{ACAD_REACTORS
330
13D0
102
}
330
13D0
100
AcDbPlotSettings
  1

  2
\\SERVER\HP LaserJet 6L
  4

  6

 40
0.0
 41
0.0
 42
0.0
 43
0.0
 44
0.0
 45
0.0
 46
0.0
 47
0.0
 48
0.0
 49
0.0
140
0.0
141
0.0
142
1.0
143
1.0
 70
   688
 72
     0
 73
     0
 74
     5
  7

 75
    16
147
1.0
148
0.0
149
0.0
100
AcDbLayout
  1
Layout1
 70
     1
 71
     1
 10
0.0
 20
0.0
 11
12.0
 21
9.0
 12
0.0
 22
0.0
 32
0.0
 14
1.000000000000000E+20
 24
1.000000000000000E+20
 34
1.000000000000000E+20
 15
-1.000000000000000E+20
 25
-1.000000000000000E+20
 35
-1.000000000000000E+20
146
0.0
 13
0.0
 23
0.0
 33
0.0
 16
1.0
 26
0.0
 36
0.0
 17
0.0
 27
1.0
 37
0.0
 76
     0
330
13D5
  0
LAYOUT
  5
13DC
102
{ACAD_XDICTIONARY
360
1460
102
}
102
{ACAD_REACTORS
330
13D0
102
}
330
13D0
100
AcDbPlotSettings
  1

  2
\\SERVER\HP LaserJet 6L
  4

  6

 40
0.0
 41
0.0
 42
0.0
 43
0.0
 44
0.0
 45
0.0
 46
0.0
 47
0.0
 48
0.0
 49
0.0
140
0.0
141
0.0
142
1.0
143
1.0
 70
  1712
 72
     0
 73
     0
 74
     0
  7

 75
     0
147
1.0
148
0.0
149
0.0
100
AcDbLayout
  1
Model
 70
     1
 71
     0
 10
0.0
 20
0.0
 11
12.0
 21
9.0
 12
0.0
 22
0.0
 32
0.0
 14
0.0
 24
0.0
 34
0.0
 15
0.0
 25
0.0
 35
0.0
146
0.0
 13
0.0
 23
0.0
 33
0.0
 16
1.0
 26
0.0
 36
0.0
 17
0.0
 27
1.0
 37
0.0
 76
     0
330
13D9
  0
MLINESTYLE
  5
13CE
102
{ACAD_REACTORS
330
13CD
102
}
330
13CD
100
AcDbMlineStyle
  2
STANDARD
 70
     0
  3

 62
   256
 51
90.0
 52
90.0
 71
     2
 49
0.5
 62
   256
  6
BYLAYER
 49
-0.5
 62
   256
  6
BYLAYER
  0
ACDBPLACEHOLDER
  5
13C6
102
{ACAD_REACTORS
330
13C5
102
}
330
13C5
  0
TABLESTYLE
  5
13D4
102
{ACAD_REACTORS
330
13D3
102
}
330
13D3
100
AcDbTableStyle
  3
Standard
 70
     0
 71
     0
 40
0.06
 41
0.06
280
     0
281
     0
  7
STANDARD
140
0.18
170
     2
 62
     0
 63
     7
283
     0
274
    -2
284
     1
 64
     0
275
    -2
285
     1
 65
     0
276
    -2
286
     1
 66
     0
277
    -2
287
     1
 67
     0
278
    -2
288
     1
 68
     0
279
    -2
289
     1
 69
     0
  7
STANDARD
140
0.25
170
     5
 62
     0
 63
     7
283
     0
274
    -2
284
     1
 64
     0
275
    -2
285
     1
 65
     0
276
    -2
286
     1
 66
     0
277
    -2
287
     1
 67
     0
278
    -2
288
     1
 68
     0
279
    -2
289
     1
 69
     0
  7
STANDARD
140
0.18
170
     5
 62
     0
 63
     7
283
     0
274
    -2
284
     1
 64
     0
275
    -2
285
     1
 65
     0
276
    -2
286
     1
 66
     0
277
    -2
287
     1
 67
     0
278
    -2
288
     1
 68
     0
279
    -2
289
     1
 69
     0
  0
DICTIONARYVAR
  5
1459
102
{ACAD_REACTORS
330
1458
102
}
330
1458
100
DictionaryVariables
280
     0
  1
STANDARD
  0
DICTIONARYVAR
  5
145A
102
{ACAD_REACTORS
330
1458
102
}
330
1458
100
DictionaryVariables
280
     0
  1
1
  0
DICTIONARYVAR
  5
145B
102
{ACAD_REACTORS
330
1458
102
}
330
1458
100
DictionaryVariables
280
     0
  1

  0
DICTIONARY
  5
145E
330
13D8
100
AcDbDictionary
280
     1
281
     1
  3
ACAD_XREC_ROUNDTRIP
360
145F
  0
DICTIONARY
  5
1460
330
13DC
100
AcDbDictionary
280
     1
281
     1
  3
ACAD_XREC_ROUNDTRIP
360
1461
  0
XRECORD
  5
145F
102
{ACAD_REACTORS
330
145E
102
}
330
145E
100
AcDbXrecord
280
     1
102
SHADEPLOT
 70
     0
102
SHADEPLOTRESLEVEL
 70
     2
102
SHADEPLOTCUSTOMDPI
 70
   300
  0
XRECORD
  5
1461
102
{ACAD_REACTORS
330
1460
102
}
330
1460
100
AcDbXrecord
280
     1
102
SHADEPLOT
 70
     0
102
SHADEPLOTRESLEVEL
 70
     2
102
SHADEPLOTCUSTOMDPI
 70
   300
  0
ENDSEC
  0
EOF
