  0
SECTION
  2
HEADER
  9
$ACADVER
  1
AC1014
  9
$ACADMAINTVER
 70
           0
  9
$DWGCODEPAGE
  3
ANSI_1252
  9
$INSBASE
 10
0.0
 20
0.0
 30
0.0
  9
$EXTMIN
 10
-84.062805296307
 20
-10.536790123457
 30
0.0
  9
$EXTMAX
 10
67.798091706898
 20
62.641728395062
 30
0.0
  9
$LIMMIN
 10
0.0
 20
0.0
  9
$LIMMAX
 10
0.0
 20
0.0
  9
$ORTHOMODE
 70
           0
  9
$REGENMODE
 70
           1
  9
$FILLMODE
 70
           1
  9
$QTEXTMODE
 70
           0
  9
$MIRRTEXT
 70
           1
  9
$DRAGMODE
 70
           2
  9
$LTSCALE
 40
1.0
  9
$OSMODE
 70
           0
  9
$ATTMODE
 70
           1
  9
$TEXTSIZE
 40
0.2
  9
$TRACEWID
 40
0.05
  9
$TEXTSTYLE
  7
STANDARD
  9
$CLAYER
  8
0
  9
$CELTYPE
  6
CONTINUOUS
  9
$CECOLOR
 62
         256
  9
$CELTSCALE
 40
1.0
  9
$DELOBJ
 70
           1
  9
$DISPSILH
 70
           0
  9
$DIMSCALE
 40
1.0
  9
$DIMASZ
 40
0.18
  9
$DIMEXO
 40
0.0625
  9
$DIMDLI
 40
0.38
  9
$DIMRND
 40
0.0
  9
$DIMDLE
 40
0.0
  9
$DIMEXE
 40
0.18
  9
$DIMTP
 40
0.0
  9
$DIMTM
 40
0.0
  9
$DIMTXT
 40
0.18
  9
$DIMCEN
 40
0.09
  9
$DIMTSZ
 40
0.0
  9
$DIMTOL
 70
           0
  9
$DIMLIM
 70
           0
  9
$DIMTIH
 70
           1
  9
$DIMTOH
 70
           1
  9
$DIMSE1
 70
           0
  9
$DIMSE2
 70
           0
  9
$DIMTAD
 70
           0
  9
$DIMZIN
 70
           0
  9
$DIMBLK
  1

  9
$DIMASO
 70
           1
  9
$DIMSHO
 70
           1
  9
$DIMPOST
  1

  9
$DIMAPOST
  1

  9
$DIMALT
 70
           0
  9
$DIMALTD
 70
           2
  9
$DIMALTF
 40
25.4
  9
$DIMLFAC
 40
1.0
  9
$DIMTOFL
 70
           0
  9
$DIMTVP
 40
0.0
  9
$DIMTIX
 70
           0
  9
$DIMSOXD
 70
           0
  9
$DIMSAH
 70
           0
  9
$DIMBLK1
  1

  9
$DIMBLK2
  1

  9
$DIMSTYLE
  2
STANDARD
  9
$DIMCLRD
 70
           0
  9
$DIMCLRE
 70
           0
  9
$DIMCLRT
 70
           0
  9
$DIMTFAC
 40
1.0
  9
$DIMGAP
 40
0.09
  9
$DIMJUST
 70
           0
  9
$DIMSD1
 70
           0
  9
$DIMSD2
 70
           0
  9
$DIMTOLJ
 70
           1
  9
$DIMTZIN
 70
           0
  9
$DIMALTZ
 70
           0
  9
$DIMALTTZ
 70
           0
  9
$DIMFIT
 70
           3
  9
$DIMUPT
 70
           0
  9
$DIMUNIT
 70
           2
  9
$DIMDEC
 70
           4
  9
$DIMTDEC
 70
           4
  9
$DIMALTU
 70
           2
  9
$DIMALTTD
 70
           2
  9
$DIMTXSTY
  7
STANDARD
  9
$DIMAUNIT
 70
           0
  9
$LUNITS
 70
           2
  9
$LUPREC
 70
           4
  9
$SKETCHINC
 40
0.1
  9
$FILLETRAD
 40
0.0
  9
$AUNITS
 70
           0
  9
$AUPREC
 70
           0
  9
$MENU
  1
acad
  9
$ELEVATION
 40
0.0
  9
$PELEVATION
 40
0.0
  9
$THICKNESS
 40
0.0
  9
$LIMCHECK
 70
           0
  9
$BLIPMODE
 70
           1
  9
$CHAMFERA
 40
0.0
  9
$CHAMFERB
 40
0.0
  9
$CHAMFERC
 40
0.0
  9
$CHAMFERD
 40
0.0
  9
$SKPOLY
 70
           0
  9
$TDCREATE
 40
0.000000000
  9
$TDUPDATE
 40
0.000000000
  9
$TDINDWG
 40
0.0000000000
  9
$TDUSRTIMER
 40
0.0000000000
  9
$USRTIMER
 70
           1
  9
$ANGBASE
 50
0.0
  9
$ANGDIR
 70
           0
  9
$PDMODE
 70
           0
  9
$PDSIZE
 40
0.0
  9
$PLINEWID
 40
0.0
  9
$COORDS
 70
           0
  9
$SPLFRAME
 70
           0
  9
$SPLINETYPE
 70
           6
  9
$SPLINESEGS
 70
           8
  9
$ATTDIA
 70
           0
  9
$ATTREQ
 70
           1
  9
$HANDLING
 70
           1
  9
$HANDSEED
  5
E7
  9
$SURFTAB1
 70
           6
  9
$SURFTAB2
 70
           6
  9
$SURFTYPE
 70
           6
  9
$SURFU
 70
           6
  9
$SURFV
 70
           6
  9
$UCSNAME
  2

  9
$UCSORG
 10
0.0
 20
0.0
 30
0.0
  9
$UCSXDIR
 10
1.0
 20
0.0
 30
0.0
  9
$UCSYDIR
 10
0.0
 20
1.0
 30
0.0
  9
$PUCSNAME
  2

  9
$PUCSORG
 10
0.0
 20
0.0
 30
0.0
  9
$PUCSXDIR
 10
1.0
 20
0.0
 30
0.0
  9
$PUCSYDIR
 10
0.0
 20
1.0
 30
0.0
  9
$USERI1
 70
           0
  9
$USERI2
 70
           0
  9
$USERI3
 70
           0
  9
$USERI4
 70
           0
  9
$USERI5
 70
           0
  9
$USERR1
 40
0.0
  9
$USERR2
 40
0.0
  9
$USERR3
 40
0.0
  9
$USERR4
 40
0.0
  9
$USERR5
 40
0.0
  9
$WORLDVIEW
 70
           1
  9
$SHADEDGE
 70
           3
  9
$SHADEDIF
 70
          70
  9
$TILEMODE
 70
           1
  9
$MAXACTVP
 70
          16
  9
$PINSBASE
 10
0.0
 20
0.0
 30
0.0
  9
$PLIMCHECK
 70
           0
  9
$PEXTMIN
 10
-84.062805296307
 20
-10.536790123457
 30
0.0
  9
$PEXTMAX
 10
67.798091706898
 20
62.641728395062
 30
0.0
  9
$PLIMMIN
 10
0.0
 20
0.0
  9
$PLIMMAX
 10
12.0
 20
9.0
  9
$UNITMODE
 70
           0
  9
$VISRETAIN
 70
           0
  9
$PLINEGEN
 70
           1
  9
$PSLTSCALE
 70
           0
  9
$TREEDEPTH
 70
        3020
  9
$PICKSTYLE
 70
           1
  9
$CMLSTYLE
  2
STANDARD
  9
$CMLJUST
 70
           0
  9
$CMLSCALE
 40
1.0
  9
$PROXYGRAPHICS
 70
           0
  9
$MEASUREMENT
 70
           1
  0
ENDSEC
  0
SECTION
  2
CLASSES
  0
CLASS
  1
LWPOLYLINE
  2
AcDbPolyline
  3
"AutoCAD"
 90
        0
280
           0
281
           1
  0
CLASS
  1
IMAGE
  2
AcDbRasterImage
  3
ISM
 90
      127
280
           0
281
           1
  0
CLASS
  1
OLE2FRAME
  2
AcDbOle2Frame
  3
""
 90
        0
280
           0
281
           1
  0
CLASS
  1
HATCH
  2
AcDbHatch
  3
"ACAD_SEDONA"
 90
        0
280
           0
281
           1
  0
CLASS
  1
DICTIONARYVAR
  2
AcDbDictionaryVar
  3
"AutoCAD"
 90
        0
280
           0
281
           0
  0
CLASS
  1
RASTERVARIABLES
  2
AcDbRasterVariables
  3
ISM
 90
        0
280
           0
281
           0
  0
CLASS
  1
IMAGEDEF
  2
AcDbRasterImageDef
  3
ISM
 90
        0
280
           0
281
           0
  0
CLASS
  1
IMAGEDEF_REACTOR
  2
AcDbRasterImageDefReactor
  3
ISM
 90
        1
280
           0
281
           0
  0
CLASS
  1
IDBUFFER
  2
AcDbIdBuffer
  3
"Acad"
 90
        0
280
           0
281
           0
  0
CLASS
  1
SPATIAL_FILTER
  2
AcDbSpatialFilter
  3
"Acad"
 90
        0
280
           0
281
           0
  0
CLASS
  1
XRECORD
  2
AcDbXrecord
  3
"<Built In>"
 90
        0
280
           0
281
           0
  0
CLASS
  1
SORTENTSTABLE
  2
AcDbSortentsTable
  3
"AutoCAD"
 90
        0
280
           0
281
           0
  0
CLASS
  1
LAYER_INDEX
  2
AcDbLayerIndex
  3
"Acad"
 90
        0
280
           0
281
           0
  0
CLASS
  1
SPATIAL_INDEX
  2
AcDbSpatialIndex
  3
"Acad"
 90
        0
280
           0
281
           0
  0
CLASS
  1
OBJECT_PTR
  2
CAseDLPNTableRecord
  3
"ASE-LPNTableRecord"
 90
        1
280
           0
281
           0
  0
CLASS
  1
LAYOUT
  2
AcDbLayout
  3
"AutoCAD 2000"
 90
        1
280
           0
281
           0
  0
CLASS
  1
PLOTSETTINGS
  2
AcDbPlotSettings
  3
"AutoCAD 2000"
 90
        1
280
           0
281
           0
  0
CLASS
  1
ACDBDICTIONARYWDFLT
  2
AcDbDictionaryWithDefault
  3
"AutoCAD 2000"
 90
        1
280
           0
281
           0
  0
CLASS
  1
ACDBPLACEHOLDER
  2
AcDbPlaceHolder
  3
"AutoCAD 2000"
 90
        1
280
           0
281
           0
  0
ENDSEC
  0
SECTION
  2
TABLES
  0
TABLE
  2
VPORT
  5
7
100
AcDbSymbolTable
 70
           1
  0
VPORT
  5
15
100
AcDbSymbolTableRecord
100
AcDbViewportTableRecord
  2
*ACTIVE
 70
           0
 10
0.0
 20
0.0
 11
1.0
 21
1.0
 12
-8.132356794704
 22
26.052469135802
 13
0.0
 23
0.0
 14
1.0
 24
1.0
 15
0.0
 25
0.0
 16
0.0
 26
0.0
 36
1.0
 17
0.0
 27
0.0
 37
0.0
 40
73.178518518519
 41
2.075211415557
 42
50.0
 43
0.0
 44
0.0
 50
0.0
 51
0.0
 71
           0
 72
         100
 73
           1
 74
           1
 75
           0
 76
           0
 77
           0
 78
           0
  0
ENDTAB
  0
TABLE
  2
LTYPE
  5
4
100
AcDbSymbolTable
 70
           4
  0
LTYPE
  5
11
100
AcDbSymbolTableRecord
100
AcDbLinetypeTableRecord
  2
BYBLOCK
 70
          64
  3

 72
          65
 73
           0
 40
0.0
  0
LTYPE
  5
12
100
AcDbSymbolTableRecord
100
AcDbLinetypeTableRecord
  2
BYLAYER
 70
          64
  3

 72
          65
 73
           0
 40
0.0
  0
LTYPE
  5
13
100
AcDbSymbolTableRecord
100
AcDbLinetypeTableRecord
  2
CONTINUOUS
 70
          64
  3
Solid line
 72
          65
 73
           0
 40
0.0
  0
LTYPE
  5
1D
100
AcDbSymbolTableRecord
100
AcDbLinetypeTableRecord
  2
AUSGEZOGEN
 70
           0
  3

 72
          65
 73
           0
 40
0.0
  0
ENDTAB
  0
TABLE
  2
LAYER
  5
2
100
AcDbSymbolTable
 70
           3
  0
LAYER
  5
14
100
AcDbSymbolTableRecord
100
AcDbLayerTableRecord
  2
0
 70
           0
 62
           7
  6
CONTINUOUS
  0
LAYER
  5
1F
100
AcDbSymbolTableRecord
100
AcDbLayerTableRecord
  2
4_1_DEFAULT_LAYER
 70
           0
 62
           7
  6
CONTINUOUS
  0
LAYER
  5
20
100
AcDbSymbolTableRecord
100
AcDbLayerTableRecord
  2
8_1_DEFAULT_LAYER
 70
           0
 62
           7
  6
CONTINUOUS
  0
ENDTAB
  0
TABLE
  2
STYLE
  5
3
100
AcDbSymbolTable
 70
           3
  0
STYLE
  5
17
100
AcDbSymbolTableRecord
100
AcDbTextStyleTableRecord
  2
STANDARD
 70
           0
 40
0.0
 41
1.0
 50
0.0
 71
           0
 42
0.0
  3
txt
  4

  0
STYLE
  5
1E
100
AcDbSymbolTableRecord
100
AcDbTextStyleTableRecord
  2
ISOCP
 70
           0
 40
0.0
 41
1.0
 50
0.0
 71
           0
 42
0.0
  3
ISOCP
  4

  0
STYLE
  5
4E
100
AcDbSymbolTableRecord
100
AcDbTextStyleTableRecord
  2
ARIAL
 70
           0
 40
0.0
 41
1.0
 50
0.0
 71
           0
 42
0.0
  3
Arial
  4

  0
ENDTAB
  0
TABLE
  2
VIEW
  5
5
100
AcDbSymbolTable
 70
           0
  0
ENDTAB
  0
TABLE
  2
UCS
  5
6
100
AcDbSymbolTable
 70
           0
  0
ENDTAB
  0
TABLE
  2
APPID
  5
8
100
AcDbSymbolTable
 70
           1
  0
APPID
  5
16
100
AcDbSymbolTableRecord
100
AcDbRegAppTableRecord
  2
ACAD
 70
           0
  0
ENDTAB
  0
TABLE
  2
DIMSTYLE
  5
9
100
AcDbSymbolTable
 70
           2
  0
DIMSTYLE
105
18
100
AcDbSymbolTableRecord
100
AcDbDimStyleTableRecord
  2
STANDARD
 70
           0
  3

  4

  5

  6

  7

 40
1.0
 41
0.18
 42
0.0625
 43
0.38
 44
0.18
 45
0.0
 46
0.0
 47
0.0
 48
0.0
 71
           0
 72
           0
 73
           1
 74
           1
 75
           0
 76
           0
 77
           0
 78
           0
140
0.18
141
0.09
142
0.0
143
25.4
144
1.0
145
0.0
146
1.0
147
0.09
170
           0
171
           2
172
           0
173
           0
174
           0
175
           0
176
           0
177
           0
178
           0
270
           2
271
           4
272
           4
273
           2
274
           2
275
           0
280
           0
281
           0
282
           0
283
           1
284
           0
285
           0
286
           0
287
           0
288
           0
340
17
  0
DIMSTYLE
105
4F
100
AcDbSymbolTableRecord
100
AcDbDimStyleTableRecord
  2
MEGADIMSTL
 70
           0
  3

  4

  5

  6

  7

 40
1.0
 41
0.18
 42
0.0625
 43
0.38
 44
0.18
 45
0.0
 46
0.0
 47
0.0
 48
0.0
 71
           0
 72
           0
 73
           1
 74
           1
 75
           0
 76
           0
 77
           0
 78
           0
140
0.18
141
0.09
142
0.0
143
25.4
144
1.0
145
0.0
146
1.0
147
0.09
170
           0
171
           2
172
           0
173
           0
174
           0
175
           0
176
           0
177
           0
178
           0
270
           2
271
           4
272
           4
273
           2
274
           2
275
           0
280
           0
281
           0
282
           0
283
           1
284
           0
285
           0
286
           0
287
           0
288
           0
340
4E
  0
ENDTAB
  0
TABLE
  2
BLOCK_RECORD
  5
1
100
AcDbSymbolTable
 70
          12
  0
BLOCK_RECORD
  5
A
100
AcDbSymbolTableRecord
100
AcDbBlockTableRecord
  2
*MODEL_SPACE
  0
BLOCK_RECORD
  5
B
100
AcDbSymbolTableRecord
100
AcDbBlockTableRecord
  2
*PAPER_SPACE
  0
BLOCK_RECORD
  5
21
100
AcDbSymbolTableRecord
100
AcDbBlockTableRecord
  2
_OBLIQUE
  0
BLOCK_RECORD
  5
25
100
AcDbSymbolTableRecord
100
AcDbBlockTableRecord
  2
_CLOSED
  0
BLOCK_RECORD
  5
2C
100
AcDbSymbolTableRecord
100
AcDbBlockTableRecord
  2
_DOT
  0
BLOCK_RECORD
  5
34
100
AcDbSymbolTableRecord
100
AcDbBlockTableRecord
  2
_NONE
  0
BLOCK_RECORD
  5
37
100
AcDbSymbolTableRecord
100
AcDbBlockTableRecord
  2
_OPEN
  0
BLOCK_RECORD
  5
3D
100
AcDbSymbolTableRecord
100
AcDbBlockTableRecord
  2
_ORIGIN
  0
BLOCK_RECORD
  5
42
100
AcDbSymbolTableRecord
100
AcDbBlockTableRecord
  2
_OPEN90
  0
BLOCK_RECORD
  5
48
100
AcDbSymbolTableRecord
100
AcDbBlockTableRecord
  2
_CLOSEDBLANK
  0
BLOCK_RECORD
  5
9E
100
AcDbSymbolTableRecord
100
AcDbBlockTableRecord
  2
*D8
  0
BLOCK_RECORD
  5
B0
100
AcDbSymbolTableRecord
100
AcDbBlockTableRecord
  2
*D9
  0
BLOCK_RECORD
  5
C2
100
AcDbSymbolTableRecord
100
AcDbBlockTableRecord
  2
*D10
  0
BLOCK_RECORD
  5
D4
100
AcDbSymbolTableRecord
100
AcDbBlockTableRecord
  2
*D11
  0
ENDTAB
  0
ENDSEC
  0
SECTION
  2
BLOCKS
  0
BLOCK
  5
D
100
AcDbEntity
  8
0
100
AcDbBlockBegin
  2
*MODEL_SPACE
 70
           0
 10
0.0
 20
0.0
 30
0.0
  3
*MODEL_SPACE
  1

  0
ENDBLK
  5
E
100
AcDbEntity
  8
0
100
AcDbBlockEnd
  0
BLOCK
  5
F
100
AcDbEntity
 67
           1
  8
0
100
AcDbBlockBegin
  2
*PAPER_SPACE
 70
           0
 10
0.0
 20
0.0
 30
0.0
  3
*PAPER_SPACE
  1

  0
ENDBLK
  5
10
100
AcDbEntity
 67
           1
  8
0
100
AcDbBlockEnd
  0
BLOCK
  5
22
100
AcDbEntity
  8
0
100
AcDbBlockBegin
  2
_OBLIQUE
 70
           0
 10
0.0
 20
0.0
 30
0.0
  3
_OBLIQUE
  1

  0
LINE
  5
23
100
AcDbEntity
  8
0
  6
BYBLOCK
 62
           0
100
AcDbLine
 10
-0.5
 20
-0.5
 30
0.0
 11
0.5
 21
0.5
 31
0.0
  0
ENDBLK
  5
24
100
AcDbEntity
  8
0
100
AcDbBlockEnd
  0
BLOCK
  5
26
100
AcDbEntity
  8
0
100
AcDbBlockBegin
  2
_CLOSED
 70
           0
 10
0.0
 20
0.0
 30
0.0
  3
_CLOSED
  1

  0
LINE
  5
27
100
AcDbEntity
  8
0
  6
BYBLOCK
 62
           0
100
AcDbLine
 10
-1.0
 20
0.166667
 30
0.0
 11
0.0
 21
0.0
 31
0.0
  0
LINE
  5
28
100
AcDbEntity
  8
0
  6
BYBLOCK
 62
           0
100
AcDbLine
 10
0.0
 20
0.0
 30
0.0
 11
-1.0
 21
-0.166667
 31
0.0
  0
LINE
  5
29
100
AcDbEntity
  8
0
  6
BYBLOCK
 62
           0
100
AcDbLine
 10
-1.0
 20
0.166667
 30
0.0
 11
-1.0
 21
-0.166667
 31
0.0
  0
LINE
  5
2A
100
AcDbEntity
  8
0
  6
BYBLOCK
 62
           0
100
AcDbLine
 10
0.0
 20
0.0
 30
0.0
 11
-1.0
 21
0.0
 31
0.0
  0
ENDBLK
  5
2B
100
AcDbEntity
  8
0
100
AcDbBlockEnd
  0
BLOCK
  5
2D
100
AcDbEntity
  8
0
100
AcDbBlockBegin
  2
_DOT
 70
           0
 10
0.0
 20
0.0
 30
0.0
  3
_DOT
  1

  0
POLYLINE
  5
2E
100
AcDbEntity
  8
0
  6
BYBLOCK
 62
           0
100
AcDb2dPolyline
 66
           1
 10
0.0
 20
0.0
 30
0.0
 70
           1
 40
0.5
 41
0.5
  0
VERTEX
  5
2F
100
AcDbEntity
  8
0
  6
BYBLOCK
 62
           0
100
AcDbVertex
100
AcDb2dVertex
 10
-0.25
 20
0.0
 30
0.0
 42
1.0
  0
VERTEX
  5
30
100
AcDbEntity
  8
0
  6
BYBLOCK
 62
           0
100
AcDbVertex
100
AcDb2dVertex
 10
0.25
 20
0.0
 30
0.0
 42
1.0
  0
SEQEND
  5
31
100
AcDbEntity
  8
0
  0
LINE
  5
32
100
AcDbEntity
  8
0
  6
BYBLOCK
 62
           0
100
AcDbLine
 10
-0.5
 20
0.0
 30
0.0
 11
-1.0
 21
0.0
 31
0.0
  0
ENDBLK
  5
33
100
AcDbEntity
  8
0
100
AcDbBlockEnd
  0
BLOCK
  5
35
100
AcDbEntity
  8
0
100
AcDbBlockBegin
  2
_NONE
 70
           0
 10
0.0
 20
0.0
 30
0.0
  3
_NONE
  1

  0
ENDBLK
  5
36
100
AcDbEntity
  8
0
100
AcDbBlockEnd
  0
BLOCK
  5
38
100
AcDbEntity
  8
0
100
AcDbBlockBegin
  2
_OPEN
 70
           0
 10
0.0
 20
0.0
 30
0.0
  3
_OPEN
  1

  0
LINE
  5
39
100
AcDbEntity
  8
0
  6
BYBLOCK
 62
           0
100
AcDbLine
 10
-1.0
 20
0.166667
 30
0.0
 11
0.0
 21
0.0
 31
0.0
  0
LINE
  5
3A
100
AcDbEntity
  8
0
  6
BYBLOCK
 62
           0
100
AcDbLine
 10
0.0
 20
0.0
 30
0.0
 11
-1.0
 21
-0.166667
 31
0.0
  0
LINE
  5
3B
100
AcDbEntity
  8
0
  6
BYBLOCK
 62
           0
100
AcDbLine
 10
0.0
 20
0.0
 30
0.0
 11
-1.0
 21
0.0
 31
0.0
  0
ENDBLK
  5
3C
100
AcDbEntity
  8
0
100
AcDbBlockEnd
  0
BLOCK
  5
3E
100
AcDbEntity
  8
0
100
AcDbBlockBegin
  2
_ORIGIN
 70
           0
 10
0.0
 20
0.0
 30
0.0
  3
_ORIGIN
  1

  0
CIRCLE
  5
3F
100
AcDbEntity
  8
0
  6
BYBLOCK
 62
           0
100
AcDbCircle
 10
0.0
 20
0.0
 30
0.0
 40
0.5
  0
LINE
  5
40
100
AcDbEntity
  8
0
  6
BYBLOCK
 62
           0
100
AcDbLine
 10
0.0
 20
0.0
 30
0.0
 11
-1.0
 21
0.0
 31
0.0
  0
ENDBLK
  5
41
100
AcDbEntity
  8
0
100
AcDbBlockEnd
  0
BLOCK
  5
43
100
AcDbEntity
  8
0
100
AcDbBlockBegin
  2
_OPEN90
 70
           0
 10
0.0
 20
0.0
 30
0.0
  3
_OPEN90
  1

  0
LINE
  5
44
100
AcDbEntity
  8
0
  6
BYBLOCK
 62
           0
100
AcDbLine
 10
-0.5
 20
0.5
 30
0.0
 11
0.0
 21
0.0
 31
0.0
  0
LINE
  5
45
100
AcDbEntity
  8
0
  6
BYBLOCK
 62
           0
100
AcDbLine
 10
0.0
 20
0.0
 30
0.0
 11
-0.5
 21
-0.5
 31
0.0
  0
LINE
  5
46
100
AcDbEntity
  8
0
  6
BYBLOCK
 62
           0
100
AcDbLine
 10
0.0
 20
0.0
 30
0.0
 11
-1.0
 21
0.0
 31
0.0
  0
ENDBLK
  5
47
100
AcDbEntity
  8
0
100
AcDbBlockEnd
  0
BLOCK
  5
49
100
AcDbEntity
  8
0
100
AcDbBlockBegin
  2
_CLOSEDBLANK
 70
           0
 10
0.0
 20
0.0
 30
0.0
  3
_CLOSEDBLANK
  1

  0
LINE
  5
4A
100
AcDbEntity
  8
0
  6
BYBLOCK
 62
           0
100
AcDbLine
 10
-1.0
 20
0.166667
 30
0.0
 11
0.0
 21
0.0
 31
0.0
  0
LINE
  5
4B
100
AcDbEntity
  8
0
  6
BYBLOCK
 62
           0
100
AcDbLine
 10
0.0
 20
0.0
 30
0.0
 11
-1.0
 21
-0.166667
 31
0.0
  0
LINE
  5
4C
100
AcDbEntity
  8
0
  6
BYBLOCK
 62
           0
100
AcDbLine
 10
-1.0
 20
0.166667
 30
0.0
 11
-1.0
 21
-0.166667
 31
0.0
  0
ENDBLK
  5
4D
100
AcDbEntity
  8
0
100
AcDbBlockEnd
  0
BLOCK
  5
9F
100
AcDbEntity
  8
0
100
AcDbBlockBegin
  2
*D8
 70
          65
 10
0.0
 20
0.0
 30
0.0
  3
*D8
  1

  0
POLYLINE
  5
A0
100
AcDbEntity
  8
0
  6
AUSGEZOGEN
 62
           1
100
AcDb2dPolyline
 66
           1
 10
0.0
 20
0.0
 30
0.0
 70
           1
  0
VERTEX
  5
A1
100
AcDbEntity
  8
0
  6
AUSGEZOGEN
 62
           1
100
AcDbVertex
100
AcDb2dVertex
 10
25.0
 20
44.0
 30
0.0
  0
VERTEX
  5
A2
100
AcDbEntity
  8
0
  6
AUSGEZOGEN
 62
           1
100
AcDbVertex
100
AcDb2dVertex
 10
21.5
 20
44.7
 30
0.0
  0
VERTEX
  5
A3
100
AcDbEntity
  8
0
  6
AUSGEZOGEN
 62
           1
100
AcDbVertex
100
AcDb2dVertex
 10
21.5
 20
43.3
 30
0.0
  0
SEQEND
  5
A4
100
AcDbEntity
  8
0
  6
AUSGEZOGEN
 62
           1
  0
POLYLINE
  5
A5
100
AcDbEntity
  8
0
  6
AUSGEZOGEN
 62
           1
100
AcDb2dPolyline
 66
           1
 10
0.0
 20
0.0
 30
0.0
 70
           1
  0
VERTEX
  5
A6
100
AcDbEntity
  8
0
  6
AUSGEZOGEN
 62
           1
100
AcDbVertex
100
AcDb2dVertex
 10
-25.0
 20
44.0
 30
0.0
  0
VERTEX
  5
A7
100
AcDbEntity
  8
0
  6
AUSGEZOGEN
 62
           1
100
AcDbVertex
100
AcDb2dVertex
 10
-21.5
 20
43.3
 30
0.0
  0
VERTEX
  5
A8
100
AcDbEntity
  8
0
  6
AUSGEZOGEN
 62
           1
100
AcDbVertex
100
AcDb2dVertex
 10
-21.5
 20
44.7
 30
0.0
  0
SEQEND
  5
A9
100
AcDbEntity
  8
0
  6
AUSGEZOGEN
 62
           1
  0
LINE
  5
AA
100
AcDbEntity
  8
0
  6
AUSGEZOGEN
 62
           1
100
AcDbLine
 10
-21.5
 20
44.0
 30
0.0
 11
21.5
 21
44.0
 31
0.0
  0
LINE
  5
AB
100
AcDbEntity
  8
0
  6
AUSGEZOGEN
 62
           1
100
AcDbLine
 10
-25.0
 20
40.0
 30
0.0
 11
-25.0
 21
46.0
 31
0.0
  0
LINE
  5
AC
100
AcDbEntity
  8
0
  6
AUSGEZOGEN
 62
           1
100
AcDbLine
 10
25.0
 20
40.0
 30
0.0
 11
25.0
 21
46.0
 31
0.0
  0
TEXT
  5
AD
100
AcDbEntity
  8
0
  6
AUSGEZOGEN
 62
           1
100
AcDbText
 10
-4.375000059605
 20
45.0
 30
0.0
 40
3.5
  1
%%c50
  7
ISOCP
100
AcDbText
  0
ENDBLK
  5
AE
100
AcDbEntity
  8
0
100
AcDbBlockEnd
  0
BLOCK
  5
B1
100
AcDbEntity
  8
0
100
AcDbBlockBegin
  2
*D9
 70
          65
 10
0.0
 20
0.0
 30
0.0
  3
*D9
  1

  0
POLYLINE
  5
B2
100
AcDbEntity
  8
0
  6
AUSGEZOGEN
 62
           1
100
AcDb2dPolyline
 66
           1
 10
0.0
 20
0.0
 30
0.0
 70
           1
  0
VERTEX
  5
B3
100
AcDbEntity
  8
0
  6
AUSGEZOGEN
 62
           1
100
AcDbVertex
100
AcDb2dVertex
 10
11.0
 20
12.098765432099
 30
0.0
  0
VERTEX
  5
B4
100
AcDbEntity
  8
0
  6
AUSGEZOGEN
 62
           1
100
AcDbVertex
100
AcDb2dVertex
 10
7.5
 20
12.798765432099
 30
0.0
  0
VERTEX
  5
B5
100
AcDbEntity
  8
0
  6
AUSGEZOGEN
 62
           1
100
AcDbVertex
100
AcDb2dVertex
 10
7.5
 20
11.398765432099
 30
0.0
  0
SEQEND
  5
B6
100
AcDbEntity
  8
0
  6
AUSGEZOGEN
 62
           1
  0
POLYLINE
  5
B7
100
AcDbEntity
  8
0
  6
AUSGEZOGEN
 62
           1
100
AcDb2dPolyline
 66
           1
 10
0.0
 20
0.0
 30
0.0
 70
           1
  0
VERTEX
  5
B8
100
AcDbEntity
  8
0
  6
AUSGEZOGEN
 62
           1
100
AcDbVertex
100
AcDb2dVertex
 10
-11.0
 20
12.098765432099
 30
0.0
  0
VERTEX
  5
B9
100
AcDbEntity
  8
0
  6
AUSGEZOGEN
 62
           1
100
AcDbVertex
100
AcDb2dVertex
 10
-7.5
 20
11.398765432099
 30
0.0
  0
VERTEX
  5
BA
100
AcDbEntity
  8
0
  6
AUSGEZOGEN
 62
           1
100
AcDbVertex
100
AcDb2dVertex
 10
-7.5
 20
12.798765432099
 30
0.0
  0
SEQEND
  5
BB
100
AcDbEntity
  8
0
  6
AUSGEZOGEN
 62
           1
  0
LINE
  5
BC
100
AcDbEntity
  8
0
  6
AUSGEZOGEN
 62
           1
100
AcDbLine
 10
-7.5
 20
12.098765432099
 30
0.0
 11
7.5
 21
12.098765432099
 31
0.0
  0
LINE
  5
BD
100
AcDbEntity
  8
0
  6
AUSGEZOGEN
 62
           1
100
AcDbLine
 10
-11.0
 20
22.5
 30
0.0
 11
-11.0
 21
10.098765432099
 31
0.0
  0
LINE
  5
BE
100
AcDbEntity
  8
0
  6
AUSGEZOGEN
 62
           1
100
AcDbLine
 10
11.0
 20
22.5
 30
0.0
 11
11.0
 21
10.098765432099
 31
0.0
  0
TEXT
  5
BF
100
AcDbEntity
  8
0
  6
AUSGEZOGEN
 62
           1
100
AcDbText
 10
-4.375000059605
 20
13.098765432099
 30
0.0
 40
3.5
  1
%%c22
  7
ISOCP
100
AcDbText
  0
ENDBLK
  5
C0
100
AcDbEntity
  8
0
100
AcDbBlockEnd
  0
BLOCK
  5
C3
100
AcDbEntity
  8
0
100
AcDbBlockBegin
  2
*D10
 70
          65
 10
0.0
 20
0.0
 30
0.0
  3
*D10
  1

  0
POLYLINE
  5
C4
100
AcDbEntity
  8
0
  6
AUSGEZOGEN
 62
           1
100
AcDb2dPolyline
 66
           1
 10
0.0
 20
0.0
 30
0.0
 70
           1
  0
VERTEX
  5
C5
100
AcDbEntity
  8
0
  6
AUSGEZOGEN
 62
           1
100
AcDbVertex
100
AcDb2dVertex
 10
24.0
 20
-7.16049382716
 30
0.0
  0
VERTEX
  5
C6
100
AcDbEntity
  8
0
  6
AUSGEZOGEN
 62
           1
100
AcDbVertex
100
AcDb2dVertex
 10
20.5
 20
-6.46049382716
 30
0.0
  0
VERTEX
  5
C7
100
AcDbEntity
  8
0
  6
AUSGEZOGEN
 62
           1
100
AcDbVertex
100
AcDb2dVertex
 10
20.5
 20
-7.86049382716
 30
0.0
  0
SEQEND
  5
C8
100
AcDbEntity
  8
0
  6
AUSGEZOGEN
 62
           1
  0
POLYLINE
  5
C9
100
AcDbEntity
  8
0
  6
AUSGEZOGEN
 62
           1
100
AcDb2dPolyline
 66
           1
 10
0.0
 20
0.0
 30
0.0
 70
           1
  0
VERTEX
  5
CA
100
AcDbEntity
  8
0
  6
AUSGEZOGEN
 62
           1
100
AcDbVertex
100
AcDb2dVertex
 10
-24.0
 20
-7.16049382716
 30
0.0
  0
VERTEX
  5
CB
100
AcDbEntity
  8
0
  6
AUSGEZOGEN
 62
           1
100
AcDbVertex
100
AcDb2dVertex
 10
-20.5
 20
-7.86049382716
 30
0.0
  0
VERTEX
  5
CC
100
AcDbEntity
  8
0
  6
AUSGEZOGEN
 62
           1
100
AcDbVertex
100
AcDb2dVertex
 10
-20.5
 20
-6.46049382716
 30
0.0
  0
SEQEND
  5
CD
100
AcDbEntity
  8
0
  6
AUSGEZOGEN
 62
           1
  0
LINE
  5
CE
100
AcDbEntity
  8
0
  6
AUSGEZOGEN
 62
           1
100
AcDbLine
 10
-20.5
 20
-7.16049382716
 30
0.0
 11
20.5
 21
-7.16049382716
 31
0.0
  0
LINE
  5
CF
100
AcDbEntity
  8
0
  6
AUSGEZOGEN
 62
           1
100
AcDbLine
 10
-24.0
 20
0.0
 30
0.0
 11
-24.0
 21
-9.16049382716
 31
0.0
  0
LINE
  5
D0
100
AcDbEntity
  8
0
  6
AUSGEZOGEN
 62
           1
100
AcDbLine
 10
24.0
 20
0.0
 30
0.0
 11
24.0
 21
-9.16049382716
 31
0.0
  0
TEXT
  5
D1
100
AcDbEntity
  8
0
  6
AUSGEZOGEN
 62
           1
100
AcDbText
 10
-4.375000059605
 20
-6.16049382716
 30
0.0
 40
3.5
  1
%%c48
  7
ISOCP
100
AcDbText
  0
ENDBLK
  5
D2
100
AcDbEntity
  8
0
100
AcDbBlockEnd
  0
BLOCK
  5
D5
100
AcDbEntity
  8
0
100
AcDbBlockBegin
  2
*D11
 70
          65
 10
0.0
 20
0.0
 30
0.0
  3
*D11
  1

  0
POLYLINE
  5
D6
100
AcDbEntity
  8
0
  6
AUSGEZOGEN
 62
           1
100
AcDb2dPolyline
 66
           1
 10
0.0
 20
0.0
 30
0.0
 70
           1
  0
VERTEX
  5
D7
100
AcDbEntity
  8
0
  6
AUSGEZOGEN
 62
           1
100
AcDbVertex
100
AcDb2dVertex
 10
-35.714713589409
 20
40.0
 30
0.0
  0
VERTEX
  5
D8
100
AcDbEntity
  8
0
  6
AUSGEZOGEN
 62
           1
100
AcDbVertex
100
AcDb2dVertex
 10
-36.414713589409
 20
36.5
 30
0.0
  0
VERTEX
  5
D9
100
AcDbEntity
  8
0
  6
AUSGEZOGEN
 62
           1
100
AcDbVertex
100
AcDb2dVertex
 10
-35.014713589409
 20
36.5
 30
0.0
  0
SEQEND
  5
DA
100
AcDbEntity
  8
0
  6
AUSGEZOGEN
 62
           1
  0
POLYLINE
  5
DB
100
AcDbEntity
  8
0
  6
AUSGEZOGEN
 62
           1
100
AcDb2dPolyline
 66
           1
 10
0.0
 20
0.0
 30
0.0
 70
           1
  0
VERTEX
  5
DC
100
AcDbEntity
  8
0
  6
AUSGEZOGEN
 62
           1
100
AcDbVertex
100
AcDb2dVertex
 10
-35.714713589409
 20
0.0
 30
0.0
  0
VERTEX
  5
DD
100
AcDbEntity
  8
0
  6
AUSGEZOGEN
 62
           1
100
AcDbVertex
100
AcDb2dVertex
 10
-35.014713589409
 20
3.5
 30
0.0
  0
VERTEX
  5
DE
100
AcDbEntity
  8
0
  6
AUSGEZOGEN
 62
           1
100
AcDbVertex
100
AcDb2dVertex
 10
-36.414713589409
 20
3.5
 30
0.0
  0
SEQEND
  5
DF
100
AcDbEntity
  8
0
  6
AUSGEZOGEN
 62
           1
  0
LINE
  5
E0
100
AcDbEntity
  8
0
  6
AUSGEZOGEN
 62
           1
100
AcDbLine
 10
-35.714713589409
 20
3.5
 30
0.0
 11
-35.714713589409
 21
36.5
 31
0.0
  0
LINE
  5
E1
100
AcDbEntity
  8
0
  6
AUSGEZOGEN
 62
           1
100
AcDbLine
 10
-24.0
 20
0.0
 30
0.0
 11
-37.714713589409
 21
0.0
 31
0.0
  0
LINE
  5
E2
100
AcDbEntity
  8
0
  6
AUSGEZOGEN
 62
           1
100
AcDbLine
 10
-25.0
 20
40.0
 30
0.0
 11
-37.714713589409
 21
40.0
 31
0.0
  0
TEXT
  5
E3
100
AcDbEntity
  8
0
  6
AUSGEZOGEN
 62
           1
100
AcDbText
 10
-36.714713589409
 20
17.199999958277
 30
0.0
 40
3.5
  1
40
 50
90.0
  7
ISOCP
100
AcDbText
  0
ENDBLK
  5
E4
100
AcDbEntity
  8
0
100
AcDbBlockEnd
  0
ENDSEC
  0
SECTION
  2
ENTITIES
  0
LINE
  5
50
100
AcDbEntity
  8
4_1_DEFAULT_LAYER
  6
AUSGEZOGEN
 62
           7
100
AcDbLine
 10
0.0
 20
0.0
 30
0.0
 11
-24.0
 21
0.0
 31
0.0
  0
LINE
  5
51
100
AcDbEntity
  8
4_1_DEFAULT_LAYER
  6
AUSGEZOGEN
 62
           7
100
AcDbLine
 10
-10.0
 20
38.0
 30
0.0
 11
-16.0
 21
38.0
 31
0.0
  0
LINE
  5
52
100
AcDbEntity
  8
4_1_DEFAULT_LAYER
  6
AUSGEZOGEN
 62
           7
100
AcDbLine
 10
-16.0
 20
38.0
 30
0.0
 11
-17.5734
 21
39.5734
 31
0.0
  0
LINE
  5
53
100
AcDbEntity
  8
4_1_DEFAULT_LAYER
  6
AUSGEZOGEN
 62
           7
100
AcDbLine
 10
-11.0
 20
0.0
 30
0.0
 11
-11.0
 21
22.5
 31
0.0
  0
LINE
  5
54
100
AcDbEntity
  8
4_1_DEFAULT_LAYER
  6
AUSGEZOGEN
 62
           7
100
AcDbLine
 10
-6.0
 20
22.5
 30
0.0
 11
-11.0
 21
22.5
 31
0.0
  0
LINE
  5
55
100
AcDbEntity
  8
4_1_DEFAULT_LAYER
  6
AUSGEZOGEN
 62
           7
100
AcDbLine
 10
-6.0
 20
22.5
 30
0.0
 11
-6.0
 21
27.5
 31
0.0
  0
LINE
  5
56
100
AcDbEntity
  8
4_1_DEFAULT_LAYER
  6
AUSGEZOGEN
 62
           7
100
AcDbLine
 10
-9.0
 20
27.5
 30
0.0
 11
-9.0
 21
37.0
 31
0.0
  0
LINE
  5
57
100
AcDbEntity
  8
4_1_DEFAULT_LAYER
  6
AUSGEZOGEN
 62
           7
100
AcDbLine
 10
-6.0
 20
27.5
 30
0.0
 11
-9.0
 21
27.5
 31
0.0
  0
LINE
  5
58
100
AcDbEntity
  8
4_1_DEFAULT_LAYER
  6
AUSGEZOGEN
 62
           7
100
AcDbLine
 10
-10.0
 20
38.0
 30
0.0
 11
-9.0
 21
37.0
 31
0.0
  0
LINE
  5
59
100
AcDbEntity
  8
4_1_DEFAULT_LAYER
  6
AUSGEZOGEN
 62
           7
100
AcDbLine
 10
-24.720692
 20
39.217428
 30
0.0
 11
-24.7753
 21
35.1714
 31
0.0
  0
LINE
  5
5A
100
AcDbEntity
  8
4_1_DEFAULT_LAYER
  6
AUSGEZOGEN
 62
           7
100
AcDbLine
 10
-24.7753
 20
29.581174
 30
0.0
 11
-24.7753
 21
35.1714
 31
0.0
  0
LINE
  5
5B
100
AcDbEntity
  8
4_1_DEFAULT_LAYER
  6
AUSGEZOGEN
 62
           7
100
AcDbLine
 10
-24.135173
 20
39.5996
 30
0.0
 11
-24.333327
 21
39.5996
 31
0.0
  0
ARC
  5
5C
100
AcDbEntity
  8
4_1_DEFAULT_LAYER
  6
AUSGEZOGEN
 62
           7
100
AcDbCircle
 10
-24.333327
 20
39.2122
 30
0.0
 40
0.3874
100
AcDbArc
 50
90.0
 51
179.226738
  0
ARC
  5
5D
100
AcDbEntity
  8
4_1_DEFAULT_LAYER
  6
AUSGEZOGEN
 62
           7
100
AcDbCircle
 10
-24.135173
 20
39.311015
 30
0.0
 40
0.288595
100
AcDbArc
 50
74.48574
 51
90.0
  0
ARC
  5
5E
100
AcDbEntity
  8
4_1_DEFAULT_LAYER
  6
AUSGEZOGEN
 62
           7
100
AcDbCircle
 10
-23.942762
 20
40.004158
 30
0.0
 40
0.430759
100
AcDbArc
 50
254.48574
 51
270.0
  0
LINE
  5
5F
100
AcDbEntity
  8
4_1_DEFAULT_LAYER
  6
AUSGEZOGEN
 62
           7
100
AcDbLine
 10
-17.5734
 20
39.5734
 30
0.0
 11
-23.942762
 21
39.5734
 31
0.0
  0
LINE
  5
60
100
AcDbEntity
  8
4_1_DEFAULT_LAYER
  6
AUSGEZOGEN
 62
           7
100
AcDbLine
 10
-24.0
 20
0.0
 30
0.0
 11
-24.0
 21
28.0
 31
0.0
  0
ARC
  5
61
100
AcDbEntity
  8
4_1_DEFAULT_LAYER
  6
AUSGEZOGEN
 62
           7
100
AcDbCircle
 10
-25.0
 20
28.0
 30
0.0
 40
1.0
100
AcDbArc
 50
0.0
 51
52.240382
  0
ARC
  5
62
100
AcDbEntity
  8
4_1_DEFAULT_LAYER
  6
AUSGEZOGEN
 62
           7
100
AcDbCircle
 10
-23.7753
 20
29.581174
 30
0.0
 40
1.0
100
AcDbArc
 50
180.0
 51
232.240382
  0
LINE
  5
63
100
AcDbEntity
  8
8_1_DEFAULT_LAYER
  6
AUSGEZOGEN
 62
           1
100
AcDbLine
 10
-24.0
 20
40.0
 30
0.0
 11
-24.6
 21
40.0
 31
0.0
  0
LINE
  5
64
100
AcDbEntity
  8
8_1_DEFAULT_LAYER
  6
AUSGEZOGEN
 62
           1
100
AcDbLine
 10
-25.0
 20
36.8
 30
0.0
 11
-25.0
 21
39.6
 31
0.0
  0
LINE
  5
65
100
AcDbEntity
  8
8_1_DEFAULT_LAYER
  6
AUSGEZOGEN
 62
           1
100
AcDbLine
 10
-21.35
 20
36.8
 30
0.0
 11
-21.35
 21
39.285129
 31
0.0
  0
ARC
  5
66
100
AcDbEntity
  8
8_1_DEFAULT_LAYER
  6
AUSGEZOGEN
 62
           1
100
AcDbCircle
 10
-24.6
 20
39.6
 30
0.0
 40
0.4
100
AcDbArc
 50
90.0
 51
180.0
  0
ARC
  5
67
100
AcDbEntity
  8
8_1_DEFAULT_LAYER
  6
AUSGEZOGEN
 62
           1
100
AcDbCircle
 10
-24.0
 20
39.6
 30
0.0
 40
0.4
100
AcDbArc
 50
32.57897
 51
90.0
  0
LINE
  5
68
100
AcDbEntity
  8
8_1_DEFAULT_LAYER
  6
AUSGEZOGEN
 62
           1
100
AcDbLine
 10
-21.746509
 20
39.685114
 30
0.0
 11
-23.452277
 21
39.7
 31
0.0
  0
ARC
  5
69
100
AcDbEntity
  8
8_1_DEFAULT_LAYER
  6
AUSGEZOGEN
 62
           1
100
AcDbCircle
 10
-23.452277
 20
39.95
 30
0.0
 40
0.25
100
AcDbArc
 50
212.57897
 51
270.0
  0
ARC
  5
6A
100
AcDbEntity
  8
8_1_DEFAULT_LAYER
  6
AUSGEZOGEN
 62
           1
100
AcDbCircle
 10
-21.75
 20
39.285129
 30
0.0
 40
0.4
100
AcDbArc
 50
0.0
 51
89.5
  0
LINE
  5
6B
100
AcDbEntity
  8
8_1_DEFAULT_LAYER
  6
AUSGEZOGEN
 62
           1
100
AcDbLine
 10
-24.325
 20
36.8
 30
0.0
 11
-22.025
 21
36.8
 31
0.0
  0
LINE
  5
6C
100
AcDbEntity
  8
8_1_DEFAULT_LAYER
  6
AUSGEZOGEN
 62
           1
100
AcDbLine
 10
-23.175
 20
37.95
 30
0.0
 11
-23.175
 21
35.65
 31
0.0
  0
LINE
  5
6D
100
AcDbEntity
  8
8_1_DEFAULT_LAYER
  6
AUSGEZOGEN
 62
           1
100
AcDbLine
 10
-22.35
 20
33.6
 30
0.0
 11
-21.75
 21
33.6
 31
0.0
  0
LINE
  5
6E
100
AcDbEntity
  8
8_1_DEFAULT_LAYER
  6
AUSGEZOGEN
 62
           1
100
AcDbLine
 10
-21.35
 20
36.8
 30
0.0
 11
-21.35
 21
34.0
 31
0.0
  0
LINE
  5
6F
100
AcDbEntity
  8
8_1_DEFAULT_LAYER
  6
AUSGEZOGEN
 62
           1
100
AcDbLine
 10
-25.0
 20
36.8
 30
0.0
 11
-25.0
 21
34.314871
 31
0.0
  0
ARC
  5
70
100
AcDbEntity
  8
8_1_DEFAULT_LAYER
  6
AUSGEZOGEN
 62
           1
100
AcDbCircle
 10
-21.75
 20
34.0
 30
0.0
 40
0.4
100
AcDbArc
 50
270.0
 51
0.0
  0
ARC
  5
71
100
AcDbEntity
  8
8_1_DEFAULT_LAYER
  6
AUSGEZOGEN
 62
           1
100
AcDbCircle
 10
-22.35
 20
34.0
 30
0.0
 40
0.4
100
AcDbArc
 50
212.57897
 51
270.0
  0
LINE
  5
72
100
AcDbEntity
  8
8_1_DEFAULT_LAYER
  6
AUSGEZOGEN
 62
           1
100
AcDbLine
 10
-24.603491
 20
33.914886
 30
0.0
 11
-22.897723
 21
33.9
 31
0.0
  0
ARC
  5
73
100
AcDbEntity
  8
8_1_DEFAULT_LAYER
  6
AUSGEZOGEN
 62
           1
100
AcDbCircle
 10
-22.897723
 20
33.65
 30
0.0
 40
0.25
100
AcDbArc
 50
32.57897
 51
90.0
  0
ARC
  5
74
100
AcDbEntity
  8
8_1_DEFAULT_LAYER
  6
AUSGEZOGEN
 62
           1
100
AcDbCircle
 10
-24.6
 20
34.314871
 30
0.0
 40
0.4
100
AcDbArc
 50
180.0
 51
269.5
  0
CIRCLE
  5
75
100
AcDbEntity
  8
8_1_DEFAULT_LAYER
  6
AUSGEZOGEN
 62
           1
100
AcDbCircle
 10
-23.175
 20
36.8
 30
0.0
 40
1.15
  0
POINT
  5
76
100
AcDbEntity
  8
8_1_DEFAULT_LAYER
  6
AUSGEZOGEN
 62
           1
100
AcDbPoint
 10
-25.0
 20
40.0
 30
0.0
  0
LINE
  5
77
100
AcDbEntity
  8
4_1_DEFAULT_LAYER
  6
AUSGEZOGEN
 62
           7
100
AcDbLine
 10
0.0
 20
0.0
 30
0.0
 11
24.0
 21
0.0
 31
0.0
  0
LINE
  5
78
100
AcDbEntity
  8
4_1_DEFAULT_LAYER
  6
AUSGEZOGEN
 62
           7
100
AcDbLine
 10
10.0
 20
38.0
 30
0.0
 11
16.0
 21
38.0
 31
0.0
  0
LINE
  5
79
100
AcDbEntity
  8
4_1_DEFAULT_LAYER
  6
AUSGEZOGEN
 62
           7
100
AcDbLine
 10
16.0
 20
38.0
 30
0.0
 11
17.5734
 21
39.5734
 31
0.0
  0
LINE
  5
7A
100
AcDbEntity
  8
4_1_DEFAULT_LAYER
  6
AUSGEZOGEN
 62
           7
100
AcDbLine
 10
11.0
 20
0.0
 30
0.0
 11
11.0
 21
22.5
 31
0.0
  0
LINE
  5
7B
100
AcDbEntity
  8
4_1_DEFAULT_LAYER
  6
AUSGEZOGEN
 62
           7
100
AcDbLine
 10
6.0
 20
22.5
 30
0.0
 11
11.0
 21
22.5
 31
0.0
  0
LINE
  5
7C
100
AcDbEntity
  8
4_1_DEFAULT_LAYER
  6
AUSGEZOGEN
 62
           7
100
AcDbLine
 10
6.0
 20
22.5
 30
0.0
 11
6.0
 21
27.5
 31
0.0
  0
LINE
  5
7D
100
AcDbEntity
  8
4_1_DEFAULT_LAYER
  6
AUSGEZOGEN
 62
           7
100
AcDbLine
 10
9.0
 20
27.5
 30
0.0
 11
9.0
 21
37.0
 31
0.0
  0
LINE
  5
7E
100
AcDbEntity
  8
4_1_DEFAULT_LAYER
  6
AUSGEZOGEN
 62
           7
100
AcDbLine
 10
6.0
 20
27.5
 30
0.0
 11
9.0
 21
27.5
 31
0.0
  0
LINE
  5
7F
100
AcDbEntity
  8
4_1_DEFAULT_LAYER
  6
AUSGEZOGEN
 62
           7
100
AcDbLine
 10
10.0
 20
38.0
 30
0.0
 11
9.0
 21
37.0
 31
0.0
  0
LINE
  5
80
100
AcDbEntity
  8
4_1_DEFAULT_LAYER
  6
AUSGEZOGEN
 62
           7
100
AcDbLine
 10
24.720692
 20
39.217428
 30
0.0
 11
24.7753
 21
35.1714
 31
0.0
  0
LINE
  5
81
100
AcDbEntity
  8
4_1_DEFAULT_LAYER
  6
AUSGEZOGEN
 62
           7
100
AcDbLine
 10
24.7753
 20
29.581174
 30
0.0
 11
24.7753
 21
35.1714
 31
0.0
  0
LINE
  5
82
100
AcDbEntity
  8
4_1_DEFAULT_LAYER
  6
AUSGEZOGEN
 62
           7
100
AcDbLine
 10
24.135173
 20
39.5996
 30
0.0
 11
24.333327
 21
39.5996
 31
0.0
  0
ARC
  5
83
100
AcDbEntity
  8
4_1_DEFAULT_LAYER
  6
AUSGEZOGEN
 62
           7
100
AcDbCircle
 10
24.333327
 20
39.2122
 30
0.0
 40
0.3874
100
AcDbArc
 50
0.773262
 51
90.0
  0
ARC
  5
84
100
AcDbEntity
  8
4_1_DEFAULT_LAYER
  6
AUSGEZOGEN
 62
           7
100
AcDbCircle
 10
24.135173
 20
39.311015
 30
0.0
 40
0.288595
100
AcDbArc
 50
90.0
 51
105.51426
  0
ARC
  5
85
100
AcDbEntity
  8
4_1_DEFAULT_LAYER
  6
AUSGEZOGEN
 62
           7
100
AcDbCircle
 10
23.942762
 20
40.004158
 30
0.0
 40
0.430759
100
AcDbArc
 50
270.0
 51
285.51426
  0
LINE
  5
86
100
AcDbEntity
  8
4_1_DEFAULT_LAYER
  6
AUSGEZOGEN
 62
           7
100
AcDbLine
 10
17.5734
 20
39.5734
 30
0.0
 11
23.942762
 21
39.5734
 31
0.0
  0
LINE
  5
87
100
AcDbEntity
  8
4_1_DEFAULT_LAYER
  6
AUSGEZOGEN
 62
           7
100
AcDbLine
 10
24.0
 20
0.0
 30
0.0
 11
24.0
 21
28.0
 31
0.0
  0
ARC
  5
88
100
AcDbEntity
  8
4_1_DEFAULT_LAYER
  6
AUSGEZOGEN
 62
           7
100
AcDbCircle
 10
25.0
 20
28.0
 30
0.0
 40
1.0
100
AcDbArc
 50
127.759618
 51
180.0
  0
ARC
  5
89
100
AcDbEntity
  8
4_1_DEFAULT_LAYER
  6
AUSGEZOGEN
 62
           7
100
AcDbCircle
 10
23.7753
 20
29.581174
 30
0.0
 40
1.0
100
AcDbArc
 50
307.759618
 51
0.0
  0
LINE
  5
8A
100
AcDbEntity
  8
8_1_DEFAULT_LAYER
  6
AUSGEZOGEN
 62
           1
100
AcDbLine
 10
24.0
 20
40.0
 30
0.0
 11
24.6
 21
40.0
 31
0.0
  0
LINE
  5
8B
100
AcDbEntity
  8
8_1_DEFAULT_LAYER
  6
AUSGEZOGEN
 62
           1
100
AcDbLine
 10
25.0
 20
36.8
 30
0.0
 11
25.0
 21
39.6
 31
0.0
  0
LINE
  5
8C
100
AcDbEntity
  8
8_1_DEFAULT_LAYER
  6
AUSGEZOGEN
 62
           1
100
AcDbLine
 10
21.35
 20
36.8
 30
0.0
 11
21.35
 21
39.285129
 31
0.0
  0
ARC
  5
8D
100
AcDbEntity
  8
8_1_DEFAULT_LAYER
  6
AUSGEZOGEN
 62
           1
100
AcDbCircle
 10
24.6
 20
39.6
 30
0.0
 40
0.4
100
AcDbArc
 50
0.0
 51
90.0
  0
ARC
  5
8E
100
AcDbEntity
  8
8_1_DEFAULT_LAYER
  6
AUSGEZOGEN
 62
           1
100
AcDbCircle
 10
24.0
 20
39.6
 30
0.0
 40
0.4
100
AcDbArc
 50
90.0
 51
147.42103
  0
LINE
  5
8F
100
AcDbEntity
  8
8_1_DEFAULT_LAYER
  6
AUSGEZOGEN
 62
           1
100
AcDbLine
 10
21.746509
 20
39.685114
 30
0.0
 11
23.452277
 21
39.7
 31
0.0
  0
ARC
  5
90
100
AcDbEntity
  8
8_1_DEFAULT_LAYER
  6
AUSGEZOGEN
 62
           1
100
AcDbCircle
 10
23.452277
 20
39.95
 30
0.0
 40
0.25
100
AcDbArc
 50
270.0
 51
327.42103
  0
ARC
  5
91
100
AcDbEntity
  8
8_1_DEFAULT_LAYER
  6
AUSGEZOGEN
 62
           1
100
AcDbCircle
 10
21.75
 20
39.285129
 30
0.0
 40
0.4
100
AcDbArc
 50
90.5
 51
180.0
  0
LINE
  5
92
100
AcDbEntity
  8
8_1_DEFAULT_LAYER
  6
AUSGEZOGEN
 62
           1
100
AcDbLine
 10
24.325
 20
36.8
 30
0.0
 11
22.025
 21
36.8
 31
0.0
  0
LINE
  5
93
100
AcDbEntity
  8
8_1_DEFAULT_LAYER
  6
AUSGEZOGEN
 62
           1
100
AcDbLine
 10
23.175
 20
37.95
 30
0.0
 11
23.175
 21
35.65
 31
0.0
  0
LINE
  5
94
100
AcDbEntity
  8
8_1_DEFAULT_LAYER
  6
AUSGEZOGEN
 62
           1
100
AcDbLine
 10
22.35
 20
33.6
 30
0.0
 11
21.75
 21
33.6
 31
0.0
  0
LINE
  5
95
100
AcDbEntity
  8
8_1_DEFAULT_LAYER
  6
AUSGEZOGEN
 62
           1
100
AcDbLine
 10
21.35
 20
36.8
 30
0.0
 11
21.35
 21
34.0
 31
0.0
  0
LINE
  5
96
100
AcDbEntity
  8
8_1_DEFAULT_LAYER
  6
AUSGEZOGEN
 62
           1
100
AcDbLine
 10
25.0
 20
36.8
 30
0.0
 11
25.0
 21
34.314871
 31
0.0
  0
ARC
  5
97
100
AcDbEntity
  8
8_1_DEFAULT_LAYER
  6
AUSGEZOGEN
 62
           1
100
AcDbCircle
 10
21.75
 20
34.0
 30
0.0
 40
0.4
100
AcDbArc
 50
180.0
 51
270.0
  0
ARC
  5
98
100
AcDbEntity
  8
8_1_DEFAULT_LAYER
  6
AUSGEZOGEN
 62
           1
100
AcDbCircle
 10
22.35
 20
34.0
 30
0.0
 40
0.4
100
AcDbArc
 50
270.0
 51
327.42103
  0
LINE
  5
99
100
AcDbEntity
  8
8_1_DEFAULT_LAYER
  6
AUSGEZOGEN
 62
           1
100
AcDbLine
 10
24.603491
 20
33.914886
 30
0.0
 11
22.897723
 21
33.9
 31
0.0
  0
ARC
  5
9A
100
AcDbEntity
  8
8_1_DEFAULT_LAYER
  6
AUSGEZOGEN
 62
           1
100
AcDbCircle
 10
22.897723
 20
33.65
 30
0.0
 40
0.25
100
AcDbArc
 50
90.0
 51
147.42103
  0
ARC
  5
9B
100
AcDbEntity
  8
8_1_DEFAULT_LAYER
  6
AUSGEZOGEN
 62
           1
100
AcDbCircle
 10
24.6
 20
34.314871
 30
0.0
 40
0.4
100
AcDbArc
 50
270.5
 51
0.0
  0
CIRCLE
  5
9C
100
AcDbEntity
  8
8_1_DEFAULT_LAYER
  6
AUSGEZOGEN
 62
           1
100
AcDbCircle
 10
23.175
 20
36.8
 30
0.0
 40
1.15
  0
POINT
  5
9D
100
AcDbEntity
  8
8_1_DEFAULT_LAYER
  6
AUSGEZOGEN
 62
           1
100
AcDbPoint
 10
25.0
 20
40.0
 30
0.0
  0
DIMENSION
  5
AF
100
AcDbEntity
  8
0
  6
AUSGEZOGEN
 62
           1
100
AcDbDimension
  2
*D8
 10
25.0
 20
44.0
 30
0.0
 11
0.0
 21
46.75
 31
0.0
 70
          32
  1
%%c<>
  3
MEGADIMSTL
100
AcDbAlignedDimension
 13
-25.0
 23
40.0
 33
0.0
 14
25.0
 24
40.0
 34
0.0
100
AcDbRotatedDimension
1001
ACAD
1000
DSTYLE
1002
{
1070
         176
1070
           1
1070
         177
1070
           1
1070
         178
1070
           1
1070
         140
1040
3.5
1070
         147
1040
0.5
1070
         271
1070
           2
1070
         179
1070
           2
1070
          78
1070
           8
1070
          77
1070
           1
1070
         280
1070
           0
1070
         173
1070
           1
1070
         343
1005
48
1070
         173
1070
           1
1070
         344
1005
48
1070
          44
1040
2.0
1070
          41
1040
3.5
1002
}
  0
DIMENSION
  5
C1
100
AcDbEntity
  8
0
  6
AUSGEZOGEN
 62
           1
100
AcDbDimension
  2
*D9
 10
11.0
 20
12.098765432099
 30
0.0
 11
0.0
 21
14.848765432099
 31
0.0
 70
          32
  1
%%c<>
  3
MEGADIMSTL
100
AcDbAlignedDimension
 13
-11.0
 23
22.5
 33
0.0
 14
11.0
 24
22.5
 34
0.0
100
AcDbRotatedDimension
1001
ACAD
1000
DSTYLE
1002
{
1070
         176
1070
           1
1070
         177
1070
           1
1070
         178
1070
           1
1070
         140
1040
3.5
1070
         147
1040
0.5
1070
         271
1070
           2
1070
         179
1070
           2
1070
          78
1070
           8
1070
          77
1070
           1
1070
         280
1070
           0
1070
         173
1070
           1
1070
         343
1005
48
1070
         173
1070
           1
1070
         344
1005
48
1070
          44
1040
2.0
1070
          41
1040
3.5
1002
}
  0
DIMENSION
  5
D3
100
AcDbEntity
  8
0
  6
AUSGEZOGEN
 62
           1
100
AcDbDimension
  2
*D10
 10
24.0
 20
-7.16049382716
 30
0.0
 11
0.0
 21
-4.41049382716
 31
0.0
 70
          32
  1
%%c<>
  3
MEGADIMSTL
100
AcDbAlignedDimension
 13
-24.0
 23
0.0
 33
0.0
 14
24.0
 24
0.0
 34
0.0
100
AcDbRotatedDimension
1001
ACAD
1000
DSTYLE
1002
{
1070
         176
1070
           1
1070
         177
1070
           1
1070
         178
1070
           1
1070
         140
1040
3.5
1070
         147
1040
0.5
1070
         271
1070
           2
1070
         179
1070
           2
1070
          78
1070
           8
1070
          77
1070
           1
1070
         280
1070
           0
1070
         173
1070
           1
1070
         343
1005
48
1070
         173
1070
           1
1070
         344
1005
48
1070
          44
1040
2.0
1070
          41
1040
3.5
1002
}
  0
DIMENSION
  5
E5
100
AcDbEntity
  8
0
  6
AUSGEZOGEN
 62
           1
100
AcDbDimension
  2
*D11
 10
-35.714713589409
 20
40.0
 30
0.0
 11
-38.464713589409
 21
20.0
 31
0.0
 70
          32
 53
90.0
  1
<>
  3
MEGADIMSTL
100
AcDbAlignedDimension
 13
-24.0
 23
0.0
 33
0.0
 14
-25.0
 24
40.0
 34
0.0
 50
90.0
100
AcDbRotatedDimension
1001
ACAD
1000
DSTYLE
1002
{
1070
         176
1070
           1
1070
         177
1070
           1
1070
         178
1070
           1
1070
         140
1040
3.5
1070
         147
1040
0.5
1070
         271
1070
           2
1070
         179
1070
           2
1070
          78
1070
           8
1070
          77
1070
           1
1070
         280
1070
           0
1070
         173
1070
           1
1070
         343
1005
48
1070
         173
1070
           1
1070
         344
1005
48
1070
          44
1040
2.0
1070
          41
1040
3.5
1002
}
  0
TEXT
  5
E6
100
AcDbEntity
  8
0
  6
AUSGEZOGEN
 62
           1
100
AcDbText
 10
-19.929204820609
 20
54.765432098765
 30
0.0
 40
3.5
  1
741M W D50/11
  7
ISOCP
100
AcDbText
  0
ENDSEC
  0
SECTION
  2
OBJECTS
  0
DICTIONARY
  5
19
100
AcDbDictionary
  3
ACAD_GROUP
350
1A
  3
ACAD_MLINESTYLE
350
1B
  0
DICTIONARY
  5
1A
102
{ACAD_REACTORS
330
19
102
}
100
AcDbDictionary
  0
DICTIONARY
  5
1B
102
{ACAD_REACTORS
330
19
102
}
100
AcDbDictionary
  3
STANDARD
350
1C
  0
MLINESTYLE
  5
1C
102
{ACAD_REACTORS
330
1B
102
}
100
AcDbMlineStyle
  2
STANDARD
 70
           0
  3

 62
           0
 51
90.0
 52
90.0
 71
           2
 49
0.5
 62
         256
  6
BYLAYER
 49
-0.5
 62
         256
  6
BYLAYER
  0
ENDSEC
  0
EOF
