  0
SECTION
  2
HEADER
  9
$ACADVER
  1
AC1015
  9
$ACADMAINTVER
 70
     6
  9
$DWGCODEPAGE
  3
ANSI_1252
  9
$INSBASE
 10
0.0
 20
0.0
 30
0.0
  9
$EXTMIN
 10
0.0
 20
0.0
 30
0.0
  9
$EXTMAX
 10
420.0
 20
297.0
 30
0.0
  9
$LIMMIN
 10
0.0
 20
0.0
  9
$LIMMAX
 10
420.0
 20
297.0
  9
$ORTHOMODE
 70
     0
  9
$REGENMODE
 70
     1
  9
$FILLMODE
 70
     1
  9
$QTEXTMODE
 70
     0
  9
$MIRRTEXT
 70
     1
  9
$LTSCALE
 40
1.0
  9
$ATTMODE
 70
     1
  9
$TEXTSIZE
 40
3.5
  9
$TRACEWID
 40
1.0
  9
$TEXTSTYLE
  7
STANDARD
  9
$CLAYER
  8
0
  9
$CELTYPE
  6
ByLayer
  9
$CECOLOR
 62
   256
  9
$CELTSCALE
 40
1.0
  9
$DISPSILH
 70
     0
  9
$DIMSCALE
 40
1.0
  9
$DIMASZ
 40
3.302
  9
$DIMEXO
 40
1.0
  9
$DIMDLI
 40
3.75
  9
$DIMRND
 40
0.0
  9
$DIMDLE
 40
0.0
  9
$DIMEXE
 40
1.0
  9
$DIMTP
 40
0.0
  9
$DIMTM
 40
0.0
  9
$DIMTXT
 40
3.5
  9
$DIMCEN
 40
2.5
  9
$DIMTSZ
 40
0.0
  9
$DIMTOL
 70
     0
  9
$DIMLIM
 70
     0
  9
$DIMTIH
 70
     1
  9
$DIMTOH
 70
     1
  9
$DIMSE1
 70
     0
  9
$DIMSE2
 70
     0
  9
$DIMTAD
 70
     1
  9
$DIMZIN
 70
     0
  9
$DIMBLK
  1

  9
$DIMASO
 70
     1
  9
$DIMSHO
 70
     1
  9
$DIMPOST
  1

  9
$DIMAPOST
  1

  9
$DIMALT
 70
     0
  9
$DIMALTD
 70
     3
  9
$DIMALTF
 40
0.0393700787
  9
$DIMLFAC
 40
1.0
  9
$DIMTOFL
 70
     1
  9
$DIMTVP
 40
0.0
  9
$DIMTIX
 70
     0
  9
$DIMSOXD
 70
     0
  9
$DIMSAH
 70
     0
  9
$DIMBLK1
  1

  9
$DIMBLK2
  1

  9
$DIMSTYLE
  2
ISO-25
  9
$DIMCLRD
 70
     0
  9
$DIMCLRE
 70
     0
  9
$DIMCLRT
 70
     0
  9
$DIMTFAC
 40
1.0
  9
$DIMGAP
 40
1.524
  9
$DIMJUST
 70
     0
  9
$DIMSD1
 70
     0
  9
$DIMSD2
 70
     0
  9
$DIMTOLJ
 70
     0
  9
$DIMTZIN
 70
     0
  9
$DIMALTZ
 70
     0
  9
$DIMALTTZ
 70
     0
  9
$DIMUPT
 70
     0
  9
$DIMDEC
 70
     1
  9
$DIMTDEC
 70
     1
  9
$DIMALTU
 70
     2
  9
$DIMALTTD
 70
     3
  9
$DIMTXSTY
  7
STANDARD
  9
$DIMAUNIT
 70
     0
  9
$DIMADEC
 70
     1
  9
$DIMALTRND
 40
0.0
  9
$DIMAZIN
 70
     0
  9
$DIMDSEP
 70
    44
  9
$DIMATFIT
 70
     3
  9
$DIMFRAC
 70
     0
  9
$DIMLDRBLK
  1

  9
$DIMLUNIT
 70
     2
  9
$DIMLWD
 70
    -2
  9
$DIMLWE
 70
    -2
  9
$DIMTMOVE
 70
     0
  9
$LUNITS
 70
     2
  9
$LUPREC
 70
     2
  9
$SKETCHINC
 40
1.0
  9
$FILLETRAD
 40
10.0
  9
$AUNITS
 70
     0
  9
$AUPREC
 70
     2
  9
$MENU
  1
.
  9
$ELEVATION
 40
0.0
  9
$PELEVATION
 40
0.0
  9
$THICKNESS
 40
0.0
  9
$LIMCHECK
 70
     0
  9
$CHAMFERA
 40
10.0
  9
$CHAMFERB
 40
10.0
  9
$CHAMFERC
 40
20.0
  9
$CHAMFERD
 40
0.0
  9
$SKPOLY
 70
     0
  9
$TDCREATE
 40
2455897.771405683
  9
$TDUCREATE
 40
2455897.729739016
  9
$TDUPDATE
 40
2455897.771405695
  9
$TDUUPDATE
 40
2455897.729739028
  9
$TDINDWG
 40
0.0000000116
  9
$TDUSRTIMER
 40
0.0000000116
  9
$USRTIMER
 70
     1
  9
$ANGBASE
 50
0.0
  9
$ANGDIR
 70
     0
  9
$PDMODE
 70
     0
  9
$PDSIZE
 40
-1.0
  9
$PLINEWID
 40
0.0
  9
$SPLFRAME
 70
     0
  9
$SPLINETYPE
 70
     6
  9
$SPLINESEGS
 70
     8
  9
$HANDSEED
  5
160
  9
$SURFTAB1
 70
     6
  9
$SURFTAB2
 70
     6
  9
$SURFTYPE
 70
     6
  9
$SURFU
 70
     6
  9
$SURFV
 70
     6
  9
$UCSBASE
  2

  9
$UCSNAME
  2

  9
$UCSORG
 10
0.0
 20
0.0
 30
0.0
  9
$UCSXDIR
 10
1.0
 20
0.0
 30
0.0
  9
$UCSYDIR
 10
0.0
 20
1.0
 30
0.0
  9
$UCSORTHOREF
  2

  9
$UCSORTHOVIEW
 70
     0
  9
$UCSORGTOP
 10
0.0
 20
0.0
 30
0.0
  9
$UCSORGBOTTOM
 10
0.0
 20
0.0
 30
0.0
  9
$UCSORGLEFT
 10
0.0
 20
0.0
 30
0.0
  9
$UCSORGRIGHT
 10
0.0
 20
0.0
 30
0.0
  9
$UCSORGFRONT
 10
0.0
 20
0.0
 30
0.0
  9
$UCSORGBACK
 10
0.0
 20
0.0
 30
0.0
  9
$PUCSBASE
  2

  9
$PUCSNAME
  2

  9
$PUCSORG
 10
0.0
 20
0.0
 30
0.0
  9
$PUCSXDIR
 10
1.0
 20
0.0
 30
0.0
  9
$PUCSYDIR
 10
0.0
 20
1.0
 30
0.0
  9
$PUCSORTHOREF
  2

  9
$PUCSORTHOVIEW
 70
     0
  9
$PUCSORGTOP
 10
0.0
 20
0.0
 30
0.0
  9
$PUCSORGBOTTOM
 10
0.0
 20
0.0
 30
0.0
  9
$PUCSORGLEFT
 10
0.0
 20
0.0
 30
0.0
  9
$PUCSORGRIGHT
 10
0.0
 20
0.0
 30
0.0
  9
$PUCSORGFRONT
 10
0.0
 20
0.0
 30
0.0
  9
$PUCSORGBACK
 10
0.0
 20
0.0
 30
0.0
  9
$USERI1
 70
     0
  9
$USERI2
 70
     0
  9
$USERI3
 70
     0
  9
$USERI4
 70
     0
  9
$USERI5
 70
     0
  9
$USERR1
 40
0.0
  9
$USERR2
 40
0.0
  9
$USERR3
 40
0.0
  9
$USERR4
 40
0.0
  9
$USERR5
 40
0.0
  9
$WORLDVIEW
 70
     1
  9
$SHADEDGE
 70
     3
  9
$SHADEDIF
 70
    70
  9
$TILEMODE
 70
     1
  9
$MAXACTVP
 70
    64
  9
$PINSBASE
 10
0.0
 20
0.0
 30
0.0
  9
$PLIMCHECK
 70
     0
  9
$PEXTMIN
 10
1.0000000000E+20
 20
1.0000000000E+20
 30
1.0000000000E+20
  9
$PEXTMAX
 10
-1.0000000000E+20
 20
-1.0000000000E+20
 30
-1.0000000000E+20
  9
$PLIMMIN
 10
0.0
 20
0.0
  9
$PLIMMAX
 10
420.0
 20
297.0
  9
$UNITMODE
 70
     0
  9
$VISRETAIN
 70
     1
  9
$PLINEGEN
 70
     0
  9
$PSLTSCALE
 70
     1
  9
$TREEDEPTH
 70
  3020
  9
$CMLSTYLE
  2
Standard
  9
$CMLJUST
 70
     0
  9
$CMLSCALE
 40
20.0
  9
$PROXYGRAPHICS
 70
     1
  9
$MEASUREMENT
 70
     1
  9
$CELWEIGHT
370
    -1
  9
$ENDCAPS
280
     0
  9
$JOINSTYLE
280
     0
  9
$LWDISPLAY
290
     1
  9
$INSUNITS
 70
     4
  9
$HYPERLINKBASE
  1

  9
$STYLESHEET
  1

  9
$XEDIT
290
     1
  9
$CEPSNTYPE
380
     0
  9
$PSTYLEMODE
290
     1
  9
$FINGERPRINTGUID
  2
{72598EC3-7327-4082-A44B-EA3C2672BBD6}
  9
$VERSIONGUID
  2
{FAEB1C32-E019-11D5-929B-00C0DF256EC4}
  9
$EXTNAMES
290
     1
  9
$PSVPSCALE
 40
0.0
  9
$OLESTARTUP
290
     0
  0
ENDSEC
  0
SECTION
  2
CLASSES
  0
CLASS
  1
ACDBDICTIONARYWDFLT
  2
AcDbDictionaryWithDefault
  3
ObjectDBX Classes
 90
        0
280
     0
281
     0
  0
CLASS
  1
VISUALSTYLE
  2
AcDbVisualStyle
  3
ObjectDBX Classes
 90
     4095
280
     0
281
     0
  0
CLASS
  1
MATERIAL
  2
AcDbMaterial
  3
ObjectDBX Classes
 90
     1153
280
     0
281
     0
  0
CLASS
  1
SCALE
  2
AcDbScale
  3
ObjectDBX Classes
 90
     1153
280
     0
281
     0
  0
CLASS
  1
DICTIONARYVAR
  2
AcDbDictionaryVar
  3
ObjectDBX Classes
 90
        0
280
     0
281
     0
  0
CLASS
  1
ACDBPLACEHOLDER
  2
AcDbPlaceHolder
  3
ObjectDBX Classes
 90
        0
280
     0
281
     0
  0
CLASS
  1
LAYOUT
  2
AcDbLayout
  3
ObjectDBX Classes
 90
        0
280
     0
281
     0
  0
ENDSEC
  0
SECTION
  2
TABLES
  0
TABLE
  2
VPORT
  5
8
330
0
100
AcDbSymbolTable
 70
     1
  0
VPORT
  5
29
330
8
100
AcDbSymbolTableRecord
100
AcDbViewportTableRecord
  2
*Active
 70
     0
 10
0.0
 20
0.0
 11
1.0
 21
1.0
 12
210.0
 22
148.5
 13
0.0
 23
0.0
 14
10.0
 24
10.0
 15
10.0
 25
10.0
 16
0.0
 26
0.0
 36
1.0
 17
0.0
 27
0.0
 37
0.0
 40
297.0
 41
1.4141414141
 42
50.0
 43
0.0
 44
0.0
 50
0.0
 51
0.0
 71
     0
 72
  2000
 73
     1
 74
     3
 75
     0
 76
     0
 77
     0
 78
     0
281
     0
 65
     1
110
0.0
120
0.0
130
0.0
111
1.0
121
0.0
131
0.0
112
0.0
122
1.0
132
0.0
 79
     0
146
0.0
  0
ENDTAB
  0
TABLE
  2
LTYPE
  5
5
330
0
100
AcDbSymbolTable
 70
     6
  0
LTYPE
  5
14
330
5
100
AcDbSymbolTableRecord
100
AcDbLinetypeTableRecord
  2
ByBlock
 70
     0
  3

 72
    65
 73
     0
 40
0.0
  0
LTYPE
  5
15
330
5
100
AcDbSymbolTableRecord
100
AcDbLinetypeTableRecord
  2
ByLayer
 70
     0
  3

 72
    65
 73
     0
 40
0.0
  0
LTYPE
  5
16
330
5
100
AcDbSymbolTableRecord
100
AcDbLinetypeTableRecord
  2
Continuous
 70
     0
  3
Solid line
 72
    65
 73
     0
 40
0.0
  0
LTYPE
  5
3F
330
5
100
AcDbSymbolTableRecord
100
AcDbLinetypeTableRecord
  2
HIDDEN
 70
     0
  3
Hidden __ __ __ __ __ __ __ __ __ __ __ __ __ __
 72
    65
 73
     2
 40
1.905
 49
1.27
 74
     0
 49
-0.635
 74
     0
  0
LTYPE
  5
40
330
5
100
AcDbSymbolTableRecord
100
AcDbLinetypeTableRecord
  2
PHANTOM
 70
     0
  3
Phantom ______  __  __  ______  __  __  ______
 72
    65
 73
     6
 40
12.7
 49
6.35
 74
     0
 49
-1.27
 74
     0
 49
1.27
 74
     0
 49
-1.27
 74
     0
 49
1.27
 74
     0
 49
-1.27
 74
     0
  0
LTYPE
  5
41
330
5
100
AcDbSymbolTableRecord
100
AcDbLinetypeTableRecord
  2
CENTER
 70
     0
  3
Center ____ _ ____ _ ____ _ ____ _ ____ _ ____
 72
    65
 73
     4
 40
10.16
 49
6.35
 74
     0
 49
-1.27
 74
     0
 49
1.27
 74
     0
 49
-1.27
 74
     0
  0
LTYPE
  5
42
330
5
100
AcDbSymbolTableRecord
100
AcDbLinetypeTableRecord
  2
CENTERX2
 70
     0
  3
Center (2x) ________  __  ________  __  _____
 72
    65
 73
     4
 40
20.32
 49
12.7
 74
     0
 49
-2.54
 74
     0
 49
2.54
 74
     0
 49
-2.54
 74
     0
  0
LTYPE
  5
43
330
5
100
AcDbSymbolTableRecord
100
AcDbLinetypeTableRecord
  2
DOT2
 70
     0
  3
Dot (.5x) ........................................
 72
    65
 73
     2
 40
0.635
 49
0.0
 74
     0
 49
-0.635
 74
     0
  0
ENDTAB
  0
TABLE
  2
LAYER
  5
2
330
0
100
AcDbSymbolTable
 70
    20
  0
LAYER
  5
10
330
2
100
AcDbSymbolTableRecord
100
AcDbLayerTableRecord
  2
0
 70
     0
 62
     7
  6
Continuous
370
    -3
390
F
  0
LAYER
  5
44
330
2
100
AcDbSymbolTableRecord
100
AcDbLayerTableRecord
  2
SLD-DEFPOINTS
 70
     0
 62
     7
  6
Continuous
370
    -1
390
F
  0
LAYER
  5
45
330
2
100
AcDbSymbolTableRecord
100
AcDbLayerTableRecord
  2
1
 70
     0
 62
     4
  6
Continuous
370
    15
390
F
  0
LAYER
  5
46
330
2
100
AcDbSymbolTableRecord
100
AcDbLayerTableRecord
  2
2
 70
     0
 62
     7
  6
Continuous
370
    -3
390
F
  0
LAYER
  5
47
330
2
100
AcDbSymbolTableRecord
100
AcDbLayerTableRecord
  2
3
 70
     0
 62
     1
  6
HIDDEN
370
    -3
390
F
  0
LAYER
  5
48
330
2
100
AcDbSymbolTableRecord
100
AcDbLayerTableRecord
  2
4
 70
     0
 62
     2
  6
CENTERX2
370
    -3
390
F
  0
LAYER
  5
49
330
2
100
AcDbSymbolTableRecord
100
AcDbLayerTableRecord
  2
6
 70
     0
 62
     5
  6
Continuous
370
    -3
390
F
  0
LAYER
  5
4A
330
2
100
AcDbSymbolTableRecord
100
AcDbLayerTableRecord
  2
7
 70
     0
 62
     5
  6
Continuous
370
    -3
390
F
  0
LAYER
  5
4B
330
2
100
AcDbSymbolTableRecord
100
AcDbLayerTableRecord
  2
CUT
 70
     0
 62
     1
  6
Continuous
370
    -3
390
F
  0
LAYER
  5
4C
330
2
100
AcDbSymbolTableRecord
100
AcDbLayerTableRecord
  2
NOCUT
 70
     0
 62
     7
  6
Continuous
370
    -3
390
F
  0
LAYER
  5
4D
330
2
100
AcDbSymbolTableRecord
100
AcDbLayerTableRecord
  2
SK1
 70
     0
 62
     4
  6
Continuous
370
    15
390
F
  0
LAYER
  5
4E
330
2
100
AcDbSymbolTableRecord
100
AcDbLayerTableRecord
  2
SK2
 70
     0
 62
     7
  6
Continuous
370
    -3
390
F
  0
LAYER
  5
4F
330
2
100
AcDbSymbolTableRecord
100
AcDbLayerTableRecord
  2
SK3
 70
     0
 62
     1
  6
HIDDEN
370
    -3
390
F
  0
LAYER
  5
50
330
2
100
AcDbSymbolTableRecord
100
AcDbLayerTableRecord
  2
SK4
 70
     0
 62
     2
  6
CENTERX2
370
    -3
390
F
  0
LAYER
  5
51
330
2
100
AcDbSymbolTableRecord
100
AcDbLayerTableRecord
  2
SK6
 70
     0
 62
     5
  6
Continuous
370
    -3
390
F
  0
LAYER
  5
52
330
2
100
AcDbSymbolTableRecord
100
AcDbLayerTableRecord
  2
SK7
 70
     0
 62
     5
  6
Continuous
370
    -3
390
F
  0
LAYER
  5
53
330
2
100
AcDbSymbolTableRecord
100
AcDbLayerTableRecord
  2
SLD-0
 70
     0
 62
     7
  6
Continuous
370
    -1
390
F
  0
LAYER
  5
54
330
2
100
AcDbSymbolTableRecord
100
AcDbLayerTableRecord
  2
SLD-DEFPOINTS_0
 70
     0
 62
     7
  6
Continuous
370
    -1
390
F
  0
LAYER
  5
55
330
2
100
AcDbSymbolTableRecord
100
AcDbLayerTableRecord
  2
INFTOTAL
 70
     0
 62
     9
  6
Continuous
370
    -3
390
F
  0
LAYER
  5
56
330
2
100
AcDbSymbolTableRecord
100
AcDbLayerTableRecord
  2
INFTEXT63
 70
     0
 62
     5
  6
Continuous
370
    -3
390
F
  0
ENDTAB
  0
TABLE
  2
STYLE
  5
3
330
0
100
AcDbSymbolTable
 70
     2
  0
STYLE
  5
11
330
3
100
AcDbSymbolTableRecord
100
AcDbTextStyleTableRecord
  2
STANDARD
 70
     0
 40
0.0
 41
1.0
 50
0.0
 71
     0
 42
2.5
  3
GOTHIC.TTF
  4

1001
ACAD
1000
CENTURY GOTHIC
1071
       34
  0
STYLE
  5
57
330
3
100
AcDbSymbolTableRecord
100
AcDbTextStyleTableRecord
  2
SLDTEXTSTYLE0
 70
     0
 40
0.0
 41
1.0
 50
0.0
 71
     0
 42
0.2
  3
Monospac821 BT
  4

1001
ACAD
1000
Monospac821 BT
1071
      305
  0
ENDTAB
  0
TABLE
  2
VIEW
  5
6
330
0
100
AcDbSymbolTable
 70
     0
  0
ENDTAB
  0
TABLE
  2
UCS
  5
7
330
0
100
AcDbSymbolTable
 70
     0
  0
ENDTAB
  0
TABLE
  2
APPID
  5
9
330
0
100
AcDbSymbolTable
 70
     1
  0
APPID
  5
12
330
9
100
AcDbSymbolTableRecord
100
AcDbRegAppTableRecord
  2
ACAD
 70
     0
  0
ENDTAB
  0
TABLE
  2
DIMSTYLE
  5
A
330
0
100
AcDbSymbolTable
 70
     6
100
AcDbDimStyleTable
  0
DIMSTYLE
105
27
330
A
100
AcDbSymbolTableRecord
100
AcDbDimStyleTableRecord
  2
ISO-25
 70
     0
 41
2.5
 42
0.625
 43
3.75
 44
1.25
 73
     0
 74
     0
 77
     1
 78
     8
140
2.5
141
2.5
143
0.0393700787
147
0.625
171
     3
172
     1
271
     2
272
     2
274
     3
278
    44
283
     0
284
     8
340
57
  0
DIMSTYLE
105
E8
102
{ACAD_REACTORS
330
C5
102
}
330
A
100
AcDbSymbolTableRecord
100
AcDbDimStyleTableRecord
  2
SLDDIMSTYLE0
 70
     0
 41
3.302
 44
0.0
 45
0.000000001
 73
     0
 77
     1
 78
    12
140
3.5
147
0.875
173
     1
271
     1
272
     2
276
     2
284
    12
340
57
  0
DIMSTYLE
105
F5
102
{ACAD_REACTORS
330
F4
102
}
330
A
100
AcDbSymbolTableRecord
100
AcDbDimStyleTableRecord
  2
SLDDIMSTYLE1
 70
     0
 41
3.302
 44
0.0
 45
0.000000001
 73
     0
 77
     1
 78
    12
140
3.5
141
0.0
147
0.875
173
     1
271
     1
272
     1
276
     2
284
    12
340
57
  0
DIMSTYLE
105
FF
102
{ACAD_REACTORS
330
FE
102
}
330
A
100
AcDbSymbolTableRecord
100
AcDbDimStyleTableRecord
  2
SLDDIMSTYLE2
 70
     0
 41
3.302
 44
0.0
 45
0.000000001
 73
     0
 77
     1
 78
    12
140
3.5
147
0.875
173
     1
271
     1
272
     1
276
     2
284
    12
340
57
  0
DIMSTYLE
105
10A
102
{ACAD_REACTORS
330
109
330
114
330
138
330
142
102
}
330
A
100
AcDbSymbolTableRecord
100
AcDbDimStyleTableRecord
  2
SLDDIMSTYLE3
 70
     0
 41
3.302
 44
0.0
 45
0.000000001
 73
     0
 77
     1
 78
    12
140
3.5
147
0.875
173
     1
271
     2
272
     2
276
     2
284
    12
340
57
  0
DIMSTYLE
105
11F
102
{ACAD_REACTORS
330
11E
330
12B
102
}
330
A
100
AcDbSymbolTableRecord
100
AcDbDimStyleTableRecord
  2
SLDDIMSTYLE4
 70
     0
 41
3.302
 44
0.0
 45
0.000000001
 73
     0
 77
     1
 78
    12
140
3.5
147
0.875
173
     1
271
     2
272
     2
276
     2
284
    12
340
57
  0
ENDTAB
  0
TABLE
  2
BLOCK_RECORD
  5
1
330
0
100
AcDbSymbolTable
 70
    12
  0
BLOCK_RECORD
  5
1F
330
1
100
AcDbSymbolTableRecord
100
AcDbBlockTableRecord
  2
*Model_Space
340
22
  0
BLOCK_RECORD
  5
1B
330
1
100
AcDbSymbolTableRecord
100
AcDbBlockTableRecord
  2
*Paper_Space
340
1E
  0
BLOCK_RECORD
  5
23
330
1
100
AcDbSymbolTableRecord
100
AcDbBlockTableRecord
  2
*Paper_Space0
340
26
  0
BLOCK_RECORD
  5
E9
330
1
100
AcDbSymbolTableRecord
100
AcDbBlockTableRecord
  2
*D1
340
0
  0
BLOCK_RECORD
  5
F6
330
1
100
AcDbSymbolTableRecord
100
AcDbBlockTableRecord
  2
*D2
340
0
  0
BLOCK_RECORD
  5
100
330
1
100
AcDbSymbolTableRecord
100
AcDbBlockTableRecord
  2
*D3
340
0
  0
BLOCK_RECORD
  5
10B
330
1
100
AcDbSymbolTableRecord
100
AcDbBlockTableRecord
  2
*D4
340
0
  0
BLOCK_RECORD
  5
115
330
1
100
AcDbSymbolTableRecord
100
AcDbBlockTableRecord
  2
*D5
340
0
  0
BLOCK_RECORD
  5
120
330
1
100
AcDbSymbolTableRecord
100
AcDbBlockTableRecord
  2
*D6
340
0
  0
BLOCK_RECORD
  5
12C
330
1
100
AcDbSymbolTableRecord
100
AcDbBlockTableRecord
  2
*D7
340
0
  0
BLOCK_RECORD
  5
139
330
1
100
AcDbSymbolTableRecord
100
AcDbBlockTableRecord
  2
*D8
340
0
  0
BLOCK_RECORD
  5
143
330
1
100
AcDbSymbolTableRecord
100
AcDbBlockTableRecord
  2
*D9
340
0
  0
BLOCK_RECORD
  5
14E
330
1
100
AcDbSymbolTableRecord
100
AcDbBlockTableRecord
  2
SW_NOTE_0
340
0
102
{BLKREFS
331
156
102
}
  0
BLOCK_RECORD
  5
157
330
1
100
AcDbSymbolTableRecord
100
AcDbBlockTableRecord
  2
SW_NOTE_1
340
0
102
{BLKREFS
331
15D
102
}
  0
ENDTAB
  0
ENDSEC
  0
SECTION
  2
BLOCKS
  0
BLOCK
  5
20
330
1F
100
AcDbEntity
  8
0
100
AcDbBlockBegin
  2
*Model_Space
 70
     0
 10
0.0
 20
0.0
 30
0.0
  3
*Model_Space
  1

  0
ENDBLK
  5
21
330
1F
100
AcDbEntity
  8
0
100
AcDbBlockEnd
  0
BLOCK
  5
1C
330
1B
100
AcDbEntity
 67
     1
  8
0
100
AcDbBlockBegin
  2
*Paper_Space
 70
     0
 10
0.0
 20
0.0
 30
0.0
  3
*Paper_Space
  1

  0
ENDBLK
  5
1D
330
1B
100
AcDbEntity
 67
     1
  8
0
100
AcDbBlockEnd
  0
BLOCK
  5
24
330
23
100
AcDbEntity
  8
0
100
AcDbBlockBegin
  2
*Paper_Space0
 70
     0
 10
0.0
 20
0.0
 30
0.0
  3
*Paper_Space0
  1

  0
ENDBLK
  5
25
330
23
100
AcDbEntity
  8
0
100
AcDbBlockEnd
  0
BLOCK
  5
EA
330
E9
100
AcDbEntity
  8
0
100
AcDbBlockBegin
  2
*D1
 70
     1
 10
0.0
 20
0.0
 30
0.0
  3
*D1
  1

  0
SOLID
  5
EC
330
E9
100
AcDbEntity
  8
2
100
AcDbTrace
 10
118.9632346948
 20
-4.0
 30
0.0
 11
119.4712346948
 21
-0.698
 31
0.0
 12
118.4552346948
 22
-0.698
 32
0.0
 13
118.4552346948
 23
-0.698
 33
0.0
  0
SOLID
  5
ED
330
E9
100
AcDbEntity
  8
2
100
AcDbTrace
 10
118.9632346948
 20
4.0
 30
0.0
 11
118.4552346948
 21
0.698
 31
0.0
 12
119.4712346948
 22
0.698
 32
0.0
 13
119.4712346948
 23
0.698
 33
0.0
  0
LINE
  5
EE
330
E9
100
AcDbEntity
  8
2
100
AcDbLine
 10
40.0
 20
-4.0
 30
0.0
 11
119.9632346948
 21
-4.0
 31
0.0
  0
LINE
  5
EF
330
E9
100
AcDbEntity
  8
2
100
AcDbLine
 10
39.5
 20
4.0
 30
0.0
 11
119.9632346948
 21
4.0
 31
0.0
  0
LINE
  5
F0
330
E9
100
AcDbEntity
  8
2
100
AcDbLine
 10
118.9632346948
 20
-4.0
 30
0.0
 11
118.9632346948
 21
4.0
 31
0.0
  0
LINE
  5
F1
330
E9
100
AcDbEntity
  8
2
100
AcDbLine
 10
118.9632346948
 20
4.0
 30
0.0
 11
118.9632346948
 21
17.050646519
 31
0.0
  0
MTEXT
  5
F2
330
E9
100
AcDbEntity
  8
2
100
AcDbMText
 10
114.3565510066
 20
7.4375422464
 30
0.0
 40
3.5
 41
0.0
 71
     1
 72
     1
  1
%%c
  7
SLDTEXTSTYLE0
 11
-1.608122649676637E-16
 21
1.0
 31
0.0
 73
     1
 44
1.0
  0
MTEXT
  5
F3
330
E9
100
AcDbEntity
  8
2
100
AcDbMText
 10
114.3565512394
 20
12.6875674854
 30
0.0
 40
3.5
 41
0.0
 71
     1
 72
     1
  1
8
  7
SLDTEXTSTYLE0
 11
-1.608122649676637E-16
 21
1.0
 31
0.0
 73
     1
 44
1.0
  0
ENDBLK
  5
EB
330
E9
100
AcDbEntity
  8
0
100
AcDbBlockEnd
  0
BLOCK
  5
F7
330
F6
100
AcDbEntity
  8
0
100
AcDbBlockBegin
  2
*D2
 70
     1
 10
0.0
 20
0.0
 30
0.0
  3
*D2
  1

  0
SOLID
  5
F9
330
F6
100
AcDbEntity
  8
SK2
100
AcDbTrace
 10
38.8535533906
 20
3.8535533906
 30
0.0
 11
41.5476302269
 21
5.8292097372
 31
0.0
 12
40.8292097372
 22
6.5476302269
 32
0.0
 13
40.8292097372
 23
6.5476302269
 33
0.0
  0
LINE
  5
FA
330
F6
100
AcDbEntity
  8
SK2
100
AcDbLine
 10
38.8535533906
 20
3.8535533906
 30
0.0
 11
63.4540822453
 21
28.4540822453
 31
0.0
  0
LINE
  5
FB
330
F6
100
AcDbEntity
  8
SK2
100
AcDbLine
 10
38.8535533906
 20
3.8535533906
 30
0.0
 11
38.5
 21
3.5
 31
0.0
  0
MTEXT
  5
FC
330
F6
100
AcDbEntity
  8
SK2
100
AcDbMText
 10
51.2328663835
 20
22.7291880259
 30
0.0
 40
3.5
 41
0.0
 71
     1
 72
     1
  1
R
  7
SLDTEXTSTYLE0
 11
0.7071067811865464
 21
0.7071067811865488
 31
0.0
 73
     1
 44
1.0
  0
MTEXT
  5
FD
330
F6
100
AcDbEntity
  8
SK2
100
AcDbMText
 10
53.1954971398
 20
24.6918187823
 30
0.0
 40
3.5
 41
0.0
 71
     1
 72
     1
  1
0,5
  7
SLDTEXTSTYLE0
 11
0.7071067811865464
 21
0.7071067811865488
 31
0.0
 73
     1
 44
1.0
  0
ENDBLK
  5
F8
330
F6
100
AcDbEntity
  8
0
100
AcDbBlockEnd
  0
BLOCK
  5
101
330
100
100
AcDbEntity
  8
0
100
AcDbBlockBegin
  2
*D3
 70
     1
 10
0.0
 20
0.0
 30
0.0
  3
*D3
  1

  0
SOLID
  5
103
330
100
100
AcDbEntity
  8
SK2
100
AcDbTrace
 10
39.0
 20
86.0998788878
 30
0.0
 11
35.698
 21
86.6078788878
 31
0.0
 12
35.698
 22
85.5918788878
 32
0.0
 13
35.698
 23
85.5918788878
 33
0.0
  0
SOLID
  5
104
330
100
100
AcDbEntity
  8
SK2
100
AcDbTrace
 10
-36.0
 20
86.0998788878
 30
0.0
 11
-32.698
 21
85.5918788878
 31
0.0
 12
-32.698
 22
86.6078788878
 32
0.0
 13
-32.698
 23
86.6078788878
 33
0.0
  0
LINE
  5
105
330
100
100
AcDbEntity
  8
SK2
100
AcDbLine
 10
39.0
 20
4.5
 30
0.0
 11
39.0
 21
87.0998788878
 31
0.0
  0
LINE
  5
106
330
100
100
AcDbEntity
  8
SK2
100
AcDbLine
 10
-36.0
 20
5.0
 30
0.0
 11
-36.0
 21
87.0998788878
 31
0.0
  0
LINE
  5
107
330
100
100
AcDbEntity
  8
SK2
100
AcDbLine
 10
39.0
 20
86.0998788878
 30
0.0
 11
-36.0
 21
86.0998788878
 31
0.0
  0
MTEXT
  5
108
330
100
100
AcDbEntity
  8
SK2
100
AcDbMText
 10
0.4383981721
 20
90.7065623432
 30
0.0
 40
3.5
 41
0.0
 71
     1
 72
     1
  1
75
  7
SLDTEXTSTYLE0
 73
     1
 44
1.0
  0
ENDBLK
  5
102
330
100
100
AcDbEntity
  8
0
100
AcDbBlockEnd
  0
BLOCK
  5
10C
330
10B
100
AcDbEntity
  8
0
100
AcDbBlockBegin
  2
*D4
 70
     1
 10
0.0
 20
0.0
 30
0.0
  3
*D4
  1

  0
SOLID
  5
10E
330
10B
100
AcDbEntity
  8
SK2
100
AcDbTrace
 10
0.0
 20
48.7509423314
 30
0.0
 11
-3.302
 21
49.2589423314
 31
0.0
 12
-3.302
 22
48.2429423314
 32
0.0
 13
-3.302
 23
48.2429423314
 33
0.0
  0
SOLID
  5
10F
330
10B
100
AcDbEntity
  8
SK2
100
AcDbTrace
 10
-36.0
 20
48.7509423314
 30
0.0
 11
-32.698
 21
48.2429423314
 31
0.0
 12
-32.698
 22
49.2589423314
 32
0.0
 13
-32.698
 23
49.2589423314
 33
0.0
  0
LINE
  5
110
330
10B
100
AcDbEntity
  8
SK2
100
AcDbLine
 10
0.0
 20
1.0
 30
0.0
 11
0.0
 21
49.7509423314
 31
0.0
  0
LINE
  5
111
330
10B
100
AcDbEntity
  8
SK2
100
AcDbLine
 10
-36.0
 20
1.0
 30
0.0
 11
-36.0
 21
49.7509423314
 31
0.0
  0
LINE
  5
112
330
10B
100
AcDbEntity
  8
SK2
100
AcDbLine
 10
0.0
 20
48.7509423314
 30
0.0
 11
-36.0
 21
48.7509423314
 31
0.0
  0
MTEXT
  5
113
330
10B
100
AcDbEntity
  8
SK2
100
AcDbMText
 10
-21.6692871854
 20
53.3576257868
 30
0.0
 40
3.5
 41
0.0
 71
     1
 72
     1
  1
36
  7
SLDTEXTSTYLE0
 73
     1
 44
1.0
  0
ENDBLK
  5
10D
330
10B
100
AcDbEntity
  8
0
100
AcDbBlockEnd
  0
BLOCK
  5
116
330
115
100
AcDbEntity
  8
0
100
AcDbBlockBegin
  2
*D5
 70
     1
 10
0.0
 20
0.0
 30
0.0
  3
*D5
  1

  0
SOLID
  5
118
330
115
100
AcDbEntity
  8
SK2
100
AcDbTrace
 10
-1.0
 20
56.9509423314
 30
0.0
 11
2.302
 21
56.4429423314
 31
0.0
 12
2.302
 22
57.4589423314
 32
0.0
 13
2.302
 23
57.4589423314
 33
0.0
  0
SOLID
  5
119
330
115
100
AcDbEntity
  8
SK2
100
AcDbTrace
 10
39.0
 20
56.9509423314
 30
0.0
 11
35.698
 21
57.4589423314
 31
0.0
 12
35.698
 22
56.4429423314
 32
0.0
 13
35.698
 23
56.4429423314
 33
0.0
  0
LINE
  5
11A
330
115
100
AcDbEntity
  8
SK2
100
AcDbLine
 10
-1.0
 20
4.7
 30
0.0
 11
-1.0
 21
57.9509423314
 31
0.0
  0
LINE
  5
11B
330
115
100
AcDbEntity
  8
SK2
100
AcDbLine
 10
39.0
 20
5.0
 30
0.0
 11
39.0
 21
57.9509423314
 31
0.0
  0
LINE
  5
11C
330
115
100
AcDbEntity
  8
SK2
100
AcDbLine
 10
-1.0
 20
56.9509423314
 30
0.0
 11
39.0
 21
56.9509423314
 31
0.0
  0
MTEXT
  5
11D
330
115
100
AcDbEntity
  8
SK2
100
AcDbMText
 10
15.1659018435
 20
61.5576257868
 30
0.0
 40
3.5
 41
0.0
 71
     1
 72
     1
  1
40
  7
SLDTEXTSTYLE0
 73
     1
 44
1.0
  0
ENDBLK
  5
117
330
115
100
AcDbEntity
  8
0
100
AcDbBlockEnd
  0
BLOCK
  5
121
330
120
100
AcDbEntity
  8
0
100
AcDbBlockBegin
  2
*D6
 70
     1
 10
0.0
 20
0.0
 30
0.0
  3
*D6
  1

  0
SOLID
  5
123
330
120
100
AcDbEntity
  8
SK2
100
AcDbTrace
 10
39.0
 20
44.7509423314
 30
0.0
 11
42.302
 21
44.2429423314
 31
0.0
 12
42.302
 22
45.2589423314
 32
0.0
 13
42.302
 23
45.2589423314
 33
0.0
  0
SOLID
  5
124
330
120
100
AcDbEntity
  8
SK2
100
AcDbTrace
 10
27.0
 20
44.7509423314
 30
0.0
 11
23.698
 21
45.2589423314
 31
0.0
 12
23.698
 22
44.2429423314
 32
0.0
 13
23.698
 23
44.2429423314
 33
0.0
  0
LINE
  5
125
330
120
100
AcDbEntity
  8
SK2
100
AcDbLine
 10
39.0
 20
5.0
 30
0.0
 11
39.0
 21
45.7509423314
 31
0.0
  0
LINE
  5
126
330
120
100
AcDbEntity
  8
SK2
100
AcDbLine
 10
27.0
 20
3.4
 30
0.0
 11
27.0
 21
45.7509423314
 31
0.0
  0
LINE
  5
127
330
120
100
AcDbEntity
  8
SK2
100
AcDbLine
 10
39.0
 20
44.7509423314
 30
0.0
 11
45.35
 21
44.7509423314
 31
0.0
  0
LINE
  5
128
330
120
100
AcDbEntity
  8
SK2
100
AcDbLine
 10
39.0
 20
44.7509423314
 30
0.0
 11
27.0
 21
44.7509423314
 31
0.0
  0
LINE
  5
129
330
120
100
AcDbEntity
  8
SK2
100
AcDbLine
 10
27.0
 20
44.7509423314
 30
0.0
 11
20.65
 21
44.7509423314
 31
0.0
  0
MTEXT
  5
12A
330
120
100
AcDbEntity
  8
SK2
100
AcDbMText
 10
30.0745300167
 20
49.3576257868
 30
0.0
 40
3.5
 41
0.0
 71
     1
 72
     1
  1
12
  7
SLDTEXTSTYLE0
 73
     1
 44
1.0
  0
ENDBLK
  5
122
330
120
100
AcDbEntity
  8
0
100
AcDbBlockEnd
  0
BLOCK
  5
12D
330
12C
100
AcDbEntity
  8
0
100
AcDbBlockBegin
  2
*D7
 70
     1
 10
0.0
 20
0.0
 30
0.0
  3
*D7
  1

  0
SOLID
  5
12F
330
12C
100
AcDbEntity
  8
SK2
100
AcDbTrace
 10
-12.9960344536
 20
3.7
 30
0.0
 11
-12.4880344536
 21
7.002
 31
0.0
 12
-13.5040344536
 22
7.002
 32
0.0
 13
-13.5040344536
 23
7.002
 33
0.0
  0
SOLID
  5
130
330
12C
100
AcDbEntity
  8
SK2
100
AcDbTrace
 10
-12.9960344536
 20
-3.7
 30
0.0
 11
-13.5040344536
 21
-7.002
 31
0.0
 12
-12.4880344536
 22
-7.002
 32
0.0
 13
-12.4880344536
 23
-7.002
 33
0.0
  0
LINE
  5
131
330
12C
100
AcDbEntity
  8
SK2
100
AcDbLine
 10
-2.0
 20
3.7
 30
0.0
 11
-13.9960344536
 21
3.7
 31
0.0
  0
LINE
  5
132
330
12C
100
AcDbEntity
  8
SK2
100
AcDbLine
 10
-2.0
 20
-3.7
 30
0.0
 11
-13.9960344536
 21
-3.7
 31
0.0
  0
LINE
  5
133
330
12C
100
AcDbEntity
  8
SK2
100
AcDbLine
 10
-12.9960344536
 20
3.7
 30
0.0
 11
-12.9960344536
 21
41.1110440987
 31
0.0
  0
LINE
  5
134
330
12C
100
AcDbEntity
  8
SK2
100
AcDbLine
 10
-12.9960344536
 20
3.7
 30
0.0
 11
-12.9960344536
 21
-3.7
 31
0.0
  0
LINE
  5
135
330
12C
100
AcDbEntity
  8
SK2
100
AcDbLine
 10
-12.9960344536
 20
-3.7
 30
0.0
 11
-12.9960344536
 21
-10.05
 31
0.0
  0
MTEXT
  5
136
330
12C
100
AcDbEntity
  8
SK2
100
AcDbMText
 10
-17.6027181418
 20
25.9467817589
 30
0.0
 40
3.5
 41
0.0
 71
     1
 72
     1
  1
%%c
  7
SLDTEXTSTYLE0
 11
-7.044195017643634E-15
 21
1.0
 31
0.0
 73
     1
 44
1.0
  0
MTEXT
  5
137
330
12C
100
AcDbEntity
  8
SK2
100
AcDbMText
 10
-17.602717909
 20
31.196806998
 30
0.0
 40
3.5
 41
0.0
 71
     1
 72
     1
  1
7,4
  7
SLDTEXTSTYLE0
 11
-7.044195017643634E-15
 21
1.0
 31
0.0
 73
     1
 44
1.0
  0
ENDBLK
  5
12E
330
12C
100
AcDbEntity
  8
0
100
AcDbBlockEnd
  0
BLOCK
  5
13A
330
139
100
AcDbEntity
  8
0
100
AcDbBlockBegin
  2
*D8
 70
     1
 10
0.0
 20
0.0
 30
0.0
  3
*D8
  1

  0
SOLID
  5
13C
330
139
100
AcDbEntity
  8
2
100
AcDbTrace
 10
0.0
 20
75.4999940533
 30
0.0
 11
3.302
 21
74.9919940533
 31
0.0
 12
3.302
 22
76.0079940533
 32
0.0
 13
3.302
 23
76.0079940533
 33
0.0
  0
SOLID
  5
13D
330
139
100
AcDbEntity
  8
2
100
AcDbTrace
 10
39.0
 20
75.4999940533
 30
0.0
 11
35.698
 21
76.0079940533
 31
0.0
 12
35.698
 22
74.9919940533
 32
0.0
 13
35.698
 23
74.9919940533
 33
0.0
  0
LINE
  5
13E
330
139
100
AcDbEntity
  8
2
100
AcDbLine
 10
0.0
 20
3.0
 30
0.0
 11
0.0
 21
76.4999940533
 31
0.0
  0
LINE
  5
13F
330
139
100
AcDbEntity
  8
2
100
AcDbLine
 10
39.0
 20
5.0
 30
0.0
 11
39.0
 21
76.4999940533
 31
0.0
  0
LINE
  5
140
330
139
100
AcDbEntity
  8
2
100
AcDbLine
 10
0.0
 20
75.4999940533
 30
0.0
 11
39.0
 21
75.4999940533
 31
0.0
  0
MTEXT
  5
141
330
139
100
AcDbEntity
  8
2
100
AcDbMText
 10
16.3396074729
 20
80.1066775087
 30
0.0
 40
3.5
 41
0.0
 71
     1
 72
     1
  1
39
  7
SLDTEXTSTYLE0
 73
     1
 44
1.0
  0
ENDBLK
  5
13B
330
139
100
AcDbEntity
  8
0
100
AcDbBlockEnd
  0
BLOCK
  5
144
330
143
100
AcDbEntity
  8
0
100
AcDbBlockBegin
  2
*D9
 70
     1
 10
0.0
 20
0.0
 30
0.0
  3
*D9
  1

  0
SOLID
  5
146
330
143
100
AcDbEntity
  8
SK2
100
AcDbTrace
 10
-37.7386612653
 20
4.0
 30
0.0
 11
-38.2466612653
 21
0.698
 31
0.0
 12
-37.2306612653
 22
0.698
 32
0.0
 13
-37.2306612653
 23
0.698
 33
0.0
  0
SOLID
  5
147
330
143
100
AcDbEntity
  8
SK2
100
AcDbTrace
 10
-37.7386612653
 20
-4.0
 30
0.0
 11
-37.2306612653
 21
-0.698
 31
0.0
 12
-38.2466612653
 22
-0.698
 32
0.0
 13
-38.2466612653
 23
-0.698
 33
0.0
  0
LINE
  5
148
330
143
100
AcDbEntity
  8
SK2
100
AcDbLine
 10
-37.0
 20
4.0
 30
0.0
 11
-38.7386612653
 21
4.0
 31
0.0
  0
LINE
  5
149
330
143
100
AcDbEntity
  8
SK2
100
AcDbLine
 10
-37.0
 20
-4.0
 30
0.0
 11
-38.7386612653
 21
-4.0
 31
0.0
  0
LINE
  5
14A
330
143
100
AcDbEntity
  8
SK2
100
AcDbLine
 10
-37.7386612653
 20
4.0
 30
0.0
 11
-37.7386612653
 21
22.1153392896
 31
0.0
  0
LINE
  5
14B
330
143
100
AcDbEntity
  8
SK2
100
AcDbLine
 10
-37.7386612653
 20
4.0
 30
0.0
 11
-37.7386612653
 21
-4.0
 31
0.0
  0
MTEXT
  5
14C
330
143
100
AcDbEntity
  8
SK2
100
AcDbMText
 10
-42.3453449535
 20
12.5022350169
 30
0.0
 40
3.5
 41
0.0
 71
     1
 72
     1
  1
%%c
  7
SLDTEXTSTYLE0
 11
-7.044195017643634E-15
 21
1.0
 31
0.0
 73
     1
 44
1.0
  0
MTEXT
  5
14D
330
143
100
AcDbEntity
  8
SK2
100
AcDbMText
 10
-42.3453447206
 20
17.752260256
 30
0.0
 40
3.5
 41
0.0
 71
     1
 72
     1
  1
8
  7
SLDTEXTSTYLE0
 11
-7.044195017643634E-15
 21
1.0
 31
0.0
 73
     1
 44
1.0
  0
ENDBLK
  5
145
330
143
100
AcDbEntity
  8
0
100
AcDbBlockEnd
  0
BLOCK
  5
14F
330
14E
100
AcDbEntity
  8
0
100
AcDbBlockBegin
  2
SW_NOTE_0
 70
     0
 10
0.0
 20
0.0
 30
0.0
  3
SW_NOTE_0
  1

  0
MTEXT
  5
151
330
14E
100
AcDbEntity
  8
INFTEXT63
 62
     0
100
AcDbMText
 10
0.0
 20
4.6066838046
 30
0.0
 40
3.5
 41
0.0
 71
     1
 72
     1
  1
Katalogware 2570200009
  7
SLDTEXTSTYLE0
 73
     1
 44
1.0
  0
MTEXT
  5
152
330
14E
100
AcDbEntity
  8
INFTEXT63
 62
     0
100
AcDbMText
 10
0.0
 20
0.0177948465
 30
0.0
 40
3.5
 41
0.0
 71
     1
 72
     1
  1
H. Sartorius Nachf. GmbH & Co. KG
  7
SLDTEXTSTYLE0
 73
     1
 44
1.0
  0
MTEXT
  5
153
330
14E
100
AcDbEntity
  8
INFTEXT63
 62
     0
100
AcDbMText
 10
0.0
 20
-4.5710941116
 30
0.0
 40
3.5
 41
0.0
 71
     1
 72
     1
  1
Harkortstrasse 54 
  7
SLDTEXTSTYLE0
 73
     1
 44
1.0
  0
MTEXT
  5
154
330
14E
100
AcDbEntity
  8
INFTEXT63
 62
     0
100
AcDbMText
 10
0.0
 20
-9.1599830697
 30
0.0
 40
3.5
 41
0.0
 71
     1
 72
     1
  1
40880 Ratingen
  7
SLDTEXTSTYLE0
 73
     1
 44
1.0
  0
MTEXT
  5
155
330
14E
100
AcDbEntity
  8
INFTEXT63
 62
     0
100
AcDbMText
 10
0.0
 20
-13.7488720278
 30
0.0
 40
3.5
 41
0.0
 71
     1
 72
     1
  1
Deutschland
  7
SLDTEXTSTYLE0
 73
     1
 44
1.0
  0
ENDBLK
  5
150
330
14E
100
AcDbEntity
  8
0
100
AcDbBlockEnd
  0
BLOCK
  5
158
330
157
100
AcDbEntity
  8
0
100
AcDbBlockBegin
  2
SW_NOTE_1
 70
     0
 10
0.0
 20
0.0
 30
0.0
  3
SW_NOTE_1
  1

  0
MTEXT
  5
15A
330
157
100
AcDbEntity
  8
INFTEXT63
 62
     0
100
AcDbMText
 10
0.0
 20
4.6066838046
 30
0.0
 40
3.5
 41
0.0
 71
     1
 72
     1
  1
Copyright
  7
SLDTEXTSTYLE0
 73
     1
 44
1.0
  0
MTEXT
  5
15B
330
157
100
AcDbEntity
  8
INFTEXT63
 62
     0
100
AcDbMText
 10
0.0
 20
-4.5710941116
 30
0.0
 40
3.5
 41
0.0
 71
     1
 72
     1
  1
Zeichnung nach DIN SPEC 69874 konvertiert mit SolidBMG Version 1.2
  7
SLDTEXTSTYLE0
 73
     1
 44
1.0
  0
MTEXT
  5
15C
330
157
100
AcDbEntity
  8
INFTEXT63
 62
     0
100
AcDbMText
 10
0.0
 20
-9.1599830697
 30
0.0
 40
3.5
 41
0.0
 71
     1
 72
     1
  1
Geprüft mit DWPTools V1.0.6-BMG Werkzeug / Schneidwerkzeug
  7
SLDTEXTSTYLE0
 73
     1
 44
1.0
  0
ENDBLK
  5
159
330
157
100
AcDbEntity
  8
0
100
AcDbBlockEnd
  0
ENDSEC
  0
SECTION
  2
ENTITIES
  0
LINE
  5
58
330
1F
100
AcDbEntity
  8
SK1
  6
Continuous
370
    15
100
AcDbLine
 10
-36.0
 20
-4.0
 30
0.0
 11
-1.0
 21
-4.0
 31
0.0
  0
LINE
  5
59
330
1F
100
AcDbEntity
  8
SK1
  6
Continuous
370
    15
100
AcDbLine
 10
-1.0
 20
4.0
 30
0.0
 11
-36.0
 21
4.0
 31
0.0
  0
LINE
  5
5A
330
1F
100
AcDbEntity
  8
SK1
  6
Continuous
370
    15
100
AcDbLine
 10
-1.0
 20
-3.7
 30
0.0
 11
0.0
 21
-3.7
 31
0.0
  0
LINE
  5
5B
330
1F
100
AcDbEntity
  8
SK1
  6
Continuous
370
    15
100
AcDbLine
 10
0.0
 20
3.7
 30
0.0
 11
-1.0
 21
3.7
 31
0.0
  0
LINE
  5
5C
330
1F
100
AcDbEntity
  8
1
  6
Continuous
370
    15
100
AcDbLine
 10
36.5340876139
 20
-4.0
 30
0.0
 11
38.5
 21
-4.0
 31
0.0
  0
SPLINE
  5
5D
330
1F
100
AcDbEntity
  8
1
  6
Continuous
370
    15
100
AcDbSpline
210
0.0
220
0.0
230
1.0
 70
     8
 71
     3
 72
    17
 73
    13
 74
     0
 42
0.00000001
 43
0.00000001
 40
0.0
 40
0.0
 40
0.0
 40
0.0
 40
0.0143800750891362
 40
0.0632834504718835
 40
0.1663944490130126
 40
0.255473225175675
 40
0.3100812736143747
 40
0.3857955517330445
 40
0.4942102015926835
 40
0.6355057375722463
 40
0.8099512183438099
 40
1.0
 40
1.0
 40
1.0
 40
1.0
 10
35.19684658023536
 20
2.602006549340201
 30
0.0
 10
35.19831060934798
 20
2.603011325858762
 30
0.0
 10
35.20475346957394
 20
2.607433119531844
 30
0.0
 10
35.14711118128867
 20
2.621729400368149
 30
0.0
 10
35.02707209187275
 20
2.644571575532588
 30
0.0
 10
34.86441244547993
 20
2.673218152369266
 30
0.0
 10
34.67750299093833
 20
2.709528999379688
 30
0.0
 10
34.47031551908639
 20
2.753788120798528
 30
0.0
 10
34.19101226629332
 20
2.820635842655972
 30
0.0
 10
33.82731581593319
 20
2.920731094871551
 30
0.0
 10
33.39535797910735
 20
3.056518937393147
 30
0.0
 10
33.08585189858234
 20
3.174114208386889
 30
0.0
 10
32.92447417722351
 20
3.235428857983931
 30
0.0
  0
LINE
  5
5E
330
1F
100
AcDbEntity
  8
1
  6
Continuous
370
    15
100
AcDbLine
 10
29.0975848315
 20
4.0
 30
0.0
 11
27.0
 21
4.0
 31
0.0
  0
LINE
  5
5F
330
1F
100
AcDbEntity
  8
1
  6
Continuous
370
    15
100
AcDbLine
 10
27.0
 20
-4.0
 30
0.0
 11
29.0975848315
 21
-4.0
 31
0.0
  0
LINE
  5
60
330
1F
100
AcDbEntity
  8
1
  6
Continuous
370
    15
100
AcDbLine
 10
38.5
 20
4.0
 30
0.0
 11
36.5340876139
 21
4.0
 31
0.0
  0
ARC
  5
61
330
1F
100
AcDbEntity
  8
1
  6
Continuous
370
    15
100
AcDbCircle
 10
38.5
 20
3.5
 30
0.0
 40
0.5000000000000009
100
AcDbArc
 50
88.4502705932
 51
90.0
  0
ARC
  5
62
330
1F
100
AcDbEntity
  8
1
  6
Continuous
370
    15
100
AcDbCircle
 10
38.5
 20
-3.5
 30
0.0
 40
0.5000000000000009
100
AcDbArc
 50
270.0
 51
271.4391444746
  0
LINE
  5
63
330
1F
100
AcDbEntity
  8
1
  6
Continuous
370
    15
100
AcDbLine
 10
0.0
 20
-3.7
 30
0.0
 11
25.4398765657
 21
-3.7
 31
0.0
  0
LINE
  5
64
330
1F
100
AcDbEntity
  8
1
  6
Continuous
370
    15
100
AcDbLine
 10
25.4398765657
 20
3.7
 30
0.0
 11
0.0
 21
3.7
 31
0.0
  0
LINE
  5
65
330
1F
100
AcDbEntity
  8
SK1
  6
Continuous
370
    15
100
AcDbLine
 10
-36.0
 20
0.0
 30
0.0
 11
-36.0
 21
4.0
 31
0.0
  0
LINE
  5
66
330
1F
100
AcDbEntity
  8
SK1
  6
Continuous
370
    15
100
AcDbLine
 10
-36.0
 20
-4.0
 30
0.0
 11
-36.0
 21
0.0
 31
0.0
  0
LINE
  5
67
330
1F
100
AcDbEntity
  8
SK1
  6
Continuous
370
    15
100
AcDbLine
 10
-1.0
 20
0.0
 30
0.0
 11
-1.0
 21
4.0
 31
0.0
  0
LINE
  5
68
330
1F
100
AcDbEntity
  8
SK1
  6
Continuous
370
    15
100
AcDbLine
 10
-1.0
 20
-4.0
 30
0.0
 11
-1.0
 21
0.0
 31
0.0
  0
LINE
  5
69
330
1F
100
AcDbEntity
  8
SK1
  6
Continuous
370
    15
100
AcDbLine
 10
0.0
 20
3.7
 30
0.0
 11
0.0
 21
-3.7
 31
0.0
  0
SPLINE
  5
6A
330
1F
100
AcDbEntity
  8
1
  6
Continuous
370
    15
100
AcDbSpline
210
0.0
220
0.0
230
1.0
 70
     8
 71
     3
 72
    18
 73
    14
 74
     0
 42
0.00000001
 43
0.00000001
 40
0.0
 40
0.0
 40
0.0
 40
0.0
 40
0.2500000000000001
 40
0.2500000000000001
 40
0.5000000000000002
 40
0.5000000000000002
 40
0.75
 40
0.75
 40
0.8749999999999997
 40
0.8749999999999997
 40
0.9374999999999999
 40
0.9374999999999999
 40
1.0
 40
1.0
 40
1.0
 40
1.0
 10
38.5
 20
0.0442097700532812
 30
0.0
 10
38.54227406809726
 20
-0.102790160064403
 30
0.0
 10
38.58547700485343
 20
-0.2472746570382333
 30
0.0
 10
38.6738564206976
 20
-0.5308991776369775
 30
0.0
 10
38.71941153803805
 20
-0.6712392673104256
 30
0.0
 10
38.81121784774122
 20
-0.9394924412455141
 30
0.0
 10
38.85749581636404
 20
-1.067759365488942
 30
0.0
 10
38.92249217340134
 20
-1.230466038002972
 30
0.0
 10
38.94394513579963
 20
-1.281212872510023
 30
0.0
 10
38.97248770899371
 20
-1.338339451507239
 30
0.0
 10
38.98133286975952
 20
-1.354042790813623
 30
0.0
 10
38.99521030651658
 20
-1.370024712265932
 30
0.0
 10
39.00000000000001
 20
-1.369185398132383
 30
0.0
 10
39.00000000000001
 20
-1.353940479567906
 30
0.0
  0
ELLIPSE
  5
6B
330
1F
100
AcDbEntity
  8
1
  6
Continuous
370
    15
100
AcDbEllipse
 10
39.01
 20
0.0
 30
0.0
 11
-1.171855558789375
 21
3.997744718674442
 31
0.0
210
0.0
220
0.0
230
0.9999999999999998
 40
0.1146067102
 41
1.513676751109949
 42
1.526161720007032
  0
SPLINE
  5
6C
330
1F
100
AcDbEntity
  8
1
  6
Continuous
370
    15
100
AcDbSpline
210
0.0
220
0.0
230
1.0
 70
     8
 71
     3
 72
    16
 73
    12
 74
     0
 42
0.00000001
 43
0.00000001
 40
0.0
 40
0.0
 40
0.0
 40
0.0
 40
0.1249999999999999
 40
0.1249999999999999
 40
0.2499999999999999
 40
0.2499999999999999
 40
0.4999999999999999
 40
0.4999999999999999
 40
0.7499999999999999
 40
0.7499999999999999
 40
1.0
 40
1.0
 40
1.0
 40
1.0
 10
38.1744894016801
 20
2.439906366316582
 30
0.0
 10
38.19529185156402
 20
2.322150524414696
 30
0.0
 10
38.20696485075408
 20
2.224748841883948
 30
0.0
 10
38.20592255859499
 20
2.100692240215483
 30
0.0
 10
38.20726850921207
 20
2.033440396461191
 30
0.0
 10
38.21696118513496
 20
1.815677526698849
 30
0.0
 10
38.23102213428051
 20
1.648607524659673
 30
0.0
 10
38.27591599622481
 20
1.271450038066023
 30
0.0
 10
38.30690648191093
 20
1.060094352294294
 30
0.0
 10
38.38447401476032
 20
0.6038569899928801
 30
0.0
 10
38.43112635872552
 20
0.3579365659880572
 30
0.0
 10
38.48567934670141
 20
0.0941418524642101
 30
0.0
  0
LINE
  5
6D
330
1F
100
AcDbEntity
  8
1
  6
Continuous
370
    15
100
AcDbLine
 10
38.1744894017
 20
2.4399063663
 30
0.0
 11
38.9705504177
 21
0.1152029517
 31
0.0
  0
SPLINE
  5
6E
330
1F
100
AcDbEntity
  8
1
  6
Continuous
370
    15
100
AcDbSpline
210
0.0
220
0.0
230
1.0
 70
     8
 71
     3
 72
    14
 73
    10
 74
     0
 42
0.00000001
 43
0.00000001
 40
0.0
 40
0.0
 40
0.0
 40
0.0
 40
0.5
 40
0.5
 40
0.75
 40
0.75
 40
0.875
 40
0.875
 40
1.0
 40
1.0
 40
1.0
 40
1.0
 10
39.00000000000001
 20
-1.353940479567909
 30
0.0
 10
38.99491117680705
 20
-1.108562634555198
 30
0.0
 10
38.98982236774298
 20
-0.8631848302800406
 30
0.0
 10
38.98220459206672
 20
-0.4951626357104864
 30
0.0
 10
38.9796654430149
 20
-0.3724888865931369
 30
0.0
 10
38.97588700648999
 20
-0.1885655889663997
 30
0.0
 10
38.97462832207485
 20
-0.1272601136447294
 30
0.0
 10
38.9721859392439
 20
-0.0048653686227202
 30
0.0
 10
38.97055041766973
 20
0.0575281241881016
 30
0.0
 10
38.97055041766973
 20
0.1152029516677524
 30
0.0
  0
LINE
  5
6F
330
1F
100
AcDbEntity
  8
1
  6
Continuous
370
    15
100
AcDbLine
 10
27.0
 20
3.7030975
 30
0.0
 11
27.0
 21
4.0
 31
0.0
  0
SPLINE
  5
70
330
1F
100
AcDbEntity
  8
1
  6
Continuous
370
    15
100
AcDbSpline
210
0.0
220
0.0
230
1.0
 70
     8
 71
     3
 72
    20
 73
    16
 74
     0
 42
0.00000001
 43
0.00000001
 40
0.0
 40
0.0
 40
0.0
 40
0.0
 40
0.25
 40
0.25
 40
0.375
 40
0.375
 40
0.5
 40
0.5
 40
0.625
 40
0.625
 40
0.75
 40
0.75
 40
0.875
 40
0.875
 40
1.0
 40
1.0
 40
1.0
 40
1.0
 10
27.0
 20
4.000000000000018
 30
0.0
 10
27.96652853540715
 20
4.000000000000006
 30
0.0
 10
28.91395416687915
 20
3.848462321486943
 30
0.0
 10
30.35502961638267
 20
3.415337519296389
 30
0.0
 10
30.83914676709097
 20
3.235754128551393
 30
0.0
 10
31.79549361897491
 20
2.824295950575958
 30
0.0
 10
32.27106461048123
 20
2.591558142406881
 30
0.0
 10
33.22481284982081
 20
2.081329609314635
 30
0.0
 10
33.70370724942916
 20
1.803424792785832
 30
0.0
 10
34.66955246158216
 20
1.214016150586022
 30
0.0
 10
35.14729483478576
 20
0.9081485441808296
 30
0.0
 10
36.10067931748142
 20
0.2868223173119312
 30
0.0
 10
36.57634002117825
 20
-0.0286069818710917
 30
0.0
 10
37.53341680825644
 20
-0.6570033633351264
 30
0.0
 10
38.0167310055287
 20
-0.9712053969913297
 30
0.0
 10
38.50000000000002
 20
-1.273122487376245
 30
0.0
  0
SPLINE
  5
71
330
1F
100
AcDbEntity
  8
1
  6
Continuous
370
    15
100
AcDbSpline
210
0.0
220
0.0
230
1.0
 70
     8
 71
     3
 72
    14
 73
    10
 74
     0
 42
0.00000001
 43
0.00000001
 40
0.0
 40
0.0
 40
0.0
 40
0.0
 40
0.25
 40
0.25
 40
0.5
 40
0.5
 40
0.75
 40
0.75
 40
1.0
 40
1.0
 40
1.0
 40
1.0
 10
38.49999999999998
 20
-1.273122487376299
 30
0.0
 10
38.56048009373968
 20
-1.310906773430234
 30
0.0
 10
38.61915929424649
 20
-1.344007928039479
 30
0.0
 10
38.73365488080756
 20
-1.399329469727665
 30
0.0
 10
38.78819573022736
 20
-1.420733189344662
 30
0.0
 10
38.88405477663873
 20
-1.445356296609756
 30
0.0
 10
38.92558179380276
 20
-1.448487301240738
 30
0.0
 10
38.98408190636011
 20
-1.43182832165678
 30
0.0
 10
39.00000000000048
 20
-1.41243577025677
 30
0.0
 10
39.0000000000005
 20
-1.383729291569338
 30
0.0
  0
SPLINE
  5
72
330
1F
100
AcDbEntity
  8
1
  6
Continuous
370
    15
100
AcDbSpline
210
0.0
220
0.0
230
1.0
 70
     8
 71
     3
 72
    16
 73
    12
 74
     0
 42
0.00000001
 43
0.00000001
 40
0.0
 40
0.0
 40
0.0
 40
0.0
 40
0.125
 40
0.125
 40
0.2499999999999999
 40
0.2499999999999999
 40
0.5
 40
0.5
 40
0.75
 40
0.75
 40
1.0
 40
1.0
 40
1.0
 40
1.0
 10
38.17448940167406
 20
-1.049701975334567
 30
0.0
 10
38.19529185155921
 20
-1.156073302733116
 30
0.0
 10
38.2069648507512
 20
-1.288572489094864
 30
0.0
 10
38.2059225585915
 20
-1.585311536820079
 30
0.0
 10
38.2072685092088
 20
-1.730803355796853
 30
0.0
 10
38.21696118513528
 20
-2.158997704151735
 30
0.0
 10
38.23102213428773
 20
-2.434223519665305
 30
0.0
 10
38.27591599624326
 20
-2.949747955737195
 30
0.0
 10
38.30690648193481
 20
-3.191726818169347
 30
0.0
 10
38.38447401479259
 20
-3.628231065406089
 30
0.0
 10
38.43112635876016
 20
-3.824565195457051
 30
0.0
 10
38.48567934673631
 20
-3.998892010499626
 30
0.0
  0
SPLINE
  5
73
330
1F
100
AcDbEntity
  8
1
  6
Continuous
370
    15
100
AcDbSpline
210
0.0
220
0.0
230
1.0
 70
     8
 71
     3
 72
    32
 73
    28
 74
     0
 42
0.00000001
 43
0.00000001
 40
0.0
 40
0.0
 40
0.0
 40
0.0
 40
0.1249999999999998
 40
0.1249999999999998
 40
0.1874999999999996
 40
0.1874999999999996
 40
0.2499999999999995
 40
0.2499999999999995
 40
0.3124999999999994
 40
0.3124999999999994
 40
0.3749999999999992
 40
0.3749999999999992
 40
0.5000000000000003
 40
0.5000000000000003
 40
0.5625000000000002
 40
0.5625000000000002
 40
0.6250000000000001
 40
0.6250000000000001
 40
0.7500000000000004
 40
0.7500000000000004
 40
0.8125000000000003
 40
0.8125000000000003
 40
0.8750000000000002
 40
0.8750000000000002
 40
0.9375000000000001
 40
0.9375000000000001
 40
1.0
 40
1.0
 40
1.0
 40
1.0
 10
38.48567934673633
 20
-3.998892010499623
 30
0.0
 10
38.00559130361258
 20
-3.991360861164682
 30
0.0
 10
37.53266347156341
 20
-3.944325838401593
 30
0.0
 10
36.81313672469302
 20
-3.824976797697216
 30
0.0
 10
36.57358157226616
 20
-3.776647036318616
 30
0.0
 10
36.09749928072901
 20
-3.660684196004982
 30
0.0
 10
35.86013891471102
 20
-3.593356001525906
 30
0.0
 10
35.38339540605674
 20
-3.44151205283685
 30
0.0
 10
35.14317268869343
 20
-3.35667852573442
 30
0.0
 10
34.66176384190272
 20
-3.174845465692821
 30
0.0
 10
34.41990841472242
 20
-3.079090926869049
 30
0.0
 10
33.70338541206035
 20
-2.765316420802096
 30
0.0
 10
33.23401114048124
 20
-2.523228365213837
 30
0.0
 10
32.52174950540093
 20
-2.134204288458581
 30
0.0
 10
32.28199999605223
 20
-2.001700199929811
 30
0.0
 10
31.80054149944637
 20
-1.728005737532202
 30
0.0
 10
31.56025842218624
 20
-1.584076570411605
 30
0.0
 10
30.83935072654234
 20
-1.137657596241669
 30
0.0
 10
30.36388831829071
 20
-0.823799966456445
 30
0.0
 10
29.63851399331671
 20
-0.3587890438646505
 30
0.0
 10
29.39593121489722
 20
-0.2021825345073651
 30
0.0
 10
28.91711411927583
 20
0.1164010067379385
 30
0.0
 10
28.67945847084152
 20
0.2770819810368462
 30
0.0
 10
28.2038159355012
 20
0.5953134296234402
 30
0.0
 10
27.96581156021771
 20
0.7528370308552115
 30
0.0
 10
27.48549131898223
 20
1.058904046871679
 30
0.0
 10
27.24202060400209
 20
1.205778247811794
 30
0.0
 10
27.0
 20
1.353544538504668
 30
0.0
  0
SPLINE
  5
74
330
1F
100
AcDbEntity
  8
1
  6
Continuous
370
    15
100
AcDbSpline
210
0.0
220
0.0
230
1.0
 70
    24
 71
     3
 72
     8
 73
     4
 74
     0
 42
0.00000001
 43
0.00000001
 40
0.0
 40
0.0
 40
0.0
 40
0.0
 40
1.0
 40
1.0
 40
1.0
 40
1.0
 10
27.0
 20
1.353544538504667
 30
0.0
 10
27.0
 20
1.450329122401179
 30
0.0
 10
27.0
 20
1.541901864779999
 30
0.0
 10
27.0
 20
1.628073072628514
 30
0.0
  0
SPLINE
  5
75
330
1F
100
AcDbEntity
  8
1
  6
Continuous
370
    15
100
AcDbSpline
210
0.0
220
0.0
230
1.0
 70
    24
 71
     3
 72
    17
 73
    13
 74
     0
 42
0.00000001
 43
0.00000001
 40
0.0
 40
0.0
 40
0.0
 40
0.0
 40
0.1250000000000001
 40
0.1250000000000001
 40
0.2500000000000001
 40
0.2500000000000001
 40
0.3125000000000001
 40
0.3125000000000001
 40
0.3750000000000002
 40
0.5000000000000002
 40
0.5000000000000002
 40
1.0
 40
1.0
 40
1.0
 40
1.0
 10
27.0
 20
3.260000000000009
 30
0.0
 10
27.00000000000001
 20
3.096963509673888
 30
0.0
 10
27.0
 20
2.935487764722509
 30
0.0
 10
27.0
 20
2.679931516427659
 30
0.0
 10
27.00000000000001
 20
2.585057632734835
 30
0.0
 10
27.00000000000001
 20
2.499039464147899
 30
0.0
 10
26.99999999999999
 20
2.481506355918678
 30
0.0
 10
26.99999999999999
 20
2.46187343523077
 30
0.0
 10
27.0
 20
2.427967160480984
 30
0.0
 10
27.00000000000003
 20
2.380747697216261
 30
0.0
 10
27.00000000000002
 20
2.193781285298571
 30
0.0
 10
27.00000000000001
 20
1.949523146557496
 30
0.0
 10
27.00000000000001
 20
1.628073072636965
 30
0.0
  0
LINE
  5
76
330
1F
100
AcDbEntity
  8
1
  6
Continuous
370
    15
100
AcDbLine
 10
27.0
 20
3.26
 30
0.0
 11
27.0
 21
3.7
 31
0.0
  0
SPLINE
  5
77
330
1F
100
AcDbEntity
  8
1
  6
Continuous
370
    15
100
AcDbSpline
210
0.0
220
0.0
230
1.0
 70
     8
 71
     3
 72
    18
 73
    14
 74
     0
 42
0.00000001
 43
0.00000001
 40
0.0
 40
0.0
 40
0.0
 40
0.0
 40
0.0879193896391665
 40
0.1758387775780878
 40
0.2658444894580289
 40
0.3558501912329744
 40
0.4526155934191505
 40
0.5493810129070513
 40
0.6489449866564156
 40
0.7485089854279812
 40
0.8454031748614224
 40
0.9422973359762449
 40
1.0
 40
1.0
 40
1.0
 40
1.0
 10
27.0
 20
-0.0000000000000228
 30
0.0
 10
27.27939700556061
 20
-0.1841263119806545
 30
0.0
 10
27.83819101127866
 20
-0.5523789323811577
 30
0.0
 10
28.68298678051472
 20
-1.098633407563311
 30
0.0
 10
29.53450442271743
 20
-1.627496570778248
 30
0.0
 10
30.41409333599077
 20
-2.140831295290167
 30
0.0
 10
31.31517605805896
 20
-2.620104004766447
 30
0.0
 10
32.24665895087309
 20
-3.055094383327164
 30
0.0
 10
33.1870200852014
 20
-3.420542150924698
 30
0.0
 10
34.12782923161702
 20
-3.705329653309042
 30
0.0
 10
35.06013938344863
 20
-3.894696744997673
 30
0.0
 10
35.85935704208842
 20
-3.993710448570683
 30
0.0
 10
36.35069691596618
 20
-3.989519703766891
 30
0.0
 10
36.5340876139215
 20
-3.987955524559422
 30
0.0
  0
LINE
  5
78
330
1F
100
AcDbEntity
  8
1
  6
Continuous
370
    15
100
AcDbLine
 10
27.0
 20
0.0
 30
0.0
 11
27.0
 21
1.3535445385
 31
0.0
  0
ELLIPSE
  5
79
330
1F
100
AcDbEntity
  8
1
  6
Continuous
370
    15
100
AcDbEllipse
 10
39.01
 20
0.0
 30
0.0
 11
0.5413379424996805
 21
3.997040900890372
 31
0.0
210
0.0
220
0.0
230
0.9999999999999998
 40
0.2841685075
 41
3.156522302147555
 42
3.169007271014124
  0
SPLINE
  5
7A
330
1F
100
AcDbEntity
  8
1
  6
Continuous
370
    15
100
AcDbSpline
210
0.0
220
0.0
230
1.0
 70
     8
 71
     3
 72
    12
 73
     8
 74
     0
 42
0.00000001
 43
0.00000001
 40
0.0
 40
0.0
 40
0.0
 40
0.0
 40
0.25
 40
0.25
 40
0.5
 40
0.5
 40
1.0
 40
1.0
 40
1.0
 40
1.0
 10
39.00000000000001
 20
-3.214855089681959
 30
0.0
 10
38.99949037458714
 20
-3.161302621348422
 30
0.0
 10
38.99898075185406
 20
-3.107745093640791
 30
0.0
 10
38.99796151167835
 20
-3.000619900448792
 30
0.0
 10
38.99745014108495
 20
-2.947060025744036
 30
0.0
 10
38.99593244882313
 20
-2.775564786286919
 30
0.0
 10
38.99498565390888
 20
-2.656371313477425
 30
0.0
 10
38.99420288554644
 20
-2.543200150807232
 30
0.0
  0
SPLINE
  5
7B
330
1F
100
AcDbEntity
  8
1
  6
Continuous
370
    15
100
AcDbSpline
210
0.0
220
0.0
230
1.0
 70
     8
 71
     3
 72
    13
 73
     9
 74
     0
 42
0.00000001
 43
0.00000001
 40
0.0
 40
0.0
 40
0.0
 40
0.0
 40
0.0833808822604604
 40
0.2455197812977352
 40
0.404047218302874
 40
0.563691587871112
 40
0.7804319033989132
 40
0.9999999999999999
 40
0.9999999999999999
 40
0.9999999999999999
 40
0.9999999999999999
 10
32.81691890789438
 20
-3.263515154008948
 30
0.0
 10
32.65533942596634
 20
-3.326596371612659
 30
0.0
 10
32.17955939114669
 20
-3.512342628190738
 30
0.0
 10
31.39156309207154
 20
-3.726740825152557
 30
0.0
 10
30.46819398864305
 20
-3.916263295151315
 30
0.0
 10
29.42249675682546
 20
-4.013694799127385
 30
0.0
 10
28.27881986686027
 20
-3.998638184691058
 30
0.0
 10
27.42811114641974
 20
-3.842569483980041
 30
0.0
 10
27.00000000000001
 20
-3.764029381150211
 30
0.0
  0
SPLINE
  5
7C
330
1F
100
AcDbEntity
  8
1
  6
Continuous
370
    15
100
AcDbSpline
210
0.0
220
0.0
230
1.0
 70
    24
 71
     3
 72
     8
 73
     4
 74
     0
 42
0.00000001
 43
0.00000001
 40
0.0
 40
0.0
 40
0.0
 40
0.0
 40
1.0
 40
1.0
 40
1.0
 40
1.0
 10
27.00000000000001
 20
-3.764029381150208
 30
0.0
 10
27.00000000000001
 20
-3.619736329726214
 30
0.0
 10
27.0
 20
-3.472595614489317
 30
0.0
 10
27.0
 20
-3.322555954379482
 30
0.0
  0
SPLINE
  5
7D
330
1F
100
AcDbEntity
  8
1
  6
Continuous
370
    15
100
AcDbSpline
210
0.0
220
0.0
230
1.0
 70
    24
 71
     3
 72
    17
 73
    13
 74
     0
 42
0.00000001
 43
0.00000001
 40
0.0
 40
0.0
 40
0.0
 40
0.0
 40
0.125
 40
0.125
 40
0.2500000000000001
 40
0.2500000000000001
 40
0.3125000000000001
 40
0.3125000000000001
 40
0.3750000000000001
 40
0.5000000000000001
 40
0.5000000000000001
 40
1.0
 40
1.0
 40
1.0
 40
1.0
 10
27.0
 20
-0.000000000000018
 30
0.0
 10
27.0
 20
-0.0000000000000166
 30
0.0
 10
26.99999999999999
 20
-0.0647053751712498
 30
0.0
 10
27.0
 20
-0.2695190346275635
 30
0.0
 10
27.00000000000001
 20
-0.410134433074764
 30
0.0
 10
27.00000000000001
 20
-0.6413696629096194
 30
0.0
 10
27.00000000000001
 20
-0.7206643325150235
 30
0.0
 10
27.0
 20
-0.8823241720963965
 30
0.0
 10
27.00000000000001
 20
-1.123927219128424
 30
0.0
 10
27.0
 20
-1.36288156747292
 30
0.0
 10
27.0
 20
-2.15351337989171
 30
0.0
 10
27.0
 20
-2.761173572628568
 30
0.0
 10
26.99999999999999
 20
-3.322555954379454
 30
0.0
  0
SPLINE
  5
7E
330
1F
100
AcDbEntity
  8
1
  6
Continuous
370
    15
100
AcDbSpline
210
0.0
220
0.0
230
1.0
 70
     8
 71
     3
 72
    14
 73
    10
 74
     0
 42
0.00000001
 43
0.00000001
 40
0.0
 40
0.0
 40
0.0
 40
0.0
 40
0.0651237782916599
 40
0.2321554330683351
 40
0.394708132829268
 40
0.5572607850820078
 40
0.7245265435428905
 40
0.891792274366435
 40
1.0
 40
1.0
 40
1.0
 40
1.0
 10
32.81691890789438
 20
3.263515154008948
 30
0.0
 10
32.94028766928808
 20
3.312618437925307
 30
0.0
 10
33.38007677519943
 20
3.487663474342364
 30
0.0
 10
34.12783024635396
 20
3.701565821948594
 30
0.0
 10
35.06013757063313
 20
3.898118378307424
 30
0.0
 10
35.99283870432871
 20
4.00012878012018
 30
0.0
 10
36.93453599978949
 20
4.006525198183453
 30
0.0
 10
37.77332699806127
 20
3.930758911007942
 30
0.0
 10
38.29505997038834
 20
3.831123568609723
 30
0.0
 10
38.50000000000003
 20
3.791986172461677
 30
0.0
  0
SPLINE
  5
7F
330
1F
100
AcDbEntity
  8
1
  6
Continuous
370
    15
100
AcDbSpline
210
0.0
220
0.0
230
1.0
 70
     8
 71
     3
 72
    14
 73
    10
 74
     0
 42
0.00000001
 43
0.00000001
 40
0.0
 40
0.0
 40
0.0
 40
0.0
 40
0.25
 40
0.25
 40
0.5
 40
0.5
 40
0.75
 40
0.75
 40
1.0
 40
1.0
 40
1.0
 40
1.0
 10
38.49999999999998
 20
3.791986172461932
 30
0.0
 10
38.56048009373964
 20
3.77930046580137
 30
0.0
 10
38.61915929424653
 20
3.756410077432366
 30
0.0
 10
38.73365488080775
 20
3.69002059924952
 30
0.0
 10
38.78819573022764
 20
3.64683124042677
 30
0.0
 10
38.88405477663898
 20
3.543310818386819
 30
0.0
 10
38.92558179380285
 20
3.482554778693526
 30
0.0
 10
38.98408190636013
 20
3.350536177463318
 30
0.0
 10
39.00000000000046
 20
3.281784024750127
 30
0.0
 10
39.00000000000048
 20
3.214855089682
 30
0.0
  0
SPLINE
  5
80
330
1F
100
AcDbEntity
  8
1
  6
Continuous
370
    15
100
AcDbSpline
210
0.0
220
0.0
230
1.0
 70
     8
 71
     3
 72
    12
 73
     8
 74
     0
 42
0.00000001
 43
0.00000001
 40
0.0
 40
0.0
 40
0.0
 40
0.0
 40
0.2499999999999999
 40
0.2499999999999999
 40
0.4999999999999999
 40
0.4999999999999999
 40
1.0
 40
1.0
 40
1.0
 40
1.0
 10
39.00000000000001
 20
3.214855089682102
 30
0.0
 10
38.99949037458717
 20
3.161302621348552
 30
0.0
 10
38.99898075185408
 20
3.107745093640904
 30
0.0
 10
38.99796151167836
 20
3.000619900448875
 30
0.0
 10
38.99745014108498
 20
2.947060025744108
 30
0.0
 10
38.99593244882315
 20
2.775564786286952
 30
0.0
 10
38.9949856539089
 20
2.656371313477423
 30
0.0
 10
38.99420288554645
 20
2.543200150807202
 30
0.0
  0
SPLINE
  5
81
330
1F
100
AcDbEntity
  8
1
  6
Continuous
370
    15
100
AcDbSpline
210
0.0
220
0.0
230
1.0
 70
     8
 71
     3
 72
    10
 73
     6
 74
     0
 42
0.00000001
 43
0.00000001
 40
0.0
 40
0.0
 40
0.0
 40
0.0
 40
0.5
 40
0.5
 40
1.0
 40
1.0
 40
1.0
 40
1.0
 10
38.99420288554649
 20
2.543200150807206
 30
0.0
 10
38.86234387665505
 20
2.509809704788557
 30
0.0
 10
38.72501662682848
 20
2.488140644936442
 30
0.0
 10
38.45050303271035
 20
2.456521601578163
 30
0.0
 10
38.31266049573996
 20
2.446570821877413
 30
0.0
 10
38.17448940168009
 20
2.439906366316589
 30
0.0
  0
SPLINE
  5
82
330
1F
100
AcDbEntity
  8
1
  6
Continuous
370
    15
100
AcDbSpline
210
0.0
220
0.0
230
1.0
 70
     8
 71
     3
 72
    18
 73
    14
 74
     0
 42
0.00000001
 43
0.00000001
 40
0.0
 40
0.0
 40
0.0
 40
0.0
 40
0.0889126524060598
 40
0.1778274228530741
 40
0.2688665281832441
 40
0.359906096866669
 40
0.4575526516674987
 40
0.5551950784322065
 40
0.6556068262540173
 40
0.7560227288067912
 40
0.8542019798117549
 40
0.953072969764498
 40
1.0
 40
1.0
 40
1.0
 40
1.0
 10
38.4856793467014
 20
0.0941418524642107
 30
0.0
 10
38.20855058307558
 20
0.2789629806962226
 30
0.0
 10
37.65428645417551
 20
0.6486096398938084
 30
0.0
 10
36.80925912119676
 20
1.184380536803962
 30
0.0
 10
35.96053299410021
 20
1.705939919506322
 30
0.0
 10
35.09092096234779
 20
2.218495544133133
 30
0.0
 10
34.19043609514694
 20
2.682283696486254
 30
0.0
 10
33.26666583620842
 20
3.106895642907526
 30
0.0
 10
32.33274250695348
 20
3.460473566162077
 30
0.0
 10
31.39162171153206
 20
3.73066922481882
 30
0.0
 10
30.46834747061954
 20
3.910500134946992
 30
0.0
 10
29.69754227914069
 20
4.00293770107676
 30
0.0
 10
29.2436697396596
 20
3.985618725806527
 30
0.0
 10
29.0975848315395
 20
3.980044383472492
 30
0.0
  0
LINE
  5
83
330
1F
100
AcDbEntity
  8
1
  6
Continuous
370
    15
100
AcDbLine
 10
38.5
 20
-1.2731224874
 30
0.0
 11
38.5
 21
0.0442097701
 31
0.0
  0
LINE
  5
84
330
1F
100
AcDbEntity
  8
1
  6
Continuous
370
    15
100
AcDbLine
 10
39.0
 20
-1.3837292916
 30
0.0
 11
39.0
 21
-1.3539404796
 31
0.0
  0
LINE
  5
85
330
1F
100
AcDbEntity
  8
1
  6
Continuous
370
    15
100
AcDbLine
 10
39.0
 20
3.2148550897
 30
0.0
 11
39.0
 21
3.2275137765
 31
0.0
  0
LWPOLYLINE
  5
86
330
1F
100
AcDbEntity
  8
1
  6
Continuous
370
    15
100
AcDbPolyline
 90
        4
 70
   128
 43
0.0
 10
38.9711567473
 20
0.080460883
 10
38.9727499092
 20
0.1616469846
 10
38.9823659501
 20
0.6514526152
 10
38.9942028855
 20
1.2543607729
  0
SPLINE
  5
87
330
1F
100
AcDbEntity
  8
1
  6
Continuous
370
    15
100
AcDbSpline
210
0.0
220
0.0
230
1.0
 70
     8
 71
     3
 72
    12
 73
     8
 74
     0
 42
0.00000001
 43
0.00000001
 40
0.0
 40
0.0
 40
0.0
 40
0.0
 40
0.2500000000000004
 40
0.2500000000000004
 40
0.5000000000000009
 40
0.5000000000000009
 40
1.0
 40
1.0
 40
1.0
 40
1.0
 10
39.00000000000001
 20
1.383729291569295
 30
0.0
 10
38.99949037458715
 20
1.36043927142437
 30
0.0
 10
38.99898075185406
 20
1.337161729840713
 30
0.0
 10
38.99796151167835
 20
1.290631650729918
 30
0.0
 10
38.99745014108496
 20
1.266891879453159
 30
0.0
 10
38.9959324488231
 20
1.225242297301695
 30
0.0
 10
38.99498565390884
 20
1.22768308652343
 30
0.0
 10
38.99420288554638
 20
1.254360772902391
 30
0.0
  0
LINE
  5
88
330
1F
100
AcDbEntity
  8
1
  6
Continuous
370
    15
100
AcDbLine
 10
39.0
 20
1.3837292916
 30
0.0
 11
39.0
 21
1.3539404796
 31
0.0
  0
SPLINE
  5
89
330
1F
100
AcDbEntity
  8
1
  6
Continuous
370
    15
100
AcDbSpline
210
0.0
220
0.0
230
1.0
 70
     8
 71
     3
 72
    11
 73
     7
 74
     0
 42
0.00000001
 43
0.00000001
 40
0.0
 40
0.0
 40
0.0
 40
0.0
 40
0.2658173694392455
 40
0.5387462423943387
 40
0.8116751468134714
 40
1.0
 40
1.0
 40
1.0
 40
1.0
 10
39.0
 20
1.353940479567857
 30
0.0
 10
38.99750202191256
 20
1.233766559007352
 30
0.0
 10
38.99243923647067
 20
0.9902036636542494
 30
0.0
 10
38.98493483902704
 20
0.6236071468138327
 30
0.0
 10
38.97773756025086
 20
0.2908295749845543
 30
0.0
 10
38.97410206367374
 20
0.0843168726637565
 30
0.0
 10
38.9726177302719
 20
-0.0000000000000039
 30
0.0
  0
LINE
  5
8A
330
1F
100
AcDbEntity
  8
1
  6
Continuous
370
    15
100
AcDbLine
 10
38.983219148
 20
-1.4157537286
 30
0.0
 11
38.9942028855
 21
-2.5432001508
 31
0.0
  0
LINE
  5
8B
330
1F
100
AcDbEntity
  8
1
  6
Continuous
370
    15
100
AcDbLine
 10
39.0
 20
-3.2148550897
 30
0.0
 11
39.0
 21
-3.2275137765
 31
0.0
  0
LWPOLYLINE
  5
8C
330
1F
100
AcDbEntity
  8
1
  6
Continuous
370
    15
100
AcDbPolyline
 90
        4
 70
   128
 43
0.0
 10
39.0
 20
-3.2275137765
 10
38.9924260242
 20
-2.4393763053
 10
38.9848587536
 20
-1.6512298133
 10
38.9821578224
 20
-1.3689202341
  0
LWPOLYLINE
  5
8D
330
1F
100
AcDbEntity
  8
1
  6
Continuous
370
    15
100
AcDbPolyline
 90
        4
 70
   128
 43
0.0
 10
38.9705504177
 20
0.1152029517
 10
38.9727499092
 20
0.3410834399
 10
38.9823659501
 20
1.3281756268
 10
38.9942028855
 20
2.5432001508
  0
SPLINE
  5
8E
330
1F
100
AcDbEntity
  8
1
  6
Continuous
370
    15
100
AcDbSpline
210
0.0
220
0.0
230
1.0
 70
     8
 71
     3
 72
    18
 73
    14
 74
     0
 42
0.00000001
 43
0.00000001
 40
0.0
 40
0.0
 40
0.0
 40
0.0
 40
0.2500000000000006
 40
0.2500000000000006
 40
0.5000000000000012
 40
0.5000000000000012
 40
0.7500000000000019
 40
0.7500000000000019
 40
0.8750000000000024
 40
0.8750000000000024
 40
0.9375000000000012
 40
0.9375000000000012
 40
1.0
 40
1.0
 40
1.0
 40
1.0
 10
38.50000000000001
 20
-3.99975567956744
 30
0.0
 10
38.54227406809726
 20
-4.001380487087944
 30
0.0
 10
38.58547700485344
 20
-3.989686514013253
 30
0.0
 10
38.6738564206976
 20
-3.938000511878946
 30
0.0
 10
38.71941153803806
 20
-3.897752069923734
 30
0.0
 10
38.81121784774123
 20
-3.782770770929555
 30
0.0
 10
38.85749581636404
 20
-3.708644980271386
 30
0.0
 10
38.92249217340137
 20
-3.563996749219752
 30
0.0
 10
38.94394513579965
 20
-3.509380854743815
 30
0.0
 10
38.97248770899372
 20
-3.412564025731986
 30
0.0
 10
38.98133286975953
 20
-3.377912763773649
 30
0.0
 10
38.9952103065166
 20
-3.303428654737938
 30
0.0
 10
39.00000000000002
 20
-3.262948761649097
 30
0.0
 10
39.00000000000001
 20
-3.227513776545
 30
0.0
  0
LINE
  5
8F
330
1F
100
AcDbEntity
  8
1
  6
Continuous
370
    15
100
AcDbLine
 10
27.0
 20
-4.0
 30
0.0
 11
27.0
 21
-3.7640293812
 31
0.0
  0
SPLINE
  5
90
330
1F
100
AcDbEntity
  8
1
  6
Continuous
370
    15
100
AcDbSpline
210
0.0
220
0.0
230
1.0
 70
     8
 71
     3
 72
    16
 73
    12
 74
     0
 42
0.00000001
 43
0.00000001
 40
0.0
 40
0.0
 40
0.0
 40
0.0
 40
0.2061213205253281
 40
0.4379333871195704
 40
0.6138797901745267
 40
0.7270468486237998
 40
0.839629735519401
 40
0.8907499783358378
 40
0.9421533140121009
 40
0.9750351132441974
 40
1.0
 40
1.0
 40
1.0
 40
1.0
 10
38.51319365088352
 20
3.996473464281475
 30
0.0
 10
38.54771758705596
 20
3.991926290665348
 30
0.0
 10
38.6210684867405
 20
3.98226518846371
 30
0.0
 10
38.73035454523077
 20
3.890395453034776
 30
0.0
 10
38.82344670265389
 20
3.764194503779021
 30
0.0
 10
38.8938804834642
 20
3.633753178799668
 30
0.0
 10
38.94024479890153
 20
3.519956993887156
 30
0.0
 10
38.97241691532576
 20
3.414920060790412
 30
0.0
 10
38.98943013233765
 20
3.34013859871315
 30
0.0
 10
38.99866784170035
 20
3.274468157620698
 30
0.0
 10
38.99959839935423
 20
3.241668933456119
 30
0.0
 10
39.0
 20
3.227513776545001
 30
0.0
  0
SPLINE
  5
91
330
1F
100
AcDbEntity
  8
1
  6
Continuous
370
    15
100
AcDbSpline
210
0.0
220
0.0
230
1.0
 70
     8
 71
     3
 72
     9
 73
     5
 74
     0
 42
0.00000001
 43
0.00000001
 40
0.0
 40
0.0
 40
0.0
 40
0.0
 40
0.4676226020012916
 40
1.0
 40
1.0
 40
1.0
 40
1.0
 10
38.9832191480022
 20
1.415753728595249
 30
0.0
 10
38.98854374255857
 20
1.4125551888745
 30
0.0
 10
38.99993026351284
 20
1.405715186472863
 30
0.0
 10
38.99997577220262
 20
1.391367614567742
 30
0.0
 10
39.00000000000048
 20
1.383729291569294
 30
0.0
  0
SPLINE
  5
92
330
1F
100
AcDbEntity
  8
1
  6
Continuous
370
    15
100
AcDbSpline
210
0.0
220
0.0
230
1.0
 70
     8
 71
     3
 72
     8
 73
     4
 74
     0
 42
0.00000001
 43
0.00000001
 40
0.0
 40
0.0
 40
0.0
 40
0.0
 40
0.0183356385623953
 40
0.0183356385623953
 40
0.0183356385623953
 40
0.0183356385623953
 10
27.0
 20
-0.0000000000000181
 30
0.0
 10
26.85332932032498
 20
0.0787778866896555
 30
0.0
 10
26.7066501746755
 20
0.1683011362171564
 30
0.0
 10
26.55996628854867
 20
0.2681731749597147
 30
0.0
  0
SPLINE
  5
93
330
1F
100
AcDbEntity
  8
1
  6
Continuous
370
    15
100
AcDbSpline
210
0.0
220
0.0
230
1.0
 70
    24
 71
     3
 72
    14
 73
    10
 74
     0
 42
0.00000001
 43
0.00000001
 40
0.0
 40
0.0
 40
0.0
 40
0.0
 40
0.25
 40
0.25
 40
0.5
 40
0.5
 40
0.75
 40
0.75
 40
1.0
 40
1.0
 40
1.0
 40
1.0
 10
26.59279550890079
 20
-0.6178871275796675
 30
0.0
 10
26.64078501839843
 20
-0.5450684312597588
 30
0.0
 10
26.69255969674731
 20
-0.4665061658977263
 30
0.0
 10
26.79281095882117
 20
-0.3143861237247031
 30
0.0
 10
26.84097675451554
 20
-0.2412999328802845
 30
0.0
 10
26.92048837725777
 20
-0.12064996644015
 30
0.0
 10
26.95156520063785
 20
-0.0734943737285562
 30
0.0
 10
26.99125376109201
 20
-0.0132714362295204
 30
0.0
 10
27.00000000000001
 20
-0.0000000000000174
 30
0.0
 10
27.0
 20
-0.0000000000000181
 30
0.0
  0
SPLINE
  5
94
330
1F
100
AcDbEntity
  8
1
  6
Continuous
370
    15
100
AcDbSpline
210
0.0
220
0.0
230
1.0
 70
     8
 71
     3
 72
     8
 73
     4
 74
     0
 42
0.00000001
 43
0.00000001
 40
0.0
 40
0.0
 40
0.0
 40
0.0
 40
0.0470033758645666
 40
0.0470033758645666
 40
0.0470033758645666
 40
0.0470033758645666
 10
26.59279550890079
 20
-0.6178871275796675
 30
0.0
 10
26.21678829148066
 20
-0.4617737415055279
 30
0.0
 10
25.84075130852061
 20
-0.2314870089742048
 30
0.0
 10
25.46471813796075
 20
0.0670153502908898
 30
0.0
  0
SPLINE
  5
95
330
1F
100
AcDbEntity
  8
1
  6
Continuous
370
    15
100
AcDbSpline
210
0.0
220
0.0
230
1.0
 70
     8
 71
     3
 72
    14
 73
    10
 74
     0
 42
0.00000001
 43
0.00000001
 40
0.0
 40
0.0
 40
0.0
 40
0.0
 40
0.25
 40
0.25
 40
0.5
 40
0.5
 40
0.75
 40
0.75
 40
1.0
 40
1.0
 40
1.0
 40
1.0
 10
26.55996628855711
 20
0.2681731749539846
 30
0.0
 10
26.46978374214774
 20
0.3230433017186032
 30
0.0
 10
26.3736447397528
 20
0.3628776794039645
 30
0.0
 10
26.16915243940477
 20
0.4119838190343959
 30
0.0
 10
26.06450642367146
 20
0.4202139896174754
 30
0.0
 10
25.85646227966325
 20
0.3963584650293836
 30
0.0
 10
25.75275116088195
 20
0.362914222911761
 30
0.0
 10
25.57769162514179
 20
0.2470871188314944
 30
0.0
 10
25.50742081325309
 20
0.1644319628934147
 30
0.0
 10
25.46471813796138
 20
0.0670153502903938
 30
0.0
  0
SPLINE
  5
96
330
1F
100
AcDbEntity
  8
1
  6
Continuous
370
    15
100
AcDbSpline
210
0.0
220
0.0
230
1.0
 70
     8
 71
     3
 72
    11
 73
     7
 74
     0
 42
0.00000001
 43
0.00000001
 40
0.0
 40
0.0
 40
0.0
 40
0.0
 40
0.0002576675083709
 40
0.0002576675083709
 40
0.0002576675083709
 40
0.0005154269323146
 40
0.0005154269323146
 40
0.0005154269323146
 40
0.0005154269323146
 10
27.0
 20
-0.0000000000000108
 30
0.0
 10
26.92666304994859
 20
0.0447061649793923
 30
0.0
 10
26.85333461257579
 20
0.0894336503462955
 30
0.0
 10
26.78001231970051
 20
0.1341344474640929
 30
0.0
 10
26.70666387504135
 20
0.1788511879674588
 30
0.0
 10
26.6333150216912
 20
0.2235451785502718
 30
0.0
 10
26.55996628855679
 20
0.26817317495419
 30
0.0
  0
SPLINE
  5
97
330
1F
100
AcDbEntity
  8
1
  6
Continuous
370
    15
100
AcDbSpline
210
0.0
220
0.0
230
1.0
 70
     8
 71
     3
 72
    16
 73
    12
 74
     0
 42
0.00000001
 43
0.00000001
 40
0.0
 40
0.0
 40
0.0
 40
0.0
 40
0.25
 40
0.25
 40
0.375
 40
0.375
 40
0.5
 40
0.5
 40
0.75
 40
0.75
 40
1.0
 40
1.0
 40
1.0
 40
1.0
 10
25.46471813796138
 20
0.0670153502903937
 30
0.0
 10
25.3578655304239
 20
-0.1767454169520864
 30
0.0
 10
25.2757413636148
 20
-0.4254498334900209
 30
0.0
 10
25.18493089446239
 20
-0.803828406227291
 30
0.0
 10
25.16001825143505
 20
-0.9317208311147143
 30
0.0
 10
25.12176003811775
 20
-1.182118399623296
 30
0.0
 10
25.1082021976337
 20
-1.305184017781009
 30
0.0
 10
25.0825818226245
 20
-1.667794799329315
 30
0.0
 10
25.08588533639125
 20
-1.903338666046729
 30
0.0
 10
25.12643909359689
 20
-2.333495318130339
 30
0.0
 10
25.16344879689392
 20
-2.531397248011237
 30
0.0
 10
25.21458323871304
 20
-2.709169614476041
 30
0.0
  0
SPLINE
  5
98
330
1F
100
AcDbEntity
  8
1
  6
Continuous
370
    15
100
AcDbSpline
210
0.0
220
0.0
230
1.0
 70
     8
 71
     3
 72
     8
 73
     4
 74
     0
 42
0.00000001
 43
0.00000001
 40
0.0
 40
0.0
 40
0.0
 40
0.0
 40
1.0
 40
1.0
 40
1.0
 40
1.0
 10
27.0
 20
-3.322555954379454
 30
0.0
 10
26.4034487096811
 20
-3.163093870822364
 30
0.0
 10
25.81576643485497
 20
-2.95073189321245
 30
0.0
 10
25.2145832387131
 20
-2.709169614475887
 30
0.0
  0
SPLINE
  5
99
330
1F
100
AcDbEntity
  8
1
  6
Continuous
370
    15
100
AcDbSpline
210
0.0
220
0.0
230
1.0
 70
     8
 71
     3
 72
    11
 73
     7
 74
     0
 42
0.00000001
 43
0.00000001
 40
0.0
 40
0.0
 40
0.0
 40
0.0
 40
0.0002576675083709
 40
0.0002576675083709
 40
0.0002576675083709
 40
0.0005154269323145
 40
0.0005154269323145
 40
0.0005154269323145
 40
0.0005154269323145
 10
27.0
 20
-3.700000000000085
 30
0.0
 10
26.92666304994859
 20
-3.700000000000087
 30
0.0
 10
26.85333461257585
 20
-3.699189426480266
 30
0.0
 10
26.78001231970058
 20
-3.697567842515354
 30
0.0
 10
26.70666387504141
 20
-3.69594568018182
 30
0.0
 10
26.63331502169125
 20
-3.693511842287827
 30
0.0
 10
26.55996628855684
 20
-3.690268709489203
 30
0.0
  0
SPLINE
  5
9A
330
1F
100
AcDbEntity
  8
1
  6
Continuous
370
    15
100
AcDbSpline
210
0.0
220
0.0
230
1.0
 70
     8
 71
     3
 72
    14
 73
    10
 74
     0
 42
0.00000001
 43
0.00000001
 40
0.0
 40
0.0
 40
0.0
 40
0.0
 40
0.25
 40
0.25
 40
0.5
 40
0.5
 40
0.75
 40
0.75
 40
1.0
 40
1.0
 40
1.0
 40
1.0
 10
26.55996628855692
 20
-3.690268709489207
 30
0.0
 10
26.46978374214755
 20
-3.68628127733643
 30
0.0
 10
26.37364473975292
 20
-3.682245147491808
 30
0.0
 10
26.16915243940489
 20
-3.677074770696187
 30
0.0
 10
26.06450642367158
 20
-3.676080008403279
 30
0.0
 10
25.85646227966334
 20
-3.678728583689213
 30
0.0
 10
25.75275116088203
 20
-3.682617302000099
 30
0.0
 10
25.57769162514193
 20
-3.692197838942227
 30
0.0
 10
25.50742081325325
 20
-3.697628326406226
 30
0.0
 10
25.46471813796155
 20
-3.699393050599732
 30
0.0
  0
LINE
  5
9B
330
1F
100
AcDbEntity
  8
1
  6
Continuous
370
    15
100
AcDbLine
 10
25.464718138
 20
-3.6993930506
 30
0.0
 11
25.4398765657
 21
-3.6963829339
 31
0.0
  0
SPLINE
  5
9C
330
1F
100
AcDbEntity
  8
1
  6
Continuous
370
    15
100
AcDbSpline
210
0.0
220
0.0
230
1.0
 70
     8
 71
     3
 72
    11
 73
     7
 74
     0
 42
0.00000001
 43
0.00000001
 40
0.0
 40
0.0
 40
0.0
 40
0.0
 40
0.000257667508371
 40
0.000257667508371
 40
0.000257667508371
 40
0.0005154269323146
 40
0.0005154269323146
 40
0.0005154269323146
 40
0.0005154269323146
 10
27.0
 20
3.700000000000109
 30
0.0
 10
26.92666304994858
 20
3.700000000000111
 30
0.0
 10
26.85333461257581
 20
3.699189426480264
 30
0.0
 10
26.78001231970053
 20
3.697567842515352
 30
0.0
 10
26.70666387504136
 20
3.695945680181818
 30
0.0
 10
26.6333150216912
 20
3.693511842287835
 30
0.0
 10
26.55996628855678
 20
3.690268709489209
 30
0.0
  0
SPLINE
  5
9D
330
1F
100
AcDbEntity
  8
1
  6
Continuous
370
    15
100
AcDbSpline
210
0.0
220
0.0
230
1.0
 70
     8
 71
     3
 72
    14
 73
    10
 74
     0
 42
0.00000001
 43
0.00000001
 40
0.0
 40
0.0
 40
0.0
 40
0.0
 40
0.25
 40
0.25
 40
0.5
 40
0.5
 40
0.75
 40
0.75
 40
1.0
 40
1.0
 40
1.0
 40
1.0
 10
26.55996628855678
 20
3.690268709489205
 30
0.0
 10
26.46978374214742
 20
3.686281277336427
 30
0.0
 10
26.37364473975279
 20
3.682245147491802
 30
0.0
 10
26.16915243940476
 20
3.677074770696181
 30
0.0
 10
26.06450642367147
 20
3.676080008403276
 30
0.0
 10
25.85646227966325
 20
3.678728583689215
 30
0.0
 10
25.75275116088195
 20
3.682617302000099
 30
0.0
 10
25.57769162514182
 20
3.692197838942225
 30
0.0
 10
25.50742081325314
 20
3.697628326406222
 30
0.0
 10
25.46471813796138
 20
3.699393050599729
 30
0.0
  0
SPLINE
  5
9E
330
1F
100
AcDbEntity
  8
1
  6
Continuous
370
    15
100
AcDbSpline
210
0.0
220
0.0
230
1.0
 70
     8
 71
     3
 72
    14
 73
    10
 74
     0
 42
0.00000001
 43
0.00000001
 40
0.0
 40
0.0
 40
0.0
 40
0.0
 40
0.1379357825698063
 40
0.3036451093587914
 40
0.4646997921043739
 40
0.6304558759947976
 40
0.7916878256015114
 40
0.9569970001292416
 40
1.0
 40
1.0
 40
1.0
 40
1.0
 10
25.43987656569255
 20
3.696382933936217
 30
0.0
 10
25.38738050188797
 20
3.693832676649502
 30
0.0
 10
25.27181822545847
 20
3.688218664546981
 30
0.0
 10
25.16234676080667
 20
3.603006047862251
 30
0.0
 10
25.09578061857362
 20
3.45064966121942
 30
0.0
 10
25.08177907857545
 20
3.232778916482776
 30
0.0
 10
25.11321464259059
 20
2.952979813611795
 30
0.0
 10
25.16618970752328
 20
2.704368095598725
 30
0.0
 10
25.20630253293572
 20
2.551547562594442
 30
0.0
 10
25.21458323871304
 20
2.519999999999944
 30
0.0
  0
SPLINE
  5
9F
330
1F
100
AcDbEntity
  8
1
  6
Continuous
370
    15
100
AcDbSpline
210
0.0
220
0.0
230
1.0
 70
     8
 71
     3
 72
     8
 73
     4
 74
     0
 42
0.00000001
 43
0.00000001
 40
0.0
 40
0.0
 40
0.0
 40
0.0
 40
1.0
 40
1.0
 40
1.0
 40
1.0
 10
27.0
 20
1.628073072636964
 30
0.0
 10
26.40344870966377
 20
1.953501767515121
 30
0.0
 10
25.81576643486094
 20
2.260304291437876
 30
0.0
 10
25.2145832387131
 20
2.519999999999895
 30
0.0
  0
LINE
  5
A0
330
1F
100
AcDbEntity
  8
1
  6
Continuous
370
    15
100
AcDbLine
 10
27.0
 20
1.3535445385
 30
0.0
 11
27.0
 21
1.6280730726
 31
0.0
  0
LINE
  5
A1
330
1F
100
AcDbEntity
  8
1
  6
Continuous
370
    15
100
AcDbLine
 10
0.0
 20
3.7
 30
0.0
 11
0.0
 21
-3.7
 31
0.0
  0
LINE
  5
A2
330
1F
100
AcDbEntity
  8
1
  6
Continuous
370
    15
100
AcDbLine
 10
25.2145832387
 20
-2.7091696145
 30
0.0
 11
26.5927955089
 21
-0.6178871276
 31
0.0
  0
LINE
  5
A3
330
1F
100
AcDbEntity
  8
1
  6
Continuous
370
    15
100
AcDbLine
 10
25.2145832387
 20
2.52
 30
0.0
 11
26.5927955089
 21
2.52
 31
0.0
  0
SPLINE
  5
A4
330
1F
100
AcDbEntity
  8
1
  6
Continuous
370
    15
100
AcDbSpline
210
0.0
220
0.0
230
1.0
 70
     8
 71
     3
 72
    14
 73
    10
 74
     0
 42
0.00000001
 43
0.00000001
 40
0.0
 40
0.0
 40
0.0
 40
0.0
 40
0.25
 40
0.25
 40
0.5
 40
0.5
 40
0.75
 40
0.75
 40
1.0
 40
1.0
 40
1.0
 40
1.0
 10
26.59279550890079
 20
2.519999999999988
 30
0.0
 10
26.64078501839843
 20
2.519999999999989
 30
0.0
 10
26.69255969674731
 20
2.535894266721977
 30
0.0
 10
26.79281095882117
 20
2.608019047705612
 30
0.0
 10
26.84097675451554
 20
2.664493987947967
 30
0.0
 10
26.92048837725777
 20
2.80898797589594
 30
0.0
 10
26.95156520063785
 20
2.896518171640146
 30
0.0
 10
26.99125376109201
 20
3.078701658208292
 30
0.0
 10
27.00000000000001
 20
3.172790163653667
 30
0.0
 10
27.0
 20
3.260000000000009
 30
0.0
  0
SPLINE
  5
A5
330
1F
100
AcDbEntity
  8
1
  6
Continuous
370
    15
100
AcDbSpline
210
0.0
220
0.0
230
1.0
 70
    24
 71
     3
 72
    17
 73
    13
 74
     0
 42
0.00000001
 43
0.00000001
 40
0.0
 40
0.0
 40
0.0
 40
0.0
 40
0.125
 40
0.125
 40
0.25
 40
0.25
 40
0.3125
 40
0.3125
 40
0.375
 40
0.5
 40
0.5
 40
1.0
 40
1.0
 40
1.0
 40
1.0
 10
27.0
 20
3.260000000000009
 30
0.0
 10
27.0
 20
3.096963509673173
 30
0.0
 10
27.0
 20
2.935487764721097
 30
0.0
 10
26.99999999999999
 20
2.679931516425714
 30
0.0
 10
26.99999999999998
 20
2.585057632732868
 30
0.0
 10
26.99999999999999
 20
2.49903946414662
 30
0.0
 10
27.0
 20
2.481506355918141
 30
0.0
 10
27.00000000000001
 20
2.461873435230017
 30
0.0
 10
26.99999999999999
 20
2.427967160479866
 30
0.0
 10
27.00000000000001
 20
2.380747697214667
 30
0.0
 10
27.00000000000001
 20
2.193781285295117
 30
0.0
 10
27.00000000000001
 20
1.949523146551819
 30
0.0
 10
27.0
 20
1.628073072628513
 30
0.0
  0
SPLINE
  5
A6
330
1F
100
AcDbEntity
  8
1
  6
Continuous
370
    15
100
AcDbSpline
210
0.0
220
0.0
230
1.0
 70
    24
 71
     3
 72
    17
 73
    13
 74
     0
 42
0.00000001
 43
0.00000001
 40
0.0
 40
0.0
 40
0.0
 40
0.0
 40
0.1249999999999997
 40
0.1249999999999997
 40
0.2499999999999994
 40
0.2499999999999994
 40
0.3124999999999993
 40
0.3124999999999993
 40
0.3749999999999993
 40
0.4999999999999993
 40
0.4999999999999993
 40
1.0
 40
1.0
 40
1.0
 40
1.0
 10
27.0
 20
-0.000000000000018
 30
0.0
 10
26.99999999999999
 20
-0.0000000000000166
 30
0.0
 10
27.00000000000001
 20
-0.0647053751712538
 30
0.0
 10
27.00000000000002
 20
-0.2695190346275647
 30
0.0
 10
27.00000000000001
 20
-0.4101344330747643
 30
0.0
 10
27.00000000000001
 20
-0.6413696629096202
 30
0.0
 10
26.99999999999998
 20
-0.7206643325150242
 30
0.0
 10
26.99999999999999
 20
-0.8823241720963977
 30
0.0
 10
27.00000000000002
 20
-1.123927219128427
 30
0.0
 10
27.00000000000002
 20
-1.362881567472922
 30
0.0
 10
27.00000000000002
 20
-2.153513379891714
 30
0.0
 10
27.0
 20
-2.76117357262857
 30
0.0
 10
27.0
 20
-3.322555954379457
 30
0.0
  0
SPLINE
  5
A7
330
1F
100
AcDbEntity
  8
1
  6
Continuous
370
    15
100
AcDbSpline
210
0.0
220
0.0
230
1.0
 70
     8
 71
     3
 72
     8
 73
     4
 74
     0
 42
0.00000001
 43
0.00000001
 40
0.0
 40
0.0
 40
0.0
 40
0.0
 40
0.0470033758645664
 40
0.0470033758645664
 40
0.0470033758645664
 40
0.0470033758645664
 10
26.59279550890079
 20
2.519999999999988
 30
0.0
 10
26.21678829148065
 20
2.934285177928721
 30
0.0
 10
25.84075130852061
 20
3.333932114154647
 30
0.0
 10
25.46471813796075
 20
3.699393050600338
 30
0.0
  0
SPLINE
  5
A8
330
1F
100
AcDbEntity
  8
1
  6
Continuous
370
    15
100
AcDbSpline
210
0.0
220
0.0
230
1.0
 70
     8
 71
     3
 72
     8
 73
     4
 74
     0
 42
0.00000001
 43
0.00000001
 40
0.0
 40
0.0
 40
0.0
 40
0.0
 40
0.0183356385623956
 40
0.0183356385623956
 40
0.0183356385623956
 40
0.0183356385623956
 10
27.0
 20
3.260000000000009
 30
0.0
 10
26.85332932032499
 20
3.406670681034516
 30
0.0
 10
26.7066501746755
 20
3.550465994209449
 30
0.0
 10
26.55996628854867
 20
3.690268709496938
 30
0.0
  0
LINE
  5
A9
330
1F
100
AcDbEntity
  8
1
  6
Continuous
370
    15
100
AcDbLine
 10
27.0
 20
3.26
 30
0.0
 11
27.0
 21
3.7
 31
0.0
  0
LINE
  5
AA
330
1F
100
AcDbEntity
  8
1
  6
Continuous
370
    15
100
AcDbLine
 10
38.9694568354
 20
0.0
 30
0.0
 11
38.9694568354
 21
0.0001
 31
0.0
  0
LINE
  5
AB
330
1F
100
AcDbEntity
  8
1
  6
Continuous
370
    15
100
AcDbLine
 10
38.9694568354
 20
-0.0001
 30
0.0
 11
38.9694568354
 21
0.0
 31
0.0
  0
LINE
  5
AC
330
1F
100
AcDbEntity
  8
1
  6
Continuous
370
    15
100
AcDbLine
 10
38.5
 20
-4.0
 30
0.0
 11
38.5
 21
-3.9997556796
 31
0.0
  0
LINE
  5
AD
330
1F
100
AcDbEntity
  8
1
  6
Continuous
370
    15
100
AcDbLine
 10
38.5
 20
3.7919861725
 30
0.0
 11
38.5
 21
4.0
 31
0.0
  0
LINE
  5
AE
330
1F
100
AcDbEntity
  8
SK4
100
AcDbLine
 10
0.0
 20
0.0
 30
0.0
 11
-36.0
 21
0.0
 31
0.0
  0
LINE
  5
AF
330
1F
100
AcDbEntity
  8
4
100
AcDbLine
 10
0.0
 20
0.0
 30
0.0
 11
39.0
 21
0.0
 31
0.0
  0
LINE
  5
B0
330
1F
100
AcDbEntity
  8
INFTOTAL
100
AcDbLine
 10
-46.0
 20
-54.0
 30
0.0
 11
254.0
 21
-54.0
 31
0.0
  0
LINE
  5
B1
330
1F
100
AcDbEntity
  8
INFTOTAL
100
AcDbLine
 10
254.0
 20
-54.0
 30
0.0
 11
254.0
 21
146.0
 31
0.0
  0
LINE
  5
B2
330
1F
100
AcDbEntity
  8
INFTOTAL
100
AcDbLine
 10
254.0
 20
146.0
 30
0.0
 11
-46.0
 21
146.0
 31
0.0
  0
LINE
  5
B3
330
1F
100
AcDbEntity
  8
INFTOTAL
100
AcDbLine
 10
-46.0
 20
146.0
 30
0.0
 11
-46.0
 21
-54.0
 31
0.0
  0
LINE
  5
B4
330
1F
100
AcDbEntity
  8
NOCUT
100
AcDbLine
 10
38.9694568354
 20
0.0
 30
0.0
 11
38.9694568354
 21
0.0001
 31
0.0
  0
LINE
  5
B5
330
1F
100
AcDbEntity
  8
NOCUT
100
AcDbLine
 10
38.9694568354
 20
0.0001
 30
0.0
 11
37.6904004454
 21
0.0001
 31
0.0
  0
LINE
  5
B6
330
1F
100
AcDbEntity
  8
NOCUT
100
AcDbLine
 10
37.6904004454
 20
0.0001
 30
0.0
 11
37.6904004454
 21
2.4
 31
0.0
  0
LINE
  5
B7
330
1F
100
AcDbEntity
  8
NOCUT
100
AcDbLine
 10
37.6904004454
 20
2.4
 30
0.0
 11
27.0
 21
2.4
 31
0.0
  0
LINE
  5
B8
330
1F
100
AcDbEntity
  8
NOCUT
100
AcDbLine
 10
27.0
 20
2.4
 30
0.0
 11
27.0
 21
3.7
 31
0.0
  0
LINE
  5
B9
330
1F
100
AcDbEntity
  8
NOCUT
100
AcDbLine
 10
27.0
 20
3.7
 30
0.0
 11
-1.0
 21
3.7
 31
0.0
  0
LINE
  5
BA
330
1F
100
AcDbEntity
  8
NOCUT
100
AcDbLine
 10
-1.0
 20
3.7
 30
0.0
 11
-1.0
 21
4.0
 31
0.0
  0
LINE
  5
BB
330
1F
100
AcDbEntity
  8
NOCUT
100
AcDbLine
 10
-1.0
 20
4.0
 30
0.0
 11
-36.0
 21
4.0
 31
0.0
  0
LINE
  5
BC
330
1F
100
AcDbEntity
  8
NOCUT
100
AcDbLine
 10
-36.0
 20
4.0
 30
0.0
 11
-36.0
 21
0.0
 31
0.0
  0
LINE
  5
BD
330
1F
100
AcDbEntity
  8
NOCUT
100
AcDbLine
 10
-36.0
 20
0.0
 30
0.0
 11
38.9694568354
 21
0.0
 31
0.0
  0
LINE
  5
BE
330
1F
100
AcDbEntity
  8
CUT
100
AcDbLine
 10
38.5
 20
4.0
 30
0.0
 11
27.0
 21
4.0
 31
0.0
  0
LINE
  5
BF
330
1F
100
AcDbEntity
  8
CUT
100
AcDbLine
 10
38.9694568354
 20
0.0001
 30
0.0
 11
39.0
 21
3.5
 31
0.0
  0
LINE
  5
C0
330
1F
100
AcDbEntity
  8
CUT
100
AcDbLine
 10
37.6904004454
 20
0.0001
 30
0.0
 11
38.9694568354
 21
0.0001
 31
0.0
  0
LINE
  5
C1
330
1F
100
AcDbEntity
  8
CUT
100
AcDbLine
 10
37.6904004454
 20
2.4
 30
0.0
 11
37.6904004454
 21
0.0001
 31
0.0
  0
LINE
  5
C2
330
1F
100
AcDbEntity
  8
CUT
100
AcDbLine
 10
27.0
 20
2.4
 30
0.0
 11
37.6904004454
 21
2.4
 31
0.0
  0
LINE
  5
C3
330
1F
100
AcDbEntity
  8
CUT
100
AcDbLine
 10
27.0
 20
4.0
 30
0.0
 11
27.0
 21
2.4
 31
0.0
  0
ARC
  5
C4
330
1F
100
AcDbEntity
  8
CUT
100
AcDbCircle
 10
38.5
 20
3.5
 30
0.0
 40
0.5000000000000009
100
AcDbArc
 50
0.0
 51
90.0
  0
DIMENSION
  5
C5
330
1F
100
AcDbEntity
  8
2
100
AcDbDimension
  2
*D1
 10
118.9632346948
 20
4.0
 30
0.0
 11
118.9632346948
 21
11.4503443827
 31
0.0
 70
   160
  1
%%c<>
 71
     2
 42
-1.0
  3
SLDDIMSTYLE0
100
AcDbAlignedDimension
 13
39.0
 23
-4.0
 33
0.0
 14
38.5
 24
4.0
 34
0.0
 50
90.0
100
AcDbRotatedDimension
  0
DIMENSION
  5
F4
330
1F
100
AcDbEntity
  8
SK2
100
AcDbDimension
  2
*D2
 10
38.5
 20
3.5
 30
0.0
 11
58.5010533749
 21
23.5010533749
 31
0.0
 70
   164
  1
<>
 71
     1
 42
-1.0
  3
SLDDIMSTYLE1
100
AcDbRadialDimension
 15
38.8535533906
 25
3.8535533906
 35
0.0
 40
0.0
  0
DIMENSION
  5
FE
330
1F
100
AcDbEntity
  8
SK2
100
AcDbDimension
  2
*D3
 10
-36.0
 20
86.0998788878
 30
0.0
 11
3.2139772057
 21
86.0998788878
 31
0.0
 70
   160
 71
     2
 42
-1.0
  3
SLDDIMSTYLE2
100
AcDbAlignedDimension
 13
39.0
 23
3.5
 33
0.0
 14
-36.0
 24
4.0
 34
0.0
100
AcDbRotatedDimension
  0
DIMENSION
  5
109
330
1F
100
AcDbEntity
  8
SK2
100
AcDbDimension
  2
*D4
 10
-36.0
 20
48.7509423314
 30
0.0
 11
-18.8937081518
 21
48.7509423314
 31
0.0
 70
   160
 71
     2
 42
-1.0
  3
SLDDIMSTYLE3
100
AcDbAlignedDimension
 13
0.0
 23
0.0
 33
0.0
 14
-36.0
 24
0.0
 34
0.0
100
AcDbRotatedDimension
  0
DIMENSION
  5
114
330
1F
100
AcDbEntity
  8
SK2
100
AcDbDimension
  2
*D5
 10
39.0
 20
56.9509423314
 30
0.0
 11
17.9414808771
 21
56.9509423314
 31
0.0
 70
   160
 71
     2
 42
-1.0
  3
SLDDIMSTYLE3
100
AcDbAlignedDimension
 13
-1.0
 23
3.7
 33
0.0
 14
39.0
 24
4.0
 34
0.0
100
AcDbRotatedDimension
  0
DIMENSION
  5
11E
330
1F
100
AcDbEntity
  8
SK2
100
AcDbDimension
  2
*D6
 10
27.0
 20
44.7509423314
 30
0.0
 11
32.8501090503
 21
44.7509423314
 31
0.0
 70
   160
 71
     2
 42
-1.0
  3
SLDDIMSTYLE4
100
AcDbAlignedDimension
 13
39.0
 23
4.0
 33
0.0
 14
27.0
 24
2.4
 34
0.0
100
AcDbRotatedDimension
  0
DIMENSION
  5
12B
330
1F
100
AcDbEntity
  8
SK2
100
AcDbDimension
  2
*D7
 10
-12.9960344536
 20
-3.7
 30
0.0
 11
-12.9960344536
 21
32.7351629288
 31
0.0
 70
   160
  1
%%c<>
 71
     2
 42
-1.0
  3
SLDDIMSTYLE4
100
AcDbAlignedDimension
 13
-1.0
 23
3.7
 33
0.0
 14
-1.0
 24
-3.7
 34
0.0
 50
90.0
100
AcDbRotatedDimension
  0
DIMENSION
  5
138
330
1F
100
AcDbEntity
  8
2
100
AcDbDimension
  2
*D8
 10
39.0
 20
75.4999940533
 30
0.0
 11
19.1151865065
 21
75.4999940533
 31
0.0
 70
   160
 71
     2
 42
-1.0
  3
SLDDIMSTYLE3
100
AcDbAlignedDimension
 13
0.0
 23
2.0
 33
0.0
 14
39.0
 24
4.0
 34
0.0
100
AcDbRotatedDimension
  0
DIMENSION
  5
142
330
1F
100
AcDbEntity
  8
SK2
100
AcDbDimension
  2
*D9
 10
-37.7386612653
 20
-4.0
 30
0.0
 11
-37.7386612653
 21
16.5150371533
 31
0.0
 70
   160
  1
%%c<>
 71
     2
 42
-1.0
  3
SLDDIMSTYLE3
100
AcDbAlignedDimension
 13
-36.0
 23
4.0
 33
0.0
 14
-36.0
 24
-4.0
 34
0.0
 50
90.0
100
AcDbRotatedDimension
  0
INSERT
  5
156
330
1F
100
AcDbEntity
  8
INFTEXT63
100
AcDbBlockReference
  2
SW_NOTE_0
 10
-39.8847508068
 20
-33.794739665
 30
0.0
  0
INSERT
  5
15D
330
1F
100
AcDbEntity
  8
INFTEXT63
100
AcDbBlockReference
  2
SW_NOTE_1
 10
-39.8847508068
 20
-70.1731114039
 30
0.0
  0
ENDSEC
  0
SECTION
  2
OBJECTS
  0
DICTIONARY
  5
C
330
0
100
AcDbDictionary
281
     1
  3
ACAD_GROUP
350
D
  3
ACAD_LAYOUT
350
1A
  3
ACAD_MLINESTYLE
350
17
  3
ACAD_PLOTSETTINGS
350
19
  3
ACAD_PLOTSTYLENAME
350
E
  3
ACAD_SCALELIST
350
C6
  3
AcDbVariableDictionary
350
15E
  0
DICTIONARY
  5
D
102
{ACAD_REACTORS
330
C
102
}
330
C
100
AcDbDictionary
281
     1
  0
DICTIONARY
  5
1A
102
{ACAD_REACTORS
330
C
102
}
330
C
100
AcDbDictionary
281
     1
  3
Layout1
350
1E
  3
Layout2
350
26
  3
Model
350
22
  0
DICTIONARY
  5
17
102
{ACAD_REACTORS
330
C
102
}
330
C
100
AcDbDictionary
281
     1
  3
Standard
350
18
  0
DICTIONARY
  5
19
102
{ACAD_REACTORS
330
C
102
}
330
C
100
AcDbDictionary
281
     1
  0
ACDBDICTIONARYWDFLT
  5
E
102
{ACAD_REACTORS
330
C
102
}
330
C
100
AcDbDictionary
281
     1
  3
Normal
350
F
100
AcDbDictionaryWithDefault
340
F
  0
DICTIONARY
  5
C6
102
{ACAD_REACTORS
330
C
102
}
330
C
100
AcDbDictionary
281
     1
  3
A0
350
C7
  3
A1
350
C8
  3
A2
350
C9
  3
A3
350
CA
  3
A4
350
CB
  3
A5
350
CC
  3
A6
350
CD
  3
A7
350
CE
  3
A8
350
CF
  3
A9
350
D0
  3
B0
350
D1
  3
B1
350
D2
  3
B2
350
D3
  3
B3
350
D4
  3
B4
350
D5
  3
B5
350
D6
  3
B6
350
D7
  3
B7
350
D8
  3
B8
350
D9
  3
B9
350
DA
  3
C0
350
DB
  3
C1
350
DC
  3
C2
350
DD
  3
C3
350
DE
  3
C4
350
DF
  3
C5
350
E0
  3
C6
350
E1
  3
C7
350
E2
  3
C8
350
E3
  3
C9
350
E4
  3
D0
350
E5
  3
D1
350
E6
  3
D2
350
E7
  0
DICTIONARY
  5
15E
102
{ACAD_REACTORS
330
C
102
}
330
C
100
AcDbDictionary
281
     1
  3
CANNOSCALE
350
15F
  0
LAYOUT
  5
1E
102
{ACAD_REACTORS
330
1A
102
}
330
1A
100
AcDbPlotSettings
  1

  2
none_device
  4

  6

 40
0.0
 41
0.0
 42
0.0
 43
0.0
 44
0.0
 45
0.0
 46
0.0
 47
0.0
 48
0.0
 49
0.0
140
0.0
141
0.0
142
1.0
143
1.0
 70
   688
 72
     0
 73
     0
 74
     5
  7

 75
    16
147
1.0
148
0.0
149
0.0
100
AcDbLayout
  1
Layout1
 70
     1
 71
     1
 10
0.0
 20
0.0
 11
420.0
 21
297.0
 12
0.0
 22
0.0
 32
0.0
 14
1.0000000000E+20
 24
1.0000000000E+20
 34
1.0000000000E+20
 15
-1.0000000000E+20
 25
-1.0000000000E+20
 35
-1.0000000000E+20
146
0.0
 13
0.0
 23
0.0
 33
0.0
 16
1.0
 26
0.0
 36
0.0
 17
0.0
 27
1.0
 37
0.0
 76
     0
330
1B
  0
LAYOUT
  5
26
102
{ACAD_REACTORS
330
1A
102
}
330
1A
100
AcDbPlotSettings
  1

  2
none_device
  4

  6

 40
0.0
 41
0.0
 42
0.0
 43
0.0
 44
0.0
 45
0.0
 46
0.0
 47
0.0
 48
0.0
 49
0.0
140
0.0
141
0.0
142
1.0
143
1.0
 70
   688
 72
     0
 73
     0
 74
     5
  7

 75
    16
147
1.0
148
0.0
149
0.0
100
AcDbLayout
  1
Layout2
 70
     1
 71
     2
 10
0.0
 20
0.0
 11
0.0
 21
0.0
 12
0.0
 22
0.0
 32
0.0
 14
0.0
 24
0.0
 34
0.0
 15
0.0
 25
0.0
 35
0.0
146
0.0
 13
0.0
 23
0.0
 33
0.0
 16
1.0
 26
0.0
 36
0.0
 17
0.0
 27
1.0
 37
0.0
 76
     0
330
23
  0
LAYOUT
  5
22
102
{ACAD_REACTORS
330
1A
102
}
330
1A
100
AcDbPlotSettings
  1

  2
none_device
  4

  6

 40
0.0
 41
0.0
 42
0.0
 43
0.0
 44
0.0
 45
0.0
 46
0.0
 47
0.0
 48
0.0
 49
0.0
140
0.0
141
0.0
142
1.0
143
1.0
 70
  1712
 72
     0
 73
     0
 74
     0
  7

 75
     0
147
1.0
148
0.0
149
0.0
100
AcDbLayout
  1
Model
 70
     1
 71
     0
 10
0.0
 20
0.0
 11
420.0
 21
297.0
 12
0.0
 22
0.0
 32
0.0
 14
0.0
 24
0.0
 34
0.0
 15
420.0
 25
297.0
 35
0.0
146
0.0
 13
0.0
 23
0.0
 33
0.0
 16
1.0
 26
0.0
 36
0.0
 17
0.0
 27
1.0
 37
0.0
 76
     0
330
1F
331
29
  0
MLINESTYLE
  5
18
102
{ACAD_REACTORS
330
17
102
}
330
17
100
AcDbMlineStyle
  2
Standard
 70
     0
  3

 62
   256
 51
90.0
 52
90.0
 71
     2
 49
0.5
 62
   256
  6
BYLAYER
 49
-0.5
 62
   256
  6
BYLAYER
  0
ACDBPLACEHOLDER
  5
F
102
{ACAD_REACTORS
330
E
102
}
330
E
  0
SCALE
  5
C7
102
{ACAD_REACTORS
330
C6
102
}
330
C6
100
AcDbScale
 70
     0
300
1:1
140
1.0
141
1.0
290
     1
  0
SCALE
  5
C8
102
{ACAD_REACTORS
330
C6
102
}
330
C6
100
AcDbScale
 70
     0
300
1:2
140
1.0
141
2.0
290
     0
  0
SCALE
  5
C9
102
{ACAD_REACTORS
330
C6
102
}
330
C6
100
AcDbScale
 70
     0
300
1:4
140
1.0
141
4.0
290
     0
  0
SCALE
  5
CA
102
{ACAD_REACTORS
330
C6
102
}
330
C6
100
AcDbScale
 70
     0
300
1:5
140
1.0
141
5.0
290
     0
  0
SCALE
  5
CB
102
{ACAD_REACTORS
330
C6
102
}
330
C6
100
AcDbScale
 70
     0
300
1:8
140
1.0
141
8.0
290
     0
  0
SCALE
  5
CC
102
{ACAD_REACTORS
330
C6
102
}
330
C6
100
AcDbScale
 70
     0
300
1:10
140
1.0
141
10.0
290
     0
  0
SCALE
  5
CD
102
{ACAD_REACTORS
330
C6
102
}
330
C6
100
AcDbScale
 70
     0
300
1:16
140
1.0
141
16.0
290
     0
  0
SCALE
  5
CE
102
{ACAD_REACTORS
330
C6
102
}
330
C6
100
AcDbScale
 70
     0
300
1:20
140
1.0
141
20.0
290
     0
  0
SCALE
  5
CF
102
{ACAD_REACTORS
330
C6
102
}
330
C6
100
AcDbScale
 70
     0
300
1:30
140
1.0
141
30.0
290
     0
  0
SCALE
  5
D0
102
{ACAD_REACTORS
330
C6
102
}
330
C6
100
AcDbScale
 70
     0
300
1:40
140
1.0
141
40.0
290
     0
  0
SCALE
  5
D1
102
{ACAD_REACTORS
330
C6
102
}
330
C6
100
AcDbScale
 70
     0
300
1:50
140
1.0
141
50.0
290
     0
  0
SCALE
  5
D2
102
{ACAD_REACTORS
330
C6
102
}
330
C6
100
AcDbScale
 70
     0
300
1:100
140
1.0
141
100.0
290
     0
  0
SCALE
  5
D3
102
{ACAD_REACTORS
330
C6
102
}
330
C6
100
AcDbScale
 70
     0
300
2:1
140
2.0
141
1.0
290
     0
  0
SCALE
  5
D4
102
{ACAD_REACTORS
330
C6
102
}
330
C6
100
AcDbScale
 70
     0
300
4:1
140
4.0
141
1.0
290
     0
  0
SCALE
  5
D5
102
{ACAD_REACTORS
330
C6
102
}
330
C6
100
AcDbScale
 70
     0
300
8:1
140
8.0
141
1.0
290
     0
  0
SCALE
  5
D6
102
{ACAD_REACTORS
330
C6
102
}
330
C6
100
AcDbScale
 70
     0
300
10:1
140
10.0
141
1.0
290
     0
  0
SCALE
  5
D7
102
{ACAD_REACTORS
330
C6
102
}
330
C6
100
AcDbScale
 70
     0
300
100:1
140
100.0
141
1.0
290
     0
  0
SCALE
  5
D8
102
{ACAD_REACTORS
330
C6
102
}
330
C6
100
AcDbScale
 70
     0
300
1/128" = 1'-0"
140
0.0078125
141
12.0
290
     0
  0
SCALE
  5
D9
102
{ACAD_REACTORS
330
C6
102
}
330
C6
100
AcDbScale
 70
     0
300
1/64" = 1'-0"
140
0.015625
141
12.0
290
     0
  0
SCALE
  5
DA
102
{ACAD_REACTORS
330
C6
102
}
330
C6
100
AcDbScale
 70
     0
300
1/32" = 1'-0"
140
0.03125
141
12.0
290
     0
  0
SCALE
  5
DB
102
{ACAD_REACTORS
330
C6
102
}
330
C6
100
AcDbScale
 70
     0
300
1/16" = 1'-0"
140
0.0625
141
12.0
290
     0
  0
SCALE
  5
DC
102
{ACAD_REACTORS
330
C6
102
}
330
C6
100
AcDbScale
 70
     0
300
3/32" = 1'-0"
140
0.09375
141
12.0
290
     0
  0
SCALE
  5
DD
102
{ACAD_REACTORS
330
C6
102
}
330
C6
100
AcDbScale
 70
     0
300
1/8" = 1'-0"
140
0.125
141
12.0
290
     0
  0
SCALE
  5
DE
102
{ACAD_REACTORS
330
C6
102
}
330
C6
100
AcDbScale
 70
     0
300
3/16" = 1'-0"
140
0.1875
141
12.0
290
     0
  0
SCALE
  5
DF
102
{ACAD_REACTORS
330
C6
102
}
330
C6
100
AcDbScale
 70
     0
300
1/4" = 1'-0"
140
0.25
141
12.0
290
     0
  0
SCALE
  5
E0
102
{ACAD_REACTORS
330
C6
102
}
330
C6
100
AcDbScale
 70
     0
300
3/8" = 1'-0"
140
0.375
141
12.0
290
     0
  0
SCALE
  5
E1
102
{ACAD_REACTORS
330
C6
102
}
330
C6
100
AcDbScale
 70
     0
300
1/2" = 1'-0"
140
0.5
141
12.0
290
     0
  0
SCALE
  5
E2
102
{ACAD_REACTORS
330
C6
102
}
330
C6
100
AcDbScale
 70
     0
300
3/4" = 1'-0"
140
0.75
141
12.0
290
     0
  0
SCALE
  5
E3
102
{ACAD_REACTORS
330
C6
102
}
330
C6
100
AcDbScale
 70
     0
300
1" = 1'-0"
140
1.0
141
12.0
290
     0
  0
SCALE
  5
E4
102
{ACAD_REACTORS
330
C6
102
}
330
C6
100
AcDbScale
 70
     0
300
1-1/2" = 1'-0"
140
1.5
141
12.0
290
     0
  0
SCALE
  5
E5
102
{ACAD_REACTORS
330
C6
102
}
330
C6
100
AcDbScale
 70
     0
300
3" = 1'-0"
140
3.0
141
12.0
290
     0
  0
SCALE
  5
E6
102
{ACAD_REACTORS
330
C6
102
}
330
C6
100
AcDbScale
 70
     0
300
6" = 1'-0"
140
6.0
141
12.0
290
     0
  0
SCALE
  5
E7
102
{ACAD_REACTORS
330
C6
102
}
330
C6
100
AcDbScale
 70
     0
300
1'-0" = 1'-0"
140
12.0
141
12.0
290
     0
  0
DICTIONARYVAR
  5
15F
102
{ACAD_REACTORS
330
15E
102
}
330
15E
100
DictionaryVariables
280
     0
  1
1:1
  0
ENDSEC
  0
EOF
