  0
SECTION
  2
HEADER
  9
$ACADVER
  1
AC1015
  9
$ACADMAINTVER
 70
     6
  9
$DWGCODEPAGE
  3
ANSI_1252
  9
$INSBASE
 10
0.0
 20
0.0
 30
0.0
  9
$EXTMIN
 10
0.0
 20
0.0
 30
0.0
  9
$EXTMAX
 10
420.0
 20
297.0
 30
0.0
  9
$LIMMIN
 10
0.0
 20
0.0
  9
$LIMMAX
 10
420.0
 20
297.0
  9
$ORTHOMODE
 70
     0
  9
$REGENMODE
 70
     1
  9
$FILLMODE
 70
     1
  9
$QTEXTMODE
 70
     0
  9
$MIRRTEXT
 70
     1
  9
$LTSCALE
 40
1.0
  9
$ATTMODE
 70
     1
  9
$TEXTSIZE
 40
3.5
  9
$TRACEWID
 40
1.0
  9
$TEXTSTYLE
  7
STANDARD
  9
$CLAYER
  8
0
  9
$CELTYPE
  6
ByLayer
  9
$CECOLOR
 62
   256
  9
$CELTSCALE
 40
1.0
  9
$DISPSILH
 70
     0
  9
$DIMSCALE
 40
1.0
  9
$DIMASZ
 40
3.302
  9
$DIMEXO
 40
1.0
  9
$DIMDLI
 40
3.75
  9
$DIMRND
 40
0.0
  9
$DIMDLE
 40
0.0
  9
$DIMEXE
 40
1.0
  9
$DIMTP
 40
0.0
  9
$DIMTM
 40
0.0
  9
$DIMTXT
 40
3.5
  9
$DIMCEN
 40
2.5
  9
$DIMTSZ
 40
0.0
  9
$DIMTOL
 70
     0
  9
$DIMLIM
 70
     0
  9
$DIMTIH
 70
     1
  9
$DIMTOH
 70
     1
  9
$DIMSE1
 70
     0
  9
$DIMSE2
 70
     0
  9
$DIMTAD
 70
     1
  9
$DIMZIN
 70
     0
  9
$DIMBLK
  1

  9
$DIMASO
 70
     1
  9
$DIMSHO
 70
     1
  9
$DIMPOST
  1

  9
$DIMAPOST
  1

  9
$DIMALT
 70
     0
  9
$DIMALTD
 70
     3
  9
$DIMALTF
 40
0.0393700787
  9
$DIMLFAC
 40
1.0
  9
$DIMTOFL
 70
     1
  9
$DIMTVP
 40
0.0
  9
$DIMTIX
 70
     0
  9
$DIMSOXD
 70
     0
  9
$DIMSAH
 70
     0
  9
$DIMBLK1
  1

  9
$DIMBLK2
  1

  9
$DIMSTYLE
  2
ISO-25
  9
$DIMCLRD
 70
     0
  9
$DIMCLRE
 70
     0
  9
$DIMCLRT
 70
     0
  9
$DIMTFAC
 40
1.0
  9
$DIMGAP
 40
1.524
  9
$DIMJUST
 70
     0
  9
$DIMSD1
 70
     0
  9
$DIMSD2
 70
     0
  9
$DIMTOLJ
 70
     0
  9
$DIMTZIN
 70
     0
  9
$DIMALTZ
 70
     0
  9
$DIMALTTZ
 70
     0
  9
$DIMUPT
 70
     0
  9
$DIMDEC
 70
     1
  9
$DIMTDEC
 70
     1
  9
$DIMALTU
 70
     2
  9
$DIMALTTD
 70
     3
  9
$DIMTXSTY
  7
STANDARD
  9
$DIMAUNIT
 70
     0
  9
$DIMADEC
 70
     1
  9
$DIMALTRND
 40
0.0
  9
$DIMAZIN
 70
     0
  9
$DIMDSEP
 70
    44
  9
$DIMATFIT
 70
     3
  9
$DIMFRAC
 70
     0
  9
$DIMLDRBLK
  1

  9
$DIMLUNIT
 70
     2
  9
$DIMLWD
 70
    -2
  9
$DIMLWE
 70
    -2
  9
$DIMTMOVE
 70
     0
  9
$LUNITS
 70
     2
  9
$LUPREC
 70
     2
  9
$SKETCHINC
 40
1.0
  9
$FILLETRAD
 40
10.0
  9
$AUNITS
 70
     0
  9
$AUPREC
 70
     2
  9
$MENU
  1
.
  9
$ELEVATION
 40
0.0
  9
$PELEVATION
 40
0.0
  9
$THICKNESS
 40
0.0
  9
$LIMCHECK
 70
     0
  9
$CHAMFERA
 40
10.0
  9
$CHAMFERB
 40
10.0
  9
$CHAMFERC
 40
20.0
  9
$CHAMFERD
 40
0.0
  9
$SKPOLY
 70
     0
  9
$TDCREATE
 40
2455897.767401667
  9
$TDUCREATE
 40
2455897.725735
  9
$TDUPDATE
 40
2455897.767401678
  9
$TDUUPDATE
 40
2455897.725735012
  9
$TDINDWG
 40
0.0000000116
  9
$TDUSRTIMER
 40
0.0000000116
  9
$USRTIMER
 70
     1
  9
$ANGBASE
 50
0.0
  9
$ANGDIR
 70
     0
  9
$PDMODE
 70
     0
  9
$PDSIZE
 40
-1.0
  9
$PLINEWID
 40
0.0
  9
$SPLFRAME
 70
     0
  9
$SPLINETYPE
 70
     6
  9
$SPLINESEGS
 70
     8
  9
$HANDSEED
  5
15A
  9
$SURFTAB1
 70
     6
  9
$SURFTAB2
 70
     6
  9
$SURFTYPE
 70
     6
  9
$SURFU
 70
     6
  9
$SURFV
 70
     6
  9
$UCSBASE
  2

  9
$UCSNAME
  2

  9
$UCSORG
 10
0.0
 20
0.0
 30
0.0
  9
$UCSXDIR
 10
1.0
 20
0.0
 30
0.0
  9
$UCSYDIR
 10
0.0
 20
1.0
 30
0.0
  9
$UCSORTHOREF
  2

  9
$UCSORTHOVIEW
 70
     0
  9
$UCSORGTOP
 10
0.0
 20
0.0
 30
0.0
  9
$UCSORGBOTTOM
 10
0.0
 20
0.0
 30
0.0
  9
$UCSORGLEFT
 10
0.0
 20
0.0
 30
0.0
  9
$UCSORGRIGHT
 10
0.0
 20
0.0
 30
0.0
  9
$UCSORGFRONT
 10
0.0
 20
0.0
 30
0.0
  9
$UCSORGBACK
 10
0.0
 20
0.0
 30
0.0
  9
$PUCSBASE
  2

  9
$PUCSNAME
  2

  9
$PUCSORG
 10
0.0
 20
0.0
 30
0.0
  9
$PUCSXDIR
 10
1.0
 20
0.0
 30
0.0
  9
$PUCSYDIR
 10
0.0
 20
1.0
 30
0.0
  9
$PUCSORTHOREF
  2

  9
$PUCSORTHOVIEW
 70
     0
  9
$PUCSORGTOP
 10
0.0
 20
0.0
 30
0.0
  9
$PUCSORGBOTTOM
 10
0.0
 20
0.0
 30
0.0
  9
$PUCSORGLEFT
 10
0.0
 20
0.0
 30
0.0
  9
$PUCSORGRIGHT
 10
0.0
 20
0.0
 30
0.0
  9
$PUCSORGFRONT
 10
0.0
 20
0.0
 30
0.0
  9
$PUCSORGBACK
 10
0.0
 20
0.0
 30
0.0
  9
$USERI1
 70
     0
  9
$USERI2
 70
     0
  9
$USERI3
 70
     0
  9
$USERI4
 70
     0
  9
$USERI5
 70
     0
  9
$USERR1
 40
0.0
  9
$USERR2
 40
0.0
  9
$USERR3
 40
0.0
  9
$USERR4
 40
0.0
  9
$USERR5
 40
0.0
  9
$WORLDVIEW
 70
     1
  9
$SHADEDGE
 70
     3
  9
$SHADEDIF
 70
    70
  9
$TILEMODE
 70
     1
  9
$MAXACTVP
 70
    64
  9
$PINSBASE
 10
0.0
 20
0.0
 30
0.0
  9
$PLIMCHECK
 70
     0
  9
$PEXTMIN
 10
1.0000000000E+20
 20
1.0000000000E+20
 30
1.0000000000E+20
  9
$PEXTMAX
 10
-1.0000000000E+20
 20
-1.0000000000E+20
 30
-1.0000000000E+20
  9
$PLIMMIN
 10
0.0
 20
0.0
  9
$PLIMMAX
 10
420.0
 20
297.0
  9
$UNITMODE
 70
     0
  9
$VISRETAIN
 70
     1
  9
$PLINEGEN
 70
     0
  9
$PSLTSCALE
 70
     1
  9
$TREEDEPTH
 70
  3020
  9
$CMLSTYLE
  2
Standard
  9
$CMLJUST
 70
     0
  9
$CMLSCALE
 40
20.0
  9
$PROXYGRAPHICS
 70
     1
  9
$MEASUREMENT
 70
     1
  9
$CELWEIGHT
370
    -1
  9
$ENDCAPS
280
     0
  9
$JOINSTYLE
280
     0
  9
$LWDISPLAY
290
     1
  9
$INSUNITS
 70
     4
  9
$HYPERLINKBASE
  1

  9
$STYLESHEET
  1

  9
$XEDIT
290
     1
  9
$CEPSNTYPE
380
     0
  9
$PSTYLEMODE
290
     1
  9
$FINGERPRINTGUID
  2
{9657E5FE-68B2-42F2-B67D-7877CA080F48}
  9
$VERSIONGUID
  2
{FAEB1C32-E019-11D5-929B-00C0DF256EC4}
  9
$EXTNAMES
290
     1
  9
$PSVPSCALE
 40
0.0
  9
$OLESTARTUP
290
     0
  0
ENDSEC
  0
SECTION
  2
CLASSES
  0
CLASS
  1
ACDBDICTIONARYWDFLT
  2
AcDbDictionaryWithDefault
  3
ObjectDBX Classes
 90
        0
280
     0
281
     0
  0
CLASS
  1
VISUALSTYLE
  2
AcDbVisualStyle
  3
ObjectDBX Classes
 90
     4095
280
     0
281
     0
  0
CLASS
  1
MATERIAL
  2
AcDbMaterial
  3
ObjectDBX Classes
 90
     1153
280
     0
281
     0
  0
CLASS
  1
SCALE
  2
AcDbScale
  3
ObjectDBX Classes
 90
     1153
280
     0
281
     0
  0
CLASS
  1
DICTIONARYVAR
  2
AcDbDictionaryVar
  3
ObjectDBX Classes
 90
        0
280
     0
281
     0
  0
CLASS
  1
ACDBPLACEHOLDER
  2
AcDbPlaceHolder
  3
ObjectDBX Classes
 90
        0
280
     0
281
     0
  0
CLASS
  1
LAYOUT
  2
AcDbLayout
  3
ObjectDBX Classes
 90
        0
280
     0
281
     0
  0
ENDSEC
  0
SECTION
  2
TABLES
  0
TABLE
  2
VPORT
  5
8
330
0
100
AcDbSymbolTable
 70
     1
  0
VPORT
  5
29
330
8
100
AcDbSymbolTableRecord
100
AcDbViewportTableRecord
  2
*Active
 70
     0
 10
0.0
 20
0.0
 11
1.0
 21
1.0
 12
210.0
 22
148.5
 13
0.0
 23
0.0
 14
10.0
 24
10.0
 15
10.0
 25
10.0
 16
0.0
 26
0.0
 36
1.0
 17
0.0
 27
0.0
 37
0.0
 40
297.0
 41
1.4141414141
 42
50.0
 43
0.0
 44
0.0
 50
0.0
 51
0.0
 71
     0
 72
  2000
 73
     1
 74
     3
 75
     0
 76
     0
 77
     0
 78
     0
281
     0
 65
     1
110
0.0
120
0.0
130
0.0
111
1.0
121
0.0
131
0.0
112
0.0
122
1.0
132
0.0
 79
     0
146
0.0
  0
ENDTAB
  0
TABLE
  2
LTYPE
  5
5
330
0
100
AcDbSymbolTable
 70
     6
  0
LTYPE
  5
14
330
5
100
AcDbSymbolTableRecord
100
AcDbLinetypeTableRecord
  2
ByBlock
 70
     0
  3

 72
    65
 73
     0
 40
0.0
  0
LTYPE
  5
15
330
5
100
AcDbSymbolTableRecord
100
AcDbLinetypeTableRecord
  2
ByLayer
 70
     0
  3

 72
    65
 73
     0
 40
0.0
  0
LTYPE
  5
16
330
5
100
AcDbSymbolTableRecord
100
AcDbLinetypeTableRecord
  2
Continuous
 70
     0
  3
Solid line
 72
    65
 73
     0
 40
0.0
  0
LTYPE
  5
3F
330
5
100
AcDbSymbolTableRecord
100
AcDbLinetypeTableRecord
  2
HIDDEN
 70
     0
  3
Hidden __ __ __ __ __ __ __ __ __ __ __ __ __ __
 72
    65
 73
     2
 40
1.905
 49
1.27
 74
     0
 49
-0.635
 74
     0
  0
LTYPE
  5
40
330
5
100
AcDbSymbolTableRecord
100
AcDbLinetypeTableRecord
  2
PHANTOM
 70
     0
  3
Phantom ______  __  __  ______  __  __  ______
 72
    65
 73
     6
 40
12.7
 49
6.35
 74
     0
 49
-1.27
 74
     0
 49
1.27
 74
     0
 49
-1.27
 74
     0
 49
1.27
 74
     0
 49
-1.27
 74
     0
  0
LTYPE
  5
41
330
5
100
AcDbSymbolTableRecord
100
AcDbLinetypeTableRecord
  2
CENTER
 70
     0
  3
Center ____ _ ____ _ ____ _ ____ _ ____ _ ____
 72
    65
 73
     4
 40
10.16
 49
6.35
 74
     0
 49
-1.27
 74
     0
 49
1.27
 74
     0
 49
-1.27
 74
     0
  0
LTYPE
  5
42
330
5
100
AcDbSymbolTableRecord
100
AcDbLinetypeTableRecord
  2
CENTERX2
 70
     0
  3
Center (2x) ________  __  ________  __  _____
 72
    65
 73
     4
 40
20.32
 49
12.7
 74
     0
 49
-2.54
 74
     0
 49
2.54
 74
     0
 49
-2.54
 74
     0
  0
LTYPE
  5
43
330
5
100
AcDbSymbolTableRecord
100
AcDbLinetypeTableRecord
  2
DOT2
 70
     0
  3
Dot (.5x) ........................................
 72
    65
 73
     2
 40
0.635
 49
0.0
 74
     0
 49
-0.635
 74
     0
  0
ENDTAB
  0
TABLE
  2
LAYER
  5
2
330
0
100
AcDbSymbolTable
 70
    20
  0
LAYER
  5
10
330
2
100
AcDbSymbolTableRecord
100
AcDbLayerTableRecord
  2
0
 70
     0
 62
     7
  6
Continuous
370
    -3
390
F
  0
LAYER
  5
44
330
2
100
AcDbSymbolTableRecord
100
AcDbLayerTableRecord
  2
SLD-DEFPOINTS
 70
     0
 62
     7
  6
Continuous
370
    -1
390
F
  0
LAYER
  5
45
330
2
100
AcDbSymbolTableRecord
100
AcDbLayerTableRecord
  2
1
 70
     0
 62
     4
  6
Continuous
370
    15
390
F
  0
LAYER
  5
46
330
2
100
AcDbSymbolTableRecord
100
AcDbLayerTableRecord
  2
2
 70
     0
 62
     7
  6
Continuous
370
    -3
390
F
  0
LAYER
  5
47
330
2
100
AcDbSymbolTableRecord
100
AcDbLayerTableRecord
  2
3
 70
     0
 62
     1
  6
HIDDEN
370
    -3
390
F
  0
LAYER
  5
48
330
2
100
AcDbSymbolTableRecord
100
AcDbLayerTableRecord
  2
4
 70
     0
 62
     2
  6
CENTERX2
370
    -3
390
F
  0
LAYER
  5
49
330
2
100
AcDbSymbolTableRecord
100
AcDbLayerTableRecord
  2
6
 70
     0
 62
     5
  6
Continuous
370
    -3
390
F
  0
LAYER
  5
4A
330
2
100
AcDbSymbolTableRecord
100
AcDbLayerTableRecord
  2
7
 70
     0
 62
     5
  6
Continuous
370
    -3
390
F
  0
LAYER
  5
4B
330
2
100
AcDbSymbolTableRecord
100
AcDbLayerTableRecord
  2
CUT
 70
     0
 62
     1
  6
Continuous
370
    -3
390
F
  0
LAYER
  5
4C
330
2
100
AcDbSymbolTableRecord
100
AcDbLayerTableRecord
  2
NOCUT
 70
     0
 62
     7
  6
Continuous
370
    -3
390
F
  0
LAYER
  5
4D
330
2
100
AcDbSymbolTableRecord
100
AcDbLayerTableRecord
  2
SK1
 70
     0
 62
     4
  6
Continuous
370
    15
390
F
  0
LAYER
  5
4E
330
2
100
AcDbSymbolTableRecord
100
AcDbLayerTableRecord
  2
SK2
 70
     0
 62
     7
  6
Continuous
370
    -3
390
F
  0
LAYER
  5
4F
330
2
100
AcDbSymbolTableRecord
100
AcDbLayerTableRecord
  2
SK3
 70
     0
 62
     1
  6
HIDDEN
370
    -3
390
F
  0
LAYER
  5
50
330
2
100
AcDbSymbolTableRecord
100
AcDbLayerTableRecord
  2
SK4
 70
     0
 62
     2
  6
CENTERX2
370
    -3
390
F
  0
LAYER
  5
51
330
2
100
AcDbSymbolTableRecord
100
AcDbLayerTableRecord
  2
SK6
 70
     0
 62
     5
  6
Continuous
370
    -3
390
F
  0
LAYER
  5
52
330
2
100
AcDbSymbolTableRecord
100
AcDbLayerTableRecord
  2
SK7
 70
     0
 62
     5
  6
Continuous
370
    -3
390
F
  0
LAYER
  5
53
330
2
100
AcDbSymbolTableRecord
100
AcDbLayerTableRecord
  2
SLD-0
 70
     0
 62
     7
  6
Continuous
370
    -1
390
F
  0
LAYER
  5
54
330
2
100
AcDbSymbolTableRecord
100
AcDbLayerTableRecord
  2
SLD-DEFPOINTS_0
 70
     0
 62
     7
  6
Continuous
370
    -1
390
F
  0
LAYER
  5
55
330
2
100
AcDbSymbolTableRecord
100
AcDbLayerTableRecord
  2
INFTOTAL
 70
     0
 62
     9
  6
Continuous
370
    -3
390
F
  0
LAYER
  5
56
330
2
100
AcDbSymbolTableRecord
100
AcDbLayerTableRecord
  2
INFTEXT63
 70
     0
 62
     5
  6
Continuous
370
    -3
390
F
  0
ENDTAB
  0
TABLE
  2
STYLE
  5
3
330
0
100
AcDbSymbolTable
 70
     2
  0
STYLE
  5
11
330
3
100
AcDbSymbolTableRecord
100
AcDbTextStyleTableRecord
  2
STANDARD
 70
     0
 40
0.0
 41
1.0
 50
0.0
 71
     0
 42
2.5
  3
GOTHIC.TTF
  4

1001
ACAD
1000
CENTURY GOTHIC
1071
       34
  0
STYLE
  5
57
330
3
100
AcDbSymbolTableRecord
100
AcDbTextStyleTableRecord
  2
SLDTEXTSTYLE0
 70
     0
 40
0.0
 41
1.0
 50
0.0
 71
     0
 42
0.2
  3
Monospac821 BT
  4

1001
ACAD
1000
Monospac821 BT
1071
      305
  0
ENDTAB
  0
TABLE
  2
VIEW
  5
6
330
0
100
AcDbSymbolTable
 70
     0
  0
ENDTAB
  0
TABLE
  2
UCS
  5
7
330
0
100
AcDbSymbolTable
 70
     0
  0
ENDTAB
  0
TABLE
  2
APPID
  5
9
330
0
100
AcDbSymbolTable
 70
     1
  0
APPID
  5
12
330
9
100
AcDbSymbolTableRecord
100
AcDbRegAppTableRecord
  2
ACAD
 70
     0
  0
ENDTAB
  0
TABLE
  2
DIMSTYLE
  5
A
330
0
100
AcDbSymbolTable
 70
     6
100
AcDbDimStyleTable
  0
DIMSTYLE
105
27
330
A
100
AcDbSymbolTableRecord
100
AcDbDimStyleTableRecord
  2
ISO-25
 70
     0
 41
2.5
 42
0.625
 43
3.75
 44
1.25
 73
     0
 74
     0
 77
     1
 78
     8
140
2.5
141
2.5
143
0.0393700787
147
0.625
171
     3
172
     1
271
     2
272
     2
274
     3
278
    44
283
     0
284
     8
340
57
  0
DIMSTYLE
105
E3
102
{ACAD_REACTORS
330
C0
102
}
330
A
100
AcDbSymbolTableRecord
100
AcDbDimStyleTableRecord
  2
SLDDIMSTYLE0
 70
     0
 41
3.302
 44
0.0
 45
0.000000001
 73
     0
 77
     1
 78
    12
140
3.5
147
0.875
173
     1
271
     1
272
     2
276
     2
284
    12
340
57
  0
DIMSTYLE
105
F0
102
{ACAD_REACTORS
330
EF
102
}
330
A
100
AcDbSymbolTableRecord
100
AcDbDimStyleTableRecord
  2
SLDDIMSTYLE1
 70
     0
 41
3.302
 44
0.0
 45
0.000000001
 73
     0
 77
     1
 78
    12
140
3.5
141
0.0
147
0.875
173
     1
271
     1
272
     1
276
     2
284
    12
340
57
  0
DIMSTYLE
105
FA
102
{ACAD_REACTORS
330
F9
102
}
330
A
100
AcDbSymbolTableRecord
100
AcDbDimStyleTableRecord
  2
SLDDIMSTYLE2
 70
     0
 41
3.302
 44
0.0
 45
0.000000001
 73
     0
 77
     1
 78
    12
140
3.5
147
0.875
173
     1
271
     1
272
     1
276
     2
284
    12
340
57
  0
DIMSTYLE
105
105
102
{ACAD_REACTORS
330
104
330
10F
330
126
330
132
330
13C
102
}
330
A
100
AcDbSymbolTableRecord
100
AcDbDimStyleTableRecord
  2
SLDDIMSTYLE3
 70
     0
 41
3.302
 44
0.0
 45
0.000000001
 73
     0
 77
     1
 78
    12
140
3.5
147
0.875
173
     1
271
     2
272
     2
276
     2
284
    12
340
57
  0
DIMSTYLE
105
11A
102
{ACAD_REACTORS
330
119
102
}
330
A
100
AcDbSymbolTableRecord
100
AcDbDimStyleTableRecord
  2
SLDDIMSTYLE4
 70
     0
 41
3.302
 44
0.0
 45
0.000000001
 73
     0
 77
     1
 78
    12
140
3.5
147
0.875
173
     1
271
     2
272
     2
276
     2
284
    12
340
57
  0
ENDTAB
  0
TABLE
  2
BLOCK_RECORD
  5
1
330
0
100
AcDbSymbolTable
 70
    12
  0
BLOCK_RECORD
  5
1F
330
1
100
AcDbSymbolTableRecord
100
AcDbBlockTableRecord
  2
*Model_Space
340
22
  0
BLOCK_RECORD
  5
1B
330
1
100
AcDbSymbolTableRecord
100
AcDbBlockTableRecord
  2
*Paper_Space
340
1E
  0
BLOCK_RECORD
  5
23
330
1
100
AcDbSymbolTableRecord
100
AcDbBlockTableRecord
  2
*Paper_Space0
340
26
  0
BLOCK_RECORD
  5
E4
330
1
100
AcDbSymbolTableRecord
100
AcDbBlockTableRecord
  2
*D1
340
0
  0
BLOCK_RECORD
  5
F1
330
1
100
AcDbSymbolTableRecord
100
AcDbBlockTableRecord
  2
*D2
340
0
  0
BLOCK_RECORD
  5
FB
330
1
100
AcDbSymbolTableRecord
100
AcDbBlockTableRecord
  2
*D3
340
0
  0
BLOCK_RECORD
  5
106
330
1
100
AcDbSymbolTableRecord
100
AcDbBlockTableRecord
  2
*D4
340
0
  0
BLOCK_RECORD
  5
110
330
1
100
AcDbSymbolTableRecord
100
AcDbBlockTableRecord
  2
*D5
340
0
  0
BLOCK_RECORD
  5
11B
330
1
100
AcDbSymbolTableRecord
100
AcDbBlockTableRecord
  2
*D6
340
0
  0
BLOCK_RECORD
  5
127
330
1
100
AcDbSymbolTableRecord
100
AcDbBlockTableRecord
  2
*D7
340
0
  0
BLOCK_RECORD
  5
133
330
1
100
AcDbSymbolTableRecord
100
AcDbBlockTableRecord
  2
*D8
340
0
  0
BLOCK_RECORD
  5
13D
330
1
100
AcDbSymbolTableRecord
100
AcDbBlockTableRecord
  2
*D9
340
0
  0
BLOCK_RECORD
  5
148
330
1
100
AcDbSymbolTableRecord
100
AcDbBlockTableRecord
  2
SW_NOTE_0
340
0
102
{BLKREFS
331
150
102
}
  0
BLOCK_RECORD
  5
151
330
1
100
AcDbSymbolTableRecord
100
AcDbBlockTableRecord
  2
SW_NOTE_1
340
0
102
{BLKREFS
331
157
102
}
  0
ENDTAB
  0
ENDSEC
  0
SECTION
  2
BLOCKS
  0
BLOCK
  5
20
330
1F
100
AcDbEntity
  8
0
100
AcDbBlockBegin
  2
*Model_Space
 70
     0
 10
0.0
 20
0.0
 30
0.0
  3
*Model_Space
  1

  0
ENDBLK
  5
21
330
1F
100
AcDbEntity
  8
0
100
AcDbBlockEnd
  0
BLOCK
  5
1C
330
1B
100
AcDbEntity
 67
     1
  8
0
100
AcDbBlockBegin
  2
*Paper_Space
 70
     0
 10
0.0
 20
0.0
 30
0.0
  3
*Paper_Space
  1

  0
ENDBLK
  5
1D
330
1B
100
AcDbEntity
 67
     1
  8
0
100
AcDbBlockEnd
  0
BLOCK
  5
24
330
23
100
AcDbEntity
  8
0
100
AcDbBlockBegin
  2
*Paper_Space0
 70
     0
 10
0.0
 20
0.0
 30
0.0
  3
*Paper_Space0
  1

  0
ENDBLK
  5
25
330
23
100
AcDbEntity
  8
0
100
AcDbBlockEnd
  0
BLOCK
  5
E5
330
E4
100
AcDbEntity
  8
0
100
AcDbBlockBegin
  2
*D1
 70
     1
 10
0.0
 20
0.0
 30
0.0
  3
*D1
  1

  0
SOLID
  5
E7
330
E4
100
AcDbEntity
  8
2
100
AcDbTrace
 10
118.9632346948
 20
-5.0
 30
0.0
 11
119.4712346948
 21
-1.698
 31
0.0
 12
118.4552346948
 22
-1.698
 32
0.0
 13
118.4552346948
 23
-1.698
 33
0.0
  0
SOLID
  5
E8
330
E4
100
AcDbEntity
  8
2
100
AcDbTrace
 10
118.9632346948
 20
5.0
 30
0.0
 11
118.4552346948
 21
1.698
 31
0.0
 12
119.4712346948
 22
1.698
 32
0.0
 13
119.4712346948
 23
1.698
 33
0.0
  0
LINE
  5
E9
330
E4
100
AcDbEntity
  8
2
100
AcDbLine
 10
61.0
 20
-5.0
 30
0.0
 11
119.9632346948
 21
-5.0
 31
0.0
  0
LINE
  5
EA
330
E4
100
AcDbEntity
  8
2
100
AcDbLine
 10
60.0
 20
5.0
 30
0.0
 11
119.9632346948
 21
5.0
 31
0.0
  0
LINE
  5
EB
330
E4
100
AcDbEntity
  8
2
100
AcDbLine
 10
118.9632346948
 20
-5.0
 30
0.0
 11
118.9632346948
 21
5.0
 31
0.0
  0
LINE
  5
EC
330
E4
100
AcDbEntity
  8
2
100
AcDbLine
 10
118.9632346948
 20
5.0
 30
0.0
 11
118.9632346948
 21
19.4384360358
 31
0.0
  0
MTEXT
  5
ED
330
E4
100
AcDbEntity
  8
2
100
AcDbMText
 10
114.3565510066
 20
7.0497527296
 30
0.0
 40
3.5
 41
0.0
 71
     1
 72
     1
  1
%%c
  7
SLDTEXTSTYLE0
 11
-1.608122649676637E-16
 21
1.0
 31
0.0
 73
     1
 44
1.0
  0
MTEXT
  5
EE
330
E4
100
AcDbEntity
  8
2
100
AcDbMText
 10
114.3565512394
 20
12.2997779686
 30
0.0
 40
3.5
 41
0.0
 71
     1
 72
     1
  1
10
  7
SLDTEXTSTYLE0
 11
-1.608122649676637E-16
 21
1.0
 31
0.0
 73
     1
 44
1.0
  0
ENDBLK
  5
E6
330
E4
100
AcDbEntity
  8
0
100
AcDbBlockEnd
  0
BLOCK
  5
F2
330
F1
100
AcDbEntity
  8
0
100
AcDbBlockBegin
  2
*D2
 70
     1
 10
0.0
 20
0.0
 30
0.0
  3
*D2
  1

  0
SOLID
  5
F4
330
F1
100
AcDbEntity
  8
SK2
100
AcDbTrace
 10
59.7071067812
 20
4.7071067812
 30
0.0
 11
62.4011836175
 21
6.6827631278
 31
0.0
 12
61.6827631278
 22
7.4011836175
 32
0.0
 13
61.6827631278
 23
7.4011836175
 33
0.0
  0
LINE
  5
F5
330
F1
100
AcDbEntity
  8
SK2
100
AcDbLine
 10
59.7071067812
 20
4.7071067812
 30
0.0
 11
82.3466279842
 21
27.3466279842
 31
0.0
  0
LINE
  5
F6
330
F1
100
AcDbEntity
  8
SK2
100
AcDbLine
 10
59.7071067812
 20
4.7071067812
 30
0.0
 11
59.0
 21
4.0
 31
0.0
  0
MTEXT
  5
F7
330
F1
100
AcDbEntity
  8
SK2
100
AcDbMText
 10
74.0503570541
 20
25.5473118586
 30
0.0
 40
3.5
 41
0.0
 71
     1
 72
     1
  1
R
  7
SLDTEXTSTYLE0
 11
0.7071067811865464
 21
0.7071067811865488
 31
0.0
 73
     1
 44
1.0
  0
MTEXT
  5
F8
330
F1
100
AcDbEntity
  8
SK2
100
AcDbMText
 10
76.0129878105
 20
27.509942615
 30
0.0
 40
3.5
 41
0.0
 71
     1
 72
     1
  1
1
  7
SLDTEXTSTYLE0
 11
0.7071067811865464
 21
0.7071067811865488
 31
0.0
 73
     1
 44
1.0
  0
ENDBLK
  5
F3
330
F1
100
AcDbEntity
  8
0
100
AcDbBlockEnd
  0
BLOCK
  5
FC
330
FB
100
AcDbEntity
  8
0
100
AcDbBlockBegin
  2
*D3
 70
     1
 10
0.0
 20
0.0
 30
0.0
  3
*D3
  1

  0
SOLID
  5
FE
330
FB
100
AcDbEntity
  8
SK2
100
AcDbTrace
 10
60.0
 20
86.5998788878
 30
0.0
 11
56.698
 21
87.1078788878
 31
0.0
 12
56.698
 22
86.0918788878
 32
0.0
 13
56.698
 23
86.0918788878
 33
0.0
  0
SOLID
  5
FF
330
FB
100
AcDbEntity
  8
SK2
100
AcDbTrace
 10
-40.0
 20
86.5998788878
 30
0.0
 11
-36.698
 21
86.0918788878
 31
0.0
 12
-36.698
 22
87.1078788878
 32
0.0
 13
-36.698
 23
87.1078788878
 33
0.0
  0
LINE
  5
100
330
FB
100
AcDbEntity
  8
SK2
100
AcDbLine
 10
60.0
 20
5.0
 30
0.0
 11
60.0
 21
87.5998788878
 31
0.0
  0
LINE
  5
101
330
FB
100
AcDbEntity
  8
SK2
100
AcDbLine
 10
-40.0
 20
6.0
 30
0.0
 11
-40.0
 21
87.5998788878
 31
0.0
  0
LINE
  5
102
330
FB
100
AcDbEntity
  8
SK2
100
AcDbLine
 10
60.0
 20
86.5998788878
 30
0.0
 11
-40.0
 21
86.5998788878
 31
0.0
  0
MTEXT
  5
103
330
FB
100
AcDbEntity
  8
SK2
100
AcDbMText
 10
8.1219343905
 20
91.2065623432
 30
0.0
 40
3.5
 41
0.0
 71
     1
 72
     1
  1
100
  7
SLDTEXTSTYLE0
 73
     1
 44
1.0
  0
ENDBLK
  5
FD
330
FB
100
AcDbEntity
  8
0
100
AcDbBlockEnd
  0
BLOCK
  5
107
330
106
100
AcDbEntity
  8
0
100
AcDbBlockBegin
  2
*D4
 70
     1
 10
0.0
 20
0.0
 30
0.0
  3
*D4
  1

  0
SOLID
  5
109
330
106
100
AcDbEntity
  8
SK2
100
AcDbTrace
 10
0.0
 20
48.7509423314
 30
0.0
 11
-3.302
 21
49.2589423314
 31
0.0
 12
-3.302
 22
48.2429423314
 32
0.0
 13
-3.302
 23
48.2429423314
 33
0.0
  0
SOLID
  5
10A
330
106
100
AcDbEntity
  8
SK2
100
AcDbTrace
 10
-40.0
 20
48.7509423314
 30
0.0
 11
-36.698
 21
48.2429423314
 31
0.0
 12
-36.698
 22
49.2589423314
 32
0.0
 13
-36.698
 23
49.2589423314
 33
0.0
  0
LINE
  5
10B
330
106
100
AcDbEntity
  8
SK2
100
AcDbLine
 10
0.0
 20
1.0
 30
0.0
 11
0.0
 21
49.7509423314
 31
0.0
  0
LINE
  5
10C
330
106
100
AcDbEntity
  8
SK2
100
AcDbLine
 10
-40.0
 20
1.0
 30
0.0
 11
-40.0
 21
49.7509423314
 31
0.0
  0
LINE
  5
10D
330
106
100
AcDbEntity
  8
SK2
100
AcDbLine
 10
0.0
 20
48.7509423314
 30
0.0
 11
-40.0
 21
48.7509423314
 31
0.0
  0
MTEXT
  5
10E
330
106
100
AcDbEntity
  8
SK2
100
AcDbMText
 10
-23.7685880912
 20
53.3576257868
 30
0.0
 40
3.5
 41
0.0
 71
     1
 72
     1
  1
40
  7
SLDTEXTSTYLE0
 73
     1
 44
1.0
  0
ENDBLK
  5
108
330
106
100
AcDbEntity
  8
0
100
AcDbBlockEnd
  0
BLOCK
  5
111
330
110
100
AcDbEntity
  8
0
100
AcDbBlockBegin
  2
*D5
 70
     1
 10
0.0
 20
0.0
 30
0.0
  3
*D5
  1

  0
SOLID
  5
113
330
110
100
AcDbEntity
  8
SK2
100
AcDbTrace
 10
0.0
 20
57.8509423314
 30
0.0
 11
3.302
 21
57.3429423314
 31
0.0
 12
3.302
 22
58.3589423314
 32
0.0
 13
3.302
 23
58.3589423314
 33
0.0
  0
SOLID
  5
114
330
110
100
AcDbEntity
  8
SK2
100
AcDbTrace
 10
60.0
 20
57.8509423314
 30
0.0
 11
56.698
 21
58.3589423314
 31
0.0
 12
56.698
 22
57.3429423314
 32
0.0
 13
56.698
 23
57.3429423314
 33
0.0
  0
LINE
  5
115
330
110
100
AcDbEntity
  8
SK2
100
AcDbLine
 10
0.0
 20
5.6
 30
0.0
 11
0.0
 21
58.8509423314
 31
0.0
  0
LINE
  5
116
330
110
100
AcDbEntity
  8
SK2
100
AcDbLine
 10
60.0
 20
6.0
 30
0.0
 11
60.0
 21
58.8509423314
 31
0.0
  0
LINE
  5
117
330
110
100
AcDbEntity
  8
SK2
100
AcDbLine
 10
0.0
 20
57.8509423314
 30
0.0
 11
60.0
 21
57.8509423314
 31
0.0
  0
MTEXT
  5
118
330
110
100
AcDbEntity
  8
SK2
100
AcDbMText
 10
25.636642282
 20
62.4576257868
 30
0.0
 40
3.5
 41
0.0
 71
     1
 72
     1
  1
60
  7
SLDTEXTSTYLE0
 73
     1
 44
1.0
  0
ENDBLK
  5
112
330
110
100
AcDbEntity
  8
0
100
AcDbBlockEnd
  0
BLOCK
  5
11C
330
11B
100
AcDbEntity
  8
0
100
AcDbBlockBegin
  2
*D6
 70
     1
 10
0.0
 20
0.0
 30
0.0
  3
*D6
  1

  0
SOLID
  5
11E
330
11B
100
AcDbEntity
  8
SK2
100
AcDbTrace
 10
60.0
 20
45.7509423314
 30
0.0
 11
63.302
 21
45.2429423314
 31
0.0
 12
63.302
 22
46.2589423314
 32
0.0
 13
63.302
 23
46.2589423314
 33
0.0
  0
SOLID
  5
11F
330
11B
100
AcDbEntity
  8
SK2
100
AcDbTrace
 10
46.0
 20
45.7509423314
 30
0.0
 11
42.698
 21
46.2589423314
 31
0.0
 12
42.698
 22
45.2429423314
 32
0.0
 13
42.698
 23
45.2429423314
 33
0.0
  0
LINE
  5
120
330
11B
100
AcDbEntity
  8
SK2
100
AcDbLine
 10
60.0
 20
6.0
 30
0.0
 11
60.0
 21
46.7509423314
 31
0.0
  0
LINE
  5
121
330
11B
100
AcDbEntity
  8
SK2
100
AcDbLine
 10
46.0
 20
4.0
 30
0.0
 11
46.0
 21
46.7509423314
 31
0.0
  0
LINE
  5
122
330
11B
100
AcDbEntity
  8
SK2
100
AcDbLine
 10
60.0
 20
45.7509423314
 30
0.0
 11
66.35
 21
45.7509423314
 31
0.0
  0
LINE
  5
123
330
11B
100
AcDbEntity
  8
SK2
100
AcDbLine
 10
60.0
 20
45.7509423314
 30
0.0
 11
46.0
 21
45.7509423314
 31
0.0
  0
LINE
  5
124
330
11B
100
AcDbEntity
  8
SK2
100
AcDbLine
 10
46.0
 20
45.7509423314
 30
0.0
 11
39.65
 21
45.7509423314
 31
0.0
  0
MTEXT
  5
125
330
11B
100
AcDbEntity
  8
SK2
100
AcDbMText
 10
50.0495481918
 20
50.3576257868
 30
0.0
 40
3.5
 41
0.0
 71
     1
 72
     1
  1
14
  7
SLDTEXTSTYLE0
 73
     1
 44
1.0
  0
ENDBLK
  5
11D
330
11B
100
AcDbEntity
  8
0
100
AcDbBlockEnd
  0
BLOCK
  5
128
330
127
100
AcDbEntity
  8
0
100
AcDbBlockBegin
  2
*D7
 70
     1
 10
0.0
 20
0.0
 30
0.0
  3
*D7
  1

  0
SOLID
  5
12A
330
127
100
AcDbEntity
  8
SK2
100
AcDbTrace
 10
-11.9960344536
 20
4.6
 30
0.0
 11
-12.5040344536
 21
1.298
 31
0.0
 12
-11.4880344536
 22
1.298
 32
0.0
 13
-11.4880344536
 23
1.298
 33
0.0
  0
SOLID
  5
12B
330
127
100
AcDbEntity
  8
SK2
100
AcDbTrace
 10
-11.9960344536
 20
-4.6
 30
0.0
 11
-11.4880344536
 21
-1.298
 31
0.0
 12
-12.5040344536
 22
-1.298
 32
0.0
 13
-12.5040344536
 23
-1.298
 33
0.0
  0
LINE
  5
12C
330
127
100
AcDbEntity
  8
SK2
100
AcDbLine
 10
-1.0
 20
4.6
 30
0.0
 11
-12.9960344536
 21
4.6
 31
0.0
  0
LINE
  5
12D
330
127
100
AcDbEntity
  8
SK2
100
AcDbLine
 10
-1.0
 20
-4.6
 30
0.0
 11
-12.9960344536
 21
-4.6
 31
0.0
  0
LINE
  5
12E
330
127
100
AcDbEntity
  8
SK2
100
AcDbLine
 10
-11.9960344536
 20
4.6
 30
0.0
 11
-11.9960344536
 21
49.0736512976
 31
0.0
  0
LINE
  5
12F
330
127
100
AcDbEntity
  8
SK2
100
AcDbLine
 10
-11.9960344536
 20
4.6
 30
0.0
 11
-11.9960344536
 21
-4.6
 31
0.0
  0
MTEXT
  5
130
330
127
100
AcDbEntity
  8
SK2
100
AcDbMText
 10
-16.6027181418
 20
33.9093889578
 30
0.0
 40
3.5
 41
0.0
 71
     1
 72
     1
  1
%%c
  7
SLDTEXTSTYLE0
 11
-7.044195017643634E-15
 21
1.0
 31
0.0
 73
     1
 44
1.0
  0
MTEXT
  5
131
330
127
100
AcDbEntity
  8
SK2
100
AcDbMText
 10
-16.602717909
 20
39.1594141969
 30
0.0
 40
3.5
 41
0.0
 71
     1
 72
     1
  1
9,2
  7
SLDTEXTSTYLE0
 11
-7.044195017643634E-15
 21
1.0
 31
0.0
 73
     1
 44
1.0
  0
ENDBLK
  5
129
330
127
100
AcDbEntity
  8
0
100
AcDbBlockEnd
  0
BLOCK
  5
134
330
133
100
AcDbEntity
  8
0
100
AcDbBlockBegin
  2
*D8
 70
     1
 10
0.0
 20
0.0
 30
0.0
  3
*D8
  1

  0
SOLID
  5
136
330
133
100
AcDbEntity
  8
2
100
AcDbTrace
 10
0.0
 20
75.9999940533
 30
0.0
 11
3.302
 21
75.4919940533
 31
0.0
 12
3.302
 22
76.5079940533
 32
0.0
 13
3.302
 23
76.5079940533
 33
0.0
  0
SOLID
  5
137
330
133
100
AcDbEntity
  8
2
100
AcDbTrace
 10
60.0
 20
75.9999940533
 30
0.0
 11
56.698
 21
76.5079940533
 31
0.0
 12
56.698
 22
75.4919940533
 32
0.0
 13
56.698
 23
75.4919940533
 33
0.0
  0
LINE
  5
138
330
133
100
AcDbEntity
  8
2
100
AcDbLine
 10
0.0
 20
3.5
 30
0.0
 11
0.0
 21
76.9999940533
 31
0.0
  0
LINE
  5
139
330
133
100
AcDbEntity
  8
2
100
AcDbLine
 10
60.0
 20
6.0
 30
0.0
 11
60.0
 21
76.9999940533
 31
0.0
  0
LINE
  5
13A
330
133
100
AcDbEntity
  8
2
100
AcDbLine
 10
0.0
 20
75.9999940533
 30
0.0
 11
60.0
 21
75.9999940533
 31
0.0
  0
MTEXT
  5
13B
330
133
100
AcDbEntity
  8
2
100
AcDbMText
 10
26.6324002072
 20
80.6066775087
 30
0.0
 40
3.5
 41
0.0
 71
     1
 72
     1
  1
60
  7
SLDTEXTSTYLE0
 73
     1
 44
1.0
  0
ENDBLK
  5
135
330
133
100
AcDbEntity
  8
0
100
AcDbBlockEnd
  0
BLOCK
  5
13E
330
13D
100
AcDbEntity
  8
0
100
AcDbBlockBegin
  2
*D9
 70
     1
 10
0.0
 20
0.0
 30
0.0
  3
*D9
  1

  0
SOLID
  5
140
330
13D
100
AcDbEntity
  8
SK2
100
AcDbTrace
 10
-41.7386612653
 20
5.0
 30
0.0
 11
-42.2466612653
 21
1.698
 31
0.0
 12
-41.2306612653
 22
1.698
 32
0.0
 13
-41.2306612653
 23
1.698
 33
0.0
  0
SOLID
  5
141
330
13D
100
AcDbEntity
  8
SK2
100
AcDbTrace
 10
-41.7386612653
 20
-5.0
 30
0.0
 11
-41.2306612653
 21
-1.698
 31
0.0
 12
-42.2466612653
 22
-1.698
 32
0.0
 13
-42.2466612653
 23
-1.698
 33
0.0
  0
LINE
  5
142
330
13D
100
AcDbEntity
  8
SK2
100
AcDbLine
 10
-41.0
 20
5.0
 30
0.0
 11
-42.7386612653
 21
5.0
 31
0.0
  0
LINE
  5
143
330
13D
100
AcDbEntity
  8
SK2
100
AcDbLine
 10
-41.0
 20
-5.0
 30
0.0
 11
-42.7386612653
 21
-5.0
 31
0.0
  0
LINE
  5
144
330
13D
100
AcDbEntity
  8
SK2
100
AcDbLine
 10
-41.7386612653
 20
5.0
 30
0.0
 11
-41.7386612653
 21
27.6318880947
 31
0.0
  0
LINE
  5
145
330
13D
100
AcDbEntity
  8
SK2
100
AcDbLine
 10
-41.7386612653
 20
5.0
 30
0.0
 11
-41.7386612653
 21
-5.0
 31
0.0
  0
MTEXT
  5
146
330
13D
100
AcDbEntity
  8
SK2
100
AcDbMText
 10
-46.3453449535
 20
15.2432047885
 30
0.0
 40
3.5
 41
0.0
 71
     1
 72
     1
  1
%%c
  7
SLDTEXTSTYLE0
 11
-7.044195017643634E-15
 21
1.0
 31
0.0
 73
     1
 44
1.0
  0
MTEXT
  5
147
330
13D
100
AcDbEntity
  8
SK2
100
AcDbMText
 10
-46.3453447206
 20
20.4932300275
 30
0.0
 40
3.5
 41
0.0
 71
     1
 72
     1
  1
10
  7
SLDTEXTSTYLE0
 11
-7.044195017643634E-15
 21
1.0
 31
0.0
 73
     1
 44
1.0
  0
ENDBLK
  5
13F
330
13D
100
AcDbEntity
  8
0
100
AcDbBlockEnd
  0
BLOCK
  5
149
330
148
100
AcDbEntity
  8
0
100
AcDbBlockBegin
  2
SW_NOTE_0
 70
     0
 10
0.0
 20
0.0
 30
0.0
  3
SW_NOTE_0
  1

  0
MTEXT
  5
14B
330
148
100
AcDbEntity
  8
INFTEXT63
 62
     0
100
AcDbMText
 10
0.0
 20
4.6066838046
 30
0.0
 40
3.5
 41
0.0
 71
     1
 72
     1
  1
Katalogware 2570190011
  7
SLDTEXTSTYLE0
 73
     1
 44
1.0
  0
MTEXT
  5
14C
330
148
100
AcDbEntity
  8
INFTEXT63
 62
     0
100
AcDbMText
 10
0.0
 20
0.0177948465
 30
0.0
 40
3.5
 41
0.0
 71
     1
 72
     1
  1
H. Sartorius Nachf. GmbH & Co. KG
  7
SLDTEXTSTYLE0
 73
     1
 44
1.0
  0
MTEXT
  5
14D
330
148
100
AcDbEntity
  8
INFTEXT63
 62
     0
100
AcDbMText
 10
0.0
 20
-4.5710941116
 30
0.0
 40
3.5
 41
0.0
 71
     1
 72
     1
  1
Harkortstrasse 54 
  7
SLDTEXTSTYLE0
 73
     1
 44
1.0
  0
MTEXT
  5
14E
330
148
100
AcDbEntity
  8
INFTEXT63
 62
     0
100
AcDbMText
 10
0.0
 20
-9.1599830697
 30
0.0
 40
3.5
 41
0.0
 71
     1
 72
     1
  1
40880 Ratingen
  7
SLDTEXTSTYLE0
 73
     1
 44
1.0
  0
MTEXT
  5
14F
330
148
100
AcDbEntity
  8
INFTEXT63
 62
     0
100
AcDbMText
 10
0.0
 20
-13.7488720278
 30
0.0
 40
3.5
 41
0.0
 71
     1
 72
     1
  1
Deutschland
  7
SLDTEXTSTYLE0
 73
     1
 44
1.0
  0
ENDBLK
  5
14A
330
148
100
AcDbEntity
  8
0
100
AcDbBlockEnd
  0
BLOCK
  5
152
330
151
100
AcDbEntity
  8
0
100
AcDbBlockBegin
  2
SW_NOTE_1
 70
     0
 10
0.0
 20
0.0
 30
0.0
  3
SW_NOTE_1
  1

  0
MTEXT
  5
154
330
151
100
AcDbEntity
  8
INFTEXT63
 62
     0
100
AcDbMText
 10
0.0
 20
4.6066838046
 30
0.0
 40
3.5
 41
0.0
 71
     1
 72
     1
  1
Copyright
  7
SLDTEXTSTYLE0
 73
     1
 44
1.0
  0
MTEXT
  5
155
330
151
100
AcDbEntity
  8
INFTEXT63
 62
     0
100
AcDbMText
 10
0.0
 20
-4.5710941116
 30
0.0
 40
3.5
 41
0.0
 71
     1
 72
     1
  1
Zeichnung nach DIN SPEC 69874 konvertiert mit SolidBMG Version 1.2
  7
SLDTEXTSTYLE0
 73
     1
 44
1.0
  0
MTEXT
  5
156
330
151
100
AcDbEntity
  8
INFTEXT63
 62
     0
100
AcDbMText
 10
0.0
 20
-9.1599830697
 30
0.0
 40
3.5
 41
0.0
 71
     1
 72
     1
  1
Geprüft mit DWPTools V1.0.6-BMG Werkzeug / Schneidwerkzeug
  7
SLDTEXTSTYLE0
 73
     1
 44
1.0
  0
ENDBLK
  5
153
330
151
100
AcDbEntity
  8
0
100
AcDbBlockEnd
  0
ENDSEC
  0
SECTION
  2
ENTITIES
  0
LINE
  5
58
330
1F
100
AcDbEntity
  8
SK1
  6
Continuous
370
    15
100
AcDbLine
 10
-40.0
 20
-5.0
 30
0.0
 11
0.0
 21
-5.0
 31
0.0
  0
LINE
  5
59
330
1F
100
AcDbEntity
  8
SK1
  6
Continuous
370
    15
100
AcDbLine
 10
0.0
 20
5.0
 30
0.0
 11
-40.0
 21
5.0
 31
0.0
  0
LINE
  5
5A
330
1F
100
AcDbEntity
  8
1
  6
Continuous
370
    15
100
AcDbLine
 10
57.9175458163
 20
-5.0
 30
0.0
 11
59.0
 21
-5.0
 31
0.0
  0
SPLINE
  5
5B
330
1F
100
AcDbEntity
  8
1
  6
Continuous
370
    15
100
AcDbSpline
210
0.0
220
0.0
230
1.0
 70
     8
 71
     3
 72
    17
 73
    13
 74
     0
 42
0.00000001
 43
0.00000001
 40
0.0
 40
0.0
 40
0.0
 40
0.0
 40
0.0505111314735884
 40
0.1097277136407327
 40
0.2068338007121759
 40
0.3084083742749469
 40
0.3980382719591785
 40
0.4900059012128575
 40
0.5672184787705945
 40
0.6726293424852902
 40
0.8239959632776903
 40
1.0
 40
1.0
 40
1.0
 40
1.0
 10
56.14752337972272
 20
3.264514107544531
 30
0.0
 10
56.14124438918878
 20
3.269745445788297
 30
0.0
 10
56.12760424185568
 20
3.281109728630982
 30
0.0
 10
56.0013459001721
 20
3.307770411764523
 30
0.0
 10
55.78289174028426
 20
3.349295895610968
 30
0.0
 10
55.51929134373376
 20
3.403638422001376
 30
0.0
 10
55.25654827717612
 20
3.463192779975772
 30
0.0
 10
55.00784237196768
 20
3.524500512969198
 30
0.0
 10
54.72606831459138
 20
3.599976326982948
 30
0.0
 10
54.38114132152273
 20
3.701069720823599
 30
0.0
 10
53.93716482567936
 20
3.844262126094931
 30
0.0
 10
53.60274339670652
 20
3.971186603945524
 30
0.0
 10
53.42294865910694
 20
4.039424914092705
 30
0.0
  0
LINE
  5
5C
330
1F
100
AcDbEntity
  8
1
  6
Continuous
370
    15
100
AcDbLine
 10
48.621115214
 20
5.0
 30
0.0
 11
46.0
 21
5.0
 31
0.0
  0
LINE
  5
5D
330
1F
100
AcDbEntity
  8
1
  6
Continuous
370
    15
100
AcDbLine
 10
46.0
 20
-5.0
 30
0.0
 11
48.621115214
 21
-5.0
 31
0.0
  0
LINE
  5
5E
330
1F
100
AcDbEntity
  8
1
  6
Continuous
370
    15
100
AcDbLine
 10
59.0
 20
5.0
 30
0.0
 11
57.9175458163
 21
5.0
 31
0.0
  0
ARC
  5
5F
330
1F
100
AcDbEntity
  8
1
  6
Continuous
370
    15
100
AcDbCircle
 10
59.0
 20
4.0
 30
0.0
 40
1.000000000000001
100
AcDbArc
 50
52.7799022684
 51
90.0
  0
ARC
  5
60
330
1F
100
AcDbEntity
  8
1
  6
Continuous
370
    15
100
AcDbCircle
 10
59.0
 20
-4.0
 30
0.0
 40
1.000000000000003
100
AcDbArc
 50
270.0
 51
307.2096827216
  0
LINE
  5
61
330
1F
100
AcDbEntity
  8
1
  6
Continuous
370
    15
100
AcDbLine
 10
0.0
 20
-4.6
 30
0.0
 11
44.0827461255
 21
-4.6
 31
0.0
  0
LINE
  5
62
330
1F
100
AcDbEntity
  8
1
  6
Continuous
370
    15
100
AcDbLine
 10
44.0827461255
 20
4.6
 30
0.0
 11
0.0
 21
4.6
 31
0.0
  0
LINE
  5
63
330
1F
100
AcDbEntity
  8
SK1
  6
Continuous
370
    15
100
AcDbLine
 10
-40.0
 20
0.0
 30
0.0
 11
-40.0
 21
5.0
 31
0.0
  0
LINE
  5
64
330
1F
100
AcDbEntity
  8
SK1
  6
Continuous
370
    15
100
AcDbLine
 10
-40.0
 20
-5.0
 30
0.0
 11
-40.0
 21
0.0
 31
0.0
  0
LINE
  5
65
330
1F
100
AcDbEntity
  8
SK1
  6
Continuous
370
    15
100
AcDbLine
 10
0.0
 20
0.0
 30
0.0
 11
0.0
 21
5.0
 31
0.0
  0
LINE
  5
66
330
1F
100
AcDbEntity
  8
SK1
  6
Continuous
370
    15
100
AcDbLine
 10
0.0
 20
-5.0
 30
0.0
 11
0.0
 21
0.0
 31
0.0
  0
LINE
  5
67
330
1F
100
AcDbEntity
  8
1
  6
Continuous
370
    15
100
AcDbLine
 10
46.0
 20
4.60380625
 30
0.0
 11
46.0
 21
5.0
 31
0.0
  0
SPLINE
  5
68
330
1F
100
AcDbEntity
  8
1
  6
Continuous
370
    15
100
AcDbSpline
210
0.0
220
0.0
230
1.0
 70
     8
 71
     3
 72
    18
 73
    14
 74
     0
 42
0.00000001
 43
0.00000001
 40
0.0
 40
0.0
 40
0.0
 40
0.0
 40
0.2499999999999997
 40
0.2499999999999997
 40
0.3749999999999996
 40
0.3749999999999996
 40
0.4999999999999994
 40
0.4999999999999994
 40
0.6249999999999993
 40
0.6249999999999993
 40
0.7499999999999991
 40
0.7499999999999991
 40
1.0
 40
1.0
 40
1.0
 40
1.0
 10
46.00000000000001
 20
5.00000000000002
 30
0.0
 10
47.09229105520848
 20
5.00000000000001
 30
0.0
 10
48.16499640700248
 20
4.84503148861783
 30
0.0
 10
49.78984993764711
 20
4.400560892846602
 30
0.0
 10
50.33733673924364
 20
4.215404793590514
 30
0.0
 10
51.42227592195052
 20
3.78652050789824
 30
0.0
 10
51.96089333147798
 20
3.543003505932752
 30
0.0
 10
53.0377951317464
 20
3.006755974897002
 30
0.0
 10
53.57600877329917
 20
2.713936610015172
 30
0.0
 10
54.65947469273057
 20
2.087537825448146
 30
0.0
 10
55.20723573244479
 20
1.752305914013241
 30
0.0
 10
56.83426483095761
 20
0.7236529791333834
 30
0.0
 10
57.90769077655442
 20
0.0015949478810899
 30
0.0
 10
59.00000000000014
 20
-0.7109128242121353
 30
0.0
  0
SPLINE
  5
69
330
1F
100
AcDbEntity
  8
1
  6
Continuous
370
    15
100
AcDbSpline
210
0.0
220
0.0
230
1.0
 70
     8
 71
     3
 72
    16
 73
    12
 74
     0
 42
0.00000001
 43
0.00000001
 40
0.0
 40
0.0
 40
0.0
 40
0.0
 40
0.2499999999999997
 40
0.2499999999999997
 40
0.4999999999999993
 40
0.4999999999999993
 40
0.749999999999999
 40
0.749999999999999
 40
0.8749999999999994
 40
0.8749999999999994
 40
1.0
 40
1.0
 40
1.0
 40
1.0
 10
59.0
 20
-0.7109128242120655
 30
0.0
 10
59.12064028403638
 20
-0.7896058702455947
 30
0.0
 10
59.23807028003469
 20
-0.8630167669691902
 30
0.0
 10
59.46896441576288
 20
-0.9943022478561955
 30
0.0
 10
59.57569992123249
 20
-1.048333243745101
 30
0.0
 10
59.76991704804902
 20
-1.126184913480621
 30
0.0
 10
59.85245815017781
 20
-1.147227827332066
 30
0.0
 10
59.93888395971297
 20
-1.146698008089876
 30
0.0
 10
59.96131350886884
 20
-1.141357664490762
 30
0.0
 10
59.99211809592295
 20
-1.120377565272257
 30
0.0
 10
60.00000000000003
 20
-1.101738644211806
 30
0.0
 10
60.0
 20
-1.088817076062917
 30
0.0
  0
SPLINE
  5
6A
330
1F
100
AcDbEntity
  8
1
  6
Continuous
370
    15
100
AcDbSpline
210
0.0
220
0.0
230
1.0
 70
     8
 71
     3
 72
     9
 73
     5
 74
     0
 42
0.00000001
 43
0.00000001
 40
0.0
 40
0.0
 40
0.0
 40
0.0
 40
0.3952466849658225
 40
1.0
 40
1.0
 40
1.0
 40
1.0
 10
59.99718451334331
 20
-1.094442253215031
 30
0.0
 10
59.99702323033615
 20
-1.098536459127107
 30
0.0
 10
59.99661517376465
 20
-1.108895068238352
 30
0.0
 10
59.99624948343985
 20
-1.12675822466748
 30
0.0
 10
59.99602833100365
 20
-1.137561027734969
 30
0.0
  0
SPLINE
  5
6B
330
1F
100
AcDbEntity
  8
1
  6
Continuous
370
    15
100
AcDbSpline
210
0.0
220
0.0
230
1.0
 70
     8
 71
     3
 72
     9
 73
     5
 74
     0
 42
0.00000001
 43
0.00000001
 40
0.0
 40
0.0
 40
0.0
 40
0.0
 40
0.1196244268397902
 40
1.0
 40
1.0
 40
1.0
 40
1.0
 10
59.55572827608756
 20
-1.028845746152484
 30
0.0
 10
59.53263507950668
 20
-1.02310490705643
 30
0.0
 10
59.33958757916799
 20
-0.9751143816452379
 30
0.0
 10
59.14039357629009
 20
-0.935363166537174
 30
0.0
 10
58.96502804183637
 20
-0.900367167752597
 30
0.0
  0
SPLINE
  5
6C
330
1F
100
AcDbEntity
  8
1
  6
Continuous
370
    15
100
AcDbSpline
210
0.0
220
0.0
230
1.0
 70
     8
 71
     3
 72
    16
 73
    12
 74
     0
 42
0.00000001
 43
0.00000001
 40
0.0
 40
0.0
 40
0.0
 40
0.0
 40
0.125
 40
0.125
 40
0.2500000000000001
 40
0.2500000000000001
 40
0.5000000000000001
 40
0.5000000000000001
 40
0.7500000000000002
 40
0.7500000000000002
 40
1.0
 40
1.0
 40
1.0
 40
1.0
 10
58.96502804183637
 20
-0.9003671677525998
 30
0.0
 10
58.9905542767443
 20
-1.048948359004528
 30
0.0
 10
59.00564662409133
 20
-1.225404124342739
 30
0.0
 10
59.0043269423797
 20
-1.60340212619302
 30
0.0
 10
59.00566763323118
 20
-1.790271074294585
 30
0.0
 10
59.01713705153623
 20
-2.342872375192019
 30
0.0
 10
59.03423178705528
 20
-2.700676605357892
 30
0.0
 10
59.08770827991295
 20
-3.384478062797299
 30
0.0
 10
59.1241999283538
 20
-3.711286231320817
 30
0.0
 10
59.215161002592
 20
-4.322168735473438
 30
0.0
 10
59.26893102367264
 20
-4.606681720038242
 30
0.0
 10
59.33249920832026
 20
-4.866457508753343
 30
0.0
  0
SPLINE
  5
6D
330
1F
100
AcDbEntity
  8
1
  6
Continuous
370
    15
100
AcDbSpline
210
0.0
220
0.0
230
1.0
 70
     8
 71
     3
 72
     8
 73
     4
 74
     0
 42
0.00000001
 43
0.00000001
 40
0.0
 40
0.0
 40
0.0
 40
0.0
 40
1.0
 40
1.0
 40
1.0
 40
1.0
 10
59.33249920832062
 20
-4.866457508754397
 30
0.0
 10
59.21775362647367
 20
-4.903132288227881
 30
0.0
 10
59.10380185337031
 20
-4.91019391054614
 30
0.0
 10
59.00000000000002
 20
-4.896815992771971
 30
0.0
  0
SPLINE
  5
6E
330
1F
100
AcDbEntity
  8
1
  6
Continuous
370
    15
100
AcDbSpline
210
0.0
220
0.0
230
1.0
 70
     8
 71
     3
 72
    30
 73
    26
 74
     0
 42
0.00000001
 43
0.00000001
 40
0.0
 40
0.0
 40
0.0
 40
0.0
 40
0.1249999999999989
 40
0.1249999999999989
 40
0.1874999999999989
 40
0.1874999999999989
 40
0.2499999999999989
 40
0.2499999999999989
 40
0.3749999999999988
 40
0.3749999999999988
 40
0.4374999999999988
 40
0.4374999999999988
 40
0.4999999999999988
 40
0.4999999999999988
 40
0.6249999999999988
 40
0.6249999999999988
 40
0.6874999999999988
 40
0.6874999999999988
 40
0.7499999999999988
 40
0.7499999999999988
 40
0.8749999999999989
 40
0.8749999999999989
 40
0.9374999999999994
 40
0.9374999999999994
 40
1.0
 40
1.0
 40
1.0
 40
1.0
 10
59.00000000000006
 20
-4.896815992771983
 30
0.0
 10
58.44873390192623
 20
-4.825769163719595
 30
0.0
 10
57.90997812450392
 20
-4.715722156957173
 30
0.0
 10
57.1036214316987
 20
-4.496699319218915
 30
0.0
 10
56.8350680704574
 20
-4.414875995895096
 30
0.0
 10
56.29525693222247
 20
-4.236368735555799
 30
0.0
 10
56.02295905179795
 20
-4.140659050896463
 30
0.0
 10
55.20475184790552
 20
-3.83029963233485
 30
0.0
 10
54.66118149756623
 20
-3.582732223329392
 30
0.0
 10
53.85205648739444
 20
-3.175897643665371
 30
0.0
 10
53.58305793204245
 20
-3.034589562783387
 30
0.0
 10
53.04306227080387
 20
-2.745356536811782
 30
0.0
 10
52.77068132112925
 20
-2.599328477834357
 30
0.0
 10
51.95830917208052
 20
-2.142021818530102
 30
0.0
 10
51.42333451623978
 20
-1.810356301645994
 30
0.0
 10
50.61385340196122
 20
-1.294362438973979
 30
0.0
 10
50.3428063755514
 20
-1.119422968545304
 30
0.0
 10
49.79528059828928
 20
-0.7684733320049474
 30
0.0
 10
49.52025305588745
 20
-0.5955638387621017
 30
0.0
 10
48.70548518596014
 20
-0.0632409060588418
 30
0.0
 10
48.17198815534779
 20
0.3035960755486746
 30
0.0
 10
47.36538441115786
 20
0.8394466300917696
 30
0.0
 10
47.09540785627596
 20
1.015603661519958
 30
0.0
 10
46.54970355028005
 20
1.357724570761716
 30
0.0
 10
46.27403855925795
 20
1.523810844315627
 30
0.0
 10
45.99999999999999
 20
1.691591331546926
 30
0.0
  0
SPLINE
  5
6F
330
1F
100
AcDbEntity
  8
1
  6
Continuous
370
    15
100
AcDbSpline
210
0.0
220
0.0
230
1.0
 70
    24
 71
     3
 72
     8
 73
     4
 74
     0
 42
0.00000001
 43
0.00000001
 40
0.0
 40
0.0
 40
0.0
 40
0.0
 40
1.0
 40
1.0
 40
1.0
 40
1.0
 10
46.0
 20
1.691591331546916
 30
0.0
 10
46.0
 20
1.821671975274976
 30
0.0
 10
46.0
 20
1.943630826633452
 30
0.0
 10
46.0
 20
2.057376502534763
 30
0.0
  0
SPLINE
  5
70
330
1F
100
AcDbEntity
  8
1
  6
Continuous
370
    15
100
AcDbSpline
210
0.0
220
0.0
230
1.0
 70
    24
 71
     3
 72
    18
 73
    14
 74
     0
 42
0.00000001
 43
0.00000001
 40
0.0
 40
0.0
 40
0.0
 40
0.0
 40
0.1249999999999998
 40
0.1249999999999998
 40
0.2499999999999996
 40
0.2499999999999996
 40
0.3124999999999996
 40
0.3124999999999996
 40
0.3749999999999996
 40
0.3749999999999996
 40
0.4999999999999997
 40
0.4999999999999997
 40
1.0
 40
1.0
 40
1.0
 40
1.0
 10
46.00000000000004
 20
4.075000000000009
 30
0.0
 10
46.00000000000004
 20
3.872768566510057
 30
0.0
 10
45.99999999999998
 20
3.672024063869576
 30
0.0
 10
45.99999999999998
 20
3.353563597683619
 30
0.0
 10
46.00000000000001
 20
3.235024190740178
 30
0.0
 10
45.99999999999999
 20
3.126239931979932
 30
0.0
 10
45.99999999999998
 20
3.102921823308542
 30
0.0
 10
45.99999999999999
 20
3.078790270782165
 30
0.0
 10
46.00000000000001
 20
3.064891239755851
 30
0.0
 10
46.00000000000003
 20
3.017712291531928
 30
0.0
 10
46.00000000000004
 20
2.978954323187999
 30
0.0
 10
46.00000000000002
 20
2.748641687817572
 30
0.0
 10
45.99999999999999
 20
2.452882348053573
 30
0.0
 10
45.99999999999999
 20
2.057376502534784
 30
0.0
  0
LINE
  5
71
330
1F
100
AcDbEntity
  8
1
  6
Continuous
370
    15
100
AcDbLine
 10
46.0
 20
4.075
 30
0.0
 11
46.0
 21
4.6
 31
0.0
  0
SPLINE
  5
72
330
1F
100
AcDbEntity
  8
1
  6
Continuous
370
    15
100
AcDbSpline
210
0.0
220
0.0
230
1.0
 70
     8
 71
     3
 72
    18
 73
    14
 74
     0
 42
0.00000001
 43
0.00000001
 40
0.0
 40
0.0
 40
0.0
 40
0.0
 40
0.0876648448543844
 40
0.1758362729203953
 40
0.2655690214222731
 40
0.3558450405488884
 40
0.4522728006464852
 40
0.5493756775417586
 40
0.6485721592175694
 40
0.7485039037175594
 40
0.8329296685785923
 40
0.9178075702932599
 40
0.9999999999999999
 40
0.9999999999999999
 40
0.9999999999999999
 40
0.9999999999999999
 10
46.00000000000001
 20
-0.0000000000000262
 30
0.0
 10
46.34824458521244
 20
-0.2294975176763737
 30
0.0
 10
47.04674613426756
 20
-0.6898187356026861
 30
0.0
 10
48.10163585017346
 20
-1.37195606233879
 30
0.0
 10
49.16704367728273
 20
-2.033823083763489
 30
0.0
 10
50.2652256449723
 20
-2.674574230285565
 30
0.0
 10
51.39260430488115
 20
-3.274735191456614
 30
0.0
 10
52.55555855514188
 20
-3.81749134011249
 30
0.0
 10
53.73235128577439
 20
-4.275661118928538
 30
0.0
 10
54.85883725903881
 20
-4.615751488139715
 30
0.0
 10
55.92839781636142
 20
-4.842165270919894
 30
0.0
 10
56.92738871144566
 20
-4.976169721515879
 30
0.0
 10
57.59104931969897
 20
-4.990758646358176
 30
0.0
 10
57.91754581628758
 20
-4.997935858310743
 30
0.0
  0
SPLINE
  5
73
330
1F
100
AcDbEntity
  8
1
  6
Continuous
370
    15
100
AcDbSpline
210
0.0
220
0.0
230
1.0
 70
     8
 71
     3
 72
     8
 73
     4
 74
     0
 42
0.00000001
 43
0.00000001
 40
0.0
 40
0.0
 40
0.0
 40
0.0
 40
1.0
 40
1.0
 40
1.0
 40
1.0
 10
60.0
 20
-3.848957959614076
 30
0.0
 10
59.99853558469164
 20
-3.683273640294253
 30
0.0
 10
59.99714993954938
 20
-3.513018445280681
 30
0.0
 10
59.9960283310033
 20
-3.357411630894132
 30
0.0
  0
SPLINE
  5
74
330
1F
100
AcDbEntity
  8
1
  6
Continuous
370
    15
100
AcDbSpline
210
0.0
220
0.0
230
1.0
 70
     8
 71
     3
 72
    14
 73
    10
 74
     0
 42
0.00000001
 43
0.00000001
 40
0.0
 40
0.0
 40
0.0
 40
0.0
 40
0.1140875931958206
 40
0.2773202848874453
 40
0.4417722663666969
 40
0.5794777471304584
 40
0.7179274014162157
 40
0.8585602825508918
 40
1.0
 40
1.0
 40
1.0
 40
1.0
 10
53.27716743646171
 20
-4.081948631847203
 30
0.0
 10
52.99904058793359
 20
-4.184646662290335
 30
0.0
 10
52.32297919766232
 20
-4.434281581058283
 30
0.0
 10
51.25293135733725
 20
-4.719271326887579
 30
0.0
 10
50.13052482140426
 20
-4.920755263131634
 30
0.0
 10
49.05187166619
 20
-5.00579345456315
 30
0.0
 10
48.05057040227808
 20
-5.000112586902407
 30
0.0
 10
47.0369354770415
 20
-4.905386527907783
 30
0.0
 10
46.34630365005563
 20
-4.772028487689384
 30
0.0
 10
45.99999999999999
 20
-4.705158739891266
 30
0.0
  0
SPLINE
  5
75
330
1F
100
AcDbEntity
  8
1
  6
Continuous
370
    15
100
AcDbSpline
210
0.0
220
0.0
230
1.0
 70
    24
 71
     3
 72
     8
 73
     4
 74
     0
 42
0.00000001
 43
0.00000001
 40
0.0
 40
0.0
 40
0.0
 40
0.0
 40
1.0
 40
1.0
 40
1.0
 40
1.0
 10
46.0
 20
-4.705158739891264
 30
0.0
 10
46.0
 20
-4.512074823720539
 30
0.0
 10
46.0
 20
-4.315126516801147
 30
0.0
 10
46.0
 20
-4.114268091360814
 30
0.0
  0
SPLINE
  5
76
330
1F
100
AcDbEntity
  8
1
  6
Continuous
370
    15
100
AcDbSpline
210
0.0
220
0.0
230
1.0
 70
    24
 71
     3
 72
    22
 73
    18
 74
     0
 42
0.00000001
 43
0.00000001
 40
0.0
 40
0.0
 40
0.0
 40
0.0
 40
0.2499999999999999
 40
0.2499999999999999
 40
0.4999999999999999
 40
0.4999999999999999
 40
0.6249999999999999
 40
0.6249999999999999
 40
0.6874999999999999
 40
0.6874999999999999
 40
0.7499999999999999
 40
0.7499999999999999
 40
0.8125
 40
0.8125
 40
0.8750000000000001
 40
0.8750000000000001
 40
1.0
 40
1.0
 40
1.0
 40
1.0
 10
45.99999999999998
 20
-4.114268091360791
 30
0.0
 10
45.99999999999998
 20
-3.766446493234015
 30
0.0
 10
45.99999999999997
 20
-3.40714897596831
 30
0.0
 10
45.99999999999998
 20
-2.664561658719755
 30
0.0
 10
45.99999999999999
 20
-2.279203208838001
 30
0.0
 10
45.99999999999999
 20
-1.689573789844898
 30
0.0
 10
45.99999999999998
 20
-1.491510148418171
 30
0.0
 10
45.99999999999996
 20
-1.192129313475353
 30
0.0
 10
46.00000000000001
 20
-1.091956195134659
 30
0.0
 10
45.99999999999999
 20
-0.8908743855481578
 30
0.0
 10
46.0
 20
-0.7926442109453998
 30
0.0
 10
46.00000000000002
 20
-0.601387627576803
 30
0.0
 10
45.99999999999999
 20
-0.511297703525454
 30
0.0
 10
46.0
 20
-0.3451272026894283
 30
0.0
 10
45.9999999999992
 20
-0.2692634095908693
 30
0.0
 10
45.99999999999918
 20
-0.080911499616365
 30
0.0
 10
46.00000000000004
 20
-0.0000000000000253
 30
0.0
 10
46.00000000000003
 20
-0.0000000000000271
 30
0.0
  0
LINE
  5
77
330
1F
100
AcDbEntity
  8
1
  6
Continuous
370
    15
100
AcDbLine
 10
46.0
 20
0.0
 30
0.0
 11
46.0
 21
1.6915913315
 31
0.0
  0
SPLINE
  5
78
330
1F
100
AcDbEntity
  8
1
  6
Continuous
370
    15
100
AcDbSpline
210
0.0
220
0.0
230
1.0
 70
     8
 71
     3
 72
    18
 73
    14
 74
     0
 42
0.00000001
 43
0.00000001
 40
0.0
 40
0.0
 40
0.0
 40
0.0
 40
0.2500000000000007
 40
0.2500000000000007
 40
0.5000000000000013
 40
0.5000000000000013
 40
0.750000000000002
 40
0.750000000000002
 40
0.8750000000000023
 40
0.8750000000000023
 40
0.9375000000000011
 40
0.9375000000000011
 40
1.0
 40
1.0
 40
1.0
 40
1.0
 10
59.3324992083221
 20
0.8671008399181799
 30
0.0
 10
59.39174300823516
 20
0.6674039890904198
 30
0.0
 10
59.45252978913976
 20
0.4679959069655932
 30
0.0
 10
59.57555826547188
 20
0.0763014887812692
 30
0.0
 10
59.63887881629129
 20
-0.1193771055692648
 30
0.0
 10
59.76324262364949
 20
-0.4888590607377364
 30
0.0
 10
59.82550386709812
 20
-0.666711111427495
 30
0.0
 10
59.91044977608992
 20
-0.8900137158157534
 30
0.0
 10
59.93756612660971
 20
-0.9577879357308455
 30
0.0
 10
59.97122967862367
 20
-1.030562692092305
 30
0.0
 10
59.98107172367413
 20
-1.049490565273107
 30
0.0
 10
59.99567796476207
 20
-1.068651639274048
 30
0.0
 10
59.99999999999972
 20
-1.067734002797646
 30
0.0
 10
60.00000000000001
 20
-1.053553448300562
 30
0.0
  0
SPLINE
  5
79
330
1F
100
AcDbEntity
  8
1
  6
Continuous
370
    15
100
AcDbSpline
210
0.0
220
0.0
230
1.0
 70
     8
 71
     3
 72
    16
 73
    12
 74
     0
 42
0.00000001
 43
0.00000001
 40
0.0
 40
0.0
 40
0.0
 40
0.0
 40
0.125
 40
0.125
 40
0.2499999999999999
 40
0.2499999999999999
 40
0.4999999999999999
 40
0.4999999999999999
 40
0.7499999999999998
 40
0.7499999999999998
 40
1.0
 40
1.0
 40
1.0
 40
1.0
 10
58.9650280418365
 20
3.19746905559651
 30
0.0
 10
58.99055427674443
 20
3.071330523329421
 30
0.0
 10
59.00564662409136
 20
2.971800587306956
 30
0.0
 10
59.00432694237922
 20
2.86971931787574
 30
0.0
 10
59.00566763323089
 20
2.812671759219009
 30
0.0
 10
59.0171370515358
 20
2.619188618035267
 30
0.0
 10
59.03423178705467
 20
2.461980378646207
 30
0.0
 10
59.08770827991226
 20
2.092825309102178
 30
0.0
 10
59.1241999283533
 20
1.880287214670473
 30
0.0
 10
59.21516100259203
 20
1.407873049634931
 30
0.0
 10
59.26893102367315
 20
1.150183232528382
 30
0.0
 10
59.33249920832223
 20
0.8671008399180193
 30
0.0
  0
LINE
  5
7A
330
1F
100
AcDbEntity
  8
1
  6
Continuous
370
    15
100
AcDbLine
 10
58.9650280418
 20
3.1974690556
 30
0.0
 11
59.9663047007
 21
0.1337015469
 31
0.0
  0
SPLINE
  5
7B
330
1F
100
AcDbEntity
  8
1
  6
Continuous
370
    15
100
AcDbSpline
210
0.0
220
0.0
230
1.0
 70
     8
 71
     3
 72
    14
 73
    10
 74
     0
 42
0.00000001
 43
0.00000001
 40
0.0
 40
0.0
 40
0.0
 40
0.0
 40
0.5
 40
0.5
 40
0.75
 40
0.75
 40
0.875
 40
0.875
 40
1.0
 40
1.0
 40
1.0
 40
1.0
 10
60.00000000000004
 20
-1.053553448300547
 30
0.0
 10
59.99418390140082
 20
-0.8550700649418281
 30
0.0
 10
59.98836781705785
 20
-0.6565867248433241
 30
0.0
 10
59.97966026710738
 20
-0.3589120158721546
 30
0.0
 10
59.97675786108642
 20
-0.2596874485833485
 30
0.0
 10
59.97243681053216
 20
-0.110949395550024
 30
0.0
 10
59.97099726724691
 20
-0.0613724930556685
 30
0.0
 10
59.96819914001853
 20
0.037535642796359
 30
0.0
 10
59.96630470071937
 20
0.088494019811738
 30
0.0
 10
59.96630470071937
 20
0.1337015469490702
 30
0.0
  0
SPLINE
  5
7C
330
1F
100
AcDbEntity
  8
1
  6
Continuous
370
    15
100
AcDbSpline
210
0.0
220
0.0
230
1.0
 70
     8
 71
     3
 72
    13
 73
     9
 74
     0
 42
0.00000001
 43
0.00000001
 40
0.0
 40
0.0
 40
0.0
 40
0.0
 40
0.0790267845208014
 40
0.2871290841214359
 40
0.4629410435846786
 40
0.6396945528972404
 40
0.8193447842119933
 40
1.0
 40
1.0
 40
1.0
 40
1.0
 10
53.2771674364617
 20
4.081948631847202
 30
0.0
 10
53.42792446618129
 20
4.141983855550608
 30
0.0
 10
53.97567201950433
 20
4.360110645113298
 30
0.0
 10
54.85883739038311
 20
4.611951138953074
 30
0.0
 10
55.92839682386951
 20
4.844468684826903
 30
0.0
 10
56.94358527690337
 20
4.972518378759342
 30
0.0
 10
57.96802775094146
 20
5.019441822638511
 30
0.0
 10
58.65537019208642
 20
4.972658940401335
 30
0.0
 10
59.00000000000014
 20
4.949202254542984
 30
0.0
  0
SPLINE
  5
7D
330
1F
100
AcDbEntity
  8
1
  6
Continuous
370
    15
100
AcDbSpline
210
0.0
220
0.0
230
1.0
 70
     8
 71
     3
 72
    16
 73
    12
 74
     0
 42
0.00000001
 43
0.00000001
 40
0.0
 40
0.0
 40
0.0
 40
0.0
 40
0.2500000000000003
 40
0.2500000000000003
 40
0.5000000000000007
 40
0.5000000000000007
 40
0.7500000000000011
 40
0.7500000000000011
 40
0.8750000000000006
 40
0.8750000000000006
 40
1.0
 40
1.0
 40
1.0
 40
1.0
 10
59.0
 20
4.949202254543377
 30
0.0
 10
59.12064028403652
 20
4.937898635753115
 30
0.0
 10
59.23807028003495
 20
4.904270866197993
 30
0.0
 10
59.4689644157633
 20
4.790272084161912
 30
0.0
 10
59.57569992123285
 20
4.713335493799243
 30
0.0
 10
59.76991704804929
 20
4.513523127263158
 30
0.0
 10
59.85245815017804
 20
4.39378660296147
 30
0.0
 10
59.9388839597131
 20
4.197398209860781
 30
0.0
 10
59.96131350886896
 20
4.129852018342994
 30
0.0
 10
59.99211809592303
 20
3.990114203274467
 30
0.0
 10
60.0
 20
3.920327829937885
 30
0.0
 10
60.00000000000003
 20
3.848957959614076
 30
0.0
  0
SPLINE
  5
7E
330
1F
100
AcDbEntity
  8
1
  6
Continuous
370
    15
100
AcDbSpline
210
0.0
220
0.0
230
1.0
 70
     8
 71
     3
 72
     8
 73
     4
 74
     0
 42
0.00000001
 43
0.00000001
 40
0.0
 40
0.0
 40
0.0
 40
0.0
 40
1.0
 40
1.0
 40
1.0
 40
1.0
 10
60.00000000000001
 20
3.848957959614463
 30
0.0
 10
59.99853558469164
 20
3.683273640294513
 30
0.0
 10
59.99714993954941
 20
3.513018445280782
 30
0.0
 10
59.99602833100332
 20
3.357411630894097
 30
0.0
  0
SPLINE
  5
7F
330
1F
100
AcDbEntity
  8
1
  6
Continuous
370
    15
100
AcDbSpline
210
0.0
220
0.0
230
1.0
 70
     8
 71
     3
 72
    10
 73
     6
 74
     0
 42
0.00000001
 43
0.00000001
 40
0.0
 40
0.0
 40
0.0
 40
0.0
 40
0.5
 40
0.5
 40
1.0
 40
1.0
 40
1.0
 40
1.0
 10
59.99602833100364
 20
3.357411630894163
 30
0.0
 10
59.82821170705116
 20
3.309335361799911
 30
0.0
 10
59.65717465113231
 20
3.277710411178751
 30
0.0
 10
59.31282440467095
 20
3.228141033654484
 30
0.0
 10
59.13930619490371
 20
3.210721401684365
 30
0.0
 10
58.96502804183653
 20
3.197469055596521
 30
0.0
  0
SPLINE
  5
80
330
1F
100
AcDbEntity
  8
1
  6
Continuous
370
    15
100
AcDbSpline
210
0.0
220
0.0
230
1.0
 70
     8
 71
     3
 72
     8
 73
     4
 74
     0
 42
0.00000001
 43
0.00000001
 40
0.0
 40
0.0
 40
0.0
 40
0.0
 40
1.0
 40
1.0
 40
1.0
 40
1.0
 10
59.33249920832264
 20
0.867100839916779
 30
0.0
 10
59.21775362647408
 20
0.8918899981845504
 30
0.0
 10
59.1038018533708
 20
0.9457151384733374
 30
0.0
 10
59.0
 20
1.01054101002039
 30
0.0
  0
SPLINE
  5
81
330
1F
100
AcDbEntity
  8
1
  6
Continuous
370
    15
100
AcDbSpline
210
0.0
220
0.0
230
1.0
 70
     8
 71
     3
 72
    17
 73
    13
 74
     0
 42
0.00000001
 43
0.00000001
 40
0.0
 40
0.0
 40
0.0
 40
0.0
 40
0.1006792434619366
 40
0.2019495546691103
 40
0.3049307113177569
 40
0.4085295659442303
 40
0.5196662218127459
 40
0.6315999183032055
 40
0.7460074228497158
 40
0.861269510509911
 40
0.9577853508926851
 40
1.0
 40
1.0
 40
1.0
 40
1.0
 10
59.00000000000006
 20
1.010541010020317
 30
0.0
 10
58.65006454050503
 20
1.231063087184752
 30
0.0
 10
57.94813922027096
 20
1.673401882617812
 30
0.0
 10
56.9026205814994
 20
2.324172869559933
 30
0.0
 10
55.83182685796919
 20
2.915814036270097
 30
0.0
 10
54.72968151349674
 20
3.472703008431884
 30
0.0
 10
53.61171707396181
 20
3.983897378320863
 30
0.0
 10
52.4326161247098
 20
4.395591568431779
 30
0.0
 10
51.25306595244033
 20
4.722822797445839
 30
0.0
 10
50.13084499909287
 20
4.916399762001651
 30
0.0
 10
49.2424858707173
 20
4.999659022394995
 30
0.0
 10
48.76608149735031
 20
4.991421051205188
 30
0.0
 10
48.62111521395581
 20
4.988914298259874
 30
0.0
  0
LINE
  5
82
330
1F
100
AcDbEntity
  8
1
  6
Continuous
370
    15
100
AcDbLine
 10
59.0
 20
-0.7109128242
 30
0.0
 11
59.0
 21
1.01054101
 31
0.0
  0
LINE
  5
83
330
1F
100
AcDbEntity
  8
1
  6
Continuous
370
    15
100
AcDbLine
 10
60.0
 20
-1.0888170761
 30
0.0
 11
60.0
 21
-1.0535534483
 31
0.0
  0
LINE
  5
84
330
1F
100
AcDbEntity
  8
1
  6
Continuous
370
    15
100
AcDbLine
 10
60.0
 20
3.8489579596
 30
0.0
 11
60.0
 21
3.8587595327
 31
0.0
  0
LWPOLYLINE
  5
85
330
1F
100
AcDbEntity
  8
1
  6
Continuous
370
    15
100
AcDbPolyline
 90
        4
 70
   128
 43
0.0
 10
59.9675600846
 20
0.0841205122
 10
59.969891734
 20
0.1704271879
 10
59.9838808992
 20
0.6880738471
 10
59.996028331
 20
1.1375610277
  0
SPLINE
  5
86
330
1F
100
AcDbEntity
  8
1
  6
Continuous
370
    15
100
AcDbSpline
210
0.0
220
0.0
230
1.0
 70
     8
 71
     3
 72
     8
 73
     4
 74
     0
 42
0.00000001
 43
0.00000001
 40
0.0
 40
0.0
 40
0.0
 40
0.0
 40
1.0
 40
1.0
 40
1.0
 40
1.0
 10
60.0
 20
1.088817076066964
 30
0.0
 10
59.99853558469167
 20
1.058041002878561
 30
0.0
 10
59.99714993954945
 20
1.078809157000152
 30
0.0
 10
59.99602833100339
 20
1.137561027736906
 30
0.0
  0
LINE
  5
87
330
1F
100
AcDbEntity
  8
1
  6
Continuous
370
    15
100
AcDbLine
 10
60.0
 20
1.0888170761
 30
0.0
 11
60.0
 21
1.0535534483
 31
0.0
  0
SPLINE
  5
88
330
1F
100
AcDbEntity
  8
1
  6
Continuous
370
    15
100
AcDbSpline
210
0.0
220
0.0
230
1.0
 70
     8
 71
     3
 72
    11
 73
     7
 74
     0
 42
0.00000001
 43
0.00000001
 40
0.0
 40
0.0
 40
0.0
 40
0.0
 40
0.2769296145197194
 40
0.5603251673511478
 40
0.8437207500365532
 40
0.9999999999999999
 40
0.9999999999999999
 40
0.9999999999999999
 40
0.9999999999999999
 10
60.00000000001005
 20
1.053553448330857
 30
0.0
 10
59.99713719609659
 20
0.9560905051599268
 30
0.0
 10
59.99134474560451
 20
0.7588889886753181
 30
0.0
 10
59.9827731604152
 20
0.4624057442201243
 30
0.0
 10
59.97494846033057
 20
0.2068655159442105
 30
0.0
 10
59.97110212623344
 20
0.0542471116790647
 30
0.0
 10
59.96973497450409
 20
0.0000000000000029
 30
0.0
  0
LWPOLYLINE
  5
89
330
1F
100
AcDbEntity
  8
1
  6
Continuous
370
    15
100
AcDbPolyline
 90
        3
 70
   128
 43
0.0
 10
59.9755870262
 20
-1.1405283906
 10
59.9838808992
 20
-2.0400194028
 10
59.996028331
 20
-3.3574116309
  0
LINE
  5
8A
330
1F
100
AcDbEntity
  8
1
  6
Continuous
370
    15
100
AcDbLine
 10
60.0
 20
-3.8489579596
 30
0.0
 11
60.0
 21
-3.8587595327
 31
0.0
  0
LWPOLYLINE
  5
8B
330
1F
100
AcDbEntity
  8
1
  6
Continuous
370
    15
100
AcDbPolyline
 90
        4
 70
   128
 43
0.0
 10
60.0
 20
-3.8587595327
 10
59.991336053
 20
-2.9101565961
 10
59.9826793251
 20
-1.961546766
 10
59.9752190553
 20
-1.1413149933
  0
LWPOLYLINE
  5
8C
330
1F
100
AcDbEntity
  8
1
  6
Continuous
370
    15
100
AcDbPolyline
 90
        5
 70
   128
 43
0.0
 10
59.9663047007
 20
0.1337015469
 10
59.9663955708
 20
0.1435699412
 10
59.969891734
 20
0.5228598899
 10
59.9838808992
 20
2.0400194028
 10
59.996028331
 20
3.3574116309
  0
SPLINE
  5
8D
330
1F
100
AcDbEntity
  8
1
  6
Continuous
370
    15
100
AcDbSpline
210
0.0
220
0.0
230
1.0
 70
     8
 71
     3
 72
    18
 73
    14
 74
     0
 42
0.00000001
 43
0.00000001
 40
0.0
 40
0.0
 40
0.0
 40
0.0
 40
0.2499999999999986
 40
0.2499999999999986
 40
0.4999999999999971
 40
0.4999999999999971
 40
0.7499999999999957
 40
0.7499999999999957
 40
0.8749999999999964
 40
0.8749999999999964
 40
0.9374999999999982
 40
0.9374999999999982
 40
1.0
 40
1.0
 40
1.0
 40
1.0
 10
59.33249920832014
 20
-4.866457508754332
 30
0.0
 10
59.3917430082333
 20
-4.880823432875117
 30
0.0
 10
59.45252978913809
 20
-4.876067639393608
 30
0.0
 10
59.57555826547051
 20
-4.824201270440913
 30
0.0
 10
59.6388788162901
 20
-4.776484693911113
 30
0.0
 10
59.76324262364863
 20
-4.63007444706026
 30
0.0
 10
59.82550386709745
 20
-4.531474211097644
 30
0.0
 10
59.91044977608954
 20
-4.328234556199191
 30
0.0
 10
59.93756612660944
 20
-4.250897866721598
 30
0.0
 10
59.97122967862351
 20
-4.11453340843122
 30
0.0
 10
59.98107172367403
 20
-4.066323504334152
 30
0.0
 10
59.99567796476206
 20
-3.963066860794739
 30
0.0
 10
59.99999999999975
 20
-3.909118859285046
 30
0.0
 10
60.00000000000001
 20
-3.858759532753841
 30
0.0
  0
LINE
  5
8E
330
1F
100
AcDbEntity
  8
1
  6
Continuous
370
    15
100
AcDbLine
 10
46.0
 20
-5.0
 30
0.0
 11
46.0
 21
-4.7051587399
 31
0.0
  0
SPLINE
  5
8F
330
1F
100
AcDbEntity
  8
1
  6
Continuous
370
    15
100
AcDbSpline
210
0.0
220
0.0
230
1.0
 70
     8
 71
     3
 72
    14
 73
    10
 74
     0
 42
0.00000001
 43
0.00000001
 40
0.0
 40
0.0
 40
0.0
 40
0.0
 40
0.070276717272288
 40
0.4472846188133064
 40
0.6704913549605693
 40
0.8102197091469729
 40
0.9021840673943554
 40
0.9724844003133895
 40
1.0
 40
1.0
 40
1.0
 40
1.0
 10
59.60140008467063
 20
4.791716377766917
 30
0.0
 10
59.61250134235716
 20
4.785510457679226
 30
0.0
 10
59.68315663198071
 20
4.746012132934585
 30
0.0
 10
59.79050327837686
 20
4.595590165084438
 30
0.0
 10
59.90051508163243
 20
4.364091499900401
 30
0.0
 10
59.95944276699949
 20
4.174325510493271
 30
0.0
 10
59.98884269973562
 20
4.025414455645684
 30
0.0
 10
59.99911348515685
 20
3.923319759154779
 30
0.0
 10
59.99980537231045
 20
3.872933247156428
 30
0.0
 10
60.00000000001005
 20
3.858759532743861
 30
0.0
  0
SPLINE
  5
90
330
1F
100
AcDbEntity
  8
1
  6
Continuous
370
    15
100
AcDbSpline
210
0.0
220
0.0
230
1.0
 70
     8
 71
     3
 72
     8
 73
     4
 74
     0
 42
0.00000001
 43
0.00000001
 40
0.0
 40
0.0
 40
0.0
 40
0.0
 40
0.0187519088387237
 40
0.0187519088387237
 40
0.0187519088387237
 40
0.0187519088387237
 10
46.00000000000002
 20
-0.0000000000000275
 30
0.0
 10
45.82499684042119
 20
0.0939954671992406
 30
0.0
 10
45.64998488619759
 20
0.2002129696691747
 30
0.0
 10
45.47496809532228
 20
0.3182347522951128
 30
0.0
  0
SPLINE
  5
91
330
1F
100
AcDbEntity
  8
1
  6
Continuous
370
    15
100
AcDbSpline
210
0.0
220
0.0
230
1.0
 70
    24
 71
     3
 72
    14
 73
    10
 74
     0
 42
0.00000001
 43
0.00000001
 40
0.0
 40
0.0
 40
0.0
 40
0.0
 40
0.25
 40
0.25
 40
0.5
 40
0.5
 40
0.75
 40
0.75
 40
1.0
 40
1.0
 40
1.0
 40
1.0
 10
45.490994386126
 20
-0.7723589094745905
 30
0.0
 10
45.55098127299807
 20
-0.6813355390747045
 30
0.0
 10
45.61569962093416
 20
-0.5831327073721636
 30
0.0
 10
45.74101369852649
 20
-0.3929826546558844
 30
0.0
 10
45.80122094314446
 20
-0.301624916100361
 30
0.0
 10
45.90061047157221
 20
-0.1508124580501923
 30
0.0
 10
45.93945650079733
 20
-0.0918679671606999
 30
0.0
 10
45.98906720136503
 20
-0.0165892952869051
 30
0.0
 10
46.00000000000004
 20
-0.0000000000000265
 30
0.0
 10
46.00000000000002
 20
-0.0000000000000275
 30
0.0
  0
SPLINE
  5
92
330
1F
100
AcDbEntity
  8
1
  6
Continuous
370
    15
100
AcDbSpline
210
0.0
220
0.0
230
1.0
 70
     8
 71
     3
 72
     8
 73
     4
 74
     0
 42
0.00000001
 43
0.00000001
 40
0.0
 40
0.0
 40
0.0
 40
0.0
 40
0.0494544103491016
 40
0.0494544103491016
 40
0.0494544103491016
 40
0.0494544103491016
 10
45.490994386126
 20
-0.7723589094745911
 30
0.0
 10
45.02944143137527
 20
-0.5807280279349727
 30
0.0
 10
44.56785438577559
 20
-0.2997982280037425
 30
0.0
 10
44.10627371195461
 20
0.0636295554278042
 30
0.0
  0
SPLINE
  5
93
330
1F
100
AcDbEntity
  8
1
  6
Continuous
370
    15
100
AcDbSpline
210
0.0
220
0.0
230
1.0
 70
     8
 71
     3
 72
    14
 73
    10
 74
     0
 42
0.00000001
 43
0.00000001
 40
0.0
 40
0.0
 40
0.0
 40
0.0
 40
0.25
 40
0.25
 40
0.5
 40
0.5
 40
0.75
 40
0.75
 40
1.0
 40
1.0
 40
1.0
 40
1.0
 10
45.47496809532895
 20
0.3182347522906103
 30
0.0
 10
45.36208974345394
 20
0.3865488491322629
 30
0.0
 10
45.24179263251835
 20
0.4360046734374
 30
0.0
 10
44.98602054695377
 20
0.4966586523397157
 30
0.0
 10
44.85523423182751
 20
0.5065647287862157
 30
0.0
 10
44.59525196074251
 20
0.4760500658707232
 30
0.0
 10
44.46577530485281
 20
0.4339461765838668
 30
0.0
 10
44.24726286046329
 20
0.288817377048891
 30
0.0
 10
44.15954311615686
 20
0.1854231360640581
 30
0.0
 10
44.10627371195453
 20
0.0636295554278284
 30
0.0
  0
SPLINE
  5
94
330
1F
100
AcDbEntity
  8
1
  6
Continuous
370
    15
100
AcDbSpline
210
0.0
220
0.0
230
1.0
 70
     8
 71
     3
 72
    11
 73
     7
 74
     0
 42
0.00000001
 43
0.00000001
 40
0.0
 40
0.0
 40
0.0
 40
0.0
 40
0.0003069862404775
 40
0.0003069862404775
 40
0.0003069862404775
 40
0.0006140714344147
 40
0.0006140714344147
 40
0.0006140714344147
 40
0.0006140714344147
 10
46.00000000000001
 20
-0.0000000000000156
 30
0.0
 10
45.91249813699653
 20
0.0530527699358415
 30
0.0
 10
45.82500441381378
 20
0.1061269158899423
 30
0.0
 10
45.7375168741825
 20
0.159171518115213
 30
0.0
 10
45.65000113758224
 20
0.2122332164550784
 30
0.0
 10
45.56248452080908
 20
0.2652695990480718
 30
0.0
 10
45.47496809532907
 20
0.3182347522905176
 30
0.0
  0
SPLINE
  5
95
330
1F
100
AcDbEntity
  8
1
  6
Continuous
370
    15
100
AcDbSpline
210
0.0
220
0.0
230
1.0
 70
     8
 71
     3
 72
    16
 73
    12
 74
     0
 42
0.00000001
 43
0.00000001
 40
0.0
 40
0.0
 40
0.0
 40
0.0
 40
0.2500000000000001
 40
0.2500000000000001
 40
0.375
 40
0.375
 40
0.5
 40
0.5
 40
0.7499999999999999
 40
0.7499999999999999
 40
1.0
 40
1.0
 40
1.0
 40
1.0
 10
44.10627371195472
 20
0.0636295554277124
 30
0.0
 10
43.97502998458071
 20
-0.2364424908305658
 30
0.0
 10
43.87391116522586
 20
-0.5423860922521027
 30
0.0
 10
43.76174014983613
 20
-1.007567396614675
 30
0.0
 10
43.73086922116357
 20
-1.164795433098689
 30
0.0
 10
43.68323659156433
 20
-1.472869865255126
 30
0.0
 10
43.66623769917777
 20
-1.624271104358673
 30
0.0
 10
43.63365829765669
 20
-2.070352182996607
 30
0.0
 10
43.63687158576351
 20
-2.36039831457126
 30
0.0
 10
43.68486841192311
 20
-2.890005949104657
 30
0.0
 10
43.72895469692025
 20
-3.132211171381876
 30
0.0
 10
43.79078357247867
 20
-3.352238058372398
 30
0.0
  0
SPLINE
  5
96
330
1F
100
AcDbEntity
  8
1
  6
Continuous
370
    15
100
AcDbSpline
210
0.0
220
0.0
230
1.0
 70
     8
 71
     3
 72
     8
 73
     4
 74
     0
 42
0.00000001
 43
0.00000001
 40
0.0
 40
0.0
 40
0.0
 40
0.0
 40
1.0
 40
1.0
 40
1.0
 40
1.0
 10
46.00000000000001
 20
-4.114268091360786
 30
0.0
 10
45.26246651607478
 20
-3.914400639360508
 30
0.0
 10
44.53502912971743
 20
-3.650546472060925
 30
0.0
 10
43.79078357247867
 20
-3.352238058372404
 30
0.0
  0
SPLINE
  5
97
330
1F
100
AcDbEntity
  8
1
  6
Continuous
370
    15
100
AcDbSpline
210
0.0
220
0.0
230
1.0
 70
     8
 71
     3
 72
    11
 73
     7
 74
     0
 42
0.00000001
 43
0.00000001
 40
0.0
 40
0.0
 40
0.0
 40
0.0
 40
0.0003069862404776
 40
0.0003069862404776
 40
0.0003069862404776
 40
0.0006140714344149
 40
0.0006140714344149
 40
0.0006140714344149
 40
0.0006140714344149
 10
46.00000000000001
 20
-4.600000000000103
 30
0.0
 10
45.9124981369965
 20
-4.600000000000104
 30
0.0
 10
45.82500441381377
 20
-4.59908188452435
 30
0.0
 10
45.73751687418246
 20
-4.597245308640931
 30
0.0
 10
45.65000113758219
 20
-4.595408140834667
 30
0.0
 10
45.562484520809
 20
-4.59265183072472
 30
0.0
 10
45.47496809532898
 20
-4.588978823489239
 30
0.0
  0
SPLINE
  5
98
330
1F
100
AcDbEntity
  8
1
  6
Continuous
370
    15
100
AcDbSpline
210
0.0
220
0.0
230
1.0
 70
     8
 71
     3
 72
    14
 73
    10
 74
     0
 42
0.00000001
 43
0.00000001
 40
0.0
 40
0.0
 40
0.0
 40
0.0
 40
0.2500000000000001
 40
0.2500000000000001
 40
0.5
 40
0.5
 40
0.75
 40
0.75
 40
1.0
 40
1.0
 40
1.0
 40
1.0
 10
45.47496809532886
 20
-4.588978823489456
 30
0.0
 10
45.36208974345387
 20
-4.584241403570437
 30
0.0
 10
45.24179263251831
 20
-4.57939179382779
 30
0.0
 10
44.98602054695379
 20
-4.573211066602184
 30
0.0
 10
44.8552342318275
 20
-4.572048517663413
 30
0.0
 10
44.59525196074254
 20
-4.575326415361316
 30
0.0
 10
44.46577530485289
 20
-4.580064301766896
 30
0.0
 10
44.24726286046345
 20
-4.591501150517749
 30
0.0
 10
44.15954311615705
 20
-4.597875028281163
 30
0.0
 10
44.10627371195472
 20
-4.599559900650958
 30
0.0
  0
LINE
  5
99
330
1F
100
AcDbEntity
  8
1
  6
Continuous
370
    15
100
AcDbLine
 10
44.106273712
 20
-4.5995599007
 30
0.0
 11
44.0827461255
 21
-4.5964313362
 31
0.0
  0
SPLINE
  5
9A
330
1F
100
AcDbEntity
  8
1
  6
Continuous
370
    15
100
AcDbSpline
210
0.0
220
0.0
230
1.0
 70
     8
 71
     3
 72
    11
 73
     7
 74
     0
 42
0.00000001
 43
0.00000001
 40
0.0
 40
0.0
 40
0.0
 40
0.0
 40
0.0003069862404776
 40
0.0003069862404776
 40
0.0003069862404776
 40
0.0006140714344149
 40
0.0006140714344149
 40
0.0006140714344149
 40
0.0006140714344149
 10
46.00000000000001
 20
4.600000000000128
 30
0.0
 10
45.9124981369965
 20
4.600000000000131
 30
0.0
 10
45.82500441381379
 20
4.599081884524351
 30
0.0
 10
45.73751687418248
 20
4.597245308640932
 30
0.0
 10
45.6500011375822
 20
4.595408140834668
 30
0.0
 10
45.562484520809
 20
4.592651830724725
 30
0.0
 10
45.47496809532897
 20
4.588978823489244
 30
0.0
  0
SPLINE
  5
9B
330
1F
100
AcDbEntity
  8
1
  6
Continuous
370
    15
100
AcDbSpline
210
0.0
220
0.0
230
1.0
 70
     8
 71
     3
 72
    14
 73
    10
 74
     0
 42
0.00000001
 43
0.00000001
 40
0.0
 40
0.0
 40
0.0
 40
0.0
 40
0.25
 40
0.25
 40
0.5
 40
0.5
 40
0.75
 40
0.75
 40
1.0
 40
1.0
 40
1.0
 40
1.0
 10
45.47496809532894
 20
4.588978823489462
 30
0.0
 10
45.36208974345394
 20
4.584241403570442
 30
0.0
 10
45.24179263251835
 20
4.579391793827799
 30
0.0
 10
44.9860205469538
 20
4.573211066602194
 30
0.0
 10
44.85523423182751
 20
4.572048517663422
 30
0.0
 10
44.59525196074252
 20
4.575326415361317
 30
0.0
 10
44.46577530485287
 20
4.580064301766897
 30
0.0
 10
44.2472628604634
 20
4.591501150517748
 30
0.0
 10
44.15954311615699
 20
4.597875028281165
 30
0.0
 10
44.10627371195472
 20
4.599559900650959
 30
0.0
  0
SPLINE
  5
9C
330
1F
100
AcDbEntity
  8
1
  6
Continuous
370
    15
100
AcDbSpline
210
0.0
220
0.0
230
1.0
 70
     8
 71
     3
 72
    16
 73
    12
 74
     0
 42
0.00000001
 43
0.00000001
 40
0.0
 40
0.0
 40
0.0
 40
0.0
 40
0.250000000000001
 40
0.250000000000001
 40
0.3750000000000007
 40
0.3750000000000007
 40
0.5000000000000004
 40
0.5000000000000004
 40
0.7500000000000002
 40
0.7500000000000002
 40
1.0
 40
1.0
 40
1.0
 40
1.0
 10
44.10627371195472
 20
4.599559900650955
 30
0.0
 10
43.97502998458069
 20
4.60371104800246
 30
0.0
 10
43.87391116522585
 20
4.578800391629762
 30
0.0
 10
43.76174014983615
 20
4.491069679502144
 30
0.0
 10
43.73086922116359
 20
4.452988221274942
 30
0.0
 10
43.68323659156436
 20
4.36079199914468
 30
0.0
 10
43.66623769917777
 20
4.306705324596845
 30
0.0
 10
43.63365829765672
 20
4.120377571512422
 30
0.0
 10
43.63687158576353
 20
3.961377257550771
 30
0.0
 10
43.68486841192311
 20
3.593307055375448
 30
0.0
 10
43.72895469692024
 20
3.384153176010997
 30
0.0
 10
43.79078357247867
 20
3.149999999999933
 30
0.0
  0
SPLINE
  5
9D
330
1F
100
AcDbEntity
  8
1
  6
Continuous
370
    15
100
AcDbSpline
210
0.0
220
0.0
230
1.0
 70
     8
 71
     3
 72
     8
 73
     4
 74
     0
 42
0.00000001
 43
0.00000001
 40
0.0
 40
0.0
 40
0.0
 40
0.0
 40
1.0
 40
1.0
 40
1.0
 40
1.0
 10
46.00000000000001
 20
2.057376502534782
 30
0.0
 10
45.26246651614255
 20
2.457064298806654
 30
0.0
 10
44.53502912975929
 20
2.832539423120636
 30
0.0
 10
43.79078357247867
 20
3.149999999999935
 30
0.0
  0
LINE
  5
9E
330
1F
100
AcDbEntity
  8
1
  6
Continuous
370
    15
100
AcDbLine
 10
46.0
 20
1.6915913315
 30
0.0
 11
46.0
 21
2.0573765025
 31
0.0
  0
LINE
  5
9F
330
1F
100
AcDbEntity
  8
1
  6
Continuous
370
    15
100
AcDbLine
 10
43.7907835725
 20
-3.3522380584
 30
0.0
 11
45.4909943861
 21
-0.7723589095
 31
0.0
  0
LINE
  5
A0
330
1F
100
AcDbEntity
  8
1
  6
Continuous
370
    15
100
AcDbLine
 10
43.7907835725
 20
3.15
 30
0.0
 11
45.4909943861
 21
3.15
 31
0.0
  0
SPLINE
  5
A1
330
1F
100
AcDbEntity
  8
1
  6
Continuous
370
    15
100
AcDbSpline
210
0.0
220
0.0
230
1.0
 70
     8
 71
     3
 72
    14
 73
    10
 74
     0
 42
0.00000001
 43
0.00000001
 40
0.0
 40
0.0
 40
0.0
 40
0.0
 40
0.25
 40
0.25
 40
0.5
 40
0.5
 40
0.75
 40
0.75
 40
1.0
 40
1.0
 40
1.0
 40
1.0
 10
45.490994386126
 20
3.149999999999986
 30
0.0
 10
45.55098127299806
 20
3.149999999999988
 30
0.0
 10
45.61569962093414
 20
3.169867833402474
 30
0.0
 10
45.74101369852649
 20
3.260023809632016
 30
0.0
 10
45.80122094314444
 20
3.330617484934959
 30
0.0
 10
45.90061047157223
 20
3.511234969869927
 30
0.0
 10
45.93945650079731
 20
3.620647714550181
 30
0.0
 10
45.98906720136503
 20
3.848377072760366
 30
0.0
 10
46.00000000000002
 20
3.965987704567084
 30
0.0
 10
46.00000000000002
 20
4.075000000000012
 30
0.0
  0
SPLINE
  5
A2
330
1F
100
AcDbEntity
  8
1
  6
Continuous
370
    15
100
AcDbSpline
210
0.0
220
0.0
230
1.0
 70
    24
 71
     3
 72
    18
 73
    14
 74
     0
 42
0.00000001
 43
0.00000001
 40
0.0
 40
0.0
 40
0.0
 40
0.0
 40
0.1250000000000001
 40
0.1250000000000001
 40
0.2500000000000001
 40
0.2500000000000001
 40
0.3125000000000001
 40
0.3125000000000001
 40
0.3750000000000001
 40
0.3750000000000001
 40
0.5
 40
0.5
 40
1.0
 40
1.0
 40
1.0
 40
1.0
 10
46.00000000000004
 20
4.075000000000009
 30
0.0
 10
46.00000000000004
 20
3.872768566510056
 30
0.0
 10
45.99999999999998
 20
3.672024063869578
 30
0.0
 10
45.99999999999999
 20
3.35356359768362
 30
0.0
 10
46.00000000000001
 20
3.235024190740177
 30
0.0
 10
46.00000000000002
 20
3.126239931979932
 30
0.0
 10
45.99999999999999
 20
3.102921823308541
 30
0.0
 10
45.99999999999998
 20
3.078790270782162
 30
0.0
 10
45.99999999999999
 20
3.064891239755849
 30
0.0
 10
45.99999999999997
 20
3.017712291531927
 30
0.0
 10
45.99999999999996
 20
2.978954323188
 30
0.0
 10
45.99999999999996
 20
2.748641687817575
 30
0.0
 10
45.99999999999999
 20
2.452882348053568
 30
0.0
 10
45.99999999999999
 20
2.057376502534777
 30
0.0
  0
SPLINE
  5
A3
330
1F
100
AcDbEntity
  8
1
  6
Continuous
370
    15
100
AcDbSpline
210
0.0
220
0.0
230
1.0
 70
    24
 71
     3
 72
    22
 73
    18
 74
     0
 42
0.00000001
 43
0.00000001
 40
0.0
 40
0.0
 40
0.0
 40
0.0
 40
0.2500000000000001
 40
0.2500000000000001
 40
0.5000000000000001
 40
0.5000000000000001
 40
0.6250000000000001
 40
0.6250000000000001
 40
0.6875000000000001
 40
0.6875000000000001
 40
0.7500000000000002
 40
0.7500000000000002
 40
0.8125000000000002
 40
0.8125000000000002
 40
0.8750000000000002
 40
0.8750000000000002
 40
1.0
 40
1.0
 40
1.0
 40
1.0
 10
46.0
 20
-4.11426809136078
 30
0.0
 10
46.0
 20
-3.76644654881155
 30
0.0
 10
45.99999999999998
 20
-3.407149090779079
 30
0.0
 10
45.99999999999998
 20
-2.664561899877502
 30
0.0
 10
46.00000000000004
 20
-2.279203518999342
 30
0.0
 10
46.00000000000004
 20
-1.68957420005671
 30
0.0
 10
46.00000000000001
 20
-1.491510592463587
 30
0.0
 10
46.00000000000003
 20
-1.192129809012401
 30
0.0
 10
45.99999999999998
 20
-1.09195670791481
 30
0.0
 10
45.99999999999997
 20
-0.8908749330699177
 30
0.0
 10
45.99999999999999
 20
-0.7926447554263447
 30
0.0
 10
45.99999999999999
 20
-0.6013881832707726
 30
0.0
 10
45.99999999999997
 20
-0.5112982363570385
 30
0.0
 10
45.99999999999999
 20
-0.3451277053848556
 30
0.0
 10
45.99999999999915
 20
-0.2692638727877397
 30
0.0
 10
45.99999999999916
 20
-0.0809118372670091
 30
0.0
 10
46.00000000000002
 20
-0.0000000000000254
 30
0.0
 10
46.00000000000003
 20
-0.0000000000000271
 30
0.0
  0
SPLINE
  5
A4
330
1F
100
AcDbEntity
  8
1
  6
Continuous
370
    15
100
AcDbSpline
210
0.0
220
0.0
230
1.0
 70
     8
 71
     3
 72
     8
 73
     4
 74
     0
 42
0.00000001
 43
0.00000001
 40
0.0
 40
0.0
 40
0.0
 40
0.0
 40
0.0494544103491016
 40
0.0494544103491016
 40
0.0494544103491016
 40
0.0494544103491016
 10
45.490994386126
 20
3.149999999999985
 30
0.0
 10
45.02944143137525
 20
3.658539566601324
 30
0.0
 10
44.56785438577558
 20
4.149463480306416
 30
0.0
 10
44.10627371195461
 20
4.599559900651073
 30
0.0
  0
SPLINE
  5
A5
330
1F
100
AcDbEntity
  8
1
  6
Continuous
370
    15
100
AcDbSpline
210
0.0
220
0.0
230
1.0
 70
     8
 71
     3
 72
     8
 73
     4
 74
     0
 42
0.00000001
 43
0.00000001
 40
0.0
 40
0.0
 40
0.0
 40
0.0
 40
0.0187519088387238
 40
0.0187519088387238
 40
0.0187519088387238
 40
0.0187519088387238
 10
46.00000000000002
 20
4.075000000000012
 30
0.0
 10
45.82499684042119
 20
4.250003160619307
 30
0.0
 10
45.64998488619759
 20
4.421735681299518
 30
0.0
 10
45.47496809532227
 20
4.588978823495845
 30
0.0
  0
LINE
  5
A6
330
1F
100
AcDbEntity
  8
1
  6
Continuous
370
    15
100
AcDbLine
 10
46.0
 20
4.075
 30
0.0
 11
46.0
 21
4.6
 31
0.0
  0
LINE
  5
A7
330
1F
100
AcDbEntity
  8
1
  6
Continuous
370
    15
100
AcDbLine
 10
59.0
 20
-5.0
 30
0.0
 11
59.0
 21
-4.8968159928
 31
0.0
  0
LINE
  5
A8
330
1F
100
AcDbEntity
  8
1
  6
Continuous
370
    15
100
AcDbLine
 10
59.0
 20
4.9492022545
 30
0.0
 11
59.0
 21
5.0
 31
0.0
  0
LINE
  5
A9
330
1F
100
AcDbEntity
  8
SK4
100
AcDbLine
 10
0.0
 20
0.0
 30
0.0
 11
-40.0
 21
0.0
 31
0.0
  0
LINE
  5
AA
330
1F
100
AcDbEntity
  8
4
100
AcDbLine
 10
0.0
 20
0.0
 30
0.0
 11
60.0
 21
0.0
 31
0.0
  0
LINE
  5
AB
330
1F
100
AcDbEntity
  8
INFTOTAL
100
AcDbLine
 10
-50.0
 20
-55.0
 30
0.0
 11
250.0
 21
-55.0
 31
0.0
  0
LINE
  5
AC
330
1F
100
AcDbEntity
  8
INFTOTAL
100
AcDbLine
 10
250.0
 20
-55.0
 30
0.0
 11
250.0
 21
145.0
 31
0.0
  0
LINE
  5
AD
330
1F
100
AcDbEntity
  8
INFTOTAL
100
AcDbLine
 10
250.0
 20
145.0
 30
0.0
 11
-50.0
 21
145.0
 31
0.0
  0
LINE
  5
AE
330
1F
100
AcDbEntity
  8
INFTOTAL
100
AcDbLine
 10
-50.0
 20
145.0
 30
0.0
 11
-50.0
 21
-55.0
 31
0.0
  0
LINE
  5
AF
330
1F
100
AcDbEntity
  8
NOCUT
100
AcDbLine
 10
59.9650934015
 20
0.0
 30
0.0
 11
59.9650934015
 21
0.0001
 31
0.0
  0
LINE
  5
B0
330
1F
100
AcDbEntity
  8
NOCUT
100
AcDbLine
 10
59.9650934015
 20
0.0001
 30
0.0
 11
58.3912731322
 21
0.0001
 31
0.0
  0
LINE
  5
B1
330
1F
100
AcDbEntity
  8
NOCUT
100
AcDbLine
 10
58.3912731322
 20
0.0001
 30
0.0
 11
58.3912731322
 21
3.0
 31
0.0
  0
LINE
  5
B2
330
1F
100
AcDbEntity
  8
NOCUT
100
AcDbLine
 10
58.3912731322
 20
3.0
 30
0.0
 11
46.0
 21
3.0
 31
0.0
  0
LINE
  5
B3
330
1F
100
AcDbEntity
  8
NOCUT
100
AcDbLine
 10
46.0
 20
3.0
 30
0.0
 11
46.0
 21
4.6
 31
0.0
  0
LINE
  5
B4
330
1F
100
AcDbEntity
  8
NOCUT
100
AcDbLine
 10
46.0
 20
4.6
 30
0.0
 11
0.0
 21
4.6
 31
0.0
  0
LINE
  5
B5
330
1F
100
AcDbEntity
  8
NOCUT
100
AcDbLine
 10
0.0
 20
4.6
 30
0.0
 11
0.0
 21
5.0
 31
0.0
  0
LINE
  5
B6
330
1F
100
AcDbEntity
  8
NOCUT
100
AcDbLine
 10
0.0
 20
5.0
 30
0.0
 11
-40.0
 21
5.0
 31
0.0
  0
LINE
  5
B7
330
1F
100
AcDbEntity
  8
NOCUT
100
AcDbLine
 10
-40.0
 20
5.0
 30
0.0
 11
-40.0
 21
0.0
 31
0.0
  0
LINE
  5
B8
330
1F
100
AcDbEntity
  8
NOCUT
100
AcDbLine
 10
-40.0
 20
0.0
 30
0.0
 11
59.9650934015
 21
0.0
 31
0.0
  0
LINE
  5
B9
330
1F
100
AcDbEntity
  8
CUT
100
AcDbLine
 10
59.0
 20
5.0
 30
0.0
 11
46.0
 21
5.0
 31
0.0
  0
LINE
  5
BA
330
1F
100
AcDbEntity
  8
CUT
100
AcDbLine
 10
59.9650934015
 20
0.0001
 30
0.0
 11
60.0
 21
4.0
 31
0.0
  0
LINE
  5
BB
330
1F
100
AcDbEntity
  8
CUT
100
AcDbLine
 10
58.3912731322
 20
0.0001
 30
0.0
 11
59.9650934015
 21
0.0001
 31
0.0
  0
LINE
  5
BC
330
1F
100
AcDbEntity
  8
CUT
100
AcDbLine
 10
58.3912731322
 20
3.0
 30
0.0
 11
58.3912731322
 21
0.0001
 31
0.0
  0
LINE
  5
BD
330
1F
100
AcDbEntity
  8
CUT
100
AcDbLine
 10
46.0
 20
3.0
 30
0.0
 11
58.3912731322
 21
3.0
 31
0.0
  0
LINE
  5
BE
330
1F
100
AcDbEntity
  8
CUT
100
AcDbLine
 10
46.0
 20
5.0
 30
0.0
 11
46.0
 21
3.0
 31
0.0
  0
ARC
  5
BF
330
1F
100
AcDbEntity
  8
CUT
100
AcDbCircle
 10
59.0
 20
4.0
 30
0.0
 40
1.000000000000001
100
AcDbArc
 50
0.0
 51
90.0
  0
DIMENSION
  5
C0
330
1F
100
AcDbEntity
  8
2
100
AcDbDimension
  2
*D1
 10
118.9632346948
 20
5.0
 30
0.0
 11
118.9632346948
 21
12.4503443827
 31
0.0
 70
   160
  1
%%c<>
 71
     2
 42
-1.0
  3
SLDDIMSTYLE0
100
AcDbAlignedDimension
 13
60.0
 23
-5.0
 33
0.0
 14
59.0
 24
5.0
 34
0.0
 50
90.0
100
AcDbRotatedDimension
  0
DIMENSION
  5
EF
330
1F
100
AcDbEntity
  8
SK2
100
AcDbDimension
  2
*D2
 10
59.0
 20
4.0
 30
0.0
 11
79.3546067655
 21
24.3546067655
 31
0.0
 70
   164
  1
<>
 71
     1
 42
-1.0
  3
SLDDIMSTYLE1
100
AcDbRadialDimension
 15
59.7071067812
 25
4.7071067812
 35
0.0
 40
0.0
  0
DIMENSION
  5
F9
330
1F
100
AcDbEntity
  8
SK2
100
AcDbDimension
  2
*D3
 10
-40.0
 20
86.5998788878
 30
0.0
 11
12.2853029409
 21
86.5998788878
 31
0.0
 70
   160
 71
     2
 42
-1.0
  3
SLDDIMSTYLE2
100
AcDbAlignedDimension
 13
60.0
 23
4.0
 33
0.0
 14
-40.0
 24
5.0
 34
0.0
100
AcDbRotatedDimension
  0
DIMENSION
  5
104
330
1F
100
AcDbEntity
  8
SK2
100
AcDbDimension
  2
*D4
 10
-40.0
 20
48.7509423314
 30
0.0
 11
-20.9930090576
 21
48.7509423314
 31
0.0
 70
   160
 71
     2
 42
-1.0
  3
SLDDIMSTYLE3
100
AcDbAlignedDimension
 13
0.0
 23
0.0
 33
0.0
 14
-40.0
 24
0.0
 34
0.0
100
AcDbRotatedDimension
  0
DIMENSION
  5
10F
330
1F
100
AcDbEntity
  8
SK2
100
AcDbDimension
  2
*D5
 10
60.0
 20
57.8509423314
 30
0.0
 11
28.4122213156
 21
57.8509423314
 31
0.0
 70
   160
 71
     2
 42
-1.0
  3
SLDDIMSTYLE3
100
AcDbAlignedDimension
 13
0.0
 23
4.6
 33
0.0
 14
60.0
 24
5.0
 34
0.0
100
AcDbRotatedDimension
  0
DIMENSION
  5
119
330
1F
100
AcDbEntity
  8
SK2
100
AcDbDimension
  2
*D6
 10
46.0
 20
45.7509423314
 30
0.0
 11
52.8251272254
 21
45.7509423314
 31
0.0
 70
   160
 71
     2
 42
-1.0
  3
SLDDIMSTYLE4
100
AcDbAlignedDimension
 13
60.0
 23
5.0
 33
0.0
 14
46.0
 24
3.0
 34
0.0
100
AcDbRotatedDimension
  0
DIMENSION
  5
126
330
1F
100
AcDbEntity
  8
SK2
100
AcDbDimension
  2
*D7
 10
-11.9960344536
 20
-4.6
 30
0.0
 11
-11.9960344536
 21
40.6977701277
 31
0.0
 70
   160
  1
%%c<>
 71
     2
 42
-1.0
  3
SLDDIMSTYLE3
100
AcDbAlignedDimension
 13
0.0
 23
4.6
 33
0.0
 14
0.0
 24
-4.6
 34
0.0
 50
90.0
100
AcDbRotatedDimension
  0
DIMENSION
  5
132
330
1F
100
AcDbEntity
  8
2
100
AcDbDimension
  2
*D8
 10
60.0
 20
75.9999940533
 30
0.0
 11
29.4079792408
 21
75.9999940533
 31
0.0
 70
   160
 71
     2
 42
-1.0
  3
SLDDIMSTYLE3
100
AcDbAlignedDimension
 13
0.0
 23
2.5
 33
0.0
 14
60.0
 24
5.0
 34
0.0
100
AcDbRotatedDimension
  0
DIMENSION
  5
13C
330
1F
100
AcDbEntity
  8
SK2
100
AcDbDimension
  2
*D9
 10
-41.7386612653
 20
-5.0
 30
0.0
 11
-41.7386612653
 21
20.6437964416
 31
0.0
 70
   160
  1
%%c<>
 71
     2
 42
-1.0
  3
SLDDIMSTYLE3
100
AcDbAlignedDimension
 13
-40.0
 23
5.0
 33
0.0
 14
-40.0
 24
-5.0
 34
0.0
 50
90.0
100
AcDbRotatedDimension
  0
INSERT
  5
150
330
1F
100
AcDbEntity
  8
INFTEXT63
100
AcDbBlockReference
  2
SW_NOTE_0
 10
-39.8847508068
 20
-33.794739665
 30
0.0
  0
INSERT
  5
157
330
1F
100
AcDbEntity
  8
INFTEXT63
100
AcDbBlockReference
  2
SW_NOTE_1
 10
-39.8847508068
 20
-70.1731114039
 30
0.0
  0
ENDSEC
  0
SECTION
  2
OBJECTS
  0
DICTIONARY
  5
C
330
0
100
AcDbDictionary
281
     1
  3
ACAD_GROUP
350
D
  3
ACAD_LAYOUT
350
1A
  3
ACAD_MLINESTYLE
350
17
  3
ACAD_PLOTSETTINGS
350
19
  3
ACAD_PLOTSTYLENAME
350
E
  3
ACAD_SCALELIST
350
C1
  3
AcDbVariableDictionary
350
158
  0
DICTIONARY
  5
D
102
{ACAD_REACTORS
330
C
102
}
330
C
100
AcDbDictionary
281
     1
  0
DICTIONARY
  5
1A
102
{ACAD_REACTORS
330
C
102
}
330
C
100
AcDbDictionary
281
     1
  3
Layout1
350
1E
  3
Layout2
350
26
  3
Model
350
22
  0
DICTIONARY
  5
17
102
{ACAD_REACTORS
330
C
102
}
330
C
100
AcDbDictionary
281
     1
  3
Standard
350
18
  0
DICTIONARY
  5
19
102
{ACAD_REACTORS
330
C
102
}
330
C
100
AcDbDictionary
281
     1
  0
ACDBDICTIONARYWDFLT
  5
E
102
{ACAD_REACTORS
330
C
102
}
330
C
100
AcDbDictionary
281
     1
  3
Normal
350
F
100
AcDbDictionaryWithDefault
340
F
  0
DICTIONARY
  5
C1
102
{ACAD_REACTORS
330
C
102
}
330
C
100
AcDbDictionary
281
     1
  3
A0
350
C2
  3
A1
350
C3
  3
A2
350
C4
  3
A3
350
C5
  3
A4
350
C6
  3
A5
350
C7
  3
A6
350
C8
  3
A7
350
C9
  3
A8
350
CA
  3
A9
350
CB
  3
B0
350
CC
  3
B1
350
CD
  3
B2
350
CE
  3
B3
350
CF
  3
B4
350
D0
  3
B5
350
D1
  3
B6
350
D2
  3
B7
350
D3
  3
B8
350
D4
  3
B9
350
D5
  3
C0
350
D6
  3
C1
350
D7
  3
C2
350
D8
  3
C3
350
D9
  3
C4
350
DA
  3
C5
350
DB
  3
C6
350
DC
  3
C7
350
DD
  3
C8
350
DE
  3
C9
350
DF
  3
D0
350
E0
  3
D1
350
E1
  3
D2
350
E2
  0
DICTIONARY
  5
158
102
{ACAD_REACTORS
330
C
102
}
330
C
100
AcDbDictionary
281
     1
  3
CANNOSCALE
350
159
  0
LAYOUT
  5
1E
102
{ACAD_REACTORS
330
1A
102
}
330
1A
100
AcDbPlotSettings
  1

  2
none_device
  4

  6

 40
0.0
 41
0.0
 42
0.0
 43
0.0
 44
0.0
 45
0.0
 46
0.0
 47
0.0
 48
0.0
 49
0.0
140
0.0
141
0.0
142
1.0
143
1.0
 70
   688
 72
     0
 73
     0
 74
     5
  7

 75
    16
147
1.0
148
0.0
149
0.0
100
AcDbLayout
  1
Layout1
 70
     1
 71
     1
 10
0.0
 20
0.0
 11
420.0
 21
297.0
 12
0.0
 22
0.0
 32
0.0
 14
1.0000000000E+20
 24
1.0000000000E+20
 34
1.0000000000E+20
 15
-1.0000000000E+20
 25
-1.0000000000E+20
 35
-1.0000000000E+20
146
0.0
 13
0.0
 23
0.0
 33
0.0
 16
1.0
 26
0.0
 36
0.0
 17
0.0
 27
1.0
 37
0.0
 76
     0
330
1B
  0
LAYOUT
  5
26
102
{ACAD_REACTORS
330
1A
102
}
330
1A
100
AcDbPlotSettings
  1

  2
none_device
  4

  6

 40
0.0
 41
0.0
 42
0.0
 43
0.0
 44
0.0
 45
0.0
 46
0.0
 47
0.0
 48
0.0
 49
0.0
140
0.0
141
0.0
142
1.0
143
1.0
 70
   688
 72
     0
 73
     0
 74
     5
  7

 75
    16
147
1.0
148
0.0
149
0.0
100
AcDbLayout
  1
Layout2
 70
     1
 71
     2
 10
0.0
 20
0.0
 11
0.0
 21
0.0
 12
0.0
 22
0.0
 32
0.0
 14
0.0
 24
0.0
 34
0.0
 15
0.0
 25
0.0
 35
0.0
146
0.0
 13
0.0
 23
0.0
 33
0.0
 16
1.0
 26
0.0
 36
0.0
 17
0.0
 27
1.0
 37
0.0
 76
     0
330
23
  0
LAYOUT
  5
22
102
{ACAD_REACTORS
330
1A
102
}
330
1A
100
AcDbPlotSettings
  1

  2
none_device
  4

  6

 40
0.0
 41
0.0
 42
0.0
 43
0.0
 44
0.0
 45
0.0
 46
0.0
 47
0.0
 48
0.0
 49
0.0
140
0.0
141
0.0
142
1.0
143
1.0
 70
  1712
 72
     0
 73
     0
 74
     0
  7

 75
     0
147
1.0
148
0.0
149
0.0
100
AcDbLayout
  1
Model
 70
     1
 71
     0
 10
0.0
 20
0.0
 11
420.0
 21
297.0
 12
0.0
 22
0.0
 32
0.0
 14
0.0
 24
0.0
 34
0.0
 15
420.0
 25
297.0
 35
0.0
146
0.0
 13
0.0
 23
0.0
 33
0.0
 16
1.0
 26
0.0
 36
0.0
 17
0.0
 27
1.0
 37
0.0
 76
     0
330
1F
331
29
  0
MLINESTYLE
  5
18
102
{ACAD_REACTORS
330
17
102
}
330
17
100
AcDbMlineStyle
  2
Standard
 70
     0
  3

 62
   256
 51
90.0
 52
90.0
 71
     2
 49
0.5
 62
   256
  6
BYLAYER
 49
-0.5
 62
   256
  6
BYLAYER
  0
ACDBPLACEHOLDER
  5
F
102
{ACAD_REACTORS
330
E
102
}
330
E
  0
SCALE
  5
C2
102
{ACAD_REACTORS
330
C1
102
}
330
C1
100
AcDbScale
 70
     0
300
1:1
140
1.0
141
1.0
290
     1
  0
SCALE
  5
C3
102
{ACAD_REACTORS
330
C1
102
}
330
C1
100
AcDbScale
 70
     0
300
1:2
140
1.0
141
2.0
290
     0
  0
SCALE
  5
C4
102
{ACAD_REACTORS
330
C1
102
}
330
C1
100
AcDbScale
 70
     0
300
1:4
140
1.0
141
4.0
290
     0
  0
SCALE
  5
C5
102
{ACAD_REACTORS
330
C1
102
}
330
C1
100
AcDbScale
 70
     0
300
1:5
140
1.0
141
5.0
290
     0
  0
SCALE
  5
C6
102
{ACAD_REACTORS
330
C1
102
}
330
C1
100
AcDbScale
 70
     0
300
1:8
140
1.0
141
8.0
290
     0
  0
SCALE
  5
C7
102
{ACAD_REACTORS
330
C1
102
}
330
C1
100
AcDbScale
 70
     0
300
1:10
140
1.0
141
10.0
290
     0
  0
SCALE
  5
C8
102
{ACAD_REACTORS
330
C1
102
}
330
C1
100
AcDbScale
 70
     0
300
1:16
140
1.0
141
16.0
290
     0
  0
SCALE
  5
C9
102
{ACAD_REACTORS
330
C1
102
}
330
C1
100
AcDbScale
 70
     0
300
1:20
140
1.0
141
20.0
290
     0
  0
SCALE
  5
CA
102
{ACAD_REACTORS
330
C1
102
}
330
C1
100
AcDbScale
 70
     0
300
1:30
140
1.0
141
30.0
290
     0
  0
SCALE
  5
CB
102
{ACAD_REACTORS
330
C1
102
}
330
C1
100
AcDbScale
 70
     0
300
1:40
140
1.0
141
40.0
290
     0
  0
SCALE
  5
CC
102
{ACAD_REACTORS
330
C1
102
}
330
C1
100
AcDbScale
 70
     0
300
1:50
140
1.0
141
50.0
290
     0
  0
SCALE
  5
CD
102
{ACAD_REACTORS
330
C1
102
}
330
C1
100
AcDbScale
 70
     0
300
1:100
140
1.0
141
100.0
290
     0
  0
SCALE
  5
CE
102
{ACAD_REACTORS
330
C1
102
}
330
C1
100
AcDbScale
 70
     0
300
2:1
140
2.0
141
1.0
290
     0
  0
SCALE
  5
CF
102
{ACAD_REACTORS
330
C1
102
}
330
C1
100
AcDbScale
 70
     0
300
4:1
140
4.0
141
1.0
290
     0
  0
SCALE
  5
D0
102
{ACAD_REACTORS
330
C1
102
}
330
C1
100
AcDbScale
 70
     0
300
8:1
140
8.0
141
1.0
290
     0
  0
SCALE
  5
D1
102
{ACAD_REACTORS
330
C1
102
}
330
C1
100
AcDbScale
 70
     0
300
10:1
140
10.0
141
1.0
290
     0
  0
SCALE
  5
D2
102
{ACAD_REACTORS
330
C1
102
}
330
C1
100
AcDbScale
 70
     0
300
100:1
140
100.0
141
1.0
290
     0
  0
SCALE
  5
D3
102
{ACAD_REACTORS
330
C1
102
}
330
C1
100
AcDbScale
 70
     0
300
1/128" = 1'-0"
140
0.0078125
141
12.0
290
     0
  0
SCALE
  5
D4
102
{ACAD_REACTORS
330
C1
102
}
330
C1
100
AcDbScale
 70
     0
300
1/64" = 1'-0"
140
0.015625
141
12.0
290
     0
  0
SCALE
  5
D5
102
{ACAD_REACTORS
330
C1
102
}
330
C1
100
AcDbScale
 70
     0
300
1/32" = 1'-0"
140
0.03125
141
12.0
290
     0
  0
SCALE
  5
D6
102
{ACAD_REACTORS
330
C1
102
}
330
C1
100
AcDbScale
 70
     0
300
1/16" = 1'-0"
140
0.0625
141
12.0
290
     0
  0
SCALE
  5
D7
102
{ACAD_REACTORS
330
C1
102
}
330
C1
100
AcDbScale
 70
     0
300
3/32" = 1'-0"
140
0.09375
141
12.0
290
     0
  0
SCALE
  5
D8
102
{ACAD_REACTORS
330
C1
102
}
330
C1
100
AcDbScale
 70
     0
300
1/8" = 1'-0"
140
0.125
141
12.0
290
     0
  0
SCALE
  5
D9
102
{ACAD_REACTORS
330
C1
102
}
330
C1
100
AcDbScale
 70
     0
300
3/16" = 1'-0"
140
0.1875
141
12.0
290
     0
  0
SCALE
  5
DA
102
{ACAD_REACTORS
330
C1
102
}
330
C1
100
AcDbScale
 70
     0
300
1/4" = 1'-0"
140
0.25
141
12.0
290
     0
  0
SCALE
  5
DB
102
{ACAD_REACTORS
330
C1
102
}
330
C1
100
AcDbScale
 70
     0
300
3/8" = 1'-0"
140
0.375
141
12.0
290
     0
  0
SCALE
  5
DC
102
{ACAD_REACTORS
330
C1
102
}
330
C1
100
AcDbScale
 70
     0
300
1/2" = 1'-0"
140
0.5
141
12.0
290
     0
  0
SCALE
  5
DD
102
{ACAD_REACTORS
330
C1
102
}
330
C1
100
AcDbScale
 70
     0
300
3/4" = 1'-0"
140
0.75
141
12.0
290
     0
  0
SCALE
  5
DE
102
{ACAD_REACTORS
330
C1
102
}
330
C1
100
AcDbScale
 70
     0
300
1" = 1'-0"
140
1.0
141
12.0
290
     0
  0
SCALE
  5
DF
102
{ACAD_REACTORS
330
C1
102
}
330
C1
100
AcDbScale
 70
     0
300
1-1/2" = 1'-0"
140
1.5
141
12.0
290
     0
  0
SCALE
  5
E0
102
{ACAD_REACTORS
330
C1
102
}
330
C1
100
AcDbScale
 70
     0
300
3" = 1'-0"
140
3.0
141
12.0
290
     0
  0
SCALE
  5
E1
102
{ACAD_REACTORS
330
C1
102
}
330
C1
100
AcDbScale
 70
     0
300
6" = 1'-0"
140
6.0
141
12.0
290
     0
  0
SCALE
  5
E2
102
{ACAD_REACTORS
330
C1
102
}
330
C1
100
AcDbScale
 70
     0
300
1'-0" = 1'-0"
140
12.0
141
12.0
290
     0
  0
DICTIONARYVAR
  5
159
102
{ACAD_REACTORS
330
158
102
}
330
158
100
DictionaryVariables
280
     0
  1
1:1
  0
ENDSEC
  0
EOF
