  0
SECTION
  2
HEADER
  9
$ACADVER
  1
AC1015
  9
$ACADMAINTVER
 70
     6
  9
$DWGCODEPAGE
  3
ANSI_1252
  9
$INSBASE
 10
0.0
 20
0.0
 30
0.0
  9
$EXTMIN
 10
0.0
 20
0.0
 30
0.0
  9
$EXTMAX
 10
420.0
 20
297.0
 30
0.0
  9
$LIMMIN
 10
0.0
 20
0.0
  9
$LIMMAX
 10
420.0
 20
297.0
  9
$ORTHOMODE
 70
     0
  9
$REGENMODE
 70
     1
  9
$FILLMODE
 70
     1
  9
$QTEXTMODE
 70
     0
  9
$MIRRTEXT
 70
     1
  9
$LTSCALE
 40
1.0
  9
$ATTMODE
 70
     1
  9
$TEXTSIZE
 40
3.5
  9
$TRACEWID
 40
1.0
  9
$TEXTSTYLE
  7
STANDARD
  9
$CLAYER
  8
0
  9
$CELTYPE
  6
ByLayer
  9
$CECOLOR
 62
   256
  9
$CELTSCALE
 40
1.0
  9
$DISPSILH
 70
     0
  9
$DIMSCALE
 40
1.0
  9
$DIMASZ
 40
3.302
  9
$DIMEXO
 40
1.0
  9
$DIMDLI
 40
3.75
  9
$DIMRND
 40
0.0
  9
$DIMDLE
 40
0.0
  9
$DIMEXE
 40
1.0
  9
$DIMTP
 40
0.0
  9
$DIMTM
 40
0.0
  9
$DIMTXT
 40
3.5
  9
$DIMCEN
 40
2.5
  9
$DIMTSZ
 40
0.0
  9
$DIMTOL
 70
     0
  9
$DIMLIM
 70
     0
  9
$DIMTIH
 70
     1
  9
$DIMTOH
 70
     1
  9
$DIMSE1
 70
     0
  9
$DIMSE2
 70
     0
  9
$DIMTAD
 70
     1
  9
$DIMZIN
 70
     0
  9
$DIMBLK
  1

  9
$DIMASO
 70
     1
  9
$DIMSHO
 70
     1
  9
$DIMPOST
  1

  9
$DIMAPOST
  1

  9
$DIMALT
 70
     0
  9
$DIMALTD
 70
     3
  9
$DIMALTF
 40
0.0393700787
  9
$DIMLFAC
 40
1.0
  9
$DIMTOFL
 70
     1
  9
$DIMTVP
 40
0.0
  9
$DIMTIX
 70
     0
  9
$DIMSOXD
 70
     0
  9
$DIMSAH
 70
     0
  9
$DIMBLK1
  1

  9
$DIMBLK2
  1

  9
$DIMSTYLE
  2
ISO-25
  9
$DIMCLRD
 70
     0
  9
$DIMCLRE
 70
     0
  9
$DIMCLRT
 70
     0
  9
$DIMTFAC
 40
1.0
  9
$DIMGAP
 40
1.524
  9
$DIMJUST
 70
     0
  9
$DIMSD1
 70
     0
  9
$DIMSD2
 70
     0
  9
$DIMTOLJ
 70
     0
  9
$DIMTZIN
 70
     0
  9
$DIMALTZ
 70
     0
  9
$DIMALTTZ
 70
     0
  9
$DIMUPT
 70
     0
  9
$DIMDEC
 70
     1
  9
$DIMTDEC
 70
     1
  9
$DIMALTU
 70
     2
  9
$DIMALTTD
 70
     3
  9
$DIMTXSTY
  7
STANDARD
  9
$DIMAUNIT
 70
     0
  9
$DIMADEC
 70
     1
  9
$DIMALTRND
 40
0.0
  9
$DIMAZIN
 70
     0
  9
$DIMDSEP
 70
    44
  9
$DIMATFIT
 70
     3
  9
$DIMFRAC
 70
     0
  9
$DIMLDRBLK
  1

  9
$DIMLUNIT
 70
     2
  9
$DIMLWD
 70
    -2
  9
$DIMLWE
 70
    -2
  9
$DIMTMOVE
 70
     0
  9
$LUNITS
 70
     2
  9
$LUPREC
 70
     2
  9
$SKETCHINC
 40
1.0
  9
$FILLETRAD
 40
10.0
  9
$AUNITS
 70
     0
  9
$AUPREC
 70
     2
  9
$MENU
  1
.
  9
$ELEVATION
 40
0.0
  9
$PELEVATION
 40
0.0
  9
$THICKNESS
 40
0.0
  9
$LIMCHECK
 70
     0
  9
$CHAMFERA
 40
10.0
  9
$CHAMFERB
 40
10.0
  9
$CHAMFERC
 40
20.0
  9
$CHAMFERD
 40
0.0
  9
$SKPOLY
 70
     0
  9
$TDCREATE
 40
2455897.75500147
  9
$TDUCREATE
 40
2455897.713334803
  9
$TDUPDATE
 40
2455897.755001482
  9
$TDUUPDATE
 40
2455897.713334815
  9
$TDINDWG
 40
0.0000000116
  9
$TDUSRTIMER
 40
0.0000000116
  9
$USRTIMER
 70
     1
  9
$ANGBASE
 50
0.0
  9
$ANGDIR
 70
     0
  9
$PDMODE
 70
     0
  9
$PDSIZE
 40
-1.0
  9
$PLINEWID
 40
0.0
  9
$SPLFRAME
 70
     0
  9
$SPLINETYPE
 70
     6
  9
$SPLINESEGS
 70
     8
  9
$HANDSEED
  5
15F
  9
$SURFTAB1
 70
     6
  9
$SURFTAB2
 70
     6
  9
$SURFTYPE
 70
     6
  9
$SURFU
 70
     6
  9
$SURFV
 70
     6
  9
$UCSBASE
  2

  9
$UCSNAME
  2

  9
$UCSORG
 10
0.0
 20
0.0
 30
0.0
  9
$UCSXDIR
 10
1.0
 20
0.0
 30
0.0
  9
$UCSYDIR
 10
0.0
 20
1.0
 30
0.0
  9
$UCSORTHOREF
  2

  9
$UCSORTHOVIEW
 70
     0
  9
$UCSORGTOP
 10
0.0
 20
0.0
 30
0.0
  9
$UCSORGBOTTOM
 10
0.0
 20
0.0
 30
0.0
  9
$UCSORGLEFT
 10
0.0
 20
0.0
 30
0.0
  9
$UCSORGRIGHT
 10
0.0
 20
0.0
 30
0.0
  9
$UCSORGFRONT
 10
0.0
 20
0.0
 30
0.0
  9
$UCSORGBACK
 10
0.0
 20
0.0
 30
0.0
  9
$PUCSBASE
  2

  9
$PUCSNAME
  2

  9
$PUCSORG
 10
0.0
 20
0.0
 30
0.0
  9
$PUCSXDIR
 10
1.0
 20
0.0
 30
0.0
  9
$PUCSYDIR
 10
0.0
 20
1.0
 30
0.0
  9
$PUCSORTHOREF
  2

  9
$PUCSORTHOVIEW
 70
     0
  9
$PUCSORGTOP
 10
0.0
 20
0.0
 30
0.0
  9
$PUCSORGBOTTOM
 10
0.0
 20
0.0
 30
0.0
  9
$PUCSORGLEFT
 10
0.0
 20
0.0
 30
0.0
  9
$PUCSORGRIGHT
 10
0.0
 20
0.0
 30
0.0
  9
$PUCSORGFRONT
 10
0.0
 20
0.0
 30
0.0
  9
$PUCSORGBACK
 10
0.0
 20
0.0
 30
0.0
  9
$USERI1
 70
     0
  9
$USERI2
 70
     0
  9
$USERI3
 70
     0
  9
$USERI4
 70
     0
  9
$USERI5
 70
     0
  9
$USERR1
 40
0.0
  9
$USERR2
 40
0.0
  9
$USERR3
 40
0.0
  9
$USERR4
 40
0.0
  9
$USERR5
 40
0.0
  9
$WORLDVIEW
 70
     1
  9
$SHADEDGE
 70
     3
  9
$SHADEDIF
 70
    70
  9
$TILEMODE
 70
     1
  9
$MAXACTVP
 70
    64
  9
$PINSBASE
 10
0.0
 20
0.0
 30
0.0
  9
$PLIMCHECK
 70
     0
  9
$PEXTMIN
 10
1.0000000000E+20
 20
1.0000000000E+20
 30
1.0000000000E+20
  9
$PEXTMAX
 10
-1.0000000000E+20
 20
-1.0000000000E+20
 30
-1.0000000000E+20
  9
$PLIMMIN
 10
0.0
 20
0.0
  9
$PLIMMAX
 10
420.0
 20
297.0
  9
$UNITMODE
 70
     0
  9
$VISRETAIN
 70
     1
  9
$PLINEGEN
 70
     0
  9
$PSLTSCALE
 70
     1
  9
$TREEDEPTH
 70
  3020
  9
$CMLSTYLE
  2
Standard
  9
$CMLJUST
 70
     0
  9
$CMLSCALE
 40
20.0
  9
$PROXYGRAPHICS
 70
     1
  9
$MEASUREMENT
 70
     1
  9
$CELWEIGHT
370
    -1
  9
$ENDCAPS
280
     0
  9
$JOINSTYLE
280
     0
  9
$LWDISPLAY
290
     1
  9
$INSUNITS
 70
     4
  9
$HYPERLINKBASE
  1

  9
$STYLESHEET
  1

  9
$XEDIT
290
     1
  9
$CEPSNTYPE
380
     0
  9
$PSTYLEMODE
290
     1
  9
$FINGERPRINTGUID
  2
{76F50F8F-0D3E-4DE1-86DC-49AC16971157}
  9
$VERSIONGUID
  2
{FAEB1C32-E019-11D5-929B-00C0DF256EC4}
  9
$EXTNAMES
290
     1
  9
$PSVPSCALE
 40
0.0
  9
$OLESTARTUP
290
     0
  0
ENDSEC
  0
SECTION
  2
CLASSES
  0
CLASS
  1
ACDBDICTIONARYWDFLT
  2
AcDbDictionaryWithDefault
  3
ObjectDBX Classes
 90
        0
280
     0
281
     0
  0
CLASS
  1
VISUALSTYLE
  2
AcDbVisualStyle
  3
ObjectDBX Classes
 90
     4095
280
     0
281
     0
  0
CLASS
  1
MATERIAL
  2
AcDbMaterial
  3
ObjectDBX Classes
 90
     1153
280
     0
281
     0
  0
CLASS
  1
SCALE
  2
AcDbScale
  3
ObjectDBX Classes
 90
     1153
280
     0
281
     0
  0
CLASS
  1
DICTIONARYVAR
  2
AcDbDictionaryVar
  3
ObjectDBX Classes
 90
        0
280
     0
281
     0
  0
CLASS
  1
ACDBPLACEHOLDER
  2
AcDbPlaceHolder
  3
ObjectDBX Classes
 90
        0
280
     0
281
     0
  0
CLASS
  1
LAYOUT
  2
AcDbLayout
  3
ObjectDBX Classes
 90
        0
280
     0
281
     0
  0
ENDSEC
  0
SECTION
  2
TABLES
  0
TABLE
  2
VPORT
  5
8
330
0
100
AcDbSymbolTable
 70
     1
  0
VPORT
  5
29
330
8
100
AcDbSymbolTableRecord
100
AcDbViewportTableRecord
  2
*Active
 70
     0
 10
0.0
 20
0.0
 11
1.0
 21
1.0
 12
210.0
 22
148.5
 13
0.0
 23
0.0
 14
10.0
 24
10.0
 15
10.0
 25
10.0
 16
0.0
 26
0.0
 36
1.0
 17
0.0
 27
0.0
 37
0.0
 40
297.0
 41
1.4141414141
 42
50.0
 43
0.0
 44
0.0
 50
0.0
 51
0.0
 71
     0
 72
  2000
 73
     1
 74
     3
 75
     0
 76
     0
 77
     0
 78
     0
281
     0
 65
     1
110
0.0
120
0.0
130
0.0
111
1.0
121
0.0
131
0.0
112
0.0
122
1.0
132
0.0
 79
     0
146
0.0
  0
ENDTAB
  0
TABLE
  2
LTYPE
  5
5
330
0
100
AcDbSymbolTable
 70
     6
  0
LTYPE
  5
14
330
5
100
AcDbSymbolTableRecord
100
AcDbLinetypeTableRecord
  2
ByBlock
 70
     0
  3

 72
    65
 73
     0
 40
0.0
  0
LTYPE
  5
15
330
5
100
AcDbSymbolTableRecord
100
AcDbLinetypeTableRecord
  2
ByLayer
 70
     0
  3

 72
    65
 73
     0
 40
0.0
  0
LTYPE
  5
16
330
5
100
AcDbSymbolTableRecord
100
AcDbLinetypeTableRecord
  2
Continuous
 70
     0
  3
Solid line
 72
    65
 73
     0
 40
0.0
  0
LTYPE
  5
3F
330
5
100
AcDbSymbolTableRecord
100
AcDbLinetypeTableRecord
  2
HIDDEN
 70
     0
  3
Hidden __ __ __ __ __ __ __ __ __ __ __ __ __ __
 72
    65
 73
     2
 40
1.905
 49
1.27
 74
     0
 49
-0.635
 74
     0
  0
LTYPE
  5
40
330
5
100
AcDbSymbolTableRecord
100
AcDbLinetypeTableRecord
  2
PHANTOM
 70
     0
  3
Phantom ______  __  __  ______  __  __  ______
 72
    65
 73
     6
 40
12.7
 49
6.35
 74
     0
 49
-1.27
 74
     0
 49
1.27
 74
     0
 49
-1.27
 74
     0
 49
1.27
 74
     0
 49
-1.27
 74
     0
  0
LTYPE
  5
41
330
5
100
AcDbSymbolTableRecord
100
AcDbLinetypeTableRecord
  2
CENTER
 70
     0
  3
Center ____ _ ____ _ ____ _ ____ _ ____ _ ____
 72
    65
 73
     4
 40
10.16
 49
6.35
 74
     0
 49
-1.27
 74
     0
 49
1.27
 74
     0
 49
-1.27
 74
     0
  0
LTYPE
  5
42
330
5
100
AcDbSymbolTableRecord
100
AcDbLinetypeTableRecord
  2
CENTERX2
 70
     0
  3
Center (2x) ________  __  ________  __  _____
 72
    65
 73
     4
 40
20.32
 49
12.7
 74
     0
 49
-2.54
 74
     0
 49
2.54
 74
     0
 49
-2.54
 74
     0
  0
LTYPE
  5
43
330
5
100
AcDbSymbolTableRecord
100
AcDbLinetypeTableRecord
  2
DOT2
 70
     0
  3
Dot (.5x) ........................................
 72
    65
 73
     2
 40
0.635
 49
0.0
 74
     0
 49
-0.635
 74
     0
  0
ENDTAB
  0
TABLE
  2
LAYER
  5
2
330
0
100
AcDbSymbolTable
 70
    20
  0
LAYER
  5
10
330
2
100
AcDbSymbolTableRecord
100
AcDbLayerTableRecord
  2
0
 70
     0
 62
     7
  6
Continuous
370
    -3
390
F
  0
LAYER
  5
44
330
2
100
AcDbSymbolTableRecord
100
AcDbLayerTableRecord
  2
SLD-DEFPOINTS
 70
     0
 62
     7
  6
Continuous
370
    -1
390
F
  0
LAYER
  5
45
330
2
100
AcDbSymbolTableRecord
100
AcDbLayerTableRecord
  2
1
 70
     0
 62
     4
  6
Continuous
370
    15
390
F
  0
LAYER
  5
46
330
2
100
AcDbSymbolTableRecord
100
AcDbLayerTableRecord
  2
2
 70
     0
 62
     7
  6
Continuous
370
    -3
390
F
  0
LAYER
  5
47
330
2
100
AcDbSymbolTableRecord
100
AcDbLayerTableRecord
  2
3
 70
     0
 62
     1
  6
HIDDEN
370
    -3
390
F
  0
LAYER
  5
48
330
2
100
AcDbSymbolTableRecord
100
AcDbLayerTableRecord
  2
4
 70
     0
 62
     2
  6
CENTERX2
370
    -3
390
F
  0
LAYER
  5
49
330
2
100
AcDbSymbolTableRecord
100
AcDbLayerTableRecord
  2
6
 70
     0
 62
     5
  6
Continuous
370
    -3
390
F
  0
LAYER
  5
4A
330
2
100
AcDbSymbolTableRecord
100
AcDbLayerTableRecord
  2
7
 70
     0
 62
     5
  6
Continuous
370
    -3
390
F
  0
LAYER
  5
4B
330
2
100
AcDbSymbolTableRecord
100
AcDbLayerTableRecord
  2
CUT
 70
     0
 62
     1
  6
Continuous
370
    -3
390
F
  0
LAYER
  5
4C
330
2
100
AcDbSymbolTableRecord
100
AcDbLayerTableRecord
  2
NOCUT
 70
     0
 62
     7
  6
Continuous
370
    -3
390
F
  0
LAYER
  5
4D
330
2
100
AcDbSymbolTableRecord
100
AcDbLayerTableRecord
  2
SK1
 70
     0
 62
     4
  6
Continuous
370
    15
390
F
  0
LAYER
  5
4E
330
2
100
AcDbSymbolTableRecord
100
AcDbLayerTableRecord
  2
SK2
 70
     0
 62
     7
  6
Continuous
370
    -3
390
F
  0
LAYER
  5
4F
330
2
100
AcDbSymbolTableRecord
100
AcDbLayerTableRecord
  2
SK3
 70
     0
 62
     1
  6
HIDDEN
370
    -3
390
F
  0
LAYER
  5
50
330
2
100
AcDbSymbolTableRecord
100
AcDbLayerTableRecord
  2
SK4
 70
     0
 62
     2
  6
CENTERX2
370
    -3
390
F
  0
LAYER
  5
51
330
2
100
AcDbSymbolTableRecord
100
AcDbLayerTableRecord
  2
SK6
 70
     0
 62
     5
  6
Continuous
370
    -3
390
F
  0
LAYER
  5
52
330
2
100
AcDbSymbolTableRecord
100
AcDbLayerTableRecord
  2
SK7
 70
     0
 62
     5
  6
Continuous
370
    -3
390
F
  0
LAYER
  5
53
330
2
100
AcDbSymbolTableRecord
100
AcDbLayerTableRecord
  2
SLD-0
 70
     0
 62
     7
  6
Continuous
370
    -1
390
F
  0
LAYER
  5
54
330
2
100
AcDbSymbolTableRecord
100
AcDbLayerTableRecord
  2
SLD-DEFPOINTS_0
 70
     0
 62
     7
  6
Continuous
370
    -1
390
F
  0
LAYER
  5
55
330
2
100
AcDbSymbolTableRecord
100
AcDbLayerTableRecord
  2
INFTOTAL
 70
     0
 62
     9
  6
Continuous
370
    -3
390
F
  0
LAYER
  5
56
330
2
100
AcDbSymbolTableRecord
100
AcDbLayerTableRecord
  2
INFTEXT63
 70
     0
 62
     5
  6
Continuous
370
    -3
390
F
  0
ENDTAB
  0
TABLE
  2
STYLE
  5
3
330
0
100
AcDbSymbolTable
 70
     2
  0
STYLE
  5
11
330
3
100
AcDbSymbolTableRecord
100
AcDbTextStyleTableRecord
  2
STANDARD
 70
     0
 40
0.0
 41
1.0
 50
0.0
 71
     0
 42
2.5
  3
GOTHIC.TTF
  4

1001
ACAD
1000
CENTURY GOTHIC
1071
       34
  0
STYLE
  5
57
330
3
100
AcDbSymbolTableRecord
100
AcDbTextStyleTableRecord
  2
SLDTEXTSTYLE0
 70
     0
 40
0.0
 41
1.0
 50
0.0
 71
     0
 42
0.2
  3
Monospac821 BT
  4

1001
ACAD
1000
Monospac821 BT
1071
      305
  0
ENDTAB
  0
TABLE
  2
VIEW
  5
6
330
0
100
AcDbSymbolTable
 70
     0
  0
ENDTAB
  0
TABLE
  2
UCS
  5
7
330
0
100
AcDbSymbolTable
 70
     0
  0
ENDTAB
  0
TABLE
  2
APPID
  5
9
330
0
100
AcDbSymbolTable
 70
     1
  0
APPID
  5
12
330
9
100
AcDbSymbolTableRecord
100
AcDbRegAppTableRecord
  2
ACAD
 70
     0
  0
ENDTAB
  0
TABLE
  2
DIMSTYLE
  5
A
330
0
100
AcDbSymbolTable
 70
     6
100
AcDbDimStyleTable
  0
DIMSTYLE
105
27
330
A
100
AcDbSymbolTableRecord
100
AcDbDimStyleTableRecord
  2
ISO-25
 70
     0
 41
2.5
 42
0.625
 43
3.75
 44
1.25
 73
     0
 74
     0
 77
     1
 78
     8
140
2.5
141
2.5
143
0.0393700787
147
0.625
171
     3
172
     1
271
     2
272
     2
274
     3
278
    44
283
     0
284
     8
340
57
  0
DIMSTYLE
105
E8
102
{ACAD_REACTORS
330
C5
102
}
330
A
100
AcDbSymbolTableRecord
100
AcDbDimStyleTableRecord
  2
SLDDIMSTYLE0
 70
     0
 41
3.302
 44
0.0
 45
0.000000001
 73
     0
 77
     1
 78
    12
140
3.5
147
0.875
173
     1
271
     1
272
     2
276
     2
284
    12
340
57
  0
DIMSTYLE
105
F5
102
{ACAD_REACTORS
330
F4
102
}
330
A
100
AcDbSymbolTableRecord
100
AcDbDimStyleTableRecord
  2
SLDDIMSTYLE1
 70
     0
 41
3.302
 44
0.0
 45
0.000000001
 73
     0
 77
     1
 78
    12
140
3.5
141
0.0
147
0.875
173
     1
271
     1
272
     1
276
     2
284
    12
340
57
  0
DIMSTYLE
105
FF
102
{ACAD_REACTORS
330
FE
102
}
330
A
100
AcDbSymbolTableRecord
100
AcDbDimStyleTableRecord
  2
SLDDIMSTYLE2
 70
     0
 41
3.302
 44
0.0
 45
0.000000001
 73
     0
 77
     1
 78
    12
140
3.5
147
0.875
173
     1
271
     1
272
     1
276
     2
284
    12
340
57
  0
DIMSTYLE
105
10A
102
{ACAD_REACTORS
330
109
330
114
330
12B
330
137
330
141
102
}
330
A
100
AcDbSymbolTableRecord
100
AcDbDimStyleTableRecord
  2
SLDDIMSTYLE3
 70
     0
 41
3.302
 44
0.0
 45
0.000000001
 73
     0
 77
     1
 78
    12
140
3.5
147
0.875
173
     1
271
     2
272
     2
276
     2
284
    12
340
57
  0
DIMSTYLE
105
11F
102
{ACAD_REACTORS
330
11E
102
}
330
A
100
AcDbSymbolTableRecord
100
AcDbDimStyleTableRecord
  2
SLDDIMSTYLE4
 70
     0
 41
3.302
 44
0.0
 45
0.000000001
 73
     0
 77
     1
 78
    12
140
3.5
147
0.875
173
     1
271
     2
272
     2
276
     2
284
    12
340
57
  0
ENDTAB
  0
TABLE
  2
BLOCK_RECORD
  5
1
330
0
100
AcDbSymbolTable
 70
    12
  0
BLOCK_RECORD
  5
1F
330
1
100
AcDbSymbolTableRecord
100
AcDbBlockTableRecord
  2
*Model_Space
340
22
  0
BLOCK_RECORD
  5
1B
330
1
100
AcDbSymbolTableRecord
100
AcDbBlockTableRecord
  2
*Paper_Space
340
1E
  0
BLOCK_RECORD
  5
23
330
1
100
AcDbSymbolTableRecord
100
AcDbBlockTableRecord
  2
*Paper_Space0
340
26
  0
BLOCK_RECORD
  5
E9
330
1
100
AcDbSymbolTableRecord
100
AcDbBlockTableRecord
  2
*D1
340
0
  0
BLOCK_RECORD
  5
F6
330
1
100
AcDbSymbolTableRecord
100
AcDbBlockTableRecord
  2
*D2
340
0
  0
BLOCK_RECORD
  5
100
330
1
100
AcDbSymbolTableRecord
100
AcDbBlockTableRecord
  2
*D3
340
0
  0
BLOCK_RECORD
  5
10B
330
1
100
AcDbSymbolTableRecord
100
AcDbBlockTableRecord
  2
*D4
340
0
  0
BLOCK_RECORD
  5
115
330
1
100
AcDbSymbolTableRecord
100
AcDbBlockTableRecord
  2
*D5
340
0
  0
BLOCK_RECORD
  5
120
330
1
100
AcDbSymbolTableRecord
100
AcDbBlockTableRecord
  2
*D6
340
0
  0
BLOCK_RECORD
  5
12C
330
1
100
AcDbSymbolTableRecord
100
AcDbBlockTableRecord
  2
*D7
340
0
  0
BLOCK_RECORD
  5
138
330
1
100
AcDbSymbolTableRecord
100
AcDbBlockTableRecord
  2
*D8
340
0
  0
BLOCK_RECORD
  5
142
330
1
100
AcDbSymbolTableRecord
100
AcDbBlockTableRecord
  2
*D9
340
0
  0
BLOCK_RECORD
  5
14D
330
1
100
AcDbSymbolTableRecord
100
AcDbBlockTableRecord
  2
SW_NOTE_0
340
0
102
{BLKREFS
331
155
102
}
  0
BLOCK_RECORD
  5
156
330
1
100
AcDbSymbolTableRecord
100
AcDbBlockTableRecord
  2
SW_NOTE_1
340
0
102
{BLKREFS
331
15C
102
}
  0
ENDTAB
  0
ENDSEC
  0
SECTION
  2
BLOCKS
  0
BLOCK
  5
20
330
1F
100
AcDbEntity
  8
0
100
AcDbBlockBegin
  2
*Model_Space
 70
     0
 10
0.0
 20
0.0
 30
0.0
  3
*Model_Space
  1

  0
ENDBLK
  5
21
330
1F
100
AcDbEntity
  8
0
100
AcDbBlockEnd
  0
BLOCK
  5
1C
330
1B
100
AcDbEntity
 67
     1
  8
0
100
AcDbBlockBegin
  2
*Paper_Space
 70
     0
 10
0.0
 20
0.0
 30
0.0
  3
*Paper_Space
  1

  0
ENDBLK
  5
1D
330
1B
100
AcDbEntity
 67
     1
  8
0
100
AcDbBlockEnd
  0
BLOCK
  5
24
330
23
100
AcDbEntity
  8
0
100
AcDbBlockBegin
  2
*Paper_Space0
 70
     0
 10
0.0
 20
0.0
 30
0.0
  3
*Paper_Space0
  1

  0
ENDBLK
  5
25
330
23
100
AcDbEntity
  8
0
100
AcDbBlockEnd
  0
BLOCK
  5
EA
330
E9
100
AcDbEntity
  8
0
100
AcDbBlockBegin
  2
*D1
 70
     1
 10
0.0
 20
0.0
 30
0.0
  3
*D1
  1

  0
SOLID
  5
EC
330
E9
100
AcDbEntity
  8
2
100
AcDbTrace
 10
118.9632346948
 20
-8.0
 30
0.0
 11
119.4712346948
 21
-4.698
 31
0.0
 12
118.4552346948
 22
-4.698
 32
0.0
 13
118.4552346948
 23
-4.698
 33
0.0
  0
SOLID
  5
ED
330
E9
100
AcDbEntity
  8
2
100
AcDbTrace
 10
118.9632346948
 20
8.0
 30
0.0
 11
118.4552346948
 21
4.698
 31
0.0
 12
119.4712346948
 22
4.698
 32
0.0
 13
119.4712346948
 23
4.698
 33
0.0
  0
LINE
  5
EE
330
E9
100
AcDbEntity
  8
2
100
AcDbLine
 10
43.0
 20
-8.0
 30
0.0
 11
119.9632346948
 21
-8.0
 31
0.0
  0
LINE
  5
EF
330
E9
100
AcDbEntity
  8
2
100
AcDbLine
 10
42.0
 20
8.0
 30
0.0
 11
119.9632346948
 21
8.0
 31
0.0
  0
LINE
  5
F0
330
E9
100
AcDbEntity
  8
2
100
AcDbLine
 10
118.9632346948
 20
-8.0
 30
0.0
 11
118.9632346948
 21
8.0
 31
0.0
  0
LINE
  5
F1
330
E9
100
AcDbEntity
  8
2
100
AcDbLine
 10
118.9632346948
 20
8.0
 30
0.0
 11
118.9632346948
 21
22.4384360358
 31
0.0
  0
MTEXT
  5
F2
330
E9
100
AcDbEntity
  8
2
100
AcDbMText
 10
114.3565510066
 20
10.0497527296
 30
0.0
 40
3.5
 41
0.0
 71
     1
 72
     1
  1
%%c
  7
SLDTEXTSTYLE0
 11
-1.608122649676637E-16
 21
1.0
 31
0.0
 73
     1
 44
1.0
  0
MTEXT
  5
F3
330
E9
100
AcDbEntity
  8
2
100
AcDbMText
 10
114.3565512394
 20
15.2997779686
 30
0.0
 40
3.5
 41
0.0
 71
     1
 72
     1
  1
16
  7
SLDTEXTSTYLE0
 11
-1.608122649676637E-16
 21
1.0
 31
0.0
 73
     1
 44
1.0
  0
ENDBLK
  5
EB
330
E9
100
AcDbEntity
  8
0
100
AcDbBlockEnd
  0
BLOCK
  5
F7
330
F6
100
AcDbEntity
  8
0
100
AcDbBlockBegin
  2
*D2
 70
     1
 10
0.0
 20
0.0
 30
0.0
  3
*D2
  1

  0
SOLID
  5
F9
330
F6
100
AcDbEntity
  8
SK2
100
AcDbTrace
 10
41.7071067812
 20
7.7071067812
 30
0.0
 11
44.4011836175
 21
9.6827631278
 31
0.0
 12
43.6827631278
 22
10.4011836175
 32
0.0
 13
43.6827631278
 23
10.4011836175
 33
0.0
  0
LINE
  5
FA
330
F6
100
AcDbEntity
  8
SK2
100
AcDbLine
 10
41.7071067812
 20
7.7071067812
 30
0.0
 11
64.3466279842
 21
30.3466279842
 31
0.0
  0
LINE
  5
FB
330
F6
100
AcDbEntity
  8
SK2
100
AcDbLine
 10
41.7071067812
 20
7.7071067812
 30
0.0
 11
41.0
 21
7.0
 31
0.0
  0
MTEXT
  5
FC
330
F6
100
AcDbEntity
  8
SK2
100
AcDbMText
 10
56.0503570541
 20
28.5473118586
 30
0.0
 40
3.5
 41
0.0
 71
     1
 72
     1
  1
R
  7
SLDTEXTSTYLE0
 11
0.7071067811865464
 21
0.7071067811865488
 31
0.0
 73
     1
 44
1.0
  0
MTEXT
  5
FD
330
F6
100
AcDbEntity
  8
SK2
100
AcDbMText
 10
58.0129878105
 20
30.509942615
 30
0.0
 40
3.5
 41
0.0
 71
     1
 72
     1
  1
1
  7
SLDTEXTSTYLE0
 11
0.7071067811865464
 21
0.7071067811865488
 31
0.0
 73
     1
 44
1.0
  0
ENDBLK
  5
F8
330
F6
100
AcDbEntity
  8
0
100
AcDbBlockEnd
  0
BLOCK
  5
101
330
100
100
AcDbEntity
  8
0
100
AcDbBlockBegin
  2
*D3
 70
     1
 10
0.0
 20
0.0
 30
0.0
  3
*D3
  1

  0
SOLID
  5
103
330
100
100
AcDbEntity
  8
SK2
100
AcDbTrace
 10
42.0
 20
89.5998788878
 30
0.0
 11
38.698
 21
90.1078788878
 31
0.0
 12
38.698
 22
89.0918788878
 32
0.0
 13
38.698
 23
89.0918788878
 33
0.0
  0
SOLID
  5
104
330
100
100
AcDbEntity
  8
SK2
100
AcDbTrace
 10
-48.0
 20
89.5998788878
 30
0.0
 11
-44.698
 21
89.0918788878
 31
0.0
 12
-44.698
 22
90.1078788878
 32
0.0
 13
-44.698
 23
90.1078788878
 33
0.0
  0
LINE
  5
105
330
100
100
AcDbEntity
  8
SK2
100
AcDbLine
 10
42.0
 20
8.0
 30
0.0
 11
42.0
 21
90.5998788878
 31
0.0
  0
LINE
  5
106
330
100
100
AcDbEntity
  8
SK2
100
AcDbLine
 10
-48.0
 20
9.0
 30
0.0
 11
-48.0
 21
90.5998788878
 31
0.0
  0
LINE
  5
107
330
100
100
AcDbEntity
  8
SK2
100
AcDbLine
 10
42.0
 20
89.5998788878
 30
0.0
 11
-48.0
 21
89.5998788878
 31
0.0
  0
MTEXT
  5
108
330
100
100
AcDbEntity
  8
SK2
100
AcDbMText
 10
-3.7188063868
 20
94.2065623432
 30
0.0
 40
3.5
 41
0.0
 71
     1
 72
     1
  1
90
  7
SLDTEXTSTYLE0
 73
     1
 44
1.0
  0
ENDBLK
  5
102
330
100
100
AcDbEntity
  8
0
100
AcDbBlockEnd
  0
BLOCK
  5
10C
330
10B
100
AcDbEntity
  8
0
100
AcDbBlockBegin
  2
*D4
 70
     1
 10
0.0
 20
0.0
 30
0.0
  3
*D4
  1

  0
SOLID
  5
10E
330
10B
100
AcDbEntity
  8
SK2
100
AcDbTrace
 10
0.0
 20
48.7509423314
 30
0.0
 11
-3.302
 21
49.2589423314
 31
0.0
 12
-3.302
 22
48.2429423314
 32
0.0
 13
-3.302
 23
48.2429423314
 33
0.0
  0
SOLID
  5
10F
330
10B
100
AcDbEntity
  8
SK2
100
AcDbTrace
 10
-48.0
 20
48.7509423314
 30
0.0
 11
-44.698
 21
48.2429423314
 31
0.0
 12
-44.698
 22
49.2589423314
 32
0.0
 13
-44.698
 23
49.2589423314
 33
0.0
  0
LINE
  5
110
330
10B
100
AcDbEntity
  8
SK2
100
AcDbLine
 10
0.0
 20
1.0
 30
0.0
 11
0.0
 21
49.7509423314
 31
0.0
  0
LINE
  5
111
330
10B
100
AcDbEntity
  8
SK2
100
AcDbLine
 10
-48.0
 20
1.0
 30
0.0
 11
-48.0
 21
49.7509423314
 31
0.0
  0
LINE
  5
112
330
10B
100
AcDbEntity
  8
SK2
100
AcDbLine
 10
0.0
 20
48.7509423314
 30
0.0
 11
-48.0
 21
48.7509423314
 31
0.0
  0
MTEXT
  5
113
330
10B
100
AcDbEntity
  8
SK2
100
AcDbMText
 10
-27.9671899027
 20
53.3576257868
 30
0.0
 40
3.5
 41
0.0
 71
     1
 72
     1
  1
48
  7
SLDTEXTSTYLE0
 73
     1
 44
1.0
  0
ENDBLK
  5
10D
330
10B
100
AcDbEntity
  8
0
100
AcDbBlockEnd
  0
BLOCK
  5
116
330
115
100
AcDbEntity
  8
0
100
AcDbBlockBegin
  2
*D5
 70
     1
 10
0.0
 20
0.0
 30
0.0
  3
*D5
  1

  0
SOLID
  5
118
330
115
100
AcDbEntity
  8
SK2
100
AcDbTrace
 10
-1.0
 20
60.7509423314
 30
0.0
 11
2.302
 21
60.2429423314
 31
0.0
 12
2.302
 22
61.2589423314
 32
0.0
 13
2.302
 23
61.2589423314
 33
0.0
  0
SOLID
  5
119
330
115
100
AcDbEntity
  8
SK2
100
AcDbTrace
 10
42.0
 20
60.7509423314
 30
0.0
 11
38.698
 21
61.2589423314
 31
0.0
 12
38.698
 22
60.2429423314
 32
0.0
 13
38.698
 23
60.2429423314
 33
0.0
  0
LINE
  5
11A
330
115
100
AcDbEntity
  8
SK2
100
AcDbLine
 10
-1.0
 20
8.5
 30
0.0
 11
-1.0
 21
61.7509423314
 31
0.0
  0
LINE
  5
11B
330
115
100
AcDbEntity
  8
SK2
100
AcDbLine
 10
42.0
 20
9.0
 30
0.0
 11
42.0
 21
61.7509423314
 31
0.0
  0
LINE
  5
11C
330
115
100
AcDbEntity
  8
SK2
100
AcDbLine
 10
-1.0
 20
60.7509423314
 30
0.0
 11
42.0
 21
60.7509423314
 31
0.0
  0
MTEXT
  5
11D
330
115
100
AcDbEntity
  8
SK2
100
AcDbMText
 10
16.5865129093
 20
65.3576257868
 30
0.0
 40
3.5
 41
0.0
 71
     1
 72
     1
  1
43
  7
SLDTEXTSTYLE0
 73
     1
 44
1.0
  0
ENDBLK
  5
117
330
115
100
AcDbEntity
  8
0
100
AcDbBlockEnd
  0
BLOCK
  5
121
330
120
100
AcDbEntity
  8
0
100
AcDbBlockBegin
  2
*D6
 70
     1
 10
0.0
 20
0.0
 30
0.0
  3
*D6
  1

  0
SOLID
  5
123
330
120
100
AcDbEntity
  8
SK2
100
AcDbTrace
 10
42.0
 20
48.7509423314
 30
0.0
 11
45.302
 21
48.2429423314
 31
0.0
 12
45.302
 22
49.2589423314
 32
0.0
 13
45.302
 23
49.2589423314
 33
0.0
  0
SOLID
  5
124
330
120
100
AcDbEntity
  8
SK2
100
AcDbTrace
 10
25.0
 20
48.7509423314
 30
0.0
 11
21.698
 21
49.2589423314
 31
0.0
 12
21.698
 22
48.2429423314
 32
0.0
 13
21.698
 23
48.2429423314
 33
0.0
  0
LINE
  5
125
330
120
100
AcDbEntity
  8
SK2
100
AcDbLine
 10
42.0
 20
9.0
 30
0.0
 11
42.0
 21
49.7509423314
 31
0.0
  0
LINE
  5
126
330
120
100
AcDbEntity
  8
SK2
100
AcDbLine
 10
25.0
 20
5.8
 30
0.0
 11
25.0
 21
49.7509423314
 31
0.0
  0
LINE
  5
127
330
120
100
AcDbEntity
  8
SK2
100
AcDbLine
 10
42.0
 20
48.7509423314
 30
0.0
 11
48.35
 21
48.7509423314
 31
0.0
  0
LINE
  5
128
330
120
100
AcDbEntity
  8
SK2
100
AcDbLine
 10
42.0
 20
48.7509423314
 30
0.0
 11
25.0
 21
48.7509423314
 31
0.0
  0
LINE
  5
129
330
120
100
AcDbEntity
  8
SK2
100
AcDbLine
 10
25.0
 20
48.7509423314
 30
0.0
 11
18.65
 21
48.7509423314
 31
0.0
  0
MTEXT
  5
12A
330
120
100
AcDbEntity
  8
SK2
100
AcDbMText
 10
30.5120754544
 20
53.3576257868
 30
0.0
 40
3.5
 41
0.0
 71
     1
 72
     1
  1
17
  7
SLDTEXTSTYLE0
 73
     1
 44
1.0
  0
ENDBLK
  5
122
330
120
100
AcDbEntity
  8
0
100
AcDbBlockEnd
  0
BLOCK
  5
12D
330
12C
100
AcDbEntity
  8
0
100
AcDbBlockBegin
  2
*D7
 70
     1
 10
0.0
 20
0.0
 30
0.0
  3
*D7
  1

  0
SOLID
  5
12F
330
12C
100
AcDbEntity
  8
SK2
100
AcDbTrace
 10
-12.9960344536
 20
7.5
 30
0.0
 11
-13.5040344536
 21
4.198
 31
0.0
 12
-12.4880344536
 22
4.198
 32
0.0
 13
-12.4880344536
 23
4.198
 33
0.0
  0
SOLID
  5
130
330
12C
100
AcDbEntity
  8
SK2
100
AcDbTrace
 10
-12.9960344536
 20
-7.5
 30
0.0
 11
-12.4880344536
 21
-4.198
 31
0.0
 12
-13.5040344536
 22
-4.198
 32
0.0
 13
-13.5040344536
 23
-4.198
 33
0.0
  0
LINE
  5
131
330
12C
100
AcDbEntity
  8
SK2
100
AcDbLine
 10
-2.0
 20
7.5
 30
0.0
 11
-13.9960344536
 21
7.5
 31
0.0
  0
LINE
  5
132
330
12C
100
AcDbEntity
  8
SK2
100
AcDbLine
 10
-2.0
 20
-7.5
 30
0.0
 11
-13.9960344536
 21
-7.5
 31
0.0
  0
LINE
  5
133
330
12C
100
AcDbEntity
  8
SK2
100
AcDbLine
 10
-12.9960344536
 20
7.5
 30
0.0
 11
-12.9960344536
 21
73.343151644
 31
0.0
  0
LINE
  5
134
330
12C
100
AcDbEntity
  8
SK2
100
AcDbLine
 10
-12.9960344536
 20
7.5
 30
0.0
 11
-12.9960344536
 21
-7.5
 31
0.0
  0
MTEXT
  5
135
330
12C
100
AcDbEntity
  8
SK2
100
AcDbMText
 10
-17.6027181418
 20
60.9544683377
 30
0.0
 40
3.5
 41
0.0
 71
     1
 72
     1
  1
%%c
  7
SLDTEXTSTYLE0
 11
-7.044195017643634E-15
 21
1.0
 31
0.0
 73
     1
 44
1.0
  0
MTEXT
  5
136
330
12C
100
AcDbEntity
  8
SK2
100
AcDbMText
 10
-17.602717909
 20
66.2044935768
 30
0.0
 40
3.5
 41
0.0
 71
     1
 72
     1
  1
15
  7
SLDTEXTSTYLE0
 11
-7.044195017643634E-15
 21
1.0
 31
0.0
 73
     1
 44
1.0
  0
ENDBLK
  5
12E
330
12C
100
AcDbEntity
  8
0
100
AcDbBlockEnd
  0
BLOCK
  5
139
330
138
100
AcDbEntity
  8
0
100
AcDbBlockBegin
  2
*D8
 70
     1
 10
0.0
 20
0.0
 30
0.0
  3
*D8
  1

  0
SOLID
  5
13B
330
138
100
AcDbEntity
  8
2
100
AcDbTrace
 10
0.0
 20
77.4999940533
 30
0.0
 11
3.302
 21
76.9919940533
 31
0.0
 12
3.302
 22
78.0079940533
 32
0.0
 13
3.302
 23
78.0079940533
 33
0.0
  0
SOLID
  5
13C
330
138
100
AcDbEntity
  8
2
100
AcDbTrace
 10
42.0
 20
77.4999940533
 30
0.0
 11
38.698
 21
78.0079940533
 31
0.0
 12
38.698
 22
76.9919940533
 32
0.0
 13
38.698
 23
76.9919940533
 33
0.0
  0
LINE
  5
13D
330
138
100
AcDbEntity
  8
2
100
AcDbLine
 10
0.0
 20
5.0
 30
0.0
 11
0.0
 21
78.4999940533
 31
0.0
  0
LINE
  5
13E
330
138
100
AcDbEntity
  8
2
100
AcDbLine
 10
42.0
 20
9.0
 30
0.0
 11
42.0
 21
78.4999940533
 31
0.0
  0
LINE
  5
13F
330
138
100
AcDbEntity
  8
2
100
AcDbLine
 10
0.0
 20
77.4999940533
 30
0.0
 11
42.0
 21
77.4999940533
 31
0.0
  0
MTEXT
  5
140
330
138
100
AcDbEntity
  8
2
100
AcDbMText
 10
17.8100064349
 20
82.1066775087
 30
0.0
 40
3.5
 41
0.0
 71
     1
 72
     1
  1
42
  7
SLDTEXTSTYLE0
 73
     1
 44
1.0
  0
ENDBLK
  5
13A
330
138
100
AcDbEntity
  8
0
100
AcDbBlockEnd
  0
BLOCK
  5
143
330
142
100
AcDbEntity
  8
0
100
AcDbBlockBegin
  2
*D9
 70
     1
 10
0.0
 20
0.0
 30
0.0
  3
*D9
  1

  0
SOLID
  5
145
330
142
100
AcDbEntity
  8
SK2
100
AcDbTrace
 10
-49.7386612653
 20
8.0
 30
0.0
 11
-50.2466612653
 21
4.698
 31
0.0
 12
-49.2306612653
 22
4.698
 32
0.0
 13
-49.2306612653
 23
4.698
 33
0.0
  0
SOLID
  5
146
330
142
100
AcDbEntity
  8
SK2
100
AcDbTrace
 10
-49.7386612653
 20
-8.0
 30
0.0
 11
-49.2306612653
 21
-4.698
 31
0.0
 12
-50.2466612653
 22
-4.698
 32
0.0
 13
-50.2466612653
 23
-4.698
 33
0.0
  0
LINE
  5
147
330
142
100
AcDbEntity
  8
SK2
100
AcDbLine
 10
-49.0
 20
8.0
 30
0.0
 11
-50.7386612653
 21
8.0
 31
0.0
  0
LINE
  5
148
330
142
100
AcDbEntity
  8
SK2
100
AcDbLine
 10
-49.0
 20
-8.0
 30
0.0
 11
-50.7386612653
 21
-8.0
 31
0.0
  0
LINE
  5
149
330
142
100
AcDbEntity
  8
SK2
100
AcDbLine
 10
-49.7386612653
 20
8.0
 30
0.0
 11
-49.7386612653
 21
40.0181659597
 31
0.0
  0
LINE
  5
14A
330
142
100
AcDbEntity
  8
SK2
100
AcDbLine
 10
-49.7386612653
 20
8.0
 30
0.0
 11
-49.7386612653
 21
-8.0
 31
0.0
  0
MTEXT
  5
14B
330
142
100
AcDbEntity
  8
SK2
100
AcDbMText
 10
-54.3453449535
 20
27.6294826534
 30
0.0
 40
3.5
 41
0.0
 71
     1
 72
     1
  1
%%c
  7
SLDTEXTSTYLE0
 11
-7.044195017643634E-15
 21
1.0
 31
0.0
 73
     1
 44
1.0
  0
MTEXT
  5
14C
330
142
100
AcDbEntity
  8
SK2
100
AcDbMText
 10
-54.3453447206
 20
32.8795078925
 30
0.0
 40
3.5
 41
0.0
 71
     1
 72
     1
  1
16
  7
SLDTEXTSTYLE0
 11
-7.044195017643634E-15
 21
1.0
 31
0.0
 73
     1
 44
1.0
  0
ENDBLK
  5
144
330
142
100
AcDbEntity
  8
0
100
AcDbBlockEnd
  0
BLOCK
  5
14E
330
14D
100
AcDbEntity
  8
0
100
AcDbBlockBegin
  2
SW_NOTE_0
 70
     0
 10
0.0
 20
0.0
 30
0.0
  3
SW_NOTE_0
  1

  0
MTEXT
  5
150
330
14D
100
AcDbEntity
  8
INFTEXT63
 62
     0
100
AcDbMText
 10
0.0
 20
4.6066838046
 30
0.0
 40
3.5
 41
0.0
 71
     1
 72
     1
  1
Katalogware 2570180015
  7
SLDTEXTSTYLE0
 73
     1
 44
1.0
  0
MTEXT
  5
151
330
14D
100
AcDbEntity
  8
INFTEXT63
 62
     0
100
AcDbMText
 10
0.0
 20
0.0177948465
 30
0.0
 40
3.5
 41
0.0
 71
     1
 72
     1
  1
H. Sartorius Nachf. GmbH & Co. KG
  7
SLDTEXTSTYLE0
 73
     1
 44
1.0
  0
MTEXT
  5
152
330
14D
100
AcDbEntity
  8
INFTEXT63
 62
     0
100
AcDbMText
 10
0.0
 20
-4.5710941116
 30
0.0
 40
3.5
 41
0.0
 71
     1
 72
     1
  1
Harkortstrasse 54 
  7
SLDTEXTSTYLE0
 73
     1
 44
1.0
  0
MTEXT
  5
153
330
14D
100
AcDbEntity
  8
INFTEXT63
 62
     0
100
AcDbMText
 10
0.0
 20
-9.1599830697
 30
0.0
 40
3.5
 41
0.0
 71
     1
 72
     1
  1
40880 Ratingen
  7
SLDTEXTSTYLE0
 73
     1
 44
1.0
  0
MTEXT
  5
154
330
14D
100
AcDbEntity
  8
INFTEXT63
 62
     0
100
AcDbMText
 10
0.0
 20
-13.7488720278
 30
0.0
 40
3.5
 41
0.0
 71
     1
 72
     1
  1
Deutschland
  7
SLDTEXTSTYLE0
 73
     1
 44
1.0
  0
ENDBLK
  5
14F
330
14D
100
AcDbEntity
  8
0
100
AcDbBlockEnd
  0
BLOCK
  5
157
330
156
100
AcDbEntity
  8
0
100
AcDbBlockBegin
  2
SW_NOTE_1
 70
     0
 10
0.0
 20
0.0
 30
0.0
  3
SW_NOTE_1
  1

  0
MTEXT
  5
159
330
156
100
AcDbEntity
  8
INFTEXT63
 62
     0
100
AcDbMText
 10
0.0
 20
4.6066838046
 30
0.0
 40
3.5
 41
0.0
 71
     1
 72
     1
  1
Copyright
  7
SLDTEXTSTYLE0
 73
     1
 44
1.0
  0
MTEXT
  5
15A
330
156
100
AcDbEntity
  8
INFTEXT63
 62
     0
100
AcDbMText
 10
0.0
 20
-4.5710941116
 30
0.0
 40
3.5
 41
0.0
 71
     1
 72
     1
  1
Zeichnung nach DIN SPEC 69874 konvertiert mit SolidBMG Version 1.2
  7
SLDTEXTSTYLE0
 73
     1
 44
1.0
  0
MTEXT
  5
15B
330
156
100
AcDbEntity
  8
INFTEXT63
 62
     0
100
AcDbMText
 10
0.0
 20
-9.1599830697
 30
0.0
 40
3.5
 41
0.0
 71
     1
 72
     1
  1
Geprüft mit DWPTools V1.0.6-BMG Werkzeug / Schneidwerkzeug
  7
SLDTEXTSTYLE0
 73
     1
 44
1.0
  0
ENDBLK
  5
158
330
156
100
AcDbEntity
  8
0
100
AcDbBlockEnd
  0
ENDSEC
  0
SECTION
  2
ENTITIES
  0
LINE
  5
58
330
1F
100
AcDbEntity
  8
SK1
  6
Continuous
370
    15
100
AcDbLine
 10
-48.0
 20
-8.0
 30
0.0
 11
-2.8660254038
 21
-8.0
 31
0.0
  0
LINE
  5
59
330
1F
100
AcDbEntity
  8
SK1
  6
Continuous
370
    15
100
AcDbLine
 10
-2.8660254038
 20
8.0
 30
0.0
 11
-48.0
 21
8.0
 31
0.0
  0
LINE
  5
5A
330
1F
100
AcDbEntity
  8
SK1
  6
Continuous
370
    15
100
AcDbLine
 10
-2.8660254038
 20
-8.0
 30
0.0
 11
-1.0
 21
-7.5
 31
0.0
  0
LINE
  5
5B
330
1F
100
AcDbEntity
  8
SK1
  6
Continuous
370
    15
100
AcDbLine
 10
-1.0
 20
7.5
 30
0.0
 11
-2.8660254038
 21
8.0
 31
0.0
  0
LINE
  5
5C
330
1F
100
AcDbEntity
  8
SK1
  6
Continuous
370
    15
100
AcDbLine
 10
-1.0
 20
-7.5
 30
0.0
 11
0.0
 21
-7.5
 31
0.0
  0
LINE
  5
5D
330
1F
100
AcDbEntity
  8
SK1
  6
Continuous
370
    15
100
AcDbLine
 10
0.0
 20
7.5
 30
0.0
 11
-1.0
 21
7.5
 31
0.0
  0
LINE
  5
5E
330
1F
100
AcDbEntity
  8
1
  6
Continuous
370
    15
100
AcDbLine
 10
29.1934452708
 20
8.0
 30
0.0
 11
25.0
 21
8.0
 31
0.0
  0
SPLINE
  5
5F
330
1F
100
AcDbEntity
  8
1
  6
Continuous
370
    15
100
AcDbSpline
210
0.0
220
0.0
230
1.0
 70
     8
 71
     3
 72
    14
 73
    10
 74
     0
 42
0.00000001
 43
0.00000001
 40
0.0
 40
0.0
 40
0.0
 40
0.0
 40
0.1080650719820693
 40
0.2109140559763608
 40
0.3121114611443652
 40
0.4198975977843115
 40
0.571873625211511
 40
0.7729323206468871
 40
1.0
 40
1.0
 40
1.0
 40
1.0
 10
40.47161468658344
 20
5.398598938720642
 30
0.0
 10
40.34589899910882
 20
5.42354004927437
 30
0.0
 10
40.1005356725612
 20
5.47221841214368
 30
0.0
 10
39.71340870206791
 20
5.562049723662377
 30
0.0
 10
39.33430422263645
 20
5.656728973520158
 30
0.0
 10
38.89511299156252
 20
5.775694497971337
 30
0.0
 10
38.3381568161228
 20
5.941063776162988
 30
0.0
 10
37.639024933389
 20
6.169824639391686
 30
0.0
 10
37.12597006049374
 20
6.365668210066028
 30
0.0
 10
36.85385839854185
 20
6.469538813999786
 30
0.0
  0
LINE
  5
60
330
1F
100
AcDbEntity
  8
1
  6
Continuous
370
    15
100
AcDbLine
 10
25.0
 20
-8.0
 30
0.0
 11
29.1934452708
 21
-8.0
 31
0.0
  0
LINE
  5
61
330
1F
100
AcDbEntity
  8
1
  6
Continuous
370
    15
100
AcDbLine
 10
0.0
 20
-7.5
 30
0.0
 11
21.7479180431
 21
-7.5
 31
0.0
  0
LINE
  5
62
330
1F
100
AcDbEntity
  8
1
  6
Continuous
370
    15
100
AcDbLine
 10
21.7479180431
 20
7.5
 30
0.0
 11
0.0
 21
7.5
 31
0.0
  0
LINE
  5
63
330
1F
100
AcDbEntity
  8
SK1
  6
Continuous
370
    15
100
AcDbLine
 10
-2.8660254038
 20
0.0
 30
0.0
 11
-2.8660254038
 21
8.0
 31
0.0
  0
LINE
  5
64
330
1F
100
AcDbEntity
  8
SK1
  6
Continuous
370
    15
100
AcDbLine
 10
-2.8660254038
 20
-8.0
 30
0.0
 11
-2.8660254038
 21
0.0
 31
0.0
  0
LINE
  5
65
330
1F
100
AcDbEntity
  8
SK1
  6
Continuous
370
    15
100
AcDbLine
 10
-48.0
 20
0.0
 30
0.0
 11
-48.0
 21
8.0
 31
0.0
  0
LINE
  5
66
330
1F
100
AcDbEntity
  8
SK1
  6
Continuous
370
    15
100
AcDbLine
 10
-48.0
 20
-8.0
 30
0.0
 11
-48.0
 21
0.0
 31
0.0
  0
LINE
  5
67
330
1F
100
AcDbEntity
  8
SK1
  6
Continuous
370
    15
100
AcDbLine
 10
-1.0
 20
0.0
 30
0.0
 11
-1.0
 21
7.5
 31
0.0
  0
LINE
  5
68
330
1F
100
AcDbEntity
  8
SK1
  6
Continuous
370
    15
100
AcDbLine
 10
-1.0
 20
-7.5
 30
0.0
 11
-1.0
 21
0.0
 31
0.0
  0
LINE
  5
69
330
1F
100
AcDbEntity
  8
SK1
  6
Continuous
370
    15
100
AcDbLine
 10
0.0
 20
7.5
 30
0.0
 11
0.0
 21
-7.5
 31
0.0
  0
LINE
  5
6A
330
1F
100
AcDbEntity
  8
1
  6
Continuous
370
    15
100
AcDbLine
 10
25.0
 20
7.5064575
 30
0.0
 11
25.0
 21
8.0
 31
0.0
  0
SPLINE
  5
6B
330
1F
100
AcDbEntity
  8
1
  6
Continuous
370
    15
100
AcDbSpline
210
0.0
220
0.0
230
1.0
 70
     8
 71
     3
 72
    18
 73
    14
 74
     0
 42
0.00000001
 43
0.00000001
 40
0.0
 40
0.0
 40
0.0
 40
0.0
 40
0.2500000000000003
 40
0.2500000000000003
 40
0.3750000000000004
 40
0.3750000000000004
 40
0.5000000000000006
 40
0.5000000000000006
 40
0.7500000000000008
 40
0.7500000000000008
 40
0.8750000000000003
 40
0.8750000000000003
 40
1.0
 40
1.0
 40
1.0
 40
1.0
 10
24.99999999999999
 20
8.000000000000021
 30
0.0
 10
26.3437901498132
 20
8.000000000000005
 30
0.0
 10
27.66898196080303
 20
7.853224666013415
 30
0.0
 10
29.6620132573309
 20
7.428481587251595
 30
0.0
 10
30.32720734910178
 20
7.252765827094573
 30
0.0
 10
31.66456511648774
 20
6.834954708148563
 30
0.0
 10
32.33780543952684
 20
6.592095557604759
 30
0.0
 10
34.33784855928637
 20
5.784492767498559
 30
0.0
 10
35.65775827175667
 20
5.13758140685252
 30
0.0
 10
37.64917986814184
 20
4.042167640111
 30
0.0
 10
38.31493670163979
 20
3.65618094567641
 30
0.0
 10
39.65595818607027
 20
2.848845765767588
 30
0.0
 10
40.32811515339461
 20
2.429284514067314
 30
0.0
 10
41.0
 20
2.000542796254098
 30
0.0
  0
SPLINE
  5
6C
330
1F
100
AcDbEntity
  8
1
  6
Continuous
370
    15
100
AcDbSpline
210
0.0
220
0.0
230
1.0
 70
     8
 71
     3
 72
    14
 73
    10
 74
     0
 42
0.00000001
 43
0.00000001
 40
0.0
 40
0.0
 40
0.0
 40
0.0
 40
0.25
 40
0.25
 40
0.5
 40
0.5
 40
0.75
 40
0.75
 40
1.0
 40
1.0
 40
1.0
 40
1.0
 10
40.99999999999999
 20
2.000542796254103
 30
0.0
 10
41.12096760625784
 20
1.923351206700059
 30
0.0
 10
41.23830987178378
 20
1.84284572974193
 30
0.0
 10
41.46726118704475
 20
1.677583553628694
 30
0.0
 10
41.57632062606854
 20
1.594537028017987
 30
0.0
 10
41.76803947306785
 20
1.440296374234769
 30
0.0
 10
41.85112147092
 20
1.368788798781494
 30
0.0
 10
41.96815457701081
 20
1.252842361721282
 30
0.0
 10
42.00000000000096
 20
1.210463024487911
 30
0.0
 10
42.00000000000097
 20
1.185602332054699
 30
0.0
  0
SPLINE
  5
6D
330
1F
100
AcDbEntity
  8
1
  6
Continuous
370
    15
100
AcDbSpline
210
0.0
220
0.0
230
1.0
 70
     8
 71
     3
 72
    16
 73
    12
 74
     0
 42
0.00000001
 43
0.00000001
 40
0.0
 40
0.0
 40
0.0
 40
0.0
 40
0.2500000000000024
 40
0.2500000000000024
 40
0.3750000000000027
 40
0.3750000000000027
 40
0.5000000000000029
 40
0.5000000000000029
 40
0.7500000000000014
 40
0.7500000000000014
 40
1.0
 40
1.0
 40
1.0
 40
1.0
 10
41.99999999999999
 20
1.185602332054964
 30
0.0
 10
41.99897828195932
 20
1.166199728605428
 30
0.0
 10
41.99795656953735
 20
1.146769607541473
 30
0.0
 10
41.99642400920093
 20
1.117583187888094
 30
0.0
 10
41.99591291330491
 20
1.109127797069951
 30
0.0
 10
41.99489202562982
 20
1.085362674362241
 30
0.0
 10
41.99438082221657
 20
1.069456292981026
 30
0.0
 10
41.99285977172614
 20
1.010560004086915
 30
0.0
 10
41.99189083585182
 20
0.9578320805400599
 30
0.0
 10
41.99004367626384
 20
0.8291070675628802
 30
0.0
 10
41.98916401592791
 20
0.7524430516153079
 30
0.0
 10
41.98837996746877
 20
0.6681168625457526
 30
0.0
  0
SPLINE
  5
6E
330
1F
100
AcDbEntity
  8
1
  6
Continuous
370
    15
100
AcDbSpline
210
0.0
220
0.0
230
1.0
 70
     8
 71
     3
 72
    10
 73
     6
 74
     0
 42
0.00000001
 43
0.00000001
 40
0.0
 40
0.0
 40
0.0
 40
0.0
 40
0.5
 40
0.5
 40
1.0
 40
1.0
 40
1.0
 40
1.0
 10
41.98837996745691
 20
0.6681168625486791
 30
0.0
 10
41.71978812320824
 20
0.7017007250635423
 30
0.0
 10
41.44573643300225
 20
0.739368187865438
 30
0.0
 10
40.8946400802189
 20
0.8178867774556869
 30
0.0
 10
40.61703040172047
 20
0.8589215799162697
 30
0.0
 10
40.33825437603709
 20
0.9009609209415628
 30
0.0
  0
SPLINE
  5
6F
330
1F
100
AcDbEntity
  8
1
  6
Continuous
370
    15
100
AcDbSpline
210
0.0
220
0.0
230
1.0
 70
     8
 71
     3
 72
    18
 73
    14
 74
     0
 42
0.00000001
 43
0.00000001
 40
0.0
 40
0.0
 40
0.0
 40
0.0
 40
0.0625
 40
0.0625
 40
0.125
 40
0.125
 40
0.25
 40
0.25
 40
0.5
 40
0.5
 40
0.75
 40
0.75
 40
1.0
 40
1.0
 40
1.0
 40
1.0
 10
40.33825437603709
 20
0.9009609209415653
 30
0.0
 10
40.35894581821234
 20
0.7476687134593737
 30
0.0
 10
40.37495507815526
 20
0.5912605937281051
 30
0.0
 10
40.39693739316171
 20
0.2717654314542877
 30
0.0
 10
40.40225275938836
 20
0.1102934509813287
 30
0.0
 10
40.40044421340156
 20
-0.3624285527669946
 30
0.0
 10
40.40305150496091
 20
-0.6790593170190352
 30
0.0
 10
40.42278150962526
 20
-1.633582339166907
 30
0.0
 10
40.45199421039027
 20
-2.274934778639487
 30
0.0
 10
40.54208569226012
 20
-3.539756952340703
 30
0.0
 10
40.60310010451217
 20
-4.167535932388236
 30
0.0
 10
40.75667423695911
 20
-5.405790857295474
 30
0.0
 10
40.84738126115838
 20
-6.00750789103036
 30
0.0
 10
40.95458504109763
 20
-6.588591558601274
 30
0.0
  0
SPLINE
  5
70
330
1F
100
AcDbEntity
  8
1
  6
Continuous
370
    15
100
AcDbSpline
210
0.0
220
0.0
230
1.0
 70
     8
 71
     3
 72
    30
 73
    26
 74
     0
 42
0.00000001
 43
0.00000001
 40
0.0
 40
0.0
 40
0.0
 40
0.0
 40
0.0625000000000003
 40
0.0625000000000003
 40
0.1250000000000007
 40
0.1250000000000007
 40
0.2500000000000004
 40
0.2500000000000004
 40
0.3125000000000002
 40
0.3125000000000002
 40
0.3750000000000001
 40
0.3750000000000001
 40
0.4999999999999998
 40
0.4999999999999998
 40
0.6249999999999994
 40
0.6249999999999994
 40
0.6874999999999993
 40
0.6874999999999993
 40
0.7499999999999992
 40
0.7499999999999992
 40
0.8749999999999993
 40
0.8749999999999993
 40
0.9374999999999997
 40
0.9374999999999997
 40
1.0
 40
1.0
 40
1.0
 40
1.0
 10
40.95458504109767
 20
-6.588591558601231
 30
0.0
 10
40.61848861708375
 20
-6.46458550730525
 30
0.0
 10
40.28094247288521
 20
-6.336084764187135
 30
0.0
 10
39.61154810163732
 20
-6.062230754453164
 30
0.0
 10
39.27934701314135
 20
-5.917076666301364
 30
0.0
 10
38.28698816082384
 20
-5.45949339099816
 30
0.0
 10
37.63110863889599
 20
-5.124613682094277
 30
0.0
 10
36.64111705441098
 20
-4.59452438035246
 30
0.0
 10
36.31007556968425
 20
-4.413289012788577
 30
0.0
 10
35.64348294906114
 20
-4.045379322795709
 30
0.0
 10
35.30700307744458
 20
-3.860089972556439
 30
0.0
 10
34.3017450148562
 20
-3.281438009617995
 30
0.0
 10
33.63267961144042
 20
-2.868777764979055
 30
0.0
 10
32.30827213093779
 20
-2.028102600712264
 30
0.0
 10
31.64962486025867
 20
-1.598591591390222
 30
0.0
 10
30.65407510668446
 20
-0.9604428447347633
 30
0.0
 10
30.32076287221595
 20
-0.7490791845661495
 30
0.0
 10
29.65939457549288
 20
-0.3165395394852333
 30
0.0
 10
29.33011876362135
 20
-0.0972091785809621
 30
0.0
 10
28.34295415545622
 20
0.5646330718592103
 30
0.0
 10
27.68573733588711
 20
1.011063171205163
 30
0.0
 10
26.68559653088724
 20
1.664183001734691
 30
0.0
 10
26.34983989586198
 20
1.879066184878442
 30
0.0
 10
25.67506491012143
 20
2.296885944677453
 30
0.0
 10
25.33639450635475
 20
2.501514964047806
 30
0.0
 10
25.0
 20
2.707067271004001
 30
0.0
  0
SPLINE
  5
71
330
1F
100
AcDbEntity
  8
1
  6
Continuous
370
    15
100
AcDbSpline
210
0.0
220
0.0
230
1.0
 70
    24
 71
     3
 72
     8
 73
     4
 74
     0
 42
0.00000001
 43
0.00000001
 40
0.0
 40
0.0
 40
0.0
 40
0.0
 40
1.0
 40
1.0
 40
1.0
 40
1.0
 10
24.99999999999999
 20
2.707067271004006
 30
0.0
 10
24.99999999999999
 20
2.868096835676982
 30
0.0
 10
24.99999999999998
 20
3.021498476492183
 30
0.0
 10
24.99999999999998
 20
3.167170141496093
 30
0.0
  0
SPLINE
  5
72
330
1F
100
AcDbEntity
  8
1
  6
Continuous
370
    15
100
AcDbSpline
210
0.0
220
0.0
230
1.0
 70
    24
 71
     3
 72
    22
 73
    18
 74
     0
 42
0.00000001
 43
0.00000001
 40
0.0
 40
0.0
 40
0.0
 40
0.0
 40
0.0625
 40
0.0625
 40
0.1249999999999999
 40
0.1249999999999999
 40
0.2500000000000001
 40
0.2500000000000001
 40
0.2812500000000001
 40
0.2812500000000001
 40
0.3125000000000001
 40
0.3125000000000001
 40
0.3750000000000001
 40
0.3750000000000001
 40
0.5
 40
0.5
 40
1.0
 40
1.0
 40
1.0
 40
1.0
 10
25.0
 20
6.520000000000011
 30
0.0
 10
25.0
 20
6.352756972650068
 30
0.0
 10
24.99999999999984
 20
6.18424474396573
 30
0.0
 10
24.99999999999984
 20
5.871987232209714
 30
0.0
 10
24.99999999999998
 20
5.725059585254177
 30
0.0
 10
24.99999999999999
 20
5.337182262875096
 30
0.0
 10
24.99999999999999
 20
5.147465833271558
 30
0.0
 10
24.99999999999999
 20
5.011041051527024
 30
0.0
 10
24.99999999999999
 20
4.988973999199985
 30
0.0
 10
24.99999999999998
 20
4.955428685078787
 30
0.0
 10
24.99999999999999
 20
4.946121457917929
 30
0.0
 10
24.99999999999999
 20
4.914744284035116
 30
0.0
 10
25.00000000000001
 20
4.890703571111049
 30
0.0
 10
25.00000000000001
 20
4.809243271246816
 30
0.0
 10
25.0
 20
4.742490068338625
 30
0.0
 10
25.0
 20
4.346498141709454
 30
0.0
 10
24.99999999999999
 20
3.842510691161188
 30
0.0
 10
24.99999999999999
 20
3.1671701414961
 30
0.0
  0
LINE
  5
73
330
1F
100
AcDbEntity
  8
1
  6
Continuous
370
    15
100
AcDbLine
 10
25.0
 20
6.52
 30
0.0
 11
25.0
 21
7.5
 31
0.0
  0
SPLINE
  5
74
330
1F
100
AcDbEntity
  8
1
  6
Continuous
370
    15
100
AcDbSpline
210
0.0
220
0.0
230
1.0
 70
     8
 71
     3
 72
    18
 73
    14
 74
     0
 42
0.00000001
 43
0.00000001
 40
0.0
 40
0.0
 40
0.0
 40
0.0
 40
0.2499999999999992
 40
0.2499999999999992
 40
0.3749999999999988
 40
0.3749999999999988
 40
0.4999999999999989
 40
0.4999999999999989
 40
0.7499999999999999
 40
0.7499999999999999
 40
0.8749999999999999
 40
0.8749999999999999
 40
1.0
 40
1.0
 40
1.0
 40
1.0
 10
24.99999999999999
 20
-0.0000000000000562
 30
0.0
 10
26.3437901498203
 20
-0.8855962627879695
 30
0.0
 10
27.6689819608064
 20
-1.758816956987812
 30
0.0
 10
29.66201325733079
 20
-3.001550431632826
 30
0.0
 10
30.32720734910118
 20
-3.404638826595658
 30
0.0
 10
31.66456511648696
 20
-4.180618592958878
 30
0.0
 10
32.33780543952636
 20
-4.553828963209383
 30
0.0
 10
34.33784855928656
 20
-5.595710114879802
 30
0.0
 10
35.65775827175506
 20
-6.194429172402952
 30
0.0
 10
37.64917986813894
 20
-6.917536023776276
 30
0.0
 10
38.31493670163688
 20
-7.129344742717847
 30
0.0
 10
39.65595818606879
 20
-7.488610910635895
 30
0.0
 10
40.3281151533946
 20
-7.635093839465055
 30
0.0
 10
40.99999999999999
 20
-7.745826522737524
 30
0.0
  0
SPLINE
  5
75
330
1F
100
AcDbEntity
  8
1
  6
Continuous
370
    15
100
AcDbSpline
210
0.0
220
0.0
230
1.0
 70
     8
 71
     3
 72
    14
 73
    10
 74
     0
 42
0.00000001
 43
0.00000001
 40
0.0
 40
0.0
 40
0.0
 40
0.0
 40
0.25
 40
0.25
 40
0.5
 40
0.5
 40
0.75
 40
0.75
 40
1.0
 40
1.0
 40
1.0
 40
1.0
 10
40.99999999999999
 20
-7.745826522737519
 30
0.0
 10
41.12096760625782
 20
-7.765763075403729
 30
0.0
 10
41.23830987178375
 20
-7.763492351768661
 30
0.0
 10
41.46726118704478
 20
-7.712559565638816
 30
0.0
 10
41.57632062606856
 20
-7.663527048934137
 30
0.0
 10
41.76803947306789
 20
-7.516861439336625
 30
0.0
 10
41.85112147092005
 20
-7.418402964362119
 30
0.0
 10
41.96815457701081
 20
-7.178849728793884
 30
0.0
 10
42.00000000000094
 20
-7.042390158140041
 30
0.0
 10
42.00000000000095
 20
-6.898865639380007
 30
0.0
  0
SPLINE
  5
76
330
1F
100
AcDbEntity
  8
1
  6
Continuous
370
    15
100
AcDbSpline
210
0.0
220
0.0
230
1.0
 70
     8
 71
     3
 72
    14
 73
    10
 74
     0
 42
0.00000001
 43
0.00000001
 40
0.0
 40
0.0
 40
0.0
 40
0.0
 40
0.0605914438959346
 40
0.2084640743274169
 40
0.367393651074881
 40
0.5274461283755569
 40
0.6910521965127009
 40
0.8559098541850065
 40
1.0
 40
1.0
 40
1.0
 40
1.0
 10
36.64260594012934
 20
-6.530785889927163
 30
0.0
 10
36.4084124539914
 20
-6.624279171811689
 30
0.0
 10
35.60267281218474
 20
-6.945941591630635
 30
0.0
 10
34.16033020304543
 20
-7.352852439244606
 30
0.0
 10
32.36485521293906
 20
-7.764465272112209
 30
0.0
 10
30.48245627847226
 20
-7.985131498058538
 30
0.0
 10
28.58925225002733
 20
-8.022972641772872
 30
0.0
 10
26.77399590997118
 20
-7.870369350840348
 30
0.0
 10
25.56422498321965
 20
-7.636937069928803
 30
0.0
 10
25.0
 20
-7.528066603737404
 30
0.0
  0
SPLINE
  5
77
330
1F
100
AcDbEntity
  8
1
  6
Continuous
370
    15
100
AcDbSpline
210
0.0
220
0.0
230
1.0
 70
    24
 71
     3
 72
     8
 73
     4
 74
     0
 42
0.00000001
 43
0.00000001
 40
0.0
 40
0.0
 40
0.0
 40
0.0
 40
1.0
 40
1.0
 40
1.0
 40
1.0
 10
24.99999999999999
 20
-7.5280666037374
 30
0.0
 10
24.99999999999999
 20
-7.288804896940825
 30
0.0
 10
24.99999999999999
 20
-7.045620161810962
 30
0.0
 10
24.99999999999999
 20
-6.798458155705487
 30
0.0
  0
SPLINE
  5
78
330
1F
100
AcDbEntity
  8
1
  6
Continuous
370
    15
100
AcDbSpline
210
0.0
220
0.0
230
1.0
 70
    24
 71
     3
 72
    22
 73
    18
 74
     0
 42
0.00000001
 43
0.00000001
 40
0.0
 40
0.0
 40
0.0
 40
0.0
 40
0.0625
 40
0.0625
 40
0.1249999999999999
 40
0.1249999999999999
 40
0.2500000000000001
 40
0.2500000000000001
 40
0.2812500000000001
 40
0.2812500000000001
 40
0.3125000000000001
 40
0.3125000000000001
 40
0.3750000000000001
 40
0.3750000000000001
 40
0.5
 40
0.5
 40
1.0
 40
1.0
 40
1.0
 40
1.0
 10
25.0
 20
-0.0000000000000428
 30
0.0
 10
25.0
 20
-0.0000000000000414
 30
0.0
 10
24.99999999999981
 20
-0.0343142768146956
 30
0.0
 10
24.9999999999998
 20
-0.1555680675933248
 30
0.0
 10
25.0
 20
-0.2432857195181304
 30
0.0
 10
25.00000000000001
 20
-0.5641701383658883
 30
0.0
 10
25.00000000000001
 20
-0.8585492826620583
 30
0.0
 10
25.00000000000001
 20
-1.255985047960941
 30
0.0
 10
25.0
 20
-1.336508979871775
 30
0.0
 10
24.99999999999999
 20
-1.499660798468585
 30
0.0
 10
25.0
 20
-1.582720061964726
 30
0.0
 10
25.00000000000001
 20
-1.831211258482299
 30
0.0
 10
24.99999999999999
 20
-1.99625160731404
 30
0.0
 10
24.99999999999999
 20
-2.489517194627298
 30
0.0
 10
24.99999999999999
 20
-2.815897989405713
 30
0.0
 10
24.99999999999999
 20
-4.435336624958254
 30
0.0
 10
24.99999999999999
 20
-5.652688300729701
 30
0.0
 10
24.99999999999999
 20
-6.798458155705463
 30
0.0
  0
LINE
  5
79
330
1F
100
AcDbEntity
  8
1
  6
Continuous
370
    15
100
AcDbLine
 10
41.0
 20
-7.7458265227
 30
0.0
 11
41.0
 21
-6.6770911606
 31
0.0
  0
ELLIPSE
  5
7A
330
1F
100
AcDbEntity
  8
1
  6
Continuous
370
    15
100
AcDbEllipse
 10
42.01
 20
0.0
 30
0.0
 11
-0.4718156230999924
 21
7.998670950970699
 31
0.0
210
0.0
220
0.0
230
1.0
 40
0.3090581047
 41
2.520251441407815
 42
2.540040328700532
  0
LINE
  5
7B
330
1F
100
AcDbEntity
  8
1
  6
Continuous
370
    15
100
AcDbLine
 10
25.0
 20
0.0
 30
0.0
 11
25.0
 21
2.707067271
 31
0.0
  0
LINE
  5
7C
330
1F
100
AcDbEntity
  8
1
  6
Continuous
370
    15
100
AcDbLine
 10
41.0
 20
2.0005427963
 30
0.0
 11
41.0
 21
4.4064105157
 31
0.0
  0
SPLINE
  5
7D
330
1F
100
AcDbEntity
  8
1
  6
Continuous
370
    15
100
AcDbSpline
210
0.0
220
0.0
230
1.0
 70
     8
 71
     3
 72
    14
 73
    10
 74
     0
 42
0.00000001
 43
0.00000001
 40
0.0
 40
0.0
 40
0.0
 40
0.0
 40
0.1402676687634883
 40
0.2813308564163527
 40
0.426795376552406
 40
0.5731550526932543
 40
0.7304585463423986
 40
0.8888734516221286
 40
1.0
 40
1.0
 40
1.0
 40
1.0
 10
40.95458504108301
 20
4.537671349305883
 30
0.0
 10
40.40065102942071
 20
4.823050643643652
 30
0.0
 10
39.28964140565724
 20
5.395427742281489
 30
0.0
 10
37.62960246531592
 20
6.170036682918822
 30
0.0
 10
35.93951431783093
 20
6.829969934577649
 30
0.0
 10
34.16091168208067
 20
7.359757387469782
 30
0.0
 10
32.36500851492667
 20
7.758476879969214
 30
0.0
 10
30.68159603536984
 20
7.976206640833308
 30
0.0
 10
29.62787384645035
 20
7.977972891082915
 30
0.0
 10
29.19344527075325
 20
7.978701080721828
 30
0.0
  0
ELLIPSE
  5
7E
330
1F
100
AcDbEntity
  8
1
  6
Continuous
370
    15
100
AcDbEllipse
 10
42.01
 20
0.0
 30
0.0
 11
-2.486410974845583
 21
7.999085553067085
 31
0.0
210
0.0
220
0.0
230
1.0
 40
0.04864676
 41
5.28059293471133
 42
5.300381822010463
  0
LINE
  5
7F
330
1F
100
AcDbEntity
  8
1
  6
Continuous
370
    15
100
AcDbLine
 10
42.0
 20
1.1856023321
 30
0.0
 11
42.0
 21
1.2180982989
 31
0.0
  0
SPLINE
  5
80
330
1F
100
AcDbEntity
  8
1
  6
Continuous
370
    15
100
AcDbSpline
210
0.0
220
0.0
230
1.0
 70
     8
 71
     3
 72
    18
 73
    14
 74
     0
 42
0.00000001
 43
0.00000001
 40
0.0
 40
0.0
 40
0.0
 40
0.0
 40
0.2500000000000003
 40
0.2500000000000003
 40
0.5000000000000006
 40
0.5000000000000006
 40
0.7500000000000009
 40
0.7500000000000009
 40
0.875000000000001
 40
0.875000000000001
 40
0.9375000000000004
 40
0.9375000000000004
 40
1.0
 40
1.0
 40
1.0
 40
1.0
 10
40.99999999999999
 20
4.406410515660489
 30
0.0
 10
41.08470134437844
 20
4.161061252333244
 30
0.0
 10
41.17122787697274
 20
3.905499169908144
 30
0.0
 10
41.34815623467291
 20
3.372690851594526
 30
0.0
 10
41.43933442429213
 20
3.093090784657803
 30
0.0
 10
41.62289618172861
 20
2.517709621292432
 30
0.0
 10
41.71535169111537
 20
2.221980305119096
 30
0.0
 10
41.84578781538949
 20
1.789648634275119
 30
0.0
 10
41.88888249165828
 20
1.644156295456201
 30
0.0
 10
41.94494449662604
 20
1.446243216225092
 30
0.0
 10
41.96264252249404
 20
1.382086694654671
 30
0.0
 10
41.99037332466905
 20
1.274124528502976
 30
0.0
 10
41.99999999999999
 20
1.231204551004234
 30
0.0
 10
42.00000000000001
 20
1.21809829891567
 30
0.0
  0
SPLINE
  5
81
330
1F
100
AcDbEntity
  8
1
  6
Continuous
370
    15
100
AcDbSpline
210
0.0
220
0.0
230
1.0
 70
     8
 71
     3
 72
    16
 73
    12
 74
     0
 42
0.00000001
 43
0.00000001
 40
0.0
 40
0.0
 40
0.0
 40
0.0
 40
0.2500000000000009
 40
0.2500000000000009
 40
0.3750000000000014
 40
0.3750000000000014
 40
0.5000000000000019
 40
0.5000000000000019
 40
0.7500000000000009
 40
0.7500000000000009
 40
1.0
 40
1.0
 40
1.0
 40
1.0
 10
41.99999999999999
 20
6.898865639379888
 30
0.0
 10
41.99897828195932
 20
6.783406474437934
 30
0.0
 10
41.99795656953737
 20
6.667952651007067
 30
0.0
 10
41.99642400920091
 20
6.494779920681505
 30
0.0
 10
41.99591291330484
 20
6.436808491256367
 30
0.0
 10
41.99489202562974
 20
6.322196146081865
 30
0.0
 10
41.99438082221648
 20
6.265496671526048
 30
0.0
 10
41.99285977172605
 20
6.098685216588705
 30
0.0
 10
41.99189083585173
 20
5.994944282686112
 30
0.0
 10
41.99004367626372
 20
5.800366886501616
 30
0.0
 10
41.98916401592785
 20
5.709429334015326
 30
0.0
 10
41.98837996746867
 20
5.628964541499515
 30
0.0
  0
LINE
  5
82
330
1F
100
AcDbEntity
  8
1
  6
Continuous
370
    15
100
AcDbLine
 10
42.0
 20
6.8988656394
 30
0.0
 11
42.0
 21
6.8932021974
 31
0.0
  0
SPLINE
  5
83
330
1F
100
AcDbEntity
  8
1
  6
Continuous
370
    15
100
AcDbSpline
210
0.0
220
0.0
230
1.0
 70
     8
 71
     3
 72
    11
 73
     7
 74
     0
 42
0.00000001
 43
0.00000001
 40
0.0
 40
0.0
 40
0.0
 40
0.0
 40
0.3130547942360288
 40
0.6302543225557011
 40
0.9474538759084037
 40
1.0
 40
1.0
 40
1.0
 40
1.0
 10
42.00000000000053
 20
6.893202197395998
 30
0.0
 10
41.99494731819815
 20
6.321759560799142
 30
0.0
 10
41.98477505888422
 20
5.171308590429222
 30
0.0
 10
41.96981533540782
 20
3.441998429204056
 30
0.0
 10
41.95805108374199
 20
2.187760917302868
 30
0.0
 10
41.95285128318217
 20
1.513180920904424
 30
0.0
 10
41.95211231750351
 20
1.417313500775351
 30
0.0
  0
LINE
  5
84
330
1F
100
AcDbEntity
  8
1
  6
Continuous
370
    15
100
AcDbLine
 10
41.9414270356
 20
0.0451957381
 30
0.0
 11
41.9410810791
 21
0.0007707904
 31
0.0
  0
LWPOLYLINE
  5
85
330
1F
100
AcDbEntity
  8
1
  6
Continuous
370
    15
100
AcDbPolyline
 90
        3
 70
   128
 43
0.0
 10
41.9545374564
 20
-0.2191466842
 10
41.9764124332
 20
-0.5093513982
 10
41.9883799675
 20
-0.6681168625
  0
SPLINE
  5
86
330
1F
100
AcDbEntity
  8
1
  6
Continuous
370
    15
100
AcDbSpline
210
0.0
220
0.0
230
1.0
 70
     8
 71
     3
 72
    16
 73
    12
 74
     0
 42
0.00000001
 43
0.00000001
 40
0.0
 40
0.0
 40
0.0
 40
0.0
 40
0.2499999999999978
 40
0.2499999999999978
 40
0.3749999999999976
 40
0.3749999999999976
 40
0.4999999999999973
 40
0.4999999999999973
 40
0.7499999999999987
 40
0.7499999999999987
 40
1.0
 40
1.0
 40
1.0
 40
1.0
 10
41.99999999999999
 20
-1.185602332051824
 30
0.0
 10
41.99897828195935
 20
-1.166199728602023
 30
0.0
 10
41.99795656953738
 20
-1.146769607537848
 30
0.0
 10
41.99642400920096
 20
-1.117583187884224
 30
0.0
 10
41.9959129133049
 20
-1.109127797065981
 30
0.0
 10
41.99489202562982
 20
-1.085362674358581
 30
0.0
 10
41.99438082221657
 20
-1.069456292977576
 30
0.0
 10
41.99285977172615
 20
-1.010560004084115
 30
0.0
 10
41.99189083585183
 20
-0.9578320805378157
 30
0.0
 10
41.99004367626385
 20
-0.8291070675619993
 30
0.0
 10
41.989164015928
 20
-0.7524430516151279
 30
0.0
 10
41.98837996746884
 20
-0.6681168625462914
 30
0.0
  0
LINE
  5
87
330
1F
100
AcDbEntity
  8
1
  6
Continuous
370
    15
100
AcDbLine
 10
42.0
 20
-1.1856023321
 30
0.0
 11
42.0
 21
-1.2180982989
 31
0.0
  0
LINE
  5
88
330
1F
100
AcDbEntity
  8
1
  6
Continuous
370
    15
100
AcDbLine
 10
42.0
 20
-6.8988656394
 30
0.0
 11
42.0
 21
-6.8932021974
 31
0.0
  0
SPLINE
  5
89
330
1F
100
AcDbEntity
  8
1
  6
Continuous
370
    15
100
AcDbSpline
210
0.0
220
0.0
230
1.0
 70
     8
 71
     3
 72
    14
 73
    10
 74
     0
 42
0.00000001
 43
0.00000001
 40
0.0
 40
0.0
 40
0.0
 40
0.0
 40
0.5
 40
0.5
 40
0.75
 40
0.75
 40
0.875
 40
0.875
 40
1.0
 40
1.0
 40
1.0
 40
1.0
 10
41.99999999999999
 20
-6.893202197395766
 30
0.0
 10
41.98982040718298
 20
-5.737980239984819
 30
0.0
 10
41.97964083111751
 20
-4.582758290050713
 30
0.0
 10
41.96439522808918
 20
-2.849935970611161
 30
0.0
 10
41.95931349083573
 20
-2.272328589010526
 30
0.0
 10
41.95173770660249
 20
-1.405938414876406
 30
0.0
 10
41.94921341100675
 20
-1.117142121244854
 30
0.0
 10
41.94428268295047
 20
-0.5396021407439806
 30
0.0
 10
41.94083074469902
 20
-0.2503802563409284
 30
0.0
 10
41.94083074469902
 20
0.0372776785316854
 30
0.0
  0
LWPOLYLINE
  5
8A
330
1F
100
AcDbEntity
  8
1
  6
Continuous
370
    15
100
AcDbPolyline
 90
        5
 70
   128
 43
0.0
 10
41.9408307447
 20
0.0372776785
 10
41.9412566499
 20
0.0429347837
 10
41.9482865037
 20
0.1362183253
 10
41.9764124332
 20
0.5093513982
 10
41.9883799675
 20
0.6681168625
  0
LWPOLYLINE
  5
8B
330
1F
100
AcDbEntity
  8
1
  6
Continuous
370
    15
100
AcDbPolyline
 90
        3
 70
   128
 43
0.0
 10
41.9513991628
 20
1.4198310294
 10
41.9764124332
 20
4.2668383345
 10
41.9883799675
 20
5.6289645415
  0
SPLINE
  5
8C
330
1F
100
AcDbEntity
  8
1
  6
Continuous
370
    15
100
AcDbSpline
210
0.0
220
0.0
230
1.0
 70
     8
 71
     3
 72
    10
 73
     6
 74
     0
 42
0.00000001
 43
0.00000001
 40
0.0
 40
0.0
 40
0.0
 40
0.0
 40
0.1662569859039432
 40
0.6035719230758916
 40
1.0
 40
1.0
 40
1.0
 40
1.0
 10
36.64260594012934
 20
6.530785889927162
 30
0.0
 10
36.88408405411094
 20
6.626792216963069
 30
0.0
 10
37.76073539507067
 20
6.975329291188594
 30
0.0
 10
39.21326709062852
 20
7.399083200579078
 30
0.0
 10
40.42421741462665
 20
7.634086953019984
 30
0.0
 10
40.99999999999999
 20
7.745826522737523
 30
0.0
  0
SPLINE
  5
8D
330
1F
100
AcDbEntity
  8
1
  6
Continuous
370
    15
100
AcDbSpline
210
0.0
220
0.0
230
1.0
 70
     8
 71
     3
 72
    14
 73
    10
 74
     0
 42
0.00000001
 43
0.00000001
 40
0.0
 40
0.0
 40
0.0
 40
0.0
 40
0.25
 40
0.25
 40
0.5
 40
0.5
 40
0.75
 40
0.75
 40
1.0
 40
1.0
 40
1.0
 40
1.0
 10
40.99999999999999
 20
7.745826522737519
 30
0.0
 10
41.12096760625782
 20
7.765763075403729
 30
0.0
 10
41.23830987178375
 20
7.763492351768658
 30
0.0
 10
41.46726118704478
 20
7.712559565638817
 30
0.0
 10
41.57632062606856
 20
7.663527048934138
 30
0.0
 10
41.76803947306789
 20
7.516861439336629
 30
0.0
 10
41.85112147092005
 20
7.418402964362123
 30
0.0
 10
41.96815457701083
 20
7.17884972879389
 30
0.0
 10
42.00000000000095
 20
7.042390158140043
 30
0.0
 10
42.00000000000097
 20
6.898865639380007
 30
0.0
  0
SPLINE
  5
8E
330
1F
100
AcDbEntity
  8
1
  6
Continuous
370
    15
100
AcDbSpline
210
0.0
220
0.0
230
1.0
 70
     8
 71
     3
 72
    10
 73
     6
 74
     0
 42
0.00000001
 43
0.00000001
 40
0.0
 40
0.0
 40
0.0
 40
0.0
 40
0.0160587694530102
 40
0.5863153446607156
 40
1.0
 40
1.0
 40
1.0
 40
1.0
 10
41.98837996745679
 20
5.628964541496424
 30
0.0
 10
41.98103589603873
 20
5.626237632347932
 30
0.0
 10
41.71289942535268
 20
5.526676536964206
 30
0.0
 10
41.24144674527849
 20
5.396352618717461
 30
0.0
 10
40.77022746835176
 20
5.315075002358969
 30
0.0
 10
40.57210975754468
 20
5.280902938351276
 30
0.0
  0
SPLINE
  5
8F
330
1F
100
AcDbEntity
  8
1
  6
Continuous
370
    15
100
AcDbSpline
210
0.0
220
0.0
230
1.0
 70
     8
 71
     3
 72
    11
 73
     7
 74
     0
 42
0.00000001
 43
0.00000001
 40
0.0
 40
0.0
 40
0.0
 40
0.0
 40
0.2106774399216928
 40
0.5398580566192087
 40
0.769957752397545
 40
1.0
 40
1.0
 40
1.0
 40
1.0
 10
40.46720503652489
 20
5.378005450911133
 30
0.0
 10
40.48412806664047
 20
5.376482082607025
 30
0.0
 10
40.52749309971518
 20
5.372578472175473
 30
0.0
 10
40.64539660318476
 20
5.183432885517016
 30
0.0
 10
40.79258855222691
 20
4.900065508885105
 30
0.0
 10
40.90059070611125
 20
4.658459347751403
 30
0.0
 10
40.95458504108301
 20
4.537671349305883
 30
0.0
  0
SPLINE
  5
90
330
1F
100
AcDbEntity
  8
1
  6
Continuous
370
    15
100
AcDbSpline
210
0.0
220
0.0
230
1.0
 70
     8
 71
     3
 72
    18
 73
    14
 74
     0
 42
0.00000001
 43
0.00000001
 40
0.0
 40
0.0
 40
0.0
 40
0.0
 40
0.2500000000000004
 40
0.2500000000000004
 40
0.5000000000000008
 40
0.5000000000000008
 40
0.7500000000000011
 40
0.7500000000000011
 40
0.8750000000000014
 40
0.8750000000000014
 40
0.9375000000000008
 40
0.9375000000000008
 40
1.0
 40
1.0
 40
1.0
 40
1.0
 10
40.99999999999997
 20
-6.677091160638439
 30
0.0
 10
41.08470134437842
 20
-6.839004417163666
 30
0.0
 10
41.1712278769727
 20
-6.975772806250099
 30
0.0
 10
41.34815623467291
 20
-7.195921273209797
 30
0.0
 10
41.43933442429212
 20
-7.280175176419696
 30
0.0
 10
41.62289618172861
 20
-7.377224319787923
 30
0.0
 10
41.71535169111537
 20
-7.391669421439794
 30
0.0
 10
41.8457878153895
 20
-7.324174206665166
 30
0.0
 10
41.88888249165829
 20
-7.286443227219686
 30
0.0
 10
41.94494449662603
 20
-7.187125899057808
 30
0.0
 10
41.96264252249403
 20
-7.146018640371646
 30
0.0
 10
41.99037332466905
 20
-7.038382468699807
 30
0.0
 10
41.99999999999997
 20
-6.969387674975897
 30
0.0
 10
42.00000000000001
 20
-6.893202197395865
 30
0.0
  0
LINE
  5
91
330
1F
100
AcDbEntity
  8
1
  6
Continuous
370
    15
100
AcDbLine
 10
40.338254376
 20
0.9009609209
 30
0.0
 11
41.9408307447
 21
0.0372776785
 31
0.0
  0
LINE
  5
92
330
1F
100
AcDbEntity
  8
1
  6
Continuous
370
    15
100
AcDbLine
 10
25.0
 20
-8.0
 30
0.0
 11
25.0
 21
-7.5280666037
 31
0.0
  0
SPLINE
  5
93
330
1F
100
AcDbEntity
  8
1
  6
Continuous
370
    15
100
AcDbSpline
210
0.0
220
0.0
230
1.0
 70
     8
 71
     3
 72
    11
 73
     7
 74
     0
 42
0.00000001
 43
0.00000001
 40
0.0
 40
0.0
 40
0.0
 40
0.0
 40
0.1616841046005746
 40
0.5321011762719555
 40
0.9058819312020133
 40
1.0
 40
1.0
 40
1.0
 40
1.0
 10
41.95211231750352
 20
-1.417313500775403
 30
0.0
 10
41.95682888828556
 20
-1.400840569847907
 30
0.0
 10
41.97235108737426
 20
-1.346628277645026
 30
0.0
 10
41.98914945565453
 20
-1.278519887471851
 30
0.0
 10
41.99938120524697
 20
-1.230963092350474
 30
0.0
 10
41.99989637363633
 20
-1.220252699484286
 30
0.0
 10
42.00000000000053
 20
-1.218098298914091
 30
0.0
  0
SPLINE
  5
94
330
1F
100
AcDbEntity
  8
1
  6
Continuous
370
    15
100
AcDbSpline
210
0.0
220
0.0
230
1.0
 70
     8
 71
     3
 72
     8
 73
     4
 74
     0
 42
0.00000001
 43
0.00000001
 40
0.0
 40
0.0
 40
0.0
 40
0.0
 40
0.0288244521278456
 40
0.0288244521278456
 40
0.0288244521278456
 40
0.0288244521278456
 10
25.0
 20
-0.0000000000000429
 30
0.0
 10
24.67333663850178
 20
0.1754532622004878
 30
0.0
 10
24.3466605826064
 20
0.3774199235933275
 30
0.0
 10
24.01998061413103
 20
0.6049544841953839
 30
0.0
  0
SPLINE
  5
95
330
1F
100
AcDbEntity
  8
1
  6
Continuous
370
    15
100
AcDbSpline
210
0.0
220
0.0
230
1.0
 70
    24
 71
     3
 72
    14
 73
    10
 74
     0
 42
0.00000001
 43
0.00000001
 40
0.0
 40
0.0
 40
0.0
 40
0.0
 40
0.25
 40
0.25
 40
0.5
 40
0.5
 40
0.75
 40
0.75
 40
1.0
 40
1.0
 40
1.0
 40
1.0
 10
24.18559101780157
 20
-1.235774255159336
 30
0.0
 10
24.28157003679686
 20
-1.090136862519519
 30
0.0
 10
24.38511939349463
 20
-0.9330123317954548
 30
0.0
 10
24.58562191764235
 20
-0.6287722474494103
 30
0.0
 10
24.68195350903109
 20
-0.4825998657605735
 30
0.0
 10
24.84097675451555
 20
-0.2412999328803054
 30
0.0
 10
24.90313040127567
 20
-0.1469887474571181
 30
0.0
 10
24.982507522184
 20
-0.0265428724590471
 30
0.0
 10
25.0
 20
-0.0000000000000413
 30
0.0
 10
25.0
 20
-0.0000000000000429
 30
0.0
  0
SPLINE
  5
96
330
1F
100
AcDbEntity
  8
1
  6
Continuous
370
    15
100
AcDbSpline
210
0.0
220
0.0
230
1.0
 70
     8
 71
     3
 72
    10
 73
     6
 74
     0
 42
0.00000001
 43
0.00000001
 40
0.0
 40
0.0
 40
0.0
 40
0.0
 40
0.0625
 40
0.0625
 40
0.069338156000891
 40
0.069338156000891
 40
0.069338156000891
 40
0.069338156000891
 10
24.18559101780157
 20
-1.23577425515934
 30
0.0
 10
23.47727617906199
 20
-0.9416909969056767
 30
0.0
 10
22.76892435113403
 20
-0.5166423504560722
 30
0.0
 10
21.98309191645824
 20
0.0908941439336128
 30
0.0
 10
21.90559281511487
 20
0.1522766042740962
 30
0.0
 10
21.82809371377148
 20
0.2151053117816519
 30
0.0
  0
SPLINE
  5
97
330
1F
100
AcDbEntity
  8
1
  6
Continuous
370
    15
100
AcDbSpline
210
0.0
220
0.0
230
1.0
 70
     8
 71
     3
 72
    14
 73
    10
 74
     0
 42
0.00000001
 43
0.00000001
 40
0.0
 40
0.0
 40
0.0
 40
0.0
 40
0.25
 40
0.25
 40
0.5
 40
0.5
 40
0.75
 40
0.75
 40
1.0
 40
1.0
 40
1.0
 40
1.0
 10
24.01998061413103
 20
0.604954484195384
 30
0.0
 10
23.84018195531316
 20
0.7156853981537625
 30
0.0
 10
23.64836768888761
 20
0.7965842887344619
 30
0.0
 10
23.23999818203898
 20
0.8975452136998057
 30
0.0
 10
23.03067169544582
 20
0.9154954971089652
 30
0.0
 10
22.61431431644322
 20
0.870611212268215
 30
0.0
 10
22.40624403525612
 20
0.8049980879812196
 30
0.0
 10
22.05489058026556
 20
0.5748368198804362
 30
0.0
 10
21.91388686972018
 20
0.4098328554746351
 30
0.0
 10
21.82809371377119
 20
0.2151053117818587
 30
0.0
  0
SPLINE
  5
98
330
1F
100
AcDbEntity
  8
1
  6
Continuous
370
    15
100
AcDbSpline
210
0.0
220
0.0
230
1.0
 70
     8
 71
     3
 72
    11
 73
     7
 74
     0
 42
0.00000001
 43
0.00000001
 40
0.0
 40
0.0
 40
0.0
 40
0.0
 40
0.0005758812824831
 40
0.0005758812824831
 40
0.0005758812824831
 40
0.0011520219707889
 40
0.0011520219707889
 40
0.0011520219707889
 40
0.0011520219707889
 10
24.99999999999999
 20
-0.0000000000000256
 30
0.0
 10
24.83669438372915
 20
0.1008963895201802
 30
0.0
 10
24.67339392602967
 20
0.2018216805620978
 30
0.0
 10
24.51010099055491
 20
0.3026563886020919
 30
0.0
 10
24.3467345079554
 20
0.4035365125863146
 30
0.0
 10
24.18335711922196
 20
0.5043372595881517
 30
0.0
 10
24.01998061413067
 20
0.6049544841956604
 30
0.0
  0
SPLINE
  5
99
330
1F
100
AcDbEntity
  8
1
  6
Continuous
370
    15
100
AcDbSpline
210
0.0
220
0.0
230
1.0
 70
     8
 71
     3
 72
    18
 73
    14
 74
     0
 42
0.00000001
 43
0.00000001
 40
0.0
 40
0.0
 40
0.0
 40
0.0
 40
0.2500000000000002
 40
0.2500000000000002
 40
0.3750000000000001
 40
0.3750000000000001
 40
0.5
 40
0.5
 40
0.7499999999999999
 40
0.7499999999999999
 40
0.875
 40
0.875
 40
1.0
 40
1.0
 40
1.0
 40
1.0
 10
21.82809371377148
 20
0.2151053117816512
 30
0.0
 10
21.60470390485089
 20
-0.291929874136596
 30
0.0
 10
21.43419882162676
 20
-0.8101776309838461
 30
0.0
 10
21.24729374832857
 20
-1.599827765509112
 30
0.0
 10
21.19648627090109
 20
-1.866628068995383
 30
0.0
 10
21.11942677232792
 20
-2.388104272290848
 30
0.0
 10
21.09265242001573
 20
-2.644439518486796
 30
0.0
 10
21.04410232708174
 20
-3.399781863566565
 30
0.0
 10
21.05488407503252
 20
-3.889406048544363
 30
0.0
 10
21.12418258932948
 20
-4.557154633012553
 30
0.0
 10
21.15601968488231
 20
-4.770168521162593
 30
0.0
 10
21.23596421791181
 20
-5.177301587630257
 30
0.0
 10
21.28426384829865
 20
-5.371815943211717
 30
0.0
 10
21.33967428123274
 20
-5.554133595800612
 30
0.0
  0
SPLINE
  5
9A
330
1F
100
AcDbEntity
  8
1
  6
Continuous
370
    15
100
AcDbSpline
210
0.0
220
0.0
230
1.0
 70
     8
 71
     3
 72
    10
 73
     6
 74
     0
 42
0.00000001
 43
0.00000001
 40
0.0
 40
0.0
 40
0.0
 40
0.0
 40
0.5
 40
0.5
 40
1.0
 40
1.0
 40
1.0
 40
1.0
 10
24.99999999999999
 20
-6.798458155705463
 30
0.0
 10
24.38822678714738
 20
-6.639590527246167
 30
0.0
 10
23.78143838977178
 20
-6.453119179724412
 30
0.0
 10
22.56548498301439
 20
-6.03410551780855
 30
0.0
 10
21.95622485384608
 20
-5.801657915378995
 30
0.0
 10
21.33967428123275
 20
-5.554133595800586
 30
0.0
  0
SPLINE
  5
9B
330
1F
100
AcDbEntity
  8
1
  6
Continuous
370
    15
100
AcDbSpline
210
0.0
220
0.0
230
1.0
 70
     8
 71
     3
 72
    11
 73
     7
 74
     0
 42
0.00000001
 43
0.00000001
 40
0.0
 40
0.0
 40
0.0
 40
0.0
 40
0.0005758812824831
 40
0.0005758812824831
 40
0.0005758812824831
 40
0.0011520219707889
 40
0.0011520219707889
 40
0.0011520219707889
 40
0.0011520219707889
 10
25.0
 20
-7.500000000000094
 30
0.0
 10
24.83669438372914
 20
-7.500000000000096
 30
0.0
 10
24.6733939260297
 20
-7.497963205578109
 30
0.0
 10
24.51010099055492
 20
-7.493890785862745
 30
0.0
 10
24.34673450795541
 20
-7.489816531929875
 30
0.0
 10
24.18335711922196
 20
-7.483704567443324
 30
0.0
 10
24.01998061413067
 20
-7.475562191036285
 30
0.0
  0
SPLINE
  5
9C
330
1F
100
AcDbEntity
  8
1
  6
Continuous
370
    15
100
AcDbSpline
210
0.0
220
0.0
230
1.0
 70
     8
 71
     3
 72
    14
 73
    10
 74
     0
 42
0.00000001
 43
0.00000001
 40
0.0
 40
0.0
 40
0.0
 40
0.0
 40
0.25
 40
0.25
 40
0.5
 40
0.5
 40
0.75
 40
0.75
 40
1.0
 40
1.0
 40
1.0
 40
1.0
 10
24.01998061413066
 20
-7.475562191036317
 30
0.0
 10
23.84018195531283
 20
-7.466601371605436
 30
0.0
 10
23.64836768888733
 20
-7.457749973924104
 30
0.0
 10
23.23999818203875
 20
-7.446273819299702
 30
0.0
 10
23.03067169544562
 20
-7.443949146002166
 30
0.0
 10
22.61431431644307
 20
-7.449331984182629
 30
0.0
 10
22.40624403525606
 20
-7.457568950649195
 30
0.0
 10
22.05489058026557
 20
-7.478831406433095
 30
0.0
 10
21.91388686972017
 20
-7.491327456726187
 30
0.0
 10
21.82809371377119
 20
-7.496914679042541
 30
0.0
  0
LINE
  5
9D
330
1F
100
AcDbEntity
  8
1
  6
Continuous
370
    15
100
AcDbLine
 10
21.8280937138
 20
-7.496914679
 30
0.0
 11
21.7479180431
 21
-7.4895089993
 31
0.0
  0
SPLINE
  5
9E
330
1F
100
AcDbEntity
  8
1
  6
Continuous
370
    15
100
AcDbSpline
210
0.0
220
0.0
230
1.0
 70
     8
 71
     3
 72
    11
 73
     7
 74
     0
 42
0.00000001
 43
0.00000001
 40
0.0
 40
0.0
 40
0.0
 40
0.0
 40
0.0005758812824831
 40
0.0005758812824831
 40
0.0005758812824831
 40
0.0011520219707889
 40
0.0011520219707889
 40
0.0011520219707889
 40
0.0011520219707889
 10
25.0
 20
7.500000000000116
 30
0.0
 10
24.83669438372914
 20
7.500000000000118
 30
0.0
 10
24.6733939260297
 20
7.497963205578113
 30
0.0
 10
24.51010099055492
 20
7.49389078586275
 30
0.0
 10
24.3467345079554
 20
7.489816531929882
 30
0.0
 10
24.18335711922195
 20
7.483704567443366
 30
0.0
 10
24.01998061413065
 20
7.475562191036328
 30
0.0
  0
SPLINE
  5
9F
330
1F
100
AcDbEntity
  8
1
  6
Continuous
370
    15
100
AcDbSpline
210
0.0
220
0.0
230
1.0
 70
     8
 71
     3
 72
    14
 73
    10
 74
     0
 42
0.00000001
 43
0.00000001
 40
0.0
 40
0.0
 40
0.0
 40
0.0
 40
0.25
 40
0.25
 40
0.5
 40
0.5
 40
0.75
 40
0.75
 40
1.0
 40
1.0
 40
1.0
 40
1.0
 10
24.01998061413064
 20
7.475562191036331
 30
0.0
 10
23.8401819553128
 20
7.466601371605452
 30
0.0
 10
23.64836768888728
 20
7.457749973924114
 30
0.0
 10
23.2399981820387
 20
7.446273819299715
 30
0.0
 10
23.03067169544556
 20
7.443949146002179
 30
0.0
 10
22.61431431644302
 20
7.449331984182639
 30
0.0
 10
22.40624403525597
 20
7.4575689506492
 30
0.0
 10
22.05489058026548
 20
7.478831406433097
 30
0.0
 10
21.91388686972013
 20
7.491327456726183
 30
0.0
 10
21.82809371377119
 20
7.496914679042535
 30
0.0
  0
SPLINE
  5
A0
330
1F
100
AcDbEntity
  8
1
  6
Continuous
370
    15
100
AcDbSpline
210
0.0
220
0.0
230
1.0
 70
     8
 71
     3
 72
    18
 73
    14
 74
     0
 42
0.00000001
 43
0.00000001
 40
0.0
 40
0.0
 40
0.0
 40
0.0
 40
0.25
 40
0.25
 40
0.375
 40
0.375
 40
0.4999999999999999
 40
0.4999999999999999
 40
0.7499999999999997
 40
0.7499999999999997
 40
0.8749999999999999
 40
0.8749999999999999
 40
1.0
 40
1.0
 40
1.0
 40
1.0
 10
21.82809371377119
 20
7.496914679042538
 30
0.0
 10
21.60470390485069
 20
7.511462792022425
 30
0.0
 10
21.43419882162677
 20
7.475281595844989
 30
0.0
 10
21.24729374832877
 20
7.332264779959702
 30
0.0
 10
21.19648627090131
 20
7.269087452390063
 30
0.0
 10
21.11942677232815
 20
7.114835958974895
 30
0.0
 10
21.09265242001593
 20
7.023634622078893
 30
0.0
 10
21.04410232708187
 20
6.707421111408184
 30
0.0
 10
21.05488407503257
 20
6.435843765123613
 30
0.0
 10
21.1241825893295
 20
5.962946649576479
 30
0.0
 10
21.15601968488232
 20
5.793916033648783
 30
0.0
 10
21.23596421791181
 20
5.433186817695876
 30
0.0
 10
21.28426384829866
 20
5.24091599193472
 30
0.0
 10
21.33967428123274
 20
5.039999999999894
 30
0.0
  0
SPLINE
  5
A1
330
1F
100
AcDbEntity
  8
1
  6
Continuous
370
    15
100
AcDbSpline
210
0.0
220
0.0
230
1.0
 70
     8
 71
     3
 72
    10
 73
     6
 74
     0
 42
0.00000001
 43
0.00000001
 40
0.0
 40
0.0
 40
0.0
 40
0.0
 40
0.5
 40
0.5
 40
1.0
 40
1.0
 40
1.0
 40
1.0
 10
24.99999999999999
 20
3.167170141496099
 30
0.0
 10
24.38822678714897
 20
3.508185898821732
 30
0.0
 10
23.78143838977251
 20
3.840604005264194
 30
0.0
 10
22.56548498301323
 20
4.470185328695873
 30
0.0
 10
21.95622485384395
 20
4.767225567628045
 30
0.0
 10
21.33967428123275
 20
5.039999999999887
 30
0.0
  0
LINE
  5
A2
330
1F
100
AcDbEntity
  8
1
  6
Continuous
370
    15
100
AcDbLine
 10
0.0
 20
7.5
 30
0.0
 11
0.0
 21
-7.5
 31
0.0
  0
LINE
  5
A3
330
1F
100
AcDbEntity
  8
1
  6
Continuous
370
    15
100
AcDbLine
 10
25.0
 20
-7.5
 30
0.0
 11
25.0
 21
-6.7984581557
 31
0.0
  0
LINE
  5
A4
330
1F
100
AcDbEntity
  8
1
  6
Continuous
370
    15
100
AcDbLine
 10
21.3396742812
 20
-5.5541335958
 30
0.0
 11
24.1855910178
 21
-1.2357742552
 31
0.0
  0
LINE
  5
A5
330
1F
100
AcDbEntity
  8
1
  6
Continuous
370
    15
100
AcDbLine
 10
21.3396742812
 20
5.04
 30
0.0
 11
24.1855910178
 21
5.04
 31
0.0
  0
SPLINE
  5
A6
330
1F
100
AcDbEntity
  8
1
  6
Continuous
370
    15
100
AcDbSpline
210
0.0
220
0.0
230
1.0
 70
     8
 71
     3
 72
    14
 73
    10
 74
     0
 42
0.00000001
 43
0.00000001
 40
0.0
 40
0.0
 40
0.0
 40
0.0
 40
0.25
 40
0.25
 40
0.5
 40
0.5
 40
0.75
 40
0.75
 40
1.0
 40
1.0
 40
1.0
 40
1.0
 10
24.18559101780157
 20
5.039999999999975
 30
0.0
 10
24.28157003679686
 20
5.039999999999979
 30
0.0
 10
24.38511939349463
 20
5.071788533443953
 30
0.0
 10
24.58562191764235
 20
5.216038095411222
 30
0.0
 10
24.68195350903109
 20
5.328987975895932
 30
0.0
 10
24.84097675451555
 20
5.617975951791879
 30
0.0
 10
24.90313040127567
 20
5.793036343280286
 30
0.0
 10
24.982507522184
 20
6.15740331641658
 30
0.0
 10
25.0
 20
6.345580327307328
 30
0.0
 10
25.0
 20
6.520000000000009
 30
0.0
  0
SPLINE
  5
A7
330
1F
100
AcDbEntity
  8
1
  6
Continuous
370
    15
100
AcDbSpline
210
0.0
220
0.0
230
1.0
 70
    24
 71
     3
 72
    22
 73
    18
 74
     0
 42
0.00000001
 43
0.00000001
 40
0.0
 40
0.0
 40
0.0
 40
0.0
 40
0.0625
 40
0.0625
 40
0.1249999999999999
 40
0.1249999999999999
 40
0.2500000000000001
 40
0.2500000000000001
 40
0.2812500000000001
 40
0.2812500000000001
 40
0.3125000000000001
 40
0.3125000000000001
 40
0.3750000000000001
 40
0.3750000000000001
 40
0.5
 40
0.5
 40
1.0
 40
1.0
 40
1.0
 40
1.0
 10
25.0
 20
6.520000000000008
 30
0.0
 10
25.0
 20
6.352756972650064
 30
0.0
 10
24.99999999999984
 20
6.18424474396573
 30
0.0
 10
24.99999999999984
 20
5.871987232209715
 30
0.0
 10
24.99999999999999
 20
5.725059585254179
 30
0.0
 10
24.99999999999998
 20
5.337182262875097
 30
0.0
 10
25.00000000000001
 20
5.147465833271561
 30
0.0
 10
25.00000000000001
 20
5.011041051527025
 30
0.0
 10
24.99999999999999
 20
4.988973999199986
 30
0.0
 10
24.99999999999999
 20
4.955428685078786
 30
0.0
 10
24.99999999999999
 20
4.94612145791793
 30
0.0
 10
24.99999999999999
 20
4.914744284035117
 30
0.0
 10
24.99999999999999
 20
4.890703571111049
 30
0.0
 10
24.99999999999998
 20
4.809243271246816
 30
0.0
 10
25.0
 20
4.742490068338623
 30
0.0
 10
25.0
 20
4.346498141709458
 30
0.0
 10
24.99999999999999
 20
3.84251069116119
 30
0.0
 10
24.99999999999999
 20
3.167170141496102
 30
0.0
  0
SPLINE
  5
A8
330
1F
100
AcDbEntity
  8
1
  6
Continuous
370
    15
100
AcDbSpline
210
0.0
220
0.0
230
1.0
 70
    24
 71
     3
 72
    22
 73
    18
 74
     0
 42
0.00000001
 43
0.00000001
 40
0.0
 40
0.0
 40
0.0
 40
0.0
 40
0.0625000000000002
 40
0.0625000000000002
 40
0.1250000000000003
 40
0.1250000000000003
 40
0.2500000000000004
 40
0.2500000000000004
 40
0.2812500000000004
 40
0.2812500000000004
 40
0.3125000000000005
 40
0.3125000000000005
 40
0.3750000000000004
 40
0.3750000000000004
 40
0.5000000000000002
 40
0.5000000000000002
 40
1.0
 40
1.0
 40
1.0
 40
1.0
 10
25.0
 20
-0.0000000000000428
 30
0.0
 10
25.0
 20
-0.0000000000000414
 30
0.0
 10
24.99999999999982
 20
-0.0343142768146925
 30
0.0
 10
24.99999999999982
 20
-0.1555680675933271
 30
0.0
 10
24.99999999999998
 20
-0.2432857195181304
 30
0.0
 10
24.99999999999999
 20
-0.5641701383658908
 30
0.0
 10
24.99999999999998
 20
-0.85854928266206
 30
0.0
 10
24.99999999999999
 20
-1.255985047960942
 30
0.0
 10
24.99999999999998
 20
-1.336508979871778
 30
0.0
 10
24.99999999999998
 20
-1.499660798468589
 30
0.0
 10
25.00000000000001
 20
-1.58272006196473
 30
0.0
 10
25.0
 20
-1.831211258482302
 30
0.0
 10
25.00000000000001
 20
-1.996251607314044
 30
0.0
 10
24.99999999999999
 20
-2.489517194627302
 30
0.0
 10
24.99999999999999
 20
-2.815897989405717
 30
0.0
 10
25.0
 20
-4.435336624958254
 30
0.0
 10
25.0
 20
-5.652688300729706
 30
0.0
 10
25.0
 20
-6.798458155705468
 30
0.0
  0
SPLINE
  5
A9
330
1F
100
AcDbEntity
  8
1
  6
Continuous
370
    15
100
AcDbSpline
210
0.0
220
0.0
230
1.0
 70
     8
 71
     3
 72
    10
 73
     6
 74
     0
 42
0.00000001
 43
0.00000001
 40
0.0
 40
0.0
 40
0.0
 40
0.0
 40
0.0625
 40
0.0625
 40
0.0693381560008997
 40
0.0693381560008997
 40
0.0693381560008997
 40
0.0693381560008997
 10
24.18559101780157
 20
5.039999999999975
 30
0.0
 10
23.47727617906241
 20
5.820422086298323
 30
0.0
 10
22.76892435113403
 20
6.575022031999455
 30
0.0
 10
21.98309191645814
 20
7.346839254791592
 30
0.0
 10
21.90559281511467
 20
7.422250043627483
 30
0.0
 10
21.82809371377119
 20
7.496914679042539
 30
0.0
  0
SPLINE
  5
AA
330
1F
100
AcDbEntity
  8
1
  6
Continuous
370
    15
100
AcDbSpline
210
0.0
220
0.0
230
1.0
 70
     8
 71
     3
 72
     8
 73
     4
 74
     0
 42
0.00000001
 43
0.00000001
 40
0.0
 40
0.0
 40
0.0
 40
0.0
 40
0.0288244521278527
 40
0.0288244521278527
 40
0.0288244521278527
 40
0.0288244521278527
 10
25.0
 20
6.520000000000009
 30
0.0
 10
24.67333663850153
 20
6.846663362256381
 30
0.0
 10
24.34666058260605
 20
7.166226850756488
 30
0.0
 10
24.01998061413064
 20
7.475562191036331
 30
0.0
  0
LINE
  5
AB
330
1F
100
AcDbEntity
  8
1
  6
Continuous
370
    15
100
AcDbLine
 10
25.0
 20
6.52
 30
0.0
 11
25.0
 21
7.5
 31
0.0
  0
LINE
  5
AC
330
1F
100
AcDbEntity
  8
1
  6
Continuous
370
    15
100
AcDbLine
 10
41.9389127982
 20
0.0
 30
0.0
 11
41.9389127982
 21
0.0001
 31
0.0
  0
LINE
  5
AD
330
1F
100
AcDbEntity
  8
1
  6
Continuous
370
    15
100
AcDbLine
 10
41.9389127982
 20
-0.0001
 30
0.0
 11
41.9389127982
 21
0.0
 31
0.0
  0
LINE
  5
AE
330
1F
100
AcDbEntity
  8
SK4
100
AcDbLine
 10
0.0
 20
0.0
 30
0.0
 11
-48.0
 21
0.0
 31
0.0
  0
LINE
  5
AF
330
1F
100
AcDbEntity
  8
4
100
AcDbLine
 10
0.0
 20
0.0
 30
0.0
 11
42.0
 21
0.0
 31
0.0
  0
LINE
  5
B0
330
1F
100
AcDbEntity
  8
INFTOTAL
100
AcDbLine
 10
-58.0
 20
-58.0
 30
0.0
 11
242.0
 21
-58.0
 31
0.0
  0
LINE
  5
B1
330
1F
100
AcDbEntity
  8
INFTOTAL
100
AcDbLine
 10
242.0
 20
-58.0
 30
0.0
 11
242.0
 21
142.0
 31
0.0
  0
LINE
  5
B2
330
1F
100
AcDbEntity
  8
INFTOTAL
100
AcDbLine
 10
242.0
 20
142.0
 30
0.0
 11
-58.0
 21
142.0
 31
0.0
  0
LINE
  5
B3
330
1F
100
AcDbEntity
  8
INFTOTAL
100
AcDbLine
 10
-58.0
 20
142.0
 30
0.0
 11
-58.0
 21
-58.0
 31
0.0
  0
LINE
  5
B4
330
1F
100
AcDbEntity
  8
NOCUT
100
AcDbLine
 10
41.9389127982
 20
0.0
 30
0.0
 11
41.9389127982
 21
0.0001
 31
0.0
  0
LINE
  5
B5
330
1F
100
AcDbEntity
  8
NOCUT
100
AcDbLine
 10
41.9389127982
 20
0.0001
 30
0.0
 11
39.2808008909
 21
0.0001
 31
0.0
  0
LINE
  5
B6
330
1F
100
AcDbEntity
  8
NOCUT
100
AcDbLine
 10
39.2808008909
 20
0.0001
 30
0.0
 11
39.2808008909
 21
4.8
 31
0.0
  0
LINE
  5
B7
330
1F
100
AcDbEntity
  8
NOCUT
100
AcDbLine
 10
39.2808008909
 20
4.8
 30
0.0
 11
25.0
 21
4.8
 31
0.0
  0
LINE
  5
B8
330
1F
100
AcDbEntity
  8
NOCUT
100
AcDbLine
 10
25.0
 20
4.8
 30
0.0
 11
25.0
 21
7.5
 31
0.0
  0
LINE
  5
B9
330
1F
100
AcDbEntity
  8
NOCUT
100
AcDbLine
 10
25.0
 20
7.5
 30
0.0
 11
-1.0
 21
7.5
 31
0.0
  0
LINE
  5
BA
330
1F
100
AcDbEntity
  8
NOCUT
100
AcDbLine
 10
-1.0
 20
7.5
 30
0.0
 11
-2.8660254038
 21
8.0
 31
0.0
  0
LINE
  5
BB
330
1F
100
AcDbEntity
  8
NOCUT
100
AcDbLine
 10
-2.8660254038
 20
8.0
 30
0.0
 11
-48.0
 21
8.0
 31
0.0
  0
LINE
  5
BC
330
1F
100
AcDbEntity
  8
NOCUT
100
AcDbLine
 10
-48.0
 20
8.0
 30
0.0
 11
-48.0
 21
0.0
 31
0.0
  0
LINE
  5
BD
330
1F
100
AcDbEntity
  8
NOCUT
100
AcDbLine
 10
-48.0
 20
0.0
 30
0.0
 11
41.9389127982
 21
0.0
 31
0.0
  0
LINE
  5
BE
330
1F
100
AcDbEntity
  8
CUT
100
AcDbLine
 10
41.0
 20
8.0
 30
0.0
 11
25.0
 21
8.0
 31
0.0
  0
LINE
  5
BF
330
1F
100
AcDbEntity
  8
CUT
100
AcDbLine
 10
41.9389127982
 20
0.0001
 30
0.0
 11
42.0
 21
7.0
 31
0.0
  0
LINE
  5
C0
330
1F
100
AcDbEntity
  8
CUT
100
AcDbLine
 10
39.2808008909
 20
0.0001
 30
0.0
 11
41.9389127982
 21
0.0001
 31
0.0
  0
LINE
  5
C1
330
1F
100
AcDbEntity
  8
CUT
100
AcDbLine
 10
39.2808008909
 20
4.8
 30
0.0
 11
39.2808008909
 21
0.0001
 31
0.0
  0
LINE
  5
C2
330
1F
100
AcDbEntity
  8
CUT
100
AcDbLine
 10
25.0
 20
4.8
 30
0.0
 11
39.2808008909
 21
4.8
 31
0.0
  0
LINE
  5
C3
330
1F
100
AcDbEntity
  8
CUT
100
AcDbLine
 10
25.0
 20
8.0
 30
0.0
 11
25.0
 21
4.8
 31
0.0
  0
ARC
  5
C4
330
1F
100
AcDbEntity
  8
CUT
100
AcDbCircle
 10
41.0
 20
7.0
 30
0.0
 40
1.000000000000001
100
AcDbArc
 50
0.0
 51
90.0
  0
DIMENSION
  5
C5
330
1F
100
AcDbEntity
  8
2
100
AcDbDimension
  2
*D1
 10
118.9632346948
 20
8.0
 30
0.0
 11
118.9632346948
 21
15.4503443827
 31
0.0
 70
   160
  1
%%c<>
 71
     2
 42
-1.0
  3
SLDDIMSTYLE0
100
AcDbAlignedDimension
 13
42.0
 23
-8.0
 33
0.0
 14
41.0
 24
8.0
 34
0.0
 50
90.0
100
AcDbRotatedDimension
  0
DIMENSION
  5
F4
330
1F
100
AcDbEntity
  8
SK2
100
AcDbDimension
  2
*D2
 10
41.0
 20
7.0
 30
0.0
 11
61.3546067655
 21
27.3546067655
 31
0.0
 70
   164
  1
<>
 71
     1
 42
-1.0
  3
SLDDIMSTYLE1
100
AcDbRadialDimension
 15
41.7071067812
 25
7.7071067812
 35
0.0
 40
0.0
  0
DIMENSION
  5
FE
330
1F
100
AcDbEntity
  8
SK2
100
AcDbDimension
  2
*D3
 10
-48.0
 20
89.5998788878
 30
0.0
 11
-0.9432273532
 21
89.5998788878
 31
0.0
 70
   160
 71
     2
 42
-1.0
  3
SLDDIMSTYLE2
100
AcDbAlignedDimension
 13
42.0
 23
7.0
 33
0.0
 14
-48.0
 24
8.0
 34
0.0
100
AcDbRotatedDimension
  0
DIMENSION
  5
109
330
1F
100
AcDbEntity
  8
SK2
100
AcDbDimension
  2
*D4
 10
-48.0
 20
48.7509423314
 30
0.0
 11
-25.1916108691
 21
48.7509423314
 31
0.0
 70
   160
 71
     2
 42
-1.0
  3
SLDDIMSTYLE3
100
AcDbAlignedDimension
 13
0.0
 23
0.0
 33
0.0
 14
-48.0
 24
0.0
 34
0.0
100
AcDbRotatedDimension
  0
DIMENSION
  5
114
330
1F
100
AcDbEntity
  8
SK2
100
AcDbDimension
  2
*D5
 10
42.0
 20
60.7509423314
 30
0.0
 11
19.3620919428
 21
60.7509423314
 31
0.0
 70
   160
 71
     2
 42
-1.0
  3
SLDDIMSTYLE3
100
AcDbAlignedDimension
 13
-1.0
 23
7.5
 33
0.0
 14
42.0
 24
8.0
 34
0.0
 50
0.0
100
AcDbRotatedDimension
  0
DIMENSION
  5
11E
330
1F
100
AcDbEntity
  8
SK2
100
AcDbDimension
  2
*D6
 10
25.0
 20
48.7509423314
 30
0.0
 11
33.287654488
 21
48.7509423314
 31
0.0
 70
   160
 71
     2
 42
-1.0
  3
SLDDIMSTYLE4
100
AcDbAlignedDimension
 13
42.0
 23
8.0
 33
0.0
 14
25.0
 24
4.8
 34
0.0
100
AcDbRotatedDimension
  0
DIMENSION
  5
12B
330
1F
100
AcDbEntity
  8
SK2
100
AcDbDimension
  2
*D7
 10
-12.9960344536
 20
-7.5
 30
0.0
 11
-12.9960344536
 21
66.3550599908
 31
0.0
 70
   160
  1
%%c<>
 71
     2
 42
-1.0
  3
SLDDIMSTYLE3
100
AcDbAlignedDimension
 13
-1.0
 23
7.5
 33
0.0
 14
-1.0
 24
-7.5
 34
0.0
 50
90.0
100
AcDbRotatedDimension
  0
DIMENSION
  5
137
330
1F
100
AcDbEntity
  8
2
100
AcDbDimension
  2
*D8
 10
42.0
 20
77.4999940533
 30
0.0
 11
20.5855854685
 21
77.4999940533
 31
0.0
 70
   160
 71
     2
 42
-1.0
  3
SLDDIMSTYLE3
100
AcDbAlignedDimension
 13
0.0
 23
4.0
 33
0.0
 14
42.0
 24
8.0
 34
0.0
100
AcDbRotatedDimension
  0
DIMENSION
  5
141
330
1F
100
AcDbEntity
  8
SK2
100
AcDbDimension
  2
*D9
 10
-49.7386612653
 20
-8.0
 30
0.0
 11
-49.7386612653
 21
33.0300743065
 31
0.0
 70
   160
  1
%%c<>
 71
     2
 42
-1.0
  3
SLDDIMSTYLE3
100
AcDbAlignedDimension
 13
-48.0
 23
8.0
 33
0.0
 14
-48.0
 24
-8.0
 34
0.0
 50
90.0
100
AcDbRotatedDimension
  0
INSERT
  5
155
330
1F
100
AcDbEntity
  8
INFTEXT63
100
AcDbBlockReference
  2
SW_NOTE_0
 10
-39.8847508068
 20
-33.794739665
 30
0.0
  0
INSERT
  5
15C
330
1F
100
AcDbEntity
  8
INFTEXT63
100
AcDbBlockReference
  2
SW_NOTE_1
 10
-39.8847508068
 20
-70.1731114039
 30
0.0
  0
ENDSEC
  0
SECTION
  2
OBJECTS
  0
DICTIONARY
  5
C
330
0
100
AcDbDictionary
281
     1
  3
ACAD_GROUP
350
D
  3
ACAD_LAYOUT
350
1A
  3
ACAD_MLINESTYLE
350
17
  3
ACAD_PLOTSETTINGS
350
19
  3
ACAD_PLOTSTYLENAME
350
E
  3
ACAD_SCALELIST
350
C6
  3
AcDbVariableDictionary
350
15D
  0
DICTIONARY
  5
D
102
{ACAD_REACTORS
330
C
102
}
330
C
100
AcDbDictionary
281
     1
  0
DICTIONARY
  5
1A
102
{ACAD_REACTORS
330
C
102
}
330
C
100
AcDbDictionary
281
     1
  3
Layout1
350
1E
  3
Layout2
350
26
  3
Model
350
22
  0
DICTIONARY
  5
17
102
{ACAD_REACTORS
330
C
102
}
330
C
100
AcDbDictionary
281
     1
  3
Standard
350
18
  0
DICTIONARY
  5
19
102
{ACAD_REACTORS
330
C
102
}
330
C
100
AcDbDictionary
281
     1
  0
ACDBDICTIONARYWDFLT
  5
E
102
{ACAD_REACTORS
330
C
102
}
330
C
100
AcDbDictionary
281
     1
  3
Normal
350
F
100
AcDbDictionaryWithDefault
340
F
  0
DICTIONARY
  5
C6
102
{ACAD_REACTORS
330
C
102
}
330
C
100
AcDbDictionary
281
     1
  3
A0
350
C7
  3
A1
350
C8
  3
A2
350
C9
  3
A3
350
CA
  3
A4
350
CB
  3
A5
350
CC
  3
A6
350
CD
  3
A7
350
CE
  3
A8
350
CF
  3
A9
350
D0
  3
B0
350
D1
  3
B1
350
D2
  3
B2
350
D3
  3
B3
350
D4
  3
B4
350
D5
  3
B5
350
D6
  3
B6
350
D7
  3
B7
350
D8
  3
B8
350
D9
  3
B9
350
DA
  3
C0
350
DB
  3
C1
350
DC
  3
C2
350
DD
  3
C3
350
DE
  3
C4
350
DF
  3
C5
350
E0
  3
C6
350
E1
  3
C7
350
E2
  3
C8
350
E3
  3
C9
350
E4
  3
D0
350
E5
  3
D1
350
E6
  3
D2
350
E7
  0
DICTIONARY
  5
15D
102
{ACAD_REACTORS
330
C
102
}
330
C
100
AcDbDictionary
281
     1
  3
CANNOSCALE
350
15E
  0
LAYOUT
  5
1E
102
{ACAD_REACTORS
330
1A
102
}
330
1A
100
AcDbPlotSettings
  1

  2
none_device
  4

  6

 40
0.0
 41
0.0
 42
0.0
 43
0.0
 44
0.0
 45
0.0
 46
0.0
 47
0.0
 48
0.0
 49
0.0
140
0.0
141
0.0
142
1.0
143
1.0
 70
   688
 72
     0
 73
     0
 74
     5
  7

 75
    16
147
1.0
148
0.0
149
0.0
100
AcDbLayout
  1
Layout1
 70
     1
 71
     1
 10
0.0
 20
0.0
 11
420.0
 21
297.0
 12
0.0
 22
0.0
 32
0.0
 14
1.0000000000E+20
 24
1.0000000000E+20
 34
1.0000000000E+20
 15
-1.0000000000E+20
 25
-1.0000000000E+20
 35
-1.0000000000E+20
146
0.0
 13
0.0
 23
0.0
 33
0.0
 16
1.0
 26
0.0
 36
0.0
 17
0.0
 27
1.0
 37
0.0
 76
     0
330
1B
  0
LAYOUT
  5
26
102
{ACAD_REACTORS
330
1A
102
}
330
1A
100
AcDbPlotSettings
  1

  2
none_device
  4

  6

 40
0.0
 41
0.0
 42
0.0
 43
0.0
 44
0.0
 45
0.0
 46
0.0
 47
0.0
 48
0.0
 49
0.0
140
0.0
141
0.0
142
1.0
143
1.0
 70
   688
 72
     0
 73
     0
 74
     5
  7

 75
    16
147
1.0
148
0.0
149
0.0
100
AcDbLayout
  1
Layout2
 70
     1
 71
     2
 10
0.0
 20
0.0
 11
0.0
 21
0.0
 12
0.0
 22
0.0
 32
0.0
 14
0.0
 24
0.0
 34
0.0
 15
0.0
 25
0.0
 35
0.0
146
0.0
 13
0.0
 23
0.0
 33
0.0
 16
1.0
 26
0.0
 36
0.0
 17
0.0
 27
1.0
 37
0.0
 76
     0
330
23
  0
LAYOUT
  5
22
102
{ACAD_REACTORS
330
1A
102
}
330
1A
100
AcDbPlotSettings
  1

  2
none_device
  4

  6

 40
0.0
 41
0.0
 42
0.0
 43
0.0
 44
0.0
 45
0.0
 46
0.0
 47
0.0
 48
0.0
 49
0.0
140
0.0
141
0.0
142
1.0
143
1.0
 70
  1712
 72
     0
 73
     0
 74
     0
  7

 75
     0
147
1.0
148
0.0
149
0.0
100
AcDbLayout
  1
Model
 70
     1
 71
     0
 10
0.0
 20
0.0
 11
420.0
 21
297.0
 12
0.0
 22
0.0
 32
0.0
 14
0.0
 24
0.0
 34
0.0
 15
420.0
 25
297.0
 35
0.0
146
0.0
 13
0.0
 23
0.0
 33
0.0
 16
1.0
 26
0.0
 36
0.0
 17
0.0
 27
1.0
 37
0.0
 76
     0
330
1F
331
29
  0
MLINESTYLE
  5
18
102
{ACAD_REACTORS
330
17
102
}
330
17
100
AcDbMlineStyle
  2
Standard
 70
     0
  3

 62
   256
 51
90.0
 52
90.0
 71
     2
 49
0.5
 62
   256
  6
BYLAYER
 49
-0.5
 62
   256
  6
BYLAYER
  0
ACDBPLACEHOLDER
  5
F
102
{ACAD_REACTORS
330
E
102
}
330
E
  0
SCALE
  5
C7
102
{ACAD_REACTORS
330
C6
102
}
330
C6
100
AcDbScale
 70
     0
300
1:1
140
1.0
141
1.0
290
     1
  0
SCALE
  5
C8
102
{ACAD_REACTORS
330
C6
102
}
330
C6
100
AcDbScale
 70
     0
300
1:2
140
1.0
141
2.0
290
     0
  0
SCALE
  5
C9
102
{ACAD_REACTORS
330
C6
102
}
330
C6
100
AcDbScale
 70
     0
300
1:4
140
1.0
141
4.0
290
     0
  0
SCALE
  5
CA
102
{ACAD_REACTORS
330
C6
102
}
330
C6
100
AcDbScale
 70
     0
300
1:5
140
1.0
141
5.0
290
     0
  0
SCALE
  5
CB
102
{ACAD_REACTORS
330
C6
102
}
330
C6
100
AcDbScale
 70
     0
300
1:8
140
1.0
141
8.0
290
     0
  0
SCALE
  5
CC
102
{ACAD_REACTORS
330
C6
102
}
330
C6
100
AcDbScale
 70
     0
300
1:10
140
1.0
141
10.0
290
     0
  0
SCALE
  5
CD
102
{ACAD_REACTORS
330
C6
102
}
330
C6
100
AcDbScale
 70
     0
300
1:16
140
1.0
141
16.0
290
     0
  0
SCALE
  5
CE
102
{ACAD_REACTORS
330
C6
102
}
330
C6
100
AcDbScale
 70
     0
300
1:20
140
1.0
141
20.0
290
     0
  0
SCALE
  5
CF
102
{ACAD_REACTORS
330
C6
102
}
330
C6
100
AcDbScale
 70
     0
300
1:30
140
1.0
141
30.0
290
     0
  0
SCALE
  5
D0
102
{ACAD_REACTORS
330
C6
102
}
330
C6
100
AcDbScale
 70
     0
300
1:40
140
1.0
141
40.0
290
     0
  0
SCALE
  5
D1
102
{ACAD_REACTORS
330
C6
102
}
330
C6
100
AcDbScale
 70
     0
300
1:50
140
1.0
141
50.0
290
     0
  0
SCALE
  5
D2
102
{ACAD_REACTORS
330
C6
102
}
330
C6
100
AcDbScale
 70
     0
300
1:100
140
1.0
141
100.0
290
     0
  0
SCALE
  5
D3
102
{ACAD_REACTORS
330
C6
102
}
330
C6
100
AcDbScale
 70
     0
300
2:1
140
2.0
141
1.0
290
     0
  0
SCALE
  5
D4
102
{ACAD_REACTORS
330
C6
102
}
330
C6
100
AcDbScale
 70
     0
300
4:1
140
4.0
141
1.0
290
     0
  0
SCALE
  5
D5
102
{ACAD_REACTORS
330
C6
102
}
330
C6
100
AcDbScale
 70
     0
300
8:1
140
8.0
141
1.0
290
     0
  0
SCALE
  5
D6
102
{ACAD_REACTORS
330
C6
102
}
330
C6
100
AcDbScale
 70
     0
300
10:1
140
10.0
141
1.0
290
     0
  0
SCALE
  5
D7
102
{ACAD_REACTORS
330
C6
102
}
330
C6
100
AcDbScale
 70
     0
300
100:1
140
100.0
141
1.0
290
     0
  0
SCALE
  5
D8
102
{ACAD_REACTORS
330
C6
102
}
330
C6
100
AcDbScale
 70
     0
300
1/128" = 1'-0"
140
0.0078125
141
12.0
290
     0
  0
SCALE
  5
D9
102
{ACAD_REACTORS
330
C6
102
}
330
C6
100
AcDbScale
 70
     0
300
1/64" = 1'-0"
140
0.015625
141
12.0
290
     0
  0
SCALE
  5
DA
102
{ACAD_REACTORS
330
C6
102
}
330
C6
100
AcDbScale
 70
     0
300
1/32" = 1'-0"
140
0.03125
141
12.0
290
     0
  0
SCALE
  5
DB
102
{ACAD_REACTORS
330
C6
102
}
330
C6
100
AcDbScale
 70
     0
300
1/16" = 1'-0"
140
0.0625
141
12.0
290
     0
  0
SCALE
  5
DC
102
{ACAD_REACTORS
330
C6
102
}
330
C6
100
AcDbScale
 70
     0
300
3/32" = 1'-0"
140
0.09375
141
12.0
290
     0
  0
SCALE
  5
DD
102
{ACAD_REACTORS
330
C6
102
}
330
C6
100
AcDbScale
 70
     0
300
1/8" = 1'-0"
140
0.125
141
12.0
290
     0
  0
SCALE
  5
DE
102
{ACAD_REACTORS
330
C6
102
}
330
C6
100
AcDbScale
 70
     0
300
3/16" = 1'-0"
140
0.1875
141
12.0
290
     0
  0
SCALE
  5
DF
102
{ACAD_REACTORS
330
C6
102
}
330
C6
100
AcDbScale
 70
     0
300
1/4" = 1'-0"
140
0.25
141
12.0
290
     0
  0
SCALE
  5
E0
102
{ACAD_REACTORS
330
C6
102
}
330
C6
100
AcDbScale
 70
     0
300
3/8" = 1'-0"
140
0.375
141
12.0
290
     0
  0
SCALE
  5
E1
102
{ACAD_REACTORS
330
C6
102
}
330
C6
100
AcDbScale
 70
     0
300
1/2" = 1'-0"
140
0.5
141
12.0
290
     0
  0
SCALE
  5
E2
102
{ACAD_REACTORS
330
C6
102
}
330
C6
100
AcDbScale
 70
     0
300
3/4" = 1'-0"
140
0.75
141
12.0
290
     0
  0
SCALE
  5
E3
102
{ACAD_REACTORS
330
C6
102
}
330
C6
100
AcDbScale
 70
     0
300
1" = 1'-0"
140
1.0
141
12.0
290
     0
  0
SCALE
  5
E4
102
{ACAD_REACTORS
330
C6
102
}
330
C6
100
AcDbScale
 70
     0
300
1-1/2" = 1'-0"
140
1.5
141
12.0
290
     0
  0
SCALE
  5
E5
102
{ACAD_REACTORS
330
C6
102
}
330
C6
100
AcDbScale
 70
     0
300
3" = 1'-0"
140
3.0
141
12.0
290
     0
  0
SCALE
  5
E6
102
{ACAD_REACTORS
330
C6
102
}
330
C6
100
AcDbScale
 70
     0
300
6" = 1'-0"
140
6.0
141
12.0
290
     0
  0
SCALE
  5
E7
102
{ACAD_REACTORS
330
C6
102
}
330
C6
100
AcDbScale
 70
     0
300
1'-0" = 1'-0"
140
12.0
141
12.0
290
     0
  0
DICTIONARYVAR
  5
15E
102
{ACAD_REACTORS
330
15D
102
}
330
15D
100
DictionaryVariables
280
     0
  1
1:1
  0
ENDSEC
  0
EOF
