  0
SECTION
  2
HEADER
  9
$ACADVER
  1
AC1015
  9
$ACADMAINTVER
 70
     6
  9
$DWGCODEPAGE
  3
ANSI_1252
  9
$INSBASE
 10
0.0
 20
0.0
 30
0.0
  9
$EXTMIN
 10
0.0
 20
0.0
 30
0.0
  9
$EXTMAX
 10
420.0
 20
297.0
 30
0.0
  9
$LIMMIN
 10
0.0
 20
0.0
  9
$LIMMAX
 10
420.0
 20
297.0
  9
$ORTHOMODE
 70
     0
  9
$REGENMODE
 70
     1
  9
$FILLMODE
 70
     1
  9
$QTEXTMODE
 70
     0
  9
$MIRRTEXT
 70
     1
  9
$LTSCALE
 40
1.0
  9
$ATTMODE
 70
     1
  9
$TEXTSIZE
 40
3.5
  9
$TRACEWID
 40
1.0
  9
$TEXTSTYLE
  7
STANDARD
  9
$CLAYER
  8
0
  9
$CELTYPE
  6
ByLayer
  9
$CECOLOR
 62
   256
  9
$CELTSCALE
 40
1.0
  9
$DISPSILH
 70
     0
  9
$DIMSCALE
 40
1.0
  9
$DIMASZ
 40
3.302
  9
$DIMEXO
 40
1.0
  9
$DIMDLI
 40
3.75
  9
$DIMRND
 40
0.0
  9
$DIMDLE
 40
0.0
  9
$DIMEXE
 40
1.0
  9
$DIMTP
 40
0.0
  9
$DIMTM
 40
0.0
  9
$DIMTXT
 40
3.5
  9
$DIMCEN
 40
2.5
  9
$DIMTSZ
 40
0.0
  9
$DIMTOL
 70
     0
  9
$DIMLIM
 70
     0
  9
$DIMTIH
 70
     1
  9
$DIMTOH
 70
     1
  9
$DIMSE1
 70
     0
  9
$DIMSE2
 70
     0
  9
$DIMTAD
 70
     1
  9
$DIMZIN
 70
     0
  9
$DIMBLK
  1

  9
$DIMASO
 70
     1
  9
$DIMSHO
 70
     1
  9
$DIMPOST
  1

  9
$DIMAPOST
  1

  9
$DIMALT
 70
     0
  9
$DIMALTD
 70
     3
  9
$DIMALTF
 40
0.0393700787
  9
$DIMLFAC
 40
1.0
  9
$DIMTOFL
 70
     1
  9
$DIMTVP
 40
0.0
  9
$DIMTIX
 70
     0
  9
$DIMSOXD
 70
     0
  9
$DIMSAH
 70
     0
  9
$DIMBLK1
  1

  9
$DIMBLK2
  1

  9
$DIMSTYLE
  2
ISO-25
  9
$DIMCLRD
 70
     0
  9
$DIMCLRE
 70
     0
  9
$DIMCLRT
 70
     0
  9
$DIMTFAC
 40
1.0
  9
$DIMGAP
 40
1.524
  9
$DIMJUST
 70
     0
  9
$DIMSD1
 70
     0
  9
$DIMSD2
 70
     0
  9
$DIMTOLJ
 70
     0
  9
$DIMTZIN
 70
     0
  9
$DIMALTZ
 70
     0
  9
$DIMALTTZ
 70
     0
  9
$DIMUPT
 70
     0
  9
$DIMDEC
 70
     1
  9
$DIMTDEC
 70
     1
  9
$DIMALTU
 70
     2
  9
$DIMALTTD
 70
     3
  9
$DIMTXSTY
  7
STANDARD
  9
$DIMAUNIT
 70
     0
  9
$DIMADEC
 70
     1
  9
$DIMALTRND
 40
0.0
  9
$DIMAZIN
 70
     0
  9
$DIMDSEP
 70
    44
  9
$DIMATFIT
 70
     3
  9
$DIMFRAC
 70
     0
  9
$DIMLDRBLK
  1

  9
$DIMLUNIT
 70
     2
  9
$DIMLWD
 70
    -2
  9
$DIMLWE
 70
    -2
  9
$DIMTMOVE
 70
     0
  9
$LUNITS
 70
     2
  9
$LUPREC
 70
     2
  9
$SKETCHINC
 40
1.0
  9
$FILLETRAD
 40
10.0
  9
$AUNITS
 70
     0
  9
$AUPREC
 70
     2
  9
$MENU
  1
.
  9
$ELEVATION
 40
0.0
  9
$PELEVATION
 40
0.0
  9
$THICKNESS
 40
0.0
  9
$LIMCHECK
 70
     0
  9
$CHAMFERA
 40
10.0
  9
$CHAMFERB
 40
10.0
  9
$CHAMFERC
 40
20.0
  9
$CHAMFERD
 40
0.0
  9
$SKPOLY
 70
     0
  9
$TDCREATE
 40
2455897.747590614
  9
$TDUCREATE
 40
2455897.705923947
  9
$TDUPDATE
 40
2455897.747590625
  9
$TDUUPDATE
 40
2455897.705923958
  9
$TDINDWG
 40
0.0000000116
  9
$TDUSRTIMER
 40
0.0000000116
  9
$USRTIMER
 70
     1
  9
$ANGBASE
 50
0.0
  9
$ANGDIR
 70
     0
  9
$PDMODE
 70
     0
  9
$PDSIZE
 40
-1.0
  9
$PLINEWID
 40
0.0
  9
$SPLFRAME
 70
     0
  9
$SPLINETYPE
 70
     6
  9
$SPLINESEGS
 70
     8
  9
$HANDSEED
  5
163
  9
$SURFTAB1
 70
     6
  9
$SURFTAB2
 70
     6
  9
$SURFTYPE
 70
     6
  9
$SURFU
 70
     6
  9
$SURFV
 70
     6
  9
$UCSBASE
  2

  9
$UCSNAME
  2

  9
$UCSORG
 10
0.0
 20
0.0
 30
0.0
  9
$UCSXDIR
 10
1.0
 20
0.0
 30
0.0
  9
$UCSYDIR
 10
0.0
 20
1.0
 30
0.0
  9
$UCSORTHOREF
  2

  9
$UCSORTHOVIEW
 70
     0
  9
$UCSORGTOP
 10
0.0
 20
0.0
 30
0.0
  9
$UCSORGBOTTOM
 10
0.0
 20
0.0
 30
0.0
  9
$UCSORGLEFT
 10
0.0
 20
0.0
 30
0.0
  9
$UCSORGRIGHT
 10
0.0
 20
0.0
 30
0.0
  9
$UCSORGFRONT
 10
0.0
 20
0.0
 30
0.0
  9
$UCSORGBACK
 10
0.0
 20
0.0
 30
0.0
  9
$PUCSBASE
  2

  9
$PUCSNAME
  2

  9
$PUCSORG
 10
0.0
 20
0.0
 30
0.0
  9
$PUCSXDIR
 10
1.0
 20
0.0
 30
0.0
  9
$PUCSYDIR
 10
0.0
 20
1.0
 30
0.0
  9
$PUCSORTHOREF
  2

  9
$PUCSORTHOVIEW
 70
     0
  9
$PUCSORGTOP
 10
0.0
 20
0.0
 30
0.0
  9
$PUCSORGBOTTOM
 10
0.0
 20
0.0
 30
0.0
  9
$PUCSORGLEFT
 10
0.0
 20
0.0
 30
0.0
  9
$PUCSORGRIGHT
 10
0.0
 20
0.0
 30
0.0
  9
$PUCSORGFRONT
 10
0.0
 20
0.0
 30
0.0
  9
$PUCSORGBACK
 10
0.0
 20
0.0
 30
0.0
  9
$USERI1
 70
     0
  9
$USERI2
 70
     0
  9
$USERI3
 70
     0
  9
$USERI4
 70
     0
  9
$USERI5
 70
     0
  9
$USERR1
 40
0.0
  9
$USERR2
 40
0.0
  9
$USERR3
 40
0.0
  9
$USERR4
 40
0.0
  9
$USERR5
 40
0.0
  9
$WORLDVIEW
 70
     1
  9
$SHADEDGE
 70
     3
  9
$SHADEDIF
 70
    70
  9
$TILEMODE
 70
     1
  9
$MAXACTVP
 70
    64
  9
$PINSBASE
 10
0.0
 20
0.0
 30
0.0
  9
$PLIMCHECK
 70
     0
  9
$PEXTMIN
 10
1.0000000000E+20
 20
1.0000000000E+20
 30
1.0000000000E+20
  9
$PEXTMAX
 10
-1.0000000000E+20
 20
-1.0000000000E+20
 30
-1.0000000000E+20
  9
$PLIMMIN
 10
0.0
 20
0.0
  9
$PLIMMAX
 10
420.0
 20
297.0
  9
$UNITMODE
 70
     0
  9
$VISRETAIN
 70
     1
  9
$PLINEGEN
 70
     0
  9
$PSLTSCALE
 70
     1
  9
$TREEDEPTH
 70
  3020
  9
$CMLSTYLE
  2
Standard
  9
$CMLJUST
 70
     0
  9
$CMLSCALE
 40
20.0
  9
$PROXYGRAPHICS
 70
     1
  9
$MEASUREMENT
 70
     1
  9
$CELWEIGHT
370
    -1
  9
$ENDCAPS
280
     0
  9
$JOINSTYLE
280
     0
  9
$LWDISPLAY
290
     1
  9
$INSUNITS
 70
     4
  9
$HYPERLINKBASE
  1

  9
$STYLESHEET
  1

  9
$XEDIT
290
     1
  9
$CEPSNTYPE
380
     0
  9
$PSTYLEMODE
290
     1
  9
$FINGERPRINTGUID
  2
{40829187-4E9C-4E29-9406-53A358662323}
  9
$VERSIONGUID
  2
{FAEB1C32-E019-11D5-929B-00C0DF256EC4}
  9
$EXTNAMES
290
     1
  9
$PSVPSCALE
 40
0.0
  9
$OLESTARTUP
290
     0
  0
ENDSEC
  0
SECTION
  2
CLASSES
  0
CLASS
  1
ACDBDICTIONARYWDFLT
  2
AcDbDictionaryWithDefault
  3
ObjectDBX Classes
 90
        0
280
     0
281
     0
  0
CLASS
  1
VISUALSTYLE
  2
AcDbVisualStyle
  3
ObjectDBX Classes
 90
     4095
280
     0
281
     0
  0
CLASS
  1
MATERIAL
  2
AcDbMaterial
  3
ObjectDBX Classes
 90
     1153
280
     0
281
     0
  0
CLASS
  1
SCALE
  2
AcDbScale
  3
ObjectDBX Classes
 90
     1153
280
     0
281
     0
  0
CLASS
  1
DICTIONARYVAR
  2
AcDbDictionaryVar
  3
ObjectDBX Classes
 90
        0
280
     0
281
     0
  0
CLASS
  1
ACDBPLACEHOLDER
  2
AcDbPlaceHolder
  3
ObjectDBX Classes
 90
        0
280
     0
281
     0
  0
CLASS
  1
LAYOUT
  2
AcDbLayout
  3
ObjectDBX Classes
 90
        0
280
     0
281
     0
  0
ENDSEC
  0
SECTION
  2
TABLES
  0
TABLE
  2
VPORT
  5
8
330
0
100
AcDbSymbolTable
 70
     1
  0
VPORT
  5
29
330
8
100
AcDbSymbolTableRecord
100
AcDbViewportTableRecord
  2
*Active
 70
     0
 10
0.0
 20
0.0
 11
1.0
 21
1.0
 12
210.0
 22
148.5
 13
0.0
 23
0.0
 14
10.0
 24
10.0
 15
10.0
 25
10.0
 16
0.0
 26
0.0
 36
1.0
 17
0.0
 27
0.0
 37
0.0
 40
297.0
 41
1.4141414141
 42
50.0
 43
0.0
 44
0.0
 50
0.0
 51
0.0
 71
     0
 72
  2000
 73
     1
 74
     3
 75
     0
 76
     0
 77
     0
 78
     0
281
     0
 65
     1
110
0.0
120
0.0
130
0.0
111
1.0
121
0.0
131
0.0
112
0.0
122
1.0
132
0.0
 79
     0
146
0.0
  0
ENDTAB
  0
TABLE
  2
LTYPE
  5
5
330
0
100
AcDbSymbolTable
 70
     6
  0
LTYPE
  5
14
330
5
100
AcDbSymbolTableRecord
100
AcDbLinetypeTableRecord
  2
ByBlock
 70
     0
  3

 72
    65
 73
     0
 40
0.0
  0
LTYPE
  5
15
330
5
100
AcDbSymbolTableRecord
100
AcDbLinetypeTableRecord
  2
ByLayer
 70
     0
  3

 72
    65
 73
     0
 40
0.0
  0
LTYPE
  5
16
330
5
100
AcDbSymbolTableRecord
100
AcDbLinetypeTableRecord
  2
Continuous
 70
     0
  3
Solid line
 72
    65
 73
     0
 40
0.0
  0
LTYPE
  5
3F
330
5
100
AcDbSymbolTableRecord
100
AcDbLinetypeTableRecord
  2
HIDDEN
 70
     0
  3
Hidden __ __ __ __ __ __ __ __ __ __ __ __ __ __
 72
    65
 73
     2
 40
1.905
 49
1.27
 74
     0
 49
-0.635
 74
     0
  0
LTYPE
  5
40
330
5
100
AcDbSymbolTableRecord
100
AcDbLinetypeTableRecord
  2
PHANTOM
 70
     0
  3
Phantom ______  __  __  ______  __  __  ______
 72
    65
 73
     6
 40
12.7
 49
6.35
 74
     0
 49
-1.27
 74
     0
 49
1.27
 74
     0
 49
-1.27
 74
     0
 49
1.27
 74
     0
 49
-1.27
 74
     0
  0
LTYPE
  5
41
330
5
100
AcDbSymbolTableRecord
100
AcDbLinetypeTableRecord
  2
CENTER
 70
     0
  3
Center ____ _ ____ _ ____ _ ____ _ ____ _ ____
 72
    65
 73
     4
 40
10.16
 49
6.35
 74
     0
 49
-1.27
 74
     0
 49
1.27
 74
     0
 49
-1.27
 74
     0
  0
LTYPE
  5
42
330
5
100
AcDbSymbolTableRecord
100
AcDbLinetypeTableRecord
  2
CENTERX2
 70
     0
  3
Center (2x) ________  __  ________  __  _____
 72
    65
 73
     4
 40
20.32
 49
12.7
 74
     0
 49
-2.54
 74
     0
 49
2.54
 74
     0
 49
-2.54
 74
     0
  0
LTYPE
  5
43
330
5
100
AcDbSymbolTableRecord
100
AcDbLinetypeTableRecord
  2
DOT2
 70
     0
  3
Dot (.5x) ........................................
 72
    65
 73
     2
 40
0.635
 49
0.0
 74
     0
 49
-0.635
 74
     0
  0
ENDTAB
  0
TABLE
  2
LAYER
  5
2
330
0
100
AcDbSymbolTable
 70
    20
  0
LAYER
  5
10
330
2
100
AcDbSymbolTableRecord
100
AcDbLayerTableRecord
  2
0
 70
     0
 62
     7
  6
Continuous
370
    -3
390
F
  0
LAYER
  5
44
330
2
100
AcDbSymbolTableRecord
100
AcDbLayerTableRecord
  2
SLD-DEFPOINTS
 70
     0
 62
     7
  6
Continuous
370
    -1
390
F
  0
LAYER
  5
45
330
2
100
AcDbSymbolTableRecord
100
AcDbLayerTableRecord
  2
1
 70
     0
 62
     4
  6
Continuous
370
    15
390
F
  0
LAYER
  5
46
330
2
100
AcDbSymbolTableRecord
100
AcDbLayerTableRecord
  2
2
 70
     0
 62
     7
  6
Continuous
370
    -3
390
F
  0
LAYER
  5
47
330
2
100
AcDbSymbolTableRecord
100
AcDbLayerTableRecord
  2
3
 70
     0
 62
     1
  6
HIDDEN
370
    -3
390
F
  0
LAYER
  5
48
330
2
100
AcDbSymbolTableRecord
100
AcDbLayerTableRecord
  2
4
 70
     0
 62
     2
  6
CENTERX2
370
    -3
390
F
  0
LAYER
  5
49
330
2
100
AcDbSymbolTableRecord
100
AcDbLayerTableRecord
  2
6
 70
     0
 62
     5
  6
Continuous
370
    -3
390
F
  0
LAYER
  5
4A
330
2
100
AcDbSymbolTableRecord
100
AcDbLayerTableRecord
  2
7
 70
     0
 62
     5
  6
Continuous
370
    -3
390
F
  0
LAYER
  5
4B
330
2
100
AcDbSymbolTableRecord
100
AcDbLayerTableRecord
  2
CUT
 70
     0
 62
     1
  6
Continuous
370
    -3
390
F
  0
LAYER
  5
4C
330
2
100
AcDbSymbolTableRecord
100
AcDbLayerTableRecord
  2
NOCUT
 70
     0
 62
     7
  6
Continuous
370
    -3
390
F
  0
LAYER
  5
4D
330
2
100
AcDbSymbolTableRecord
100
AcDbLayerTableRecord
  2
SK1
 70
     0
 62
     4
  6
Continuous
370
    15
390
F
  0
LAYER
  5
4E
330
2
100
AcDbSymbolTableRecord
100
AcDbLayerTableRecord
  2
SK2
 70
     0
 62
     7
  6
Continuous
370
    -3
390
F
  0
LAYER
  5
4F
330
2
100
AcDbSymbolTableRecord
100
AcDbLayerTableRecord
  2
SK3
 70
     0
 62
     1
  6
HIDDEN
370
    -3
390
F
  0
LAYER
  5
50
330
2
100
AcDbSymbolTableRecord
100
AcDbLayerTableRecord
  2
SK4
 70
     0
 62
     2
  6
CENTERX2
370
    -3
390
F
  0
LAYER
  5
51
330
2
100
AcDbSymbolTableRecord
100
AcDbLayerTableRecord
  2
SK6
 70
     0
 62
     5
  6
Continuous
370
    -3
390
F
  0
LAYER
  5
52
330
2
100
AcDbSymbolTableRecord
100
AcDbLayerTableRecord
  2
SK7
 70
     0
 62
     5
  6
Continuous
370
    -3
390
F
  0
LAYER
  5
53
330
2
100
AcDbSymbolTableRecord
100
AcDbLayerTableRecord
  2
SLD-0
 70
     0
 62
     7
  6
Continuous
370
    -1
390
F
  0
LAYER
  5
54
330
2
100
AcDbSymbolTableRecord
100
AcDbLayerTableRecord
  2
SLD-DEFPOINTS_0
 70
     0
 62
     7
  6
Continuous
370
    -1
390
F
  0
LAYER
  5
55
330
2
100
AcDbSymbolTableRecord
100
AcDbLayerTableRecord
  2
INFTOTAL
 70
     0
 62
     9
  6
Continuous
370
    -3
390
F
  0
LAYER
  5
56
330
2
100
AcDbSymbolTableRecord
100
AcDbLayerTableRecord
  2
INFTEXT63
 70
     0
 62
     5
  6
Continuous
370
    -3
390
F
  0
ENDTAB
  0
TABLE
  2
STYLE
  5
3
330
0
100
AcDbSymbolTable
 70
     2
  0
STYLE
  5
11
330
3
100
AcDbSymbolTableRecord
100
AcDbTextStyleTableRecord
  2
STANDARD
 70
     0
 40
0.0
 41
1.0
 50
0.0
 71
     0
 42
2.5
  3
GOTHIC.TTF
  4

1001
ACAD
1000
CENTURY GOTHIC
1071
       34
  0
STYLE
  5
57
330
3
100
AcDbSymbolTableRecord
100
AcDbTextStyleTableRecord
  2
SLDTEXTSTYLE0
 70
     0
 40
0.0
 41
1.0
 50
0.0
 71
     0
 42
0.2
  3
Monospac821 BT
  4

1001
ACAD
1000
Monospac821 BT
1071
      305
  0
ENDTAB
  0
TABLE
  2
VIEW
  5
6
330
0
100
AcDbSymbolTable
 70
     0
  0
ENDTAB
  0
TABLE
  2
UCS
  5
7
330
0
100
AcDbSymbolTable
 70
     0
  0
ENDTAB
  0
TABLE
  2
APPID
  5
9
330
0
100
AcDbSymbolTable
 70
     1
  0
APPID
  5
12
330
9
100
AcDbSymbolTableRecord
100
AcDbRegAppTableRecord
  2
ACAD
 70
     0
  0
ENDTAB
  0
TABLE
  2
DIMSTYLE
  5
A
330
0
100
AcDbSymbolTable
 70
     6
100
AcDbDimStyleTable
  0
DIMSTYLE
105
27
330
A
100
AcDbSymbolTableRecord
100
AcDbDimStyleTableRecord
  2
ISO-25
 70
     0
 41
2.5
 42
0.625
 43
3.75
 44
1.25
 73
     0
 74
     0
 77
     1
 78
     8
140
2.5
141
2.5
143
0.0393700787
147
0.625
171
     3
172
     1
271
     2
272
     2
274
     3
278
    44
283
     0
284
     8
340
57
  0
DIMSTYLE
105
E7
102
{ACAD_REACTORS
330
C4
102
}
330
A
100
AcDbSymbolTableRecord
100
AcDbDimStyleTableRecord
  2
SLDDIMSTYLE0
 70
     0
 41
3.302
 44
0.0
 45
0.000000001
 73
     0
 77
     1
 78
    12
140
3.5
147
0.875
173
     1
271
     1
272
     2
276
     2
284
    12
340
57
  0
DIMSTYLE
105
F5
102
{ACAD_REACTORS
330
F4
102
}
330
A
100
AcDbSymbolTableRecord
100
AcDbDimStyleTableRecord
  2
SLDDIMSTYLE1
 70
     0
 41
3.302
 44
0.0
 45
0.000000001
 73
     0
 77
     1
 78
    12
140
3.5
141
0.0
147
0.875
173
     1
271
     1
272
     1
276
     2
284
    12
340
57
  0
DIMSTYLE
105
FF
102
{ACAD_REACTORS
330
FE
102
}
330
A
100
AcDbSymbolTableRecord
100
AcDbDimStyleTableRecord
  2
SLDDIMSTYLE2
 70
     0
 41
3.302
 44
0.0
 45
0.000000001
 73
     0
 77
     1
 78
    12
140
3.5
147
0.875
173
     1
271
     1
272
     1
276
     2
284
    12
340
57
  0
DIMSTYLE
105
10A
102
{ACAD_REACTORS
330
109
330
13A
102
}
330
A
100
AcDbSymbolTableRecord
100
AcDbDimStyleTableRecord
  2
SLDDIMSTYLE3
 70
     0
 41
3.302
 44
0.0
 45
0.000000001
 73
     0
 77
     1
 78
    12
140
3.5
147
0.875
173
     1
271
     2
272
     2
276
     2
284
    12
340
57
  0
DIMSTYLE
105
115
102
{ACAD_REACTORS
330
114
330
121
330
12D
330
144
102
}
330
A
100
AcDbSymbolTableRecord
100
AcDbDimStyleTableRecord
  2
SLDDIMSTYLE4
 70
     0
 41
3.302
 44
0.0
 45
0.000000001
 73
     0
 77
     1
 78
    12
140
3.5
147
0.875
173
     1
271
     2
272
     2
276
     2
284
    12
340
57
  0
ENDTAB
  0
TABLE
  2
BLOCK_RECORD
  5
1
330
0
100
AcDbSymbolTable
 70
    12
  0
BLOCK_RECORD
  5
1F
330
1
100
AcDbSymbolTableRecord
100
AcDbBlockTableRecord
  2
*Model_Space
340
22
  0
BLOCK_RECORD
  5
1B
330
1
100
AcDbSymbolTableRecord
100
AcDbBlockTableRecord
  2
*Paper_Space
340
1E
  0
BLOCK_RECORD
  5
23
330
1
100
AcDbSymbolTableRecord
100
AcDbBlockTableRecord
  2
*Paper_Space0
340
26
  0
BLOCK_RECORD
  5
E8
330
1
100
AcDbSymbolTableRecord
100
AcDbBlockTableRecord
  2
*D1
340
0
  0
BLOCK_RECORD
  5
F6
330
1
100
AcDbSymbolTableRecord
100
AcDbBlockTableRecord
  2
*D2
340
0
  0
BLOCK_RECORD
  5
100
330
1
100
AcDbSymbolTableRecord
100
AcDbBlockTableRecord
  2
*D3
340
0
  0
BLOCK_RECORD
  5
10B
330
1
100
AcDbSymbolTableRecord
100
AcDbBlockTableRecord
  2
*D4
340
0
  0
BLOCK_RECORD
  5
116
330
1
100
AcDbSymbolTableRecord
100
AcDbBlockTableRecord
  2
*D5
340
0
  0
BLOCK_RECORD
  5
122
330
1
100
AcDbSymbolTableRecord
100
AcDbBlockTableRecord
  2
*D6
340
0
  0
BLOCK_RECORD
  5
12E
330
1
100
AcDbSymbolTableRecord
100
AcDbBlockTableRecord
  2
*D7
340
0
  0
BLOCK_RECORD
  5
13B
330
1
100
AcDbSymbolTableRecord
100
AcDbBlockTableRecord
  2
*D8
340
0
  0
BLOCK_RECORD
  5
145
330
1
100
AcDbSymbolTableRecord
100
AcDbBlockTableRecord
  2
*D9
340
0
  0
BLOCK_RECORD
  5
151
330
1
100
AcDbSymbolTableRecord
100
AcDbBlockTableRecord
  2
SW_NOTE_0
340
0
102
{BLKREFS
331
159
102
}
  0
BLOCK_RECORD
  5
15A
330
1
100
AcDbSymbolTableRecord
100
AcDbBlockTableRecord
  2
SW_NOTE_1
340
0
102
{BLKREFS
331
160
102
}
  0
ENDTAB
  0
ENDSEC
  0
SECTION
  2
BLOCKS
  0
BLOCK
  5
20
330
1F
100
AcDbEntity
  8
0
100
AcDbBlockBegin
  2
*Model_Space
 70
     0
 10
0.0
 20
0.0
 30
0.0
  3
*Model_Space
  1

  0
ENDBLK
  5
21
330
1F
100
AcDbEntity
  8
0
100
AcDbBlockEnd
  0
BLOCK
  5
1C
330
1B
100
AcDbEntity
 67
     1
  8
0
100
AcDbBlockBegin
  2
*Paper_Space
 70
     0
 10
0.0
 20
0.0
 30
0.0
  3
*Paper_Space
  1

  0
ENDBLK
  5
1D
330
1B
100
AcDbEntity
 67
     1
  8
0
100
AcDbBlockEnd
  0
BLOCK
  5
24
330
23
100
AcDbEntity
  8
0
100
AcDbBlockBegin
  2
*Paper_Space0
 70
     0
 10
0.0
 20
0.0
 30
0.0
  3
*Paper_Space0
  1

  0
ENDBLK
  5
25
330
23
100
AcDbEntity
  8
0
100
AcDbBlockEnd
  0
BLOCK
  5
E9
330
E8
100
AcDbEntity
  8
0
100
AcDbBlockBegin
  2
*D1
 70
     1
 10
0.0
 20
0.0
 30
0.0
  3
*D1
  1

  0
SOLID
  5
EB
330
E8
100
AcDbEntity
  8
2
100
AcDbTrace
 10
118.9632346948
 20
-1.5
 30
0.0
 11
118.4552346948
 21
-4.802
 31
0.0
 12
119.4712346948
 22
-4.802
 32
0.0
 13
119.4712346948
 23
-4.802
 33
0.0
  0
SOLID
  5
EC
330
E8
100
AcDbEntity
  8
2
100
AcDbTrace
 10
118.9632346948
 20
1.5
 30
0.0
 11
119.4712346948
 21
4.802
 31
0.0
 12
118.4552346948
 22
4.802
 32
0.0
 13
118.4552346948
 23
4.802
 33
0.0
  0
LINE
  5
ED
330
E8
100
AcDbEntity
  8
2
100
AcDbLine
 10
25.0
 20
-1.5
 30
0.0
 11
119.9632346948
 21
-1.5
 31
0.0
  0
LINE
  5
EE
330
E8
100
AcDbEntity
  8
2
100
AcDbLine
 10
24.5
 20
1.5
 30
0.0
 11
119.9632346948
 21
1.5
 31
0.0
  0
LINE
  5
EF
330
E8
100
AcDbEntity
  8
2
100
AcDbLine
 10
118.9632346948
 20
-1.5
 30
0.0
 11
118.9632346948
 21
-7.85
 31
0.0
  0
LINE
  5
F0
330
E8
100
AcDbEntity
  8
2
100
AcDbLine
 10
118.9632346948
 20
-1.5
 30
0.0
 11
118.9632346948
 21
1.5
 31
0.0
  0
LINE
  5
F1
330
E8
100
AcDbEntity
  8
2
100
AcDbLine
 10
118.9632346948
 20
1.5
 30
0.0
 11
118.9632346948
 21
14.550646519
 31
0.0
  0
MTEXT
  5
F2
330
E8
100
AcDbEntity
  8
2
100
AcDbMText
 10
114.3565510066
 20
4.9375422464
 30
0.0
 40
3.5
 41
0.0
 71
     1
 72
     1
  1
%%c
  7
SLDTEXTSTYLE0
 11
-1.608122649676637E-16
 21
1.0
 31
0.0
 73
     1
 44
1.0
  0
MTEXT
  5
F3
330
E8
100
AcDbEntity
  8
2
100
AcDbMText
 10
114.3565512394
 20
10.1875674854
 30
0.0
 40
3.5
 41
0.0
 71
     1
 72
     1
  1
3
  7
SLDTEXTSTYLE0
 11
-1.608122649676637E-16
 21
1.0
 31
0.0
 73
     1
 44
1.0
  0
ENDBLK
  5
EA
330
E8
100
AcDbEntity
  8
0
100
AcDbBlockEnd
  0
BLOCK
  5
F7
330
F6
100
AcDbEntity
  8
0
100
AcDbBlockBegin
  2
*D2
 70
     1
 10
0.0
 20
0.0
 30
0.0
  3
*D2
  1

  0
SOLID
  5
F9
330
F6
100
AcDbEntity
  8
SK2
100
AcDbTrace
 10
23.8535533906
 20
1.3535533906
 30
0.0
 11
26.5476302269
 21
3.3292097372
 31
0.0
 12
25.8292097372
 22
4.0476302269
 32
0.0
 13
25.8292097372
 23
4.0476302269
 33
0.0
  0
LINE
  5
FA
330
F6
100
AcDbEntity
  8
SK2
100
AcDbLine
 10
23.8535533906
 20
1.3535533906
 30
0.0
 11
48.4540822453
 21
25.9540822453
 31
0.0
  0
LINE
  5
FB
330
F6
100
AcDbEntity
  8
SK2
100
AcDbLine
 10
23.8535533906
 20
1.3535533906
 30
0.0
 11
23.5
 21
1.0
 31
0.0
  0
MTEXT
  5
FC
330
F6
100
AcDbEntity
  8
SK2
100
AcDbMText
 10
36.2328663835
 20
20.2291880259
 30
0.0
 40
3.5
 41
0.0
 71
     1
 72
     1
  1
R
  7
SLDTEXTSTYLE0
 11
0.7071067811865464
 21
0.7071067811865488
 31
0.0
 73
     1
 44
1.0
  0
MTEXT
  5
FD
330
F6
100
AcDbEntity
  8
SK2
100
AcDbMText
 10
38.1954971398
 20
22.1918187823
 30
0.0
 40
3.5
 41
0.0
 71
     1
 72
     1
  1
0,5
  7
SLDTEXTSTYLE0
 11
0.7071067811865464
 21
0.7071067811865488
 31
0.0
 73
     1
 44
1.0
  0
ENDBLK
  5
F8
330
F6
100
AcDbEntity
  8
0
100
AcDbBlockEnd
  0
BLOCK
  5
101
330
100
100
AcDbEntity
  8
0
100
AcDbBlockBegin
  2
*D3
 70
     1
 10
0.0
 20
0.0
 30
0.0
  3
*D3
  1

  0
SOLID
  5
103
330
100
100
AcDbEntity
  8
SK2
100
AcDbTrace
 10
24.0
 20
83.5998788878
 30
0.0
 11
20.698
 21
84.1078788878
 31
0.0
 12
20.698
 22
83.0918788878
 32
0.0
 13
20.698
 23
83.0918788878
 33
0.0
  0
SOLID
  5
104
330
100
100
AcDbEntity
  8
SK2
100
AcDbTrace
 10
-36.0
 20
83.5998788878
 30
0.0
 11
-32.698
 21
83.0918788878
 31
0.0
 12
-32.698
 22
84.1078788878
 32
0.0
 13
-32.698
 23
84.1078788878
 33
0.0
  0
LINE
  5
105
330
100
100
AcDbEntity
  8
SK2
100
AcDbLine
 10
24.0
 20
2.0
 30
0.0
 11
24.0
 21
84.5998788878
 31
0.0
  0
LINE
  5
106
330
100
100
AcDbEntity
  8
SK2
100
AcDbLine
 10
-36.0
 20
4.0
 30
0.0
 11
-36.0
 21
84.5998788878
 31
0.0
  0
LINE
  5
107
330
100
100
AcDbEntity
  8
SK2
100
AcDbLine
 10
24.0
 20
83.5998788878
 30
0.0
 11
-36.0
 21
83.5998788878
 31
0.0
  0
MTEXT
  5
108
330
100
100
AcDbEntity
  8
SK2
100
AcDbMText
 10
-7.4043972691
 20
88.2065623432
 30
0.0
 40
3.5
 41
0.0
 71
     1
 72
     1
  1
60
  7
SLDTEXTSTYLE0
 73
     1
 44
1.0
  0
ENDBLK
  5
102
330
100
100
AcDbEntity
  8
0
100
AcDbBlockEnd
  0
BLOCK
  5
10C
330
10B
100
AcDbEntity
  8
0
100
AcDbBlockBegin
  2
*D4
 70
     1
 10
0.0
 20
0.0
 30
0.0
  3
*D4
  1

  0
SOLID
  5
10E
330
10B
100
AcDbEntity
  8
SK2
100
AcDbTrace
 10
0.0
 20
48.7509423314
 30
0.0
 11
-3.302
 21
49.2589423314
 31
0.0
 12
-3.302
 22
48.2429423314
 32
0.0
 13
-3.302
 23
48.2429423314
 33
0.0
  0
SOLID
  5
10F
330
10B
100
AcDbEntity
  8
SK2
100
AcDbTrace
 10
-36.0
 20
48.7509423314
 30
0.0
 11
-32.698
 21
48.2429423314
 31
0.0
 12
-32.698
 22
49.2589423314
 32
0.0
 13
-32.698
 23
49.2589423314
 33
0.0
  0
LINE
  5
110
330
10B
100
AcDbEntity
  8
SK2
100
AcDbLine
 10
0.0
 20
1.0
 30
0.0
 11
0.0
 21
49.7509423314
 31
0.0
  0
LINE
  5
111
330
10B
100
AcDbEntity
  8
SK2
100
AcDbLine
 10
-36.0
 20
1.0
 30
0.0
 11
-36.0
 21
49.7509423314
 31
0.0
  0
LINE
  5
112
330
10B
100
AcDbEntity
  8
SK2
100
AcDbLine
 10
0.0
 20
48.7509423314
 30
0.0
 11
-36.0
 21
48.7509423314
 31
0.0
  0
MTEXT
  5
113
330
10B
100
AcDbEntity
  8
SK2
100
AcDbMText
 10
-21.6692871854
 20
53.3576257868
 30
0.0
 40
3.5
 41
0.0
 71
     1
 72
     1
  1
36
  7
SLDTEXTSTYLE0
 73
     1
 44
1.0
  0
ENDBLK
  5
10D
330
10B
100
AcDbEntity
  8
0
100
AcDbBlockEnd
  0
BLOCK
  5
117
330
116
100
AcDbEntity
  8
0
100
AcDbBlockBegin
  2
*D5
 70
     1
 10
0.0
 20
0.0
 30
0.0
  3
*D5
  1

  0
SOLID
  5
119
330
116
100
AcDbEntity
  8
SK2
100
AcDbTrace
 10
10.0
 20
54.6509423314
 30
0.0
 11
6.698
 21
55.1589423314
 31
0.0
 12
6.698
 22
54.1429423314
 32
0.0
 13
6.698
 23
54.1429423314
 33
0.0
  0
SOLID
  5
11A
330
116
100
AcDbEntity
  8
SK2
100
AcDbTrace
 10
24.0
 20
54.6509423314
 30
0.0
 11
27.302
 21
54.1429423314
 31
0.0
 12
27.302
 22
55.1589423314
 32
0.0
 13
27.302
 23
55.1589423314
 33
0.0
  0
LINE
  5
11B
330
116
100
AcDbEntity
  8
SK2
100
AcDbLine
 10
10.0
 20
2.4
 30
0.0
 11
10.0
 21
55.6509423314
 31
0.0
  0
LINE
  5
11C
330
116
100
AcDbEntity
  8
SK2
100
AcDbLine
 10
24.0
 20
2.5
 30
0.0
 11
24.0
 21
55.6509423314
 31
0.0
  0
LINE
  5
11D
330
116
100
AcDbEntity
  8
SK2
100
AcDbLine
 10
10.0
 20
54.6509423314
 30
0.0
 11
3.65
 21
54.6509423314
 31
0.0
  0
LINE
  5
11E
330
116
100
AcDbEntity
  8
SK2
100
AcDbLine
 10
10.0
 20
54.6509423314
 30
0.0
 11
24.0
 21
54.6509423314
 31
0.0
  0
LINE
  5
11F
330
116
100
AcDbEntity
  8
SK2
100
AcDbLine
 10
24.0
 20
54.6509423314
 30
0.0
 11
30.35
 21
54.6509423314
 31
0.0
  0
MTEXT
  5
120
330
116
100
AcDbEntity
  8
SK2
100
AcDbMText
 10
13.8539392734
 20
59.2576257868
 30
0.0
 40
3.5
 41
0.0
 71
     1
 72
     1
  1
14
  7
SLDTEXTSTYLE0
 73
     1
 44
1.0
  0
ENDBLK
  5
118
330
116
100
AcDbEntity
  8
0
100
AcDbBlockEnd
  0
BLOCK
  5
123
330
122
100
AcDbEntity
  8
0
100
AcDbBlockBegin
  2
*D6
 70
     1
 10
0.0
 20
0.0
 30
0.0
  3
*D6
  1

  0
SOLID
  5
125
330
122
100
AcDbEntity
  8
SK2
100
AcDbTrace
 10
24.0
 20
42.2509423314
 30
0.0
 11
27.302
 21
41.7429423314
 31
0.0
 12
27.302
 22
42.7589423314
 32
0.0
 13
27.302
 23
42.7589423314
 33
0.0
  0
SOLID
  5
126
330
122
100
AcDbEntity
  8
SK2
100
AcDbTrace
 10
20.0
 20
42.2509423314
 30
0.0
 11
16.698
 21
42.7589423314
 31
0.0
 12
16.698
 22
41.7429423314
 32
0.0
 13
16.698
 23
41.7429423314
 33
0.0
  0
LINE
  5
127
330
122
100
AcDbEntity
  8
SK2
100
AcDbLine
 10
24.0
 20
2.5
 30
0.0
 11
24.0
 21
43.2509423314
 31
0.0
  0
LINE
  5
128
330
122
100
AcDbEntity
  8
SK2
100
AcDbLine
 10
20.0
 20
1.9
 30
0.0
 11
20.0
 21
43.2509423314
 31
0.0
  0
LINE
  5
129
330
122
100
AcDbEntity
  8
SK2
100
AcDbLine
 10
24.0
 20
42.2509423314
 30
0.0
 11
30.35
 21
42.2509423314
 31
0.0
  0
LINE
  5
12A
330
122
100
AcDbEntity
  8
SK2
100
AcDbLine
 10
24.0
 20
42.2509423314
 30
0.0
 11
20.0
 21
42.2509423314
 31
0.0
  0
LINE
  5
12B
330
122
100
AcDbEntity
  8
SK2
100
AcDbLine
 10
20.0
 20
42.2509423314
 30
0.0
 11
13.65
 21
42.2509423314
 31
0.0
  0
MTEXT
  5
12C
330
122
100
AcDbEntity
  8
SK2
100
AcDbMText
 10
20.5622468333
 20
46.8576257868
 30
0.0
 40
3.5
 41
0.0
 71
     1
 72
     1
  1
4
  7
SLDTEXTSTYLE0
 73
     1
 44
1.0
  0
ENDBLK
  5
124
330
122
100
AcDbEntity
  8
0
100
AcDbBlockEnd
  0
BLOCK
  5
12F
330
12E
100
AcDbEntity
  8
0
100
AcDbBlockBegin
  2
*D7
 70
     1
 10
0.0
 20
0.0
 30
0.0
  3
*D7
  1

  0
SOLID
  5
131
330
12E
100
AcDbEntity
  8
SK2
100
AcDbTrace
 10
-1.9960344536
 20
1.4
 30
0.0
 11
-1.4880344536
 21
4.702
 31
0.0
 12
-2.5040344536
 22
4.702
 32
0.0
 13
-2.5040344536
 23
4.702
 33
0.0
  0
SOLID
  5
132
330
12E
100
AcDbEntity
  8
SK2
100
AcDbTrace
 10
-1.9960344536
 20
-1.4
 30
0.0
 11
-2.5040344536
 21
-4.702
 31
0.0
 12
-1.4880344536
 22
-4.702
 32
0.0
 13
-1.4880344536
 23
-4.702
 33
0.0
  0
LINE
  5
133
330
12E
100
AcDbEntity
  8
SK2
100
AcDbLine
 10
9.0
 20
1.4
 30
0.0
 11
-2.9960344536
 21
1.4
 31
0.0
  0
LINE
  5
134
330
12E
100
AcDbEntity
  8
SK2
100
AcDbLine
 10
9.0
 20
-1.4
 30
0.0
 11
-2.9960344536
 21
-1.4
 31
0.0
  0
LINE
  5
135
330
12E
100
AcDbEntity
  8
SK2
100
AcDbLine
 10
-1.9960344536
 20
1.4
 30
0.0
 11
-1.9960344536
 21
20.7621590349
 31
0.0
  0
LINE
  5
136
330
12E
100
AcDbEntity
  8
SK2
100
AcDbLine
 10
-1.9960344536
 20
1.4
 30
0.0
 11
-1.9960344536
 21
-1.4
 31
0.0
  0
LINE
  5
137
330
12E
100
AcDbEntity
  8
SK2
100
AcDbLine
 10
-1.9960344536
 20
-1.4
 30
0.0
 11
-1.9960344536
 21
-7.75
 31
0.0
  0
MTEXT
  5
138
330
12E
100
AcDbEntity
  8
SK2
100
AcDbMText
 10
-6.6027181418
 20
5.597896695
 30
0.0
 40
3.5
 41
0.0
 71
     1
 72
     1
  1
%%c
  7
SLDTEXTSTYLE0
 11
-7.044195017643634E-15
 21
1.0
 31
0.0
 73
     1
 44
1.0
  0
MTEXT
  5
139
330
12E
100
AcDbEntity
  8
SK2
100
AcDbMText
 10
-6.602717909
 20
10.8479219341
 30
0.0
 40
3.5
 41
0.0
 71
     1
 72
     1
  1
2,8
  7
SLDTEXTSTYLE0
 11
-7.044195017643634E-15
 21
1.0
 31
0.0
 73
     1
 44
1.0
  0
ENDBLK
  5
130
330
12E
100
AcDbEntity
  8
0
100
AcDbBlockEnd
  0
BLOCK
  5
13C
330
13B
100
AcDbEntity
  8
0
100
AcDbBlockBegin
  2
*D8
 70
     1
 10
0.0
 20
0.0
 30
0.0
  3
*D8
  1

  0
SOLID
  5
13E
330
13B
100
AcDbEntity
  8
2
100
AcDbTrace
 10
0.0
 20
74.9999940533
 30
0.0
 11
3.302
 21
74.4919940533
 31
0.0
 12
3.302
 22
75.5079940533
 32
0.0
 13
3.302
 23
75.5079940533
 33
0.0
  0
SOLID
  5
13F
330
13B
100
AcDbEntity
  8
2
100
AcDbTrace
 10
24.0
 20
74.9999940533
 30
0.0
 11
20.698
 21
75.5079940533
 31
0.0
 12
20.698
 22
74.4919940533
 32
0.0
 13
20.698
 23
74.4919940533
 33
0.0
  0
LINE
  5
140
330
13B
100
AcDbEntity
  8
2
100
AcDbLine
 10
0.0
 20
2.5
 30
0.0
 11
0.0
 21
75.9999940533
 31
0.0
  0
LINE
  5
141
330
13B
100
AcDbEntity
  8
2
100
AcDbLine
 10
24.0
 20
2.5
 30
0.0
 11
24.0
 21
75.9999940533
 31
0.0
  0
LINE
  5
142
330
13B
100
AcDbEntity
  8
2
100
AcDbLine
 10
0.0
 20
74.9999940533
 30
0.0
 11
24.0
 21
74.9999940533
 31
0.0
  0
MTEXT
  5
143
330
13B
100
AcDbEntity
  8
2
100
AcDbMText
 10
8.9876126627
 20
79.6066775087
 30
0.0
 40
3.5
 41
0.0
 71
     1
 72
     1
  1
24
  7
SLDTEXTSTYLE0
 73
     1
 44
1.0
  0
ENDBLK
  5
13D
330
13B
100
AcDbEntity
  8
0
100
AcDbBlockEnd
  0
BLOCK
  5
146
330
145
100
AcDbEntity
  8
0
100
AcDbBlockBegin
  2
*D9
 70
     1
 10
0.0
 20
0.0
 30
0.0
  3
*D9
  1

  0
SOLID
  5
148
330
145
100
AcDbEntity
  8
SK2
100
AcDbTrace
 10
-37.7386612653
 20
3.0
 30
0.0
 11
-37.2306612653
 21
6.302
 31
0.0
 12
-38.2466612653
 22
6.302
 32
0.0
 13
-38.2466612653
 23
6.302
 33
0.0
  0
SOLID
  5
149
330
145
100
AcDbEntity
  8
SK2
100
AcDbTrace
 10
-37.7386612653
 20
-3.0
 30
0.0
 11
-38.2466612653
 21
-6.302
 31
0.0
 12
-37.2306612653
 22
-6.302
 32
0.0
 13
-37.2306612653
 23
-6.302
 33
0.0
  0
LINE
  5
14A
330
145
100
AcDbEntity
  8
SK2
100
AcDbLine
 10
-37.0
 20
3.0
 30
0.0
 11
-38.7386612653
 21
3.0
 31
0.0
  0
LINE
  5
14B
330
145
100
AcDbEntity
  8
SK2
100
AcDbLine
 10
-37.0
 20
-3.0
 30
0.0
 11
-38.7386612653
 21
-3.0
 31
0.0
  0
LINE
  5
14C
330
145
100
AcDbEntity
  8
SK2
100
AcDbLine
 10
-37.7386612653
 20
3.0
 30
0.0
 11
-37.7386612653
 21
17.9865800013
 31
0.0
  0
LINE
  5
14D
330
145
100
AcDbEntity
  8
SK2
100
AcDbLine
 10
-37.7386612653
 20
3.0
 30
0.0
 11
-37.7386612653
 21
-3.0
 31
0.0
  0
LINE
  5
14E
330
145
100
AcDbEntity
  8
SK2
100
AcDbLine
 10
-37.7386612653
 20
-3.0
 30
0.0
 11
-37.7386612653
 21
-9.35
 31
0.0
  0
MTEXT
  5
14F
330
145
100
AcDbEntity
  8
SK2
100
AcDbMText
 10
-42.3453449535
 20
8.3734757286
 30
0.0
 40
3.5
 41
0.0
 71
     1
 72
     1
  1
%%c
  7
SLDTEXTSTYLE0
 11
-7.044195017643634E-15
 21
1.0
 31
0.0
 73
     1
 44
1.0
  0
MTEXT
  5
150
330
145
100
AcDbEntity
  8
SK2
100
AcDbMText
 10
-42.3453447206
 20
13.6235009677
 30
0.0
 40
3.5
 41
0.0
 71
     1
 72
     1
  1
6
  7
SLDTEXTSTYLE0
 11
-7.044195017643634E-15
 21
1.0
 31
0.0
 73
     1
 44
1.0
  0
ENDBLK
  5
147
330
145
100
AcDbEntity
  8
0
100
AcDbBlockEnd
  0
BLOCK
  5
152
330
151
100
AcDbEntity
  8
0
100
AcDbBlockBegin
  2
SW_NOTE_0
 70
     0
 10
0.0
 20
0.0
 30
0.0
  3
SW_NOTE_0
  1

  0
MTEXT
  5
154
330
151
100
AcDbEntity
  8
INFTEXT63
 62
     0
100
AcDbMText
 10
0.0
 20
4.6066838046
 30
0.0
 40
3.5
 41
0.0
 71
     1
 72
     1
  1
Katalogware 2570170002
  7
SLDTEXTSTYLE0
 73
     1
 44
1.0
  0
MTEXT
  5
155
330
151
100
AcDbEntity
  8
INFTEXT63
 62
     0
100
AcDbMText
 10
0.0
 20
0.0177948465
 30
0.0
 40
3.5
 41
0.0
 71
     1
 72
     1
  1
H. Sartorius Nachf. GmbH & Co. KG
  7
SLDTEXTSTYLE0
 73
     1
 44
1.0
  0
MTEXT
  5
156
330
151
100
AcDbEntity
  8
INFTEXT63
 62
     0
100
AcDbMText
 10
0.0
 20
-4.5710941116
 30
0.0
 40
3.5
 41
0.0
 71
     1
 72
     1
  1
Harkortstrasse 54 
  7
SLDTEXTSTYLE0
 73
     1
 44
1.0
  0
MTEXT
  5
157
330
151
100
AcDbEntity
  8
INFTEXT63
 62
     0
100
AcDbMText
 10
0.0
 20
-9.1599830697
 30
0.0
 40
3.5
 41
0.0
 71
     1
 72
     1
  1
40880 Ratingen
  7
SLDTEXTSTYLE0
 73
     1
 44
1.0
  0
MTEXT
  5
158
330
151
100
AcDbEntity
  8
INFTEXT63
 62
     0
100
AcDbMText
 10
0.0
 20
-13.7488720278
 30
0.0
 40
3.5
 41
0.0
 71
     1
 72
     1
  1
Deutschland
  7
SLDTEXTSTYLE0
 73
     1
 44
1.0
  0
ENDBLK
  5
153
330
151
100
AcDbEntity
  8
0
100
AcDbBlockEnd
  0
BLOCK
  5
15B
330
15A
100
AcDbEntity
  8
0
100
AcDbBlockBegin
  2
SW_NOTE_1
 70
     0
 10
0.0
 20
0.0
 30
0.0
  3
SW_NOTE_1
  1

  0
MTEXT
  5
15D
330
15A
100
AcDbEntity
  8
INFTEXT63
 62
     0
100
AcDbMText
 10
0.0
 20
4.6066838046
 30
0.0
 40
3.5
 41
0.0
 71
     1
 72
     1
  1
Copyright
  7
SLDTEXTSTYLE0
 73
     1
 44
1.0
  0
MTEXT
  5
15E
330
15A
100
AcDbEntity
  8
INFTEXT63
 62
     0
100
AcDbMText
 10
0.0
 20
-4.5710941116
 30
0.0
 40
3.5
 41
0.0
 71
     1
 72
     1
  1
Zeichnung nach DIN SPEC 69874 konvertiert mit SolidBMG Version 1.2
  7
SLDTEXTSTYLE0
 73
     1
 44
1.0
  0
MTEXT
  5
15F
330
15A
100
AcDbEntity
  8
INFTEXT63
 62
     0
100
AcDbMText
 10
0.0
 20
-9.1599830697
 30
0.0
 40
3.5
 41
0.0
 71
     1
 72
     1
  1
Geprüft mit DWPTools V1.0.6-BMG Werkzeug / Schneidwerkzeug
  7
SLDTEXTSTYLE0
 73
     1
 44
1.0
  0
ENDBLK
  5
15C
330
15A
100
AcDbEntity
  8
0
100
AcDbBlockEnd
  0
ENDSEC
  0
SECTION
  2
ENTITIES
  0
LINE
  5
58
330
1F
100
AcDbEntity
  8
SK1
  6
Continuous
370
    15
100
AcDbLine
 10
-36.0
 20
-3.0
 30
0.0
 11
0.0
 21
-3.0
 31
0.0
  0
LINE
  5
59
330
1F
100
AcDbEntity
  8
SK1
  6
Continuous
370
    15
100
AcDbLine
 10
0.0
 20
3.0
 30
0.0
 11
-36.0
 21
3.0
 31
0.0
  0
LINE
  5
5A
330
1F
100
AcDbEntity
  8
1
  6
Continuous
370
    15
100
AcDbLine
 10
20.7885115881
 20
1.5
 30
0.0
 11
20.0
 21
1.5
 31
0.0
  0
SPLINE
  5
5B
330
1F
100
AcDbEntity
  8
1
  6
Continuous
370
    15
100
AcDbSpline
210
0.0
220
0.0
230
1.0
 70
     8
 71
     3
 72
    14
 73
    10
 74
     0
 42
0.00000001
 43
0.00000001
 40
0.0
 40
0.0
 40
0.0
 40
0.0
 40
0.0179424686969242
 40
0.0638418441337209
 40
0.1194512897267038
 40
0.2642563852758192
 40
0.4578697151542825
 40
0.7026128817544615
 40
1.0
 40
1.0
 40
1.0
 40
1.0
 10
22.9507444435455
 20
0.980034922833109
 30
0.0
 10
22.95114156897375
 20
0.9809716546243202
 30
0.0
 10
22.95255459747725
 20
0.9843046789711786
 30
0.0
 10
22.93823809503226
 20
0.9909569461315575
 30
0.0
 10
22.89939091192473
 20
1.004591937179382
 30
0.0
 10
22.80975828231484
 20
1.027568354022543
 30
0.0
 10
22.65966023686248
 20
1.067053256572558
 30
0.0
 10
22.45550254366359
 20
1.126837548617903
 30
0.0
 10
22.29826088227825
 20
1.184560360516645
 30
0.0
 10
22.21200551921395
 20
1.216224374071027
 30
0.0
  0
LINE
  5
5C
330
1F
100
AcDbEntity
  8
1
  6
Continuous
370
    15
100
AcDbLine
 10
20.0
 20
-1.5
 30
0.0
 11
20.7885115881
 21
-1.5
 31
0.0
  0
ARC
  5
5D
330
1F
100
AcDbEntity
  8
1
  6
Continuous
370
    15
100
AcDbCircle
 10
23.5
 20
-1.0
 30
0.0
 40
0.5000000000000012
100
AcDbArc
 50
278.9447935158
 51
331.6197785349
  0
ARC
  5
5E
330
1F
100
AcDbEntity
  8
1
  6
Continuous
370
    15
100
AcDbCircle
 10
23.5
 20
1.0
 30
0.0
 40
0.5000000000000009
100
AcDbArc
 50
28.3724779875
 51
81.0894418455
  0
LINE
  5
5F
330
1F
100
AcDbEntity
  8
1
  6
Continuous
370
    15
100
AcDbLine
 10
0.0
 20
-3.0
 30
0.0
 11
10.0
 21
-3.0
 31
0.0
  0
LINE
  5
60
330
1F
100
AcDbEntity
  8
1
  6
Continuous
370
    15
100
AcDbLine
 10
10.0
 20
3.0
 30
0.0
 11
0.0
 21
3.0
 31
0.0
  0
LINE
  5
61
330
1F
100
AcDbEntity
  8
1
  6
Continuous
370
    15
100
AcDbLine
 10
10.0
 20
-1.4
 30
0.0
 11
19.40083393
 21
-1.4
 31
0.0
  0
LINE
  5
62
330
1F
100
AcDbEntity
  8
1
  6
Continuous
370
    15
100
AcDbLine
 10
19.40083393
 20
1.4
 30
0.0
 11
10.0
 21
1.4
 31
0.0
  0
LINE
  5
63
330
1F
100
AcDbEntity
  8
SK1
  6
Continuous
370
    15
100
AcDbLine
 10
0.0
 20
3.0
 30
0.0
 11
0.0
 21
-3.0
 31
0.0
  0
LINE
  5
64
330
1F
100
AcDbEntity
  8
SK1
  6
Continuous
370
    15
100
AcDbLine
 10
-36.0
 20
0.0
 30
0.0
 11
-36.0
 21
3.0
 31
0.0
  0
LINE
  5
65
330
1F
100
AcDbEntity
  8
SK1
  6
Continuous
370
    15
100
AcDbLine
 10
-36.0
 20
-3.0
 30
0.0
 11
-36.0
 21
0.0
 31
0.0
  0
SPLINE
  5
66
330
1F
100
AcDbEntity
  8
1
  6
Continuous
370
    15
100
AcDbSpline
210
0.0
220
0.0
230
1.0
 70
     8
 71
     3
 72
    14
 73
    10
 74
     0
 42
0.00000001
 43
0.00000001
 40
0.0
 40
0.0
 40
0.0
 40
0.0
 40
0.2500000000000001
 40
0.2500000000000001
 40
0.5
 40
0.5
 40
0.75
 40
0.75
 40
1.0
 40
1.0
 40
1.0
 40
1.0
 10
20.0
 20
-0.0000000000000092
 30
0.0
 10
20.29384013748466
 20
-0.1936492309089838
 30
0.0
 10
20.58293817817373
 20
-0.3841474920284682
 30
0.0
 10
21.16476787828232
 20
-0.7395940683636688
 30
0.0
 10
21.45937057470946
 20
-0.9052907723616274
 30
0.0
 10
22.03957924888994
 20
-1.180183598923883
 30
0.0
 10
22.32803739007488
 20
-1.291515363607777
 30
0.0
 10
22.91444361387802
 20
-1.448809480715264
 30
0.0
 10
23.20617591482267
 20
-1.492775941576048
 30
0.0
 10
23.5
 20
-1.499179801586189
 30
0.0
  0
SPLINE
  5
67
330
1F
100
AcDbEntity
  8
1
  6
Continuous
370
    15
100
AcDbSpline
210
0.0
220
0.0
230
1.0
 70
     8
 71
     3
 72
    22
 73
    18
 74
     0
 42
0.00000001
 43
0.00000001
 40
0.0
 40
0.0
 40
0.0
 40
0.0
 40
0.125
 40
0.125
 40
0.25
 40
0.25
 40
0.375
 40
0.375
 40
0.5
 40
0.5
 40
0.625
 40
0.625
 40
0.75
 40
0.75
 40
0.875
 40
0.875
 40
1.0
 40
1.0
 40
1.0
 40
1.0
 10
23.49999999999994
 20
-1.392568561120422
 30
0.0
 10
23.35355221605111
 20
-1.356378549621321
 30
0.0
 10
23.20584607512695
 20
-1.313503792570556
 30
0.0
 10
22.91480459080541
 20
-1.210341531715468
 30
0.0
 10
22.77112264037684
 20
-1.149856151717293
 30
0.0
 10
22.48195960288913
 20
-1.015568612115172
 30
0.0
 10
22.33531647201778
 20
-0.942596907999824
 30
0.0
 10
22.03941196817182
 20
-0.7882502448739788
 30
0.0
 10
21.89442746577463
 20
-0.7041678552195909
 30
0.0
 10
21.6057687209555
 20
-0.5281225435853371
 30
0.0
 10
21.46203747463231
 20
-0.4362356145796605
 30
0.0
 10
21.17060014762442
 20
-0.2526979039760287
 30
0.0
 10
21.02441502773496
 20
-0.1588734209305447
 30
0.0
 10
20.73334187932148
 20
0.0370473174429036
 30
0.0
 10
20.58832056521427
 20
0.1366082026576575
 30
0.0
 10
20.29605547459122
 20
0.3270908676781639
 30
0.0
 10
20.14720401586197
 20
0.4167658087380147
 30
0.0
 10
20.00000000000078
 20
0.5073764318157946
 30
0.0
  0
LINE
  5
68
330
1F
100
AcDbEntity
  8
1
  6
Continuous
370
    15
100
AcDbLine
 10
23.5
 20
-1.4991798016
 30
0.0
 11
23.5
 21
-1.3925685611
 31
0.0
  0
LINE
  5
69
330
1F
100
AcDbEntity
  8
1
  6
Continuous
370
    15
100
AcDbLine
 10
20.0
 20
0.0
 30
0.0
 11
20.0
 21
0.5073764318
 31
0.0
  0
LINE
  5
6A
330
1F
100
AcDbEntity
  8
1
  6
Continuous
370
    15
100
AcDbLine
 10
20.0
 20
1.401194375
 30
0.0
 11
20.0
 21
1.5
 31
0.0
  0
SPLINE
  5
6B
330
1F
100
AcDbEntity
  8
1
  6
Continuous
370
    15
100
AcDbSpline
210
0.0
220
0.0
230
1.0
 70
     8
 71
     3
 72
    14
 73
    10
 74
     0
 42
0.00000001
 43
0.00000001
 40
0.0
 40
0.0
 40
0.0
 40
0.0
 40
0.25
 40
0.25
 40
0.5
 40
0.5
 40
0.75
 40
0.75
 40
1.0
 40
1.0
 40
1.0
 40
1.0
 10
20.0
 20
1.500000000000016
 30
0.0
 10
20.29384013748546
 20
1.500000000000013
 30
0.0
 10
20.58293817817384
 20
1.462590638542801
 30
0.0
 10
21.16476787828226
 20
1.318992526751289
 30
0.0
 10
21.45937057470945
 20
1.211200470536618
 30
0.0
 10
22.03957924888993
 20
0.9453701048702249
 30
0.0
 10
22.32803739007509
 20
0.7869776145973866
 30
0.0
 10
22.91444361387815
 20
0.433931779087147
 30
0.0
 10
23.20617591482254
 20
0.2431661743391345
 30
0.0
 10
23.49999999999999
 20
0.0495976059506196
 30
0.0
  0
SPLINE
  5
6C
330
1F
100
AcDbEntity
  8
1
  6
Continuous
370
    15
100
AcDbSpline
210
0.0
220
0.0
230
1.0
 70
     8
 71
     3
 72
    14
 73
    10
 74
     0
 42
0.00000001
 43
0.00000001
 40
0.0
 40
0.0
 40
0.0
 40
0.0
 40
0.5
 40
0.5
 40
0.75
 40
0.75
 40
0.875
 40
0.875
 40
1.0
 40
1.0
 40
1.0
 40
1.0
 10
23.49999999999999
 20
0.049597605950629
 30
0.0
 10
23.61316420303635
 20
-0.0249539161322152
 30
0.0
 10
23.7245292199423
 20
-0.099264942808881
 30
0.0
 10
23.86623644197996
 20
-0.1725126647840133
 30
0.0
 10
23.90691756241694
 20
-0.1893939231981043
 30
0.0
 10
23.95428424775997
 20
-0.2013068651549128
 30
0.0
 10
23.96695070376592
 20
-0.2047632525171395
 30
0.0
 10
23.98547058536239
 20
-0.2224316213226377
 30
0.0
 10
23.99156869742653
 20
-0.2352661453721713
 30
0.0
 10
23.99509260229052
 20
-0.2513278243325573
 30
0.0
  0
SPLINE
  5
6D
330
1F
100
AcDbEntity
  8
1
  6
Continuous
370
    15
100
AcDbSpline
210
0.0
220
0.0
230
1.0
 70
     8
 71
     3
 72
     8
 73
     4
 74
     0
 42
0.00000001
 43
0.00000001
 40
0.0
 40
0.0
 40
0.0
 40
0.0
 40
1.0
 40
1.0
 40
1.0
 40
1.0
 10
23.99509260227763
 20
-0.2513278243291294
 30
0.0
 10
23.89777393811149
 20
-0.2269962209494388
 30
0.0
 10
23.79638949668161
 20
-0.2058773556734371
 30
0.0
 10
23.69508216735204
 20
-0.1857459046056124
 30
0.0
  0
SPLINE
  5
6E
330
1F
100
AcDbEntity
  8
1
  6
Continuous
370
    15
100
AcDbSpline
210
0.0
220
0.0
230
1.0
 70
     8
 71
     3
 72
    16
 73
    12
 74
     0
 42
0.00000001
 43
0.00000001
 40
0.0
 40
0.0
 40
0.0
 40
0.0
 40
0.125
 40
0.125
 40
0.1875
 40
0.1875
 40
0.2499999999999999
 40
0.2499999999999999
 40
0.4999999999999999
 40
0.4999999999999999
 40
1.0
 40
1.0
 40
1.0
 40
1.0
 10
23.69508216735203
 20
-0.1857459046056107
 30
0.0
 10
23.70251696306898
 20
-0.2279213912496861
 30
0.0
 10
23.70765466529343
 20
-0.2766190730114372
 30
0.0
 10
23.7091433802286
 20
-0.3538775004044825
 30
0.0
 10
23.70874647036655
 20
-0.3803659012527607
 30
0.0
 10
23.70899758572565
 20
-0.4324821004046282
 30
0.0
 10
23.70925974191945
 20
-0.4584297159716903
 30
0.0
 10
23.71125545125239
 20
-0.5875759826776072
 30
0.0
 10
23.71503960020078
 20
-0.6895142891188928
 30
0.0
 10
23.73345783705251
 20
-0.9832698757828047
 30
0.0
 10
23.75519309372504
 20
-1.165559063171838
 30
0.0
 10
23.78678936598451
 20
-1.328435433195534
 30
0.0
  0
SPLINE
  5
6F
330
1F
100
AcDbEntity
  8
1
  6
Continuous
370
    15
100
AcDbSpline
210
0.0
220
0.0
230
1.0
 70
     8
 71
     3
 72
    10
 73
     6
 74
     0
 42
0.00000001
 43
0.00000001
 40
0.0
 40
0.0
 40
0.0
 40
0.0
 40
0.5
 40
0.5
 40
1.0
 40
1.0
 40
1.0
 40
1.0
 10
23.78678936598453
 20
-1.328435433195538
 30
0.0
 10
23.74481931083268
 20
-1.361663354309846
 30
0.0
 10
23.6949196211839
 20
-1.385508962710447
 30
0.0
 10
23.59373613046403
 20
-1.406287087715994
 30
0.0
 10
23.5450521819787
 20
-1.403701805607441
 30
0.0
 10
23.5000000000019
 20
-1.392568561117081
 30
0.0
  0
SPLINE
  5
70
330
1F
100
AcDbEntity
  8
1
  6
Continuous
370
    15
100
AcDbSpline
210
0.0
220
0.0
230
1.0
 70
    24
 71
     3
 72
    18
 73
    14
 74
     0
 42
0.00000001
 43
0.00000001
 40
0.0
 40
0.0
 40
0.0
 40
0.0
 40
0.5
 40
0.5
 40
0.625
 40
0.625
 40
0.6875
 40
0.6875
 40
0.75
 40
0.75
 40
0.875
 40
0.875
 40
1.0
 40
1.0
 40
1.0
 40
1.0
 10
20.0
 20
0.5995890718262895
 30
0.0
 10
19.99999999999999
 20
0.7229100986382978
 30
0.0
 10
20.00000000000001
 20
0.8170550090369098
 30
0.0
 10
20.00000000000001
 20
0.8894870397554564
 30
0.0
 10
20.00000000000001
 20
0.9017452764264274
 30
0.0
 10
20.00000000000001
 20
0.916773438506201
 30
0.0
 10
20.00000000000014
 20
0.9212226634592797
 30
0.0
 10
20.00000000000014
 20
0.9289942610239574
 30
0.0
 10
20.0
 20
0.9337279548426578
 30
0.0
 10
20.00000000000001
 20
0.9645192613810591
 30
0.0
 10
19.99999999999999
 20
1.001535104675028
 30
0.0
 10
19.99999999999999
 20
1.098447896206758
 30
0.0
 10
20.00000000000001
 20
1.158895315145409
 30
0.0
 10
20.00000000000001
 20
1.222500000000009
 30
0.0
  0
LINE
  5
71
330
1F
100
AcDbEntity
  8
1
  6
Continuous
370
    15
100
AcDbLine
 10
20.0
 20
1.2225
 30
0.0
 11
20.0
 21
1.4
 31
0.0
  0
SPLINE
  5
72
330
1F
100
AcDbEntity
  8
1
  6
Continuous
370
    15
100
AcDbSpline
210
0.0
220
0.0
230
1.0
 70
    24
 71
     3
 72
     8
 73
     4
 74
     0
 42
0.00000001
 43
0.00000001
 40
0.0
 40
0.0
 40
0.0
 40
0.0
 40
1.0
 40
1.0
 40
1.0
 40
1.0
 10
20.0
 20
0.5073764318152737
 30
0.0
 10
20.0
 20
0.539803407817304
 30
0.0
 10
20.0
 20
0.5705455780393843
 30
0.0
 10
20.0
 20
0.5995890718262883
 30
0.0
  0
LINE
  5
73
330
1F
100
AcDbEntity
  8
1
  6
Continuous
370
    15
100
AcDbLine
 10
23.5
 20
-1.4991798016
 30
0.0
 11
23.5760391038
 21
-1.4857769029
 31
0.0
  0
SPLINE
  5
74
330
1F
100
AcDbEntity
  8
1
  6
Continuous
370
    15
100
AcDbSpline
210
0.0
220
0.0
230
1.0
 70
     8
 71
     3
 72
    11
 73
     7
 74
     0
 42
0.00000001
 43
0.00000001
 40
0.0
 40
0.0
 40
0.0
 40
0.0
 40
0.3115743120669304
 40
0.6332297509531548
 40
0.8157040152919844
 40
0.9999999999999999
 40
0.9999999999999999
 40
0.9999999999999999
 40
0.9999999999999999
 10
22.22421819374341
 20
-1.211291832005166
 30
0.0
 10
21.993604638587
 20
-1.290359869873882
 30
0.0
 10
21.52491592311053
 20
-1.451054227492191
 30
0.0
 10
20.91673488066111
 20
-1.511817923226884
 30
0.0
 10
20.41268331833183
 20
-1.488305329858495
 30
0.0
 10
20.13801585701707
 20
-1.437242263837233
 30
0.0
 10
20.00000000000084
 20
-1.411583917613528
 30
0.0
  0
SPLINE
  5
75
330
1F
100
AcDbEntity
  8
1
  6
Continuous
370
    15
100
AcDbSpline
210
0.0
220
0.0
230
1.0
 70
    24
 71
     3
 72
     8
 73
     4
 74
     0
 42
0.00000001
 43
0.00000001
 40
0.0
 40
0.0
 40
0.0
 40
0.0
 40
1.0
 40
1.0
 40
1.0
 40
1.0
 10
20.0
 20
-1.411583917614948
 30
0.0
 10
20.0
 20
-1.363568000901189
 30
0.0
 10
20.0
 20
-1.314744347100133
 30
0.0
 10
20.0
 20
-1.265105902673942
 30
0.0
  0
SPLINE
  5
76
330
1F
100
AcDbEntity
  8
1
  6
Continuous
370
    15
100
AcDbSpline
210
0.0
220
0.0
230
1.0
 70
    24
 71
     3
 72
    16
 73
    12
 74
     0
 42
0.00000001
 43
0.00000001
 40
0.0
 40
0.0
 40
0.0
 40
0.0
 40
0.1250000000000001
 40
0.1250000000000001
 40
0.2500000000000001
 40
0.2500000000000001
 40
0.3750000000000001
 40
0.3750000000000001
 40
0.5000000000000001
 40
0.5000000000000001
 40
1.0
 40
1.0
 40
1.0
 40
1.0
 10
20.00000000000001
 20
-0.0000000000000082
 30
0.0
 10
20.00000000000001
 20
-0.0000000000000077
 30
0.0
 10
19.99999999999999
 20
-0.0277827244443349
 30
0.0
 10
19.99999999999999
 20
-0.1071226189659565
 30
0.0
 10
20.00000000000001
 20
-0.1589199032382871
 30
0.0
 10
20.00000000000001
 20
-0.2746007391675628
 30
0.0
 10
20.0
 20
-0.3382285837902995
 30
0.0
 10
20.0
 20
-0.4607349601524733
 30
0.0
 10
20.0
 20
-0.5215171954658919
 30
0.0
 10
20.0
 20
-0.8230715598559712
 30
0.0
 10
20.0
 20
-1.052455594624435
 30
0.0
 10
20.0
 20
-1.26510590267394
 30
0.0
  0
SPLINE
  5
77
330
1F
100
AcDbEntity
  8
1
  6
Continuous
370
    15
100
AcDbSpline
210
0.0
220
0.0
230
1.0
 70
     8
 71
     3
 72
    12
 73
     8
 74
     0
 42
0.00000001
 43
0.00000001
 40
0.0
 40
0.0
 40
0.0
 40
0.0
 40
0.231955082999878
 40
0.4694289397790897
 40
0.7260393060986635
 40
0.9899011058978733
 40
1.0
 40
1.0
 40
1.0
 40
1.0
 10
23.49999999999994
 20
0.55745206303652
 30
0.0
 10
23.28974424114244
 20
0.6805169177428857
 30
0.0
 10
22.86423022917755
 20
0.9295746384090348
 30
0.0
 10
22.20987121233246
 20
1.236082735813349
 30
0.0
 10
21.5258233054533
 20
1.43953312562702
 30
0.0
 10
21.0435289192862
 20
1.512440271243993
 30
0.0
 10
20.79757797108759
 20
1.498964357539455
 30
0.0
 10
20.78851158807912
 20
1.498467600783975
 30
0.0
  0
LINE
  5
78
330
1F
100
AcDbEntity
  8
1
  6
Continuous
370
    15
100
AcDbLine
 10
23.5
 20
0.049597606
 30
0.0
 11
23.5
 21
0.557452063
 31
0.0
  0
LINE
  5
79
330
1F
100
AcDbEntity
  8
1
  6
Continuous
370
    15
100
AcDbLine
 10
24.0
 20
-0.2355541973
 30
0.0
 11
24.0
 21
-0.154195314
 31
0.0
  0
SPLINE
  5
7A
330
1F
100
AcDbEntity
  8
1
  6
Continuous
370
    15
100
AcDbSpline
210
0.0
220
0.0
230
1.0
 70
     8
 71
     3
 72
     8
 73
     4
 74
     0
 42
0.00000001
 43
0.00000001
 40
0.0
 40
0.0
 40
0.0
 40
0.0
 40
1.0
 40
1.0
 40
1.0
 40
1.0
 10
24.0
 20
-0.2355541973147179
 30
0.0
 10
24.0
 20
-0.241082179113156
 30
0.0
 10
23.99837860412449
 20
-0.2463424330942969
 30
0.0
 10
23.99509260229108
 20
-0.251327824331245
 30
0.0
  0
SPLINE
  5
7B
330
1F
100
AcDbEntity
  8
1
  6
Continuous
370
    15
100
AcDbSpline
210
0.0
220
0.0
230
1.0
 70
     8
 71
     3
 72
    10
 73
     6
 74
     0
 42
0.00000001
 43
0.00000001
 40
0.0
 40
0.0
 40
0.0
 40
0.0
 40
0.5000000000000001
 40
0.5000000000000001
 40
1.0
 40
1.0
 40
1.0
 40
1.0
 10
23.78678936598367
 20
0.4713402128681862
 30
0.0
 10
23.74481931083195
 20
0.4655765247381584
 30
0.0
 10
23.69491962118347
 20
0.4714215761710204
 30
0.0
 10
23.5937361304644
 20
0.5044290664745933
 30
0.0
 10
23.54505218197863
 20
0.5296401536607193
 30
0.0
 10
23.50000000000179
 20
0.5574520630397369
 30
0.0
  0
SPLINE
  5
7C
330
1F
100
AcDbEntity
  8
1
  6
Continuous
370
    15
100
AcDbSpline
210
0.0
220
0.0
230
1.0
 70
     8
 71
     3
 72
    14
 73
    10
 74
     0
 42
0.00000001
 43
0.00000001
 40
0.0
 40
0.0
 40
0.0
 40
0.0
 40
0.4999999999999984
 40
0.4999999999999984
 40
0.7499999999999994
 40
0.7499999999999994
 40
0.8749999999999997
 40
0.8749999999999997
 40
1.0
 40
1.0
 40
1.0
 40
1.0
 10
23.78678936598345
 20
0.471340212868212
 30
0.0
 10
23.82641129824693
 20
0.339903835529367
 30
0.0
 10
23.86891472519837
 20
0.204478246447854
 30
0.0
 10
23.93008081488969
 20
0.0209113298373464
 30
0.0
 10
23.95022595884241
 20
-0.0375829331512127
 30
0.0
 10
23.97615381652213
 20
-0.1075778643696209
 30
0.0
 10
23.98406022163686
 20
-0.1278618973603117
 30
0.0
 10
23.99605190107995
 20
-0.1547254844118768
 30
0.0
 10
24.0
 20
-0.1606900811151429
 30
0.0
 10
24.0
 20
-0.1541953139777511
 30
0.0
  0
SPLINE
  5
7D
330
1F
100
AcDbEntity
  8
1
  6
Continuous
370
    15
100
AcDbSpline
210
0.0
220
0.0
230
1.0
 70
     8
 71
     3
 72
    10
 73
     6
 74
     0
 42
0.00000001
 43
0.00000001
 40
0.0
 40
0.0
 40
0.0
 40
0.0
 40
0.3677049012437806
 40
0.6822913012687903
 40
0.9999999999999999
 40
0.9999999999999999
 40
0.9999999999999999
 40
0.9999999999999999
 10
22.19670496728179
 20
1.219621965097324
 30
0.0
 10
22.35656120384522
 20
1.279950478986609
 30
0.0
 10
22.653180909734
 20
1.391892474064459
 30
0.0
 10
23.08740167439864
 20
1.47465553025658
 30
0.0
 10
23.36201520723161
 20
1.490978177179983
 30
0.0
 10
23.49999999999999
 20
1.499179801586188
 30
0.0
  0
SPLINE
  5
7E
330
1F
100
AcDbEntity
  8
1
  6
Continuous
370
    15
100
AcDbSpline
210
0.0
220
0.0
230
1.0
 70
     8
 71
     3
 72
    14
 73
    10
 74
     0
 42
0.00000001
 43
0.00000001
 40
0.0
 40
0.0
 40
0.0
 40
0.0
 40
0.4999999999999971
 40
0.4999999999999971
 40
0.7499999999999957
 40
0.7499999999999957
 40
0.8749999999999978
 40
0.8749999999999978
 40
1.0
 40
1.0
 40
1.0
 40
1.0
 10
23.49999999999999
 20
1.499179801586232
 30
0.0
 10
23.61316420303636
 20
1.501646201554661
 30
0.0
 10
23.72452921994224
 20
1.461052903286812
 30
0.0
 10
23.86623644197992
 20
1.335089070003432
 30
0.0
 10
23.90691756241693
 20
1.284111389729394
 30
0.0
 10
23.95428424775999
 20
1.19462537574609
 30
0.0
 10
23.9669507037659
 20
1.163536966647392
 30
0.0
 10
23.98547058536238
 20
1.10131112130446
 30
0.0
 10
23.99156869742655
 20
1.069508566856934
 30
0.0
 10
23.99509260229053
 20
1.039941864589659
 30
0.0
  0
SPLINE
  5
7F
330
1F
100
AcDbEntity
  8
1
  6
Continuous
370
    15
100
AcDbSpline
210
0.0
220
0.0
230
1.0
 70
     8
 71
     3
 72
     8
 73
     4
 74
     0
 42
0.00000001
 43
0.00000001
 40
0.0
 40
0.0
 40
0.0
 40
0.0
 40
1.0
 40
1.0
 40
1.0
 40
1.0
 10
23.99509260227764
 20
1.039941864586089
 30
0.0
 10
23.89777393810913
 20
1.009202577501463
 30
0.0
 10
23.7963894966823
 20
0.994501222240376
 30
0.0
 10
23.69508216735182
 20
0.9837894960004281
 30
0.0
  0
SPLINE
  5
80
330
1F
100
AcDbEntity
  8
1
  6
Continuous
370
    15
100
AcDbSpline
210
0.0
220
0.0
230
1.0
 70
     8
 71
     3
 72
    16
 73
    12
 74
     0
 42
0.00000001
 43
0.00000001
 40
0.0
 40
0.0
 40
0.0
 40
0.0
 40
0.125
 40
0.125
 40
0.1875000000000001
 40
0.1875000000000001
 40
0.2500000000000001
 40
0.2500000000000001
 40
0.5
 40
0.5
 40
1.0
 40
1.0
 40
1.0
 40
1.0
 10
23.69508216735184
 20
0.9837894960004288
 30
0.0
 10
23.70251696306881
 20
0.9517725543911946
 30
0.0
 10
23.70765466529329
 20
0.925956009042911
 30
0.0
 10
23.70914338022853
 20
0.9065526443904371
 30
0.0
 10
23.70874647036645
 20
0.9028355905811862
 30
0.0
 10
23.70899758572555
 20
0.8921832724045207
 30
0.0
 10
23.70925974191937
 20
0.886436033699124
 30
0.0
 10
23.71125545125233
 20
0.8555956164760298
 30
0.0
 10
23.71503960020086
 20
0.8241060684126008
 30
0.0
 10
23.73345783705294
 20
0.709054223012522
 30
0.0
 10
23.75519309372492
 20
0.604316348230166
 30
0.0
 10
23.78678936598367
 20
0.4713402128681883
 30
0.0
  0
LINE
  5
81
330
1F
100
AcDbEntity
  8
1
  6
Continuous
370
    15
100
AcDbLine
 10
23.6950821674
 20
0.983789496
 30
0.0
 11
23.9917786653
 21
0.0569226504
 31
0.0
  0
SPLINE
  5
82
330
1F
100
AcDbEntity
  8
1
  6
Continuous
370
    15
100
AcDbSpline
210
0.0
220
0.0
230
1.0
 70
     8
 71
     3
 72
    12
 73
     8
 74
     0
 42
0.00000001
 43
0.00000001
 40
0.0
 40
0.0
 40
0.0
 40
0.0
 40
0.5
 40
0.5
 40
0.75
 40
0.75
 40
1.0
 40
1.0
 40
1.0
 40
1.0
 10
23.99999999999999
 20
-0.1541953139777405
 30
0.0
 10
23.99854833749646
 20
-0.118755954434075
 30
0.0
 10
23.99709670209115
 20
-0.0833166790836875
 30
0.0
 10
23.9949306634532
 20
-0.0301932304427674
 30
0.0
 10
23.994208853328
 20
-0.0124860441795015
 30
0.0
 10
23.99279420661047
 20
0.0228383085289365
 30
0.0
 10
23.99177866528707
 20
0.0414584630248004
 30
0.0
 10
23.99177866528706
 20
0.056922650403607
 30
0.0
  0
SPLINE
  5
83
330
1F
100
AcDbEntity
  8
1
  6
Continuous
370
    15
100
AcDbSpline
210
0.0
220
0.0
230
1.0
 70
     8
 71
     3
 72
    14
 73
    10
 74
     0
 42
0.00000001
 43
0.00000001
 40
0.0
 40
0.0
 40
0.0
 40
0.0
 40
0.5
 40
0.5
 40
0.75
 40
0.75
 40
0.875
 40
0.875
 40
1.0
 40
1.0
 40
1.0
 40
1.0
 10
23.78678936598428
 20
-1.32843543319931
 30
0.0
 10
23.82641129824763
 20
-1.345631873117365
 30
0.0
 10
23.86891472519894
 20
-1.334580661270432
 30
0.0
 10
23.93008081489006
 20
-1.258710018056858
 30
0.0
 10
23.95022595884267
 20
-1.223320901536064
 30
0.0
 10
23.97615381652227
 20
-1.149753802097411
 30
0.0
 10
23.98406022163696
 20
-1.1217054801823
 30
0.0
 10
23.99605190107999
 20
-1.05850154495856
 30
0.0
 10
24.0
 20
-1.022439441934074
 30
0.0
 10
24.0
 20
-0.9880403863948761
 30
0.0
  0
SPLINE
  5
84
330
1F
100
AcDbEntity
  8
1
  6
Continuous
370
    15
100
AcDbSpline
210
0.0
220
0.0
230
1.0
 70
     8
 71
     3
 72
    11
 73
     7
 74
     0
 42
0.00000001
 43
0.00000001
 40
0.0
 40
0.0
 40
0.0
 40
0.0
 40
0.3308301106430598
 40
0.6616602224285926
 40
0.9924904926894239
 40
1.0
 40
1.0
 40
1.0
 40
1.0
 10
24.0
 20
-0.9880403863948757
 30
0.0
 10
23.99927062224356
 20
-0.9067606364446247
 30
0.0
 10
23.99781186672814
 20
-0.7442011362634349
 30
0.0
 10
23.99571616848812
 20
-0.5002994840122451
 30
0.0
 10
23.9940744132321
 20
-0.3360070628709644
 30
0.0
 10
23.99348546934636
 20
-0.2527763020543266
 30
0.0
 10
23.99347239763943
 20
-0.2509289815550824
 30
0.0
  0
LINE
  5
85
330
1F
100
AcDbEntity
  8
1
  6
Continuous
370
    15
100
AcDbLine
 10
24.0
 20
0.9718612144
 30
0.0
 11
24.0
 21
0.9880403864
 31
0.0
  0
LINE
  5
86
330
1F
100
AcDbEntity
  8
1
  6
Continuous
370
    15
100
AcDbLine
 10
23.9933074979
 20
0.2271023556
 30
0.0
 11
23.9920952317
 21
0.0567728538
 31
0.0
  0
LWPOLYLINE
  5
87
330
1F
100
AcDbEntity
  8
1
  6
Continuous
370
    15
100
AcDbPolyline
 90
        3
 70
   128
 43
0.0
 10
23.9925819824
 20
0.0327210965
 10
23.99406014
 20
0.0731440443
 10
24.0
 20
0.2355541973
  0
LINE
  5
88
330
1F
100
AcDbEntity
  8
1
  6
Continuous
370
    15
100
AcDbLine
 10
24.0
 20
0.2355541973
 30
0.0
 11
24.0
 21
0.154195314
 31
0.0
  0
LWPOLYLINE
  5
89
330
1F
100
AcDbEntity
  8
1
  6
Continuous
370
    15
100
AcDbPolyline
 90
        4
 70
   128
 43
0.0
 10
24.0
 20
0.154195314
 10
23.9978543378
 20
0.1017869606
 10
23.9957135436
 20
0.0493937274
 10
23.9937109495
 20
0.0
  0
LWPOLYLINE
  5
8A
330
1F
100
AcDbEntity
  8
1
  6
Continuous
370
    15
100
AcDbPolyline
 90
        3
 70
   128
 43
0.0
 10
23.9935216852
 20
-0.2509411146
 10
23.99406014
 20
-0.3108704082
 10
24.0
 20
-0.9718612144
  0
LINE
  5
8B
330
1F
100
AcDbEntity
  8
1
  6
Continuous
370
    15
100
AcDbLine
 10
24.0
 20
-0.9718612144
 30
0.0
 11
24.0
 21
-0.9880403864
 31
0.0
  0
LWPOLYLINE
  5
8C
330
1F
100
AcDbEntity
  8
1
  6
Continuous
370
    15
100
AcDbPolyline
 90
        4
 70
   128
 43
0.0
 10
23.9917786653
 20
0.0569226504
 10
23.9920315013
 20
0.0850856385
 10
23.99406014
 20
0.3108704082
 10
24.0
 20
0.9718612144
  0
LINE
  5
8D
330
1F
100
AcDbEntity
  8
1
  6
Continuous
370
    15
100
AcDbLine
 10
20.0
 20
-1.5
 30
0.0
 11
20.0
 21
-1.4115839176
 31
0.0
  0
SPLINE
  5
8E
330
1F
100
AcDbEntity
  8
1
  6
Continuous
370
    15
100
AcDbSpline
210
0.0
220
0.0
230
1.0
 70
     8
 71
     3
 72
    12
 73
     8
 74
     0
 42
0.00000001
 43
0.00000001
 40
0.0
 40
0.0
 40
0.0
 40
0.0
 40
0.2953321599262865
 40
0.5913668464986602
 40
0.7983401840953471
 40
0.9656340144205582
 40
1.0
 40
1.0
 40
1.0
 40
1.0
 10
23.9380087724499
 20
1.236586367416704
 30
0.0
 10
23.9468564022058
 20
1.220665421403306
 30
0.0
 10
23.96457270817479
 20
1.188785657142045
 30
0.0
 10
23.98436690269681
 20
1.12231588909227
 30
0.0
 10
23.99642267507417
 20
1.056782699109972
 30
0.0
 10
23.99982957569755
 20
1.012682219956313
 30
0.0
 10
23.99997518576748
 20
0.9916283030188141
 30
0.0
 10
24.0
 20
0.9880403863948748
 30
0.0
  0
SPLINE
  5
8F
330
1F
100
AcDbEntity
  8
1
  6
Continuous
370
    15
100
AcDbSpline
210
0.0
220
0.0
230
1.0
 70
     8
 71
     3
 72
     8
 73
     4
 74
     0
 42
0.00000001
 43
0.00000001
 40
0.0
 40
0.0
 40
0.0
 40
0.0
 40
1.0
 40
1.0
 40
1.0
 40
1.0
 10
24.00000000000001
 20
0.9718612144330515
 30
0.0
 10
24.00000000000021
 20
0.9945476947756859
 30
0.0
 10
23.99837203452908
 20
1.017241210970223
 30
0.0
 10
23.99509260229106
 20
1.03994186458616
 30
0.0
  0
SPLINE
  5
90
330
1F
100
AcDbEntity
  8
1
  6
Continuous
370
    15
100
AcDbSpline
210
0.0
220
0.0
230
1.0
 70
     8
 71
     3
 72
     8
 73
     4
 74
     0
 42
0.00000001
 43
0.00000001
 40
0.0
 40
0.0
 40
0.0
 40
0.0
 40
1.0
 40
1.0
 40
1.0
 40
1.0
 10
24.00000000000001
 20
0.2355541973136928
 30
0.0
 10
24.00000000000021
 20
0.2410931783501833
 30
0.0
 10
23.99837203452912
 20
0.2463524002229532
 30
0.0
 10
23.99509260229117
 20
0.2513278243311142
 30
0.0
  0
LINE
  5
91
330
1F
100
AcDbEntity
  8
1
  6
Continuous
370
    15
100
AcDbLine
 10
10.0
 20
0.0
 30
0.0
 11
10.0
 21
3.0
 31
0.0
  0
LINE
  5
92
330
1F
100
AcDbEntity
  8
1
  6
Continuous
370
    15
100
AcDbLine
 10
10.0
 20
-3.0
 30
0.0
 11
10.0
 21
0.0
 31
0.0
  0
LINE
  5
93
330
1F
100
AcDbEntity
  8
1
  6
Continuous
370
    15
100
AcDbLine
 10
0.0
 20
3.0
 30
0.0
 11
0.0
 21
-3.0
 31
0.0
  0
SPLINE
  5
94
330
1F
100
AcDbEntity
  8
1
  6
Continuous
370
    15
100
AcDbSpline
210
0.0
220
0.0
230
1.0
 70
     8
 71
     3
 72
     8
 73
     4
 74
     0
 42
0.00000001
 43
0.00000001
 40
0.0
 40
0.0
 40
0.0
 40
0.0
 40
0.0221892874199935
 40
0.0221892874199935
 40
0.0221892874199935
 40
0.0221892874199935
 10
20.0
 20
-0.0000000000000085
 30
0.0
 10
19.94083297769853
 20
0.0317790377542602
 30
0.0
 10
19.8816628234636
 20
0.0682110191241536
 30
0.0
 10
19.82249120518415
 20
0.1091204051078381
 30
0.0
  0
SPLINE
  5
95
330
1F
100
AcDbEntity
  8
1
  6
Continuous
370
    15
100
AcDbSpline
210
0.0
220
0.0
230
1.0
 70
    24
 71
     3
 72
    10
 73
     6
 74
     0
 42
0.00000001
 43
0.00000001
 40
0.0
 40
0.0
 40
0.0
 40
0.0
 40
0.5
 40
0.5
 40
1.0
 40
1.0
 40
1.0
 40
1.0
 10
19.84729831583779
 20
-0.2317076728423814
 30
0.0
 10
19.88329044796103
 20
-0.1770936506024488
 30
0.0
 10
19.92545785367916
 20
-0.1131093435376359
 30
0.0
 10
19.98509157073583
 20
-0.0226218687075331
 30
0.0
 10
20.0
 20
-0.0000000000000079
 30
0.0
 10
20.0
 20
-0.0000000000000085
 30
0.0
  0
SPLINE
  5
96
330
1F
100
AcDbEntity
  8
1
  6
Continuous
370
    15
100
AcDbSpline
210
0.0
220
0.0
230
1.0
 70
     8
 71
     3
 72
     8
 73
     4
 74
     0
 42
0.00000001
 43
0.00000001
 40
0.0
 40
0.0
 40
0.0
 40
0.0
 40
0.0544619297232583
 40
0.0544619297232583
 40
0.0544619297232583
 40
0.0544619297232583
 10
19.84729831583779
 20
-0.2317076728423806
 30
0.0
 10
19.70207268866288
 20
-0.1714118492998667
 30
0.0
 10
19.55683628164994
 20
-0.0816700873108722
 30
0.0
 10
19.41160318497792
 20
0.0352219099872484
 30
0.0
  0
SPLINE
  5
97
330
1F
100
AcDbEntity
  8
1
  6
Continuous
370
    15
100
AcDbSpline
210
0.0
220
0.0
230
1.0
 70
     8
 71
     3
 72
    12
 73
     8
 74
     0
 42
0.00000001
 43
0.00000001
 40
0.0
 40
0.0
 40
0.0
 40
0.0
 40
0.5
 40
0.5
 40
0.75
 40
0.75
 40
1.0
 40
1.0
 40
1.0
 40
1.0
 10
19.82249120518987
 20
0.1091204051038924
 30
0.0
 10
19.75499733876224
 20
0.1505251736422187
 30
0.0
 10
19.67591922549996
 20
0.1712452401150915
 30
0.0
 10
19.55884398065602
 20
0.1583425687758445
 30
0.0
 10
19.51987341577839
 20
0.1459538783544966
 30
0.0
 10
19.4540747285257
 20
0.1026980765922406
 30
0.0
 10
19.42766611960296
 20
0.0717402895839551
 30
0.0
 10
19.41160318497793
 20
0.0352219099872448
 30
0.0
  0
SPLINE
  5
98
330
1F
100
AcDbEntity
  8
1
  6
Continuous
370
    15
100
AcDbSpline
210
0.0
220
0.0
230
1.0
 70
     8
 71
     3
 72
    11
 73
     7
 74
     0
 42
0.00000001
 43
0.00000001
 40
0.0
 40
0.0
 40
0.0
 40
0.0
 40
0.0001041887298
 40
0.0001041887298
 40
0.0001041887298
 40
0.0002084210057378
 40
0.0002084210057378
 40
0.0002084210057378
 40
0.0002084210057378
 10
20.0
 20
-0.0000000000000048
 30
0.0
 10
19.97041839941814
 20
0.0181953949622072
 30
0.0
 10
19.94083927871399
 20
0.036398283473934
 30
0.0
 10
19.91126212898962
 20
0.0545870707352688
 30
0.0
 10
19.88167261903759
 20
0.0727834590519281
 30
0.0
 10
19.85208198229104
 20
0.0909676211415854
 30
0.0
 10
19.82249120518982
 20
0.1091204051039181
 30
0.0
  0
SPLINE
  5
99
330
1F
100
AcDbEntity
  8
1
  6
Continuous
370
    15
100
AcDbSpline
210
0.0
220
0.0
230
1.0
 70
     8
 71
     3
 72
    14
 73
    10
 74
     0
 42
0.00000001
 43
0.00000001
 40
0.0
 40
0.0
 40
0.0
 40
0.0
 40
0.2500000000000001
 40
0.2500000000000001
 40
0.5000000000000001
 40
0.5000000000000001
 40
0.7500000000000001
 40
0.7500000000000001
 40
1.0
 40
1.0
 40
1.0
 40
1.0
 10
19.41160318497792
 20
0.0352219099872481
 30
0.0
 10
19.37032305043553
 20
-0.0586267025822426
 30
0.0
 10
19.33874036490175
 20
-0.1544925616182698
 30
0.0
 10
19.29244543088678
 20
-0.3491549049065908
 30
0.0
 10
19.27818082196097
 20
-0.447150791407922
 30
0.0
 10
19.26581350730659
 20
-0.6334675398856229
 30
0.0
 10
19.26757380751652
 20
-0.7241199147124726
 30
0.0
 10
19.28419404773775
 20
-0.8891757529293082
 30
0.0
 10
19.2990184008318
 20
-0.9651394651342954
 30
0.0
 10
19.31926115505965
 20
-1.032944819436188
 30
0.0
  0
SPLINE
  5
9A
330
1F
100
AcDbEntity
  8
1
  6
Continuous
370
    15
100
AcDbSpline
210
0.0
220
0.0
230
1.0
 70
     8
 71
     3
 72
     8
 73
     4
 74
     0
 42
0.00000001
 43
0.00000001
 40
0.0
 40
0.0
 40
0.0
 40
0.0
 40
1.0
 40
1.0
 40
1.0
 40
1.0
 10
20.0
 20
-1.265105902673938
 30
0.0
 10
19.77288760835364
 20
-1.205165943279575
 30
0.0
 10
19.54895498030096
 20
-1.124532829174392
 30
0.0
 10
19.31926115505957
 20
-1.032944819436376
 30
0.0
  0
LINE
  5
9B
330
1F
100
AcDbEntity
  8
1
  6
Continuous
370
    15
100
AcDbLine
 10
20.0
 20
-1.4
 30
0.0
 11
20.0
 21
-1.2651059027
 31
0.0
  0
SPLINE
  5
9C
330
1F
100
AcDbEntity
  8
1
  6
Continuous
370
    15
100
AcDbSpline
210
0.0
220
0.0
230
1.0
 70
     8
 71
     3
 72
    11
 73
     7
 74
     0
 42
0.00000001
 43
0.00000001
 40
0.0
 40
0.0
 40
0.0
 40
0.0
 40
0.0001041887298
 40
0.0001041887298
 40
0.0001041887298
 40
0.0002084210057378
 40
0.0002084210057378
 40
0.0002084210057378
 40
0.0002084210057378
 10
20.0
 20
-1.400000000000036
 30
0.0
 10
19.97041839941815
 20
-1.400000000000037
 30
0.0
 10
19.94083927871401
 20
-1.399645133833997
 30
0.0
 10
19.91126212898964
 20
-1.398935399405056
 30
0.0
 10
19.88167261903761
 20
-1.398225368379613
 30
0.0
 10
19.85208198229106
 20
-1.397160130266153
 30
0.0
 10
19.82249120518984
 20
-1.395740927676005
 30
0.0
  0
SPLINE
  5
9D
330
1F
100
AcDbEntity
  8
1
  6
Continuous
370
    15
100
AcDbSpline
210
0.0
220
0.0
230
1.0
 70
     8
 71
     3
 72
    12
 73
     8
 74
     0
 42
0.00000001
 43
0.00000001
 40
0.0
 40
0.0
 40
0.0
 40
0.0
 40
0.499999999999989
 40
0.499999999999989
 40
0.7499999999999944
 40
0.7499999999999944
 40
1.0
 40
1.0
 40
1.0
 40
1.0
 10
19.82249120518983
 20
-1.395740927676049
 30
0.0
 10
19.75499733876222
 20
-1.392503861952356
 30
0.0
 10
19.67591922549994
 20
-1.389514329051687
 30
0.0
 10
19.55884398065598
 20
-1.391023501469025
 30
0.0
 10
19.51987341577837
 20
-1.392540466093839
 30
0.0
 10
19.45407472852568
 20
-1.396397002782451
 30
0.0
 10
19.42766611960296
 20
-1.398637825718709
 30
0.0
 10
19.41160318497793
 20
-1.399556864531373
 30
0.0
  0
LINE
  5
9E
330
1F
100
AcDbEntity
  8
1
  6
Continuous
370
    15
100
AcDbLine
 10
19.411603185
 20
-1.3995568645
 30
0.0
 11
19.40083393
 21
-1.3958796989
 31
0.0
  0
SPLINE
  5
9F
330
1F
100
AcDbEntity
  8
1
  6
Continuous
370
    15
100
AcDbSpline
210
0.0
220
0.0
230
1.0
 70
     8
 71
     3
 72
    11
 73
     7
 74
     0
 42
0.00000001
 43
0.00000001
 40
0.0
 40
0.0
 40
0.0
 40
0.0
 40
0.0001041887298
 40
0.0001041887298
 40
0.0001041887298
 40
0.0002084210057378
 40
0.0002084210057378
 40
0.0002084210057378
 40
0.0002084210057378
 10
20.0
 20
1.400000000000042
 30
0.0
 10
19.97041839941814
 20
1.400000000000043
 30
0.0
 10
19.940839278714
 20
1.399645133833997
 30
0.0
 10
19.91126212898962
 20
1.398935399405055
 30
0.0
 10
19.88167261903759
 20
1.398225368379612
 30
0.0
 10
19.85208198229104
 20
1.397160130266196
 30
0.0
 10
19.82249120518983
 20
1.395740927676048
 30
0.0
  0
SPLINE
  5
A0
330
1F
100
AcDbEntity
  8
1
  6
Continuous
370
    15
100
AcDbSpline
210
0.0
220
0.0
230
1.0
 70
     8
 71
     3
 72
    12
 73
     8
 74
     0
 42
0.00000001
 43
0.00000001
 40
0.0
 40
0.0
 40
0.0
 40
0.0
 40
0.4999999999999891
 40
0.4999999999999891
 40
0.7499999999999946
 40
0.7499999999999946
 40
1.0
 40
1.0
 40
1.0
 40
1.0
 10
19.82249120518987
 20
1.395740927676031
 30
0.0
 10
19.75499733876225
 20
1.392503861952339
 30
0.0
 10
19.67591922549996
 20
1.389514329051688
 30
0.0
 10
19.55884398065601
 20
1.391023501469025
 30
0.0
 10
19.51987341577838
 20
1.392540466093839
 30
0.0
 10
19.4540747285257
 20
1.396397002782454
 30
0.0
 10
19.42766611960296
 20
1.39863782571871
 30
0.0
 10
19.41160318497793
 20
1.399556864531374
 30
0.0
  0
SPLINE
  5
A1
330
1F
100
AcDbEntity
  8
1
  6
Continuous
370
    15
100
AcDbSpline
210
0.0
220
0.0
230
1.0
 70
     8
 71
     3
 72
    14
 73
    10
 74
     0
 42
0.00000001
 43
0.00000001
 40
0.0
 40
0.0
 40
0.0
 40
0.0
 40
0.25
 40
0.25
 40
0.5
 40
0.5
 40
0.75
 40
0.75
 40
1.0
 40
1.0
 40
1.0
 40
1.0
 10
19.41160318497792
 20
1.399556864531373
 30
0.0
 10
19.37032305043552
 20
1.401918703101939
 30
0.0
 10
19.33874036490174
 20
1.394963139818459
 30
0.0
 10
19.29244543088677
 20
1.359367855080888
 30
0.0
 10
19.27818082196095
 20
1.330508738668177
 30
0.0
 10
19.26581350730658
 20
1.252563854595991
 30
0.0
 10
19.26757380751651
 20
1.202433340213643
 30
0.0
 10
19.28419404773775
 20
1.08607645630643
 30
0.0
 10
19.2990184008318
 20
1.01911554439805
 30
0.0
 10
19.31926115505965
 20
0.9449999999999794
 30
0.0
  0
SPLINE
  5
A2
330
1F
100
AcDbEntity
  8
1
  6
Continuous
370
    15
100
AcDbSpline
210
0.0
220
0.0
230
1.0
 70
     8
 71
     3
 72
     8
 73
     4
 74
     0
 42
0.00000001
 43
0.00000001
 40
0.0
 40
0.0
 40
0.0
 40
0.0
 40
1.0
 40
1.0
 40
1.0
 40
1.0
 10
20.0
 20
0.599589071826286
 30
0.0
 10
19.77288760836241
 20
0.7260596831229575
 30
0.0
 10
19.54895498030645
 20
0.844888507759443
 30
0.0
 10
19.31926115505958
 20
0.9450000000000398
 30
0.0
  0
LINE
  5
A3
330
1F
100
AcDbEntity
  8
1
  6
Continuous
370
    15
100
AcDbLine
 10
20.0
 20
0.5073764318
 30
0.0
 11
20.0
 21
0.5995890718
 31
0.0
  0
LINE
  5
A4
330
1F
100
AcDbEntity
  8
1
  6
Continuous
370
    15
100
AcDbLine
 10
19.3192611551
 20
-1.0329448194
 30
0.0
 11
19.8472983158
 21
-0.2317076728
 31
0.0
  0
LINE
  5
A5
330
1F
100
AcDbEntity
  8
1
  6
Continuous
370
    15
100
AcDbLine
 10
19.3192611551
 20
0.945
 30
0.0
 11
19.8472983158
 21
0.945
 31
0.0
  0
SPLINE
  5
A6
330
1F
100
AcDbEntity
  8
1
  6
Continuous
370
    15
100
AcDbSpline
210
0.0
220
0.0
230
1.0
 70
     8
 71
     3
 72
    10
 73
     6
 74
     0
 42
0.00000001
 43
0.00000001
 40
0.0
 40
0.0
 40
0.0
 40
0.0
 40
0.4999999999999998
 40
0.4999999999999998
 40
1.0
 40
1.0
 40
1.0
 40
1.0
 10
19.84729831583779
 20
0.944999999999996
 30
0.0
 10
19.88329044796102
 20
0.944999999999997
 30
0.0
 10
19.92545785367916
 20
0.9720926227402433
 30
0.0
 10
19.98509157073583
 20
1.080463113701225
 30
0.0
 10
20.00000000000001
 20
1.157092622740251
 30
0.0
 10
20.0
 20
1.222500000000008
 30
0.0
  0
SPLINE
  5
A7
330
1F
100
AcDbEntity
  8
1
  6
Continuous
370
    15
100
AcDbSpline
210
0.0
220
0.0
230
1.0
 70
    24
 71
     3
 72
    18
 73
    14
 74
     0
 42
0.00000001
 43
0.00000001
 40
0.0
 40
0.0
 40
0.0
 40
0.0
 40
0.5000000000000001
 40
0.5000000000000001
 40
0.6250000000000001
 40
0.6250000000000001
 40
0.6875000000000001
 40
0.6875000000000001
 40
0.7500000000000002
 40
0.7500000000000002
 40
0.8750000000000001
 40
0.8750000000000001
 40
1.0
 40
1.0
 40
1.0
 40
1.0
 10
19.99999999999999
 20
0.5995890718262915
 30
0.0
 10
19.99999999999999
 20
0.7229100986382986
 30
0.0
 10
19.99999999999999
 20
0.8170550090369146
 30
0.0
 10
19.99999999999999
 20
0.8894870397554576
 30
0.0
 10
19.99999999999999
 20
0.9017452764264293
 30
0.0
 10
19.99999999999998
 20
0.916773438506202
 30
0.0
 10
20.00000000000013
 20
0.9212226634592803
 30
0.0
 10
20.00000000000013
 20
0.928994261023958
 30
0.0
 10
20.00000000000001
 20
0.9337279548426582
 30
0.0
 10
20.0
 20
0.9645192613810596
 30
0.0
 10
20.00000000000001
 20
1.00153510467503
 30
0.0
 10
20.00000000000001
 20
1.098447896206762
 30
0.0
 10
20.00000000000001
 20
1.158895315145409
 30
0.0
 10
20.00000000000001
 20
1.222500000000008
 30
0.0
  0
SPLINE
  5
A8
330
1F
100
AcDbEntity
  8
1
  6
Continuous
370
    15
100
AcDbSpline
210
0.0
220
0.0
230
1.0
 70
    24
 71
     3
 72
    16
 73
    12
 74
     0
 42
0.00000001
 43
0.00000001
 40
0.0
 40
0.0
 40
0.0
 40
0.0
 40
0.125
 40
0.125
 40
0.25
 40
0.25
 40
0.375
 40
0.375
 40
0.5
 40
0.5
 40
1.0
 40
1.0
 40
1.0
 40
1.0
 10
20.00000000000001
 20
-0.0000000000000082
 30
0.0
 10
20.0
 20
-0.0000000000000077
 30
0.0
 10
20.00000000000001
 20
-0.0277827244443347
 30
0.0
 10
20.0
 20
-0.107122618965958
 30
0.0
 10
20.00000000000001
 20
-0.1589199032382874
 30
0.0
 10
20.0
 20
-0.2746007391675622
 30
0.0
 10
19.99999999999999
 20
-0.3382285837902987
 30
0.0
 10
19.99999999999999
 20
-0.4607349601524725
 30
0.0
 10
20.0
 20
-0.5215171954658909
 30
0.0
 10
20.0
 20
-0.8230715598559699
 30
0.0
 10
20.0
 20
-1.052455594624433
 30
0.0
 10
20.0
 20
-1.265105902673938
 30
0.0
  0
SPLINE
  5
A9
330
1F
100
AcDbEntity
  8
1
  6
Continuous
370
    15
100
AcDbSpline
210
0.0
220
0.0
230
1.0
 70
     8
 71
     3
 72
     8
 73
     4
 74
     0
 42
0.00000001
 43
0.00000001
 40
0.0
 40
0.0
 40
0.0
 40
0.0
 40
0.0544619297232595
 40
0.0544619297232595
 40
0.0544619297232595
 40
0.0544619297232595
 10
19.84729831583779
 20
0.9449999999999953
 30
0.0
 10
19.70207268866287
 20
1.105009768978874
 30
0.0
 10
19.55683628164994
 20
1.259212061473547
 30
0.0
 10
19.41160318497791
 20
1.399556864531374
 30
0.0
  0
LINE
  5
AA
330
1F
100
AcDbEntity
  8
1
  6
Continuous
370
    15
100
AcDbLine
 10
23.4991273132
 20
-0.9
 30
0.0
 11
23.4991273132
 21
0.0
 31
0.0
  0
SPLINE
  5
AB
330
1F
100
AcDbEntity
  8
1
  6
Continuous
370
    15
100
AcDbSpline
210
0.0
220
0.0
230
1.0
 70
     8
 71
     3
 72
     8
 73
     4
 74
     0
 42
0.00000001
 43
0.00000001
 40
0.0
 40
0.0
 40
0.0
 40
0.0
 40
0.0221892874199939
 40
0.0221892874199939
 40
0.0221892874199939
 40
0.0221892874199939
 10
20.0
 20
1.222500000000008
 30
0.0
 10
19.94083297769853
 20
1.281667026203241
 30
0.0
 10
19.88166282346361
 20
1.339588823785236
 30
0.0
 10
19.82249120518416
 20
1.39574092768143
 30
0.0
  0
LINE
  5
AC
330
1F
100
AcDbEntity
  8
1
  6
Continuous
370
    15
100
AcDbLine
 10
20.0
 20
1.2225
 30
0.0
 11
20.0
 21
1.4
 31
0.0
  0
LINE
  5
AD
330
1F
100
AcDbEntity
  8
SK4
100
AcDbLine
 10
0.0
 20
0.0
 30
0.0
 11
-36.0
 21
0.0
 31
0.0
  0
LINE
  5
AE
330
1F
100
AcDbEntity
  8
4
100
AcDbLine
 10
0.0
 20
0.0
 30
0.0
 11
24.0
 21
0.0
 31
0.0
  0
LINE
  5
AF
330
1F
100
AcDbEntity
  8
INFTOTAL
100
AcDbLine
 10
-46.0
 20
-51.5
 30
0.0
 11
254.0
 21
-51.5
 31
0.0
  0
LINE
  5
B0
330
1F
100
AcDbEntity
  8
INFTOTAL
100
AcDbLine
 10
254.0
 20
-51.5
 30
0.0
 11
254.0
 21
148.5
 31
0.0
  0
LINE
  5
B1
330
1F
100
AcDbEntity
  8
INFTOTAL
100
AcDbLine
 10
254.0
 20
148.5
 30
0.0
 11
-46.0
 21
148.5
 31
0.0
  0
LINE
  5
B2
330
1F
100
AcDbEntity
  8
INFTOTAL
100
AcDbLine
 10
-46.0
 20
148.5
 30
0.0
 11
-46.0
 21
-51.5
 31
0.0
  0
LINE
  5
B3
330
1F
100
AcDbEntity
  8
NOCUT
100
AcDbLine
 10
23.9912740049
 20
0.0
 30
0.0
 11
23.9912740049
 21
0.0001
 31
0.0
  0
LINE
  5
B4
330
1F
100
AcDbEntity
  8
NOCUT
100
AcDbLine
 10
23.9912740049
 20
0.0001
 30
0.0
 11
23.4991273132
 21
0.0001
 31
0.0
  0
LINE
  5
B5
330
1F
100
AcDbEntity
  8
NOCUT
100
AcDbLine
 10
23.4991273132
 20
0.0001
 30
0.0
 11
23.4991273132
 21
0.9
 31
0.0
  0
LINE
  5
B6
330
1F
100
AcDbEntity
  8
NOCUT
100
AcDbLine
 10
23.4991273132
 20
0.9
 30
0.0
 11
20.0
 21
0.9
 31
0.0
  0
LINE
  5
B7
330
1F
100
AcDbEntity
  8
NOCUT
100
AcDbLine
 10
20.0
 20
0.9
 30
0.0
 11
20.0
 21
1.4
 31
0.0
  0
LINE
  5
B8
330
1F
100
AcDbEntity
  8
NOCUT
100
AcDbLine
 10
20.0
 20
1.4
 30
0.0
 11
10.0
 21
1.4
 31
0.0
  0
LINE
  5
B9
330
1F
100
AcDbEntity
  8
NOCUT
100
AcDbLine
 10
10.0
 20
1.4
 30
0.0
 11
10.0
 21
3.0
 31
0.0
  0
LINE
  5
BA
330
1F
100
AcDbEntity
  8
NOCUT
100
AcDbLine
 10
10.0
 20
3.0
 30
0.0
 11
-36.0
 21
3.0
 31
0.0
  0
LINE
  5
BB
330
1F
100
AcDbEntity
  8
NOCUT
100
AcDbLine
 10
-36.0
 20
3.0
 30
0.0
 11
-36.0
 21
0.0
 31
0.0
  0
LINE
  5
BC
330
1F
100
AcDbEntity
  8
NOCUT
100
AcDbLine
 10
-36.0
 20
0.0
 30
0.0
 11
23.9912740049
 21
0.0
 31
0.0
  0
LINE
  5
BD
330
1F
100
AcDbEntity
  8
CUT
100
AcDbLine
 10
23.5
 20
1.5
 30
0.0
 11
20.0
 21
1.5
 31
0.0
  0
LINE
  5
BE
330
1F
100
AcDbEntity
  8
CUT
100
AcDbLine
 10
23.9912740049
 20
0.0001
 30
0.0
 11
24.0
 21
1.0
 31
0.0
  0
LINE
  5
BF
330
1F
100
AcDbEntity
  8
CUT
100
AcDbLine
 10
23.4991273132
 20
0.0001
 30
0.0
 11
23.9912740049
 21
0.0001
 31
0.0
  0
LINE
  5
C0
330
1F
100
AcDbEntity
  8
CUT
100
AcDbLine
 10
23.4991273132
 20
0.9
 30
0.0
 11
23.4991273132
 21
0.0001
 31
0.0
  0
LINE
  5
C1
330
1F
100
AcDbEntity
  8
CUT
100
AcDbLine
 10
20.0
 20
0.9
 30
0.0
 11
23.4991273132
 21
0.9
 31
0.0
  0
LINE
  5
C2
330
1F
100
AcDbEntity
  8
CUT
100
AcDbLine
 10
20.0
 20
1.5
 30
0.0
 11
20.0
 21
0.9
 31
0.0
  0
ARC
  5
C3
330
1F
100
AcDbEntity
  8
CUT
100
AcDbCircle
 10
23.5
 20
1.0
 30
0.0
 40
0.5000000000000004
100
AcDbArc
 50
0.0
 51
90.0
  0
DIMENSION
  5
C4
330
1F
100
AcDbEntity
  8
2
100
AcDbDimension
  2
*D1
 10
118.9632346948
 20
1.5
 30
0.0
 11
118.9632346948
 21
8.9503443827
 31
0.0
 70
   160
  1
%%c<>
 71
     2
 42
-1.0
  3
SLDDIMSTYLE0
100
AcDbAlignedDimension
 13
24.0
 23
-1.5
 33
0.0
 14
23.5
 24
1.5
 34
0.0
 50
90.0
100
AcDbRotatedDimension
  0
DIMENSION
  5
F4
330
1F
100
AcDbEntity
  8
SK2
100
AcDbDimension
  2
*D2
 10
23.5
 20
1.0
 30
0.0
 11
43.5010533749
 21
21.0010533749
 31
0.0
 70
   164
  1
<>
 71
     1
 42
-1.0
  3
SLDDIMSTYLE1
100
AcDbRadialDimension
 15
23.8535533906
 25
1.3535533906
 35
0.0
 40
0.0
  0
DIMENSION
  5
FE
330
1F
100
AcDbEntity
  8
SK2
100
AcDbDimension
  2
*D3
 10
-36.0
 20
83.5998788878
 30
0.0
 11
-4.6288182355
 21
83.5998788878
 31
0.0
 70
   160
 71
     2
 42
-1.0
  3
SLDDIMSTYLE2
100
AcDbAlignedDimension
 13
24.0
 23
1.0
 33
0.0
 14
-36.0
 24
3.0
 34
0.0
100
AcDbRotatedDimension
  0
DIMENSION
  5
109
330
1F
100
AcDbEntity
  8
SK2
100
AcDbDimension
  2
*D4
 10
-36.0
 20
48.7509423314
 30
0.0
 11
-18.8937081518
 21
48.7509423314
 31
0.0
 70
   160
 71
     2
 42
-1.0
  3
SLDDIMSTYLE3
100
AcDbAlignedDimension
 13
0.0
 23
0.0
 33
0.0
 14
-36.0
 24
0.0
 34
0.0
 50
0.0
100
AcDbRotatedDimension
  0
DIMENSION
  5
114
330
1F
100
AcDbEntity
  8
SK2
100
AcDbDimension
  2
*D5
 10
24.0
 20
54.6509423314
 30
0.0
 11
16.629518307
 21
54.6509423314
 31
0.0
 70
   160
 71
     2
 42
-1.0
  3
SLDDIMSTYLE4
100
AcDbAlignedDimension
 13
10.0
 23
1.4
 33
0.0
 14
24.0
 24
1.5
 34
0.0
100
AcDbRotatedDimension
  0
DIMENSION
  5
121
330
1F
100
AcDbEntity
  8
SK2
100
AcDbDimension
  2
*D6
 10
20.0
 20
42.2509423314
 30
0.0
 11
21.9500363501
 21
42.2509423314
 31
0.0
 70
   160
 71
     2
 42
-1.0
  3
SLDDIMSTYLE4
100
AcDbAlignedDimension
 13
24.0
 23
1.5
 33
0.0
 14
20.0
 24
0.9
 34
0.0
100
AcDbRotatedDimension
  0
DIMENSION
  5
12D
330
1F
100
AcDbEntity
  8
SK2
100
AcDbDimension
  2
*D7
 10
-1.9960344536
 20
-1.4
 30
0.0
 11
-1.9960344536
 21
12.386277865
 31
0.0
 70
   160
  1
%%c<>
 71
     2
 42
-1.0
  3
SLDDIMSTYLE4
100
AcDbAlignedDimension
 13
10.0
 23
1.4
 33
0.0
 14
10.0
 24
-1.4
 34
0.0
 50
90.0
100
AcDbRotatedDimension
  0
DIMENSION
  5
13A
330
1F
100
AcDbEntity
  8
2
100
AcDbDimension
  2
*D8
 10
24.0
 20
74.9999940533
 30
0.0
 11
11.7631916963
 21
74.9999940533
 31
0.0
 70
   160
 71
     2
 42
-1.0
  3
SLDDIMSTYLE3
100
AcDbAlignedDimension
 13
0.0
 23
1.5
 33
0.0
 14
24.0
 24
1.5
 34
0.0
100
AcDbRotatedDimension
  0
DIMENSION
  5
144
330
1F
100
AcDbEntity
  8
SK2
100
AcDbDimension
  2
*D9
 10
-37.7386612653
 20
-3.0
 30
0.0
 11
-37.7386612653
 21
12.386277865
 31
0.0
 70
   160
  1
%%c<>
 71
     2
 42
-1.0
  3
SLDDIMSTYLE4
100
AcDbAlignedDimension
 13
-36.0
 23
3.0
 33
0.0
 14
-36.0
 24
-3.0
 34
0.0
 50
90.0
100
AcDbRotatedDimension
  0
INSERT
  5
159
330
1F
100
AcDbEntity
  8
INFTEXT63
100
AcDbBlockReference
  2
SW_NOTE_0
 10
-39.8847508068
 20
-33.794739665
 30
0.0
  0
INSERT
  5
160
330
1F
100
AcDbEntity
  8
INFTEXT63
100
AcDbBlockReference
  2
SW_NOTE_1
 10
-39.8847508068
 20
-70.1731114039
 30
0.0
  0
ENDSEC
  0
SECTION
  2
OBJECTS
  0
DICTIONARY
  5
C
330
0
100
AcDbDictionary
281
     1
  3
ACAD_GROUP
350
D
  3
ACAD_LAYOUT
350
1A
  3
ACAD_MLINESTYLE
350
17
  3
ACAD_PLOTSETTINGS
350
19
  3
ACAD_PLOTSTYLENAME
350
E
  3
ACAD_SCALELIST
350
C5
  3
AcDbVariableDictionary
350
161
  0
DICTIONARY
  5
D
102
{ACAD_REACTORS
330
C
102
}
330
C
100
AcDbDictionary
281
     1
  0
DICTIONARY
  5
1A
102
{ACAD_REACTORS
330
C
102
}
330
C
100
AcDbDictionary
281
     1
  3
Layout1
350
1E
  3
Layout2
350
26
  3
Model
350
22
  0
DICTIONARY
  5
17
102
{ACAD_REACTORS
330
C
102
}
330
C
100
AcDbDictionary
281
     1
  3
Standard
350
18
  0
DICTIONARY
  5
19
102
{ACAD_REACTORS
330
C
102
}
330
C
100
AcDbDictionary
281
     1
  0
ACDBDICTIONARYWDFLT
  5
E
102
{ACAD_REACTORS
330
C
102
}
330
C
100
AcDbDictionary
281
     1
  3
Normal
350
F
100
AcDbDictionaryWithDefault
340
F
  0
DICTIONARY
  5
C5
102
{ACAD_REACTORS
330
C
102
}
330
C
100
AcDbDictionary
281
     1
  3
A0
350
C6
  3
A1
350
C7
  3
A2
350
C8
  3
A3
350
C9
  3
A4
350
CA
  3
A5
350
CB
  3
A6
350
CC
  3
A7
350
CD
  3
A8
350
CE
  3
A9
350
CF
  3
B0
350
D0
  3
B1
350
D1
  3
B2
350
D2
  3
B3
350
D3
  3
B4
350
D4
  3
B5
350
D5
  3
B6
350
D6
  3
B7
350
D7
  3
B8
350
D8
  3
B9
350
D9
  3
C0
350
DA
  3
C1
350
DB
  3
C2
350
DC
  3
C3
350
DD
  3
C4
350
DE
  3
C5
350
DF
  3
C6
350
E0
  3
C7
350
E1
  3
C8
350
E2
  3
C9
350
E3
  3
D0
350
E4
  3
D1
350
E5
  3
D2
350
E6
  0
DICTIONARY
  5
161
102
{ACAD_REACTORS
330
C
102
}
330
C
100
AcDbDictionary
281
     1
  3
CANNOSCALE
350
162
  0
LAYOUT
  5
1E
102
{ACAD_REACTORS
330
1A
102
}
330
1A
100
AcDbPlotSettings
  1

  2
none_device
  4

  6

 40
0.0
 41
0.0
 42
0.0
 43
0.0
 44
0.0
 45
0.0
 46
0.0
 47
0.0
 48
0.0
 49
0.0
140
0.0
141
0.0
142
1.0
143
1.0
 70
   688
 72
     0
 73
     0
 74
     5
  7

 75
    16
147
1.0
148
0.0
149
0.0
100
AcDbLayout
  1
Layout1
 70
     1
 71
     1
 10
0.0
 20
0.0
 11
420.0
 21
297.0
 12
0.0
 22
0.0
 32
0.0
 14
1.0000000000E+20
 24
1.0000000000E+20
 34
1.0000000000E+20
 15
-1.0000000000E+20
 25
-1.0000000000E+20
 35
-1.0000000000E+20
146
0.0
 13
0.0
 23
0.0
 33
0.0
 16
1.0
 26
0.0
 36
0.0
 17
0.0
 27
1.0
 37
0.0
 76
     0
330
1B
  0
LAYOUT
  5
26
102
{ACAD_REACTORS
330
1A
102
}
330
1A
100
AcDbPlotSettings
  1

  2
none_device
  4

  6

 40
0.0
 41
0.0
 42
0.0
 43
0.0
 44
0.0
 45
0.0
 46
0.0
 47
0.0
 48
0.0
 49
0.0
140
0.0
141
0.0
142
1.0
143
1.0
 70
   688
 72
     0
 73
     0
 74
     5
  7

 75
    16
147
1.0
148
0.0
149
0.0
100
AcDbLayout
  1
Layout2
 70
     1
 71
     2
 10
0.0
 20
0.0
 11
0.0
 21
0.0
 12
0.0
 22
0.0
 32
0.0
 14
0.0
 24
0.0
 34
0.0
 15
0.0
 25
0.0
 35
0.0
146
0.0
 13
0.0
 23
0.0
 33
0.0
 16
1.0
 26
0.0
 36
0.0
 17
0.0
 27
1.0
 37
0.0
 76
     0
330
23
  0
LAYOUT
  5
22
102
{ACAD_REACTORS
330
1A
102
}
330
1A
100
AcDbPlotSettings
  1

  2
none_device
  4

  6

 40
0.0
 41
0.0
 42
0.0
 43
0.0
 44
0.0
 45
0.0
 46
0.0
 47
0.0
 48
0.0
 49
0.0
140
0.0
141
0.0
142
1.0
143
1.0
 70
  1712
 72
     0
 73
     0
 74
     0
  7

 75
     0
147
1.0
148
0.0
149
0.0
100
AcDbLayout
  1
Model
 70
     1
 71
     0
 10
0.0
 20
0.0
 11
420.0
 21
297.0
 12
0.0
 22
0.0
 32
0.0
 14
0.0
 24
0.0
 34
0.0
 15
420.0
 25
297.0
 35
0.0
146
0.0
 13
0.0
 23
0.0
 33
0.0
 16
1.0
 26
0.0
 36
0.0
 17
0.0
 27
1.0
 37
0.0
 76
     0
330
1F
331
29
  0
MLINESTYLE
  5
18
102
{ACAD_REACTORS
330
17
102
}
330
17
100
AcDbMlineStyle
  2
Standard
 70
     0
  3

 62
   256
 51
90.0
 52
90.0
 71
     2
 49
0.5
 62
   256
  6
BYLAYER
 49
-0.5
 62
   256
  6
BYLAYER
  0
ACDBPLACEHOLDER
  5
F
102
{ACAD_REACTORS
330
E
102
}
330
E
  0
SCALE
  5
C6
102
{ACAD_REACTORS
330
C5
102
}
330
C5
100
AcDbScale
 70
     0
300
1:1
140
1.0
141
1.0
290
     1
  0
SCALE
  5
C7
102
{ACAD_REACTORS
330
C5
102
}
330
C5
100
AcDbScale
 70
     0
300
1:2
140
1.0
141
2.0
290
     0
  0
SCALE
  5
C8
102
{ACAD_REACTORS
330
C5
102
}
330
C5
100
AcDbScale
 70
     0
300
1:4
140
1.0
141
4.0
290
     0
  0
SCALE
  5
C9
102
{ACAD_REACTORS
330
C5
102
}
330
C5
100
AcDbScale
 70
     0
300
1:5
140
1.0
141
5.0
290
     0
  0
SCALE
  5
CA
102
{ACAD_REACTORS
330
C5
102
}
330
C5
100
AcDbScale
 70
     0
300
1:8
140
1.0
141
8.0
290
     0
  0
SCALE
  5
CB
102
{ACAD_REACTORS
330
C5
102
}
330
C5
100
AcDbScale
 70
     0
300
1:10
140
1.0
141
10.0
290
     0
  0
SCALE
  5
CC
102
{ACAD_REACTORS
330
C5
102
}
330
C5
100
AcDbScale
 70
     0
300
1:16
140
1.0
141
16.0
290
     0
  0
SCALE
  5
CD
102
{ACAD_REACTORS
330
C5
102
}
330
C5
100
AcDbScale
 70
     0
300
1:20
140
1.0
141
20.0
290
     0
  0
SCALE
  5
CE
102
{ACAD_REACTORS
330
C5
102
}
330
C5
100
AcDbScale
 70
     0
300
1:30
140
1.0
141
30.0
290
     0
  0
SCALE
  5
CF
102
{ACAD_REACTORS
330
C5
102
}
330
C5
100
AcDbScale
 70
     0
300
1:40
140
1.0
141
40.0
290
     0
  0
SCALE
  5
D0
102
{ACAD_REACTORS
330
C5
102
}
330
C5
100
AcDbScale
 70
     0
300
1:50
140
1.0
141
50.0
290
     0
  0
SCALE
  5
D1
102
{ACAD_REACTORS
330
C5
102
}
330
C5
100
AcDbScale
 70
     0
300
1:100
140
1.0
141
100.0
290
     0
  0
SCALE
  5
D2
102
{ACAD_REACTORS
330
C5
102
}
330
C5
100
AcDbScale
 70
     0
300
2:1
140
2.0
141
1.0
290
     0
  0
SCALE
  5
D3
102
{ACAD_REACTORS
330
C5
102
}
330
C5
100
AcDbScale
 70
     0
300
4:1
140
4.0
141
1.0
290
     0
  0
SCALE
  5
D4
102
{ACAD_REACTORS
330
C5
102
}
330
C5
100
AcDbScale
 70
     0
300
8:1
140
8.0
141
1.0
290
     0
  0
SCALE
  5
D5
102
{ACAD_REACTORS
330
C5
102
}
330
C5
100
AcDbScale
 70
     0
300
10:1
140
10.0
141
1.0
290
     0
  0
SCALE
  5
D6
102
{ACAD_REACTORS
330
C5
102
}
330
C5
100
AcDbScale
 70
     0
300
100:1
140
100.0
141
1.0
290
     0
  0
SCALE
  5
D7
102
{ACAD_REACTORS
330
C5
102
}
330
C5
100
AcDbScale
 70
     0
300
1/128" = 1'-0"
140
0.0078125
141
12.0
290
     0
  0
SCALE
  5
D8
102
{ACAD_REACTORS
330
C5
102
}
330
C5
100
AcDbScale
 70
     0
300
1/64" = 1'-0"
140
0.015625
141
12.0
290
     0
  0
SCALE
  5
D9
102
{ACAD_REACTORS
330
C5
102
}
330
C5
100
AcDbScale
 70
     0
300
1/32" = 1'-0"
140
0.03125
141
12.0
290
     0
  0
SCALE
  5
DA
102
{ACAD_REACTORS
330
C5
102
}
330
C5
100
AcDbScale
 70
     0
300
1/16" = 1'-0"
140
0.0625
141
12.0
290
     0
  0
SCALE
  5
DB
102
{ACAD_REACTORS
330
C5
102
}
330
C5
100
AcDbScale
 70
     0
300
3/32" = 1'-0"
140
0.09375
141
12.0
290
     0
  0
SCALE
  5
DC
102
{ACAD_REACTORS
330
C5
102
}
330
C5
100
AcDbScale
 70
     0
300
1/8" = 1'-0"
140
0.125
141
12.0
290
     0
  0
SCALE
  5
DD
102
{ACAD_REACTORS
330
C5
102
}
330
C5
100
AcDbScale
 70
     0
300
3/16" = 1'-0"
140
0.1875
141
12.0
290
     0
  0
SCALE
  5
DE
102
{ACAD_REACTORS
330
C5
102
}
330
C5
100
AcDbScale
 70
     0
300
1/4" = 1'-0"
140
0.25
141
12.0
290
     0
  0
SCALE
  5
DF
102
{ACAD_REACTORS
330
C5
102
}
330
C5
100
AcDbScale
 70
     0
300
3/8" = 1'-0"
140
0.375
141
12.0
290
     0
  0
SCALE
  5
E0
102
{ACAD_REACTORS
330
C5
102
}
330
C5
100
AcDbScale
 70
     0
300
1/2" = 1'-0"
140
0.5
141
12.0
290
     0
  0
SCALE
  5
E1
102
{ACAD_REACTORS
330
C5
102
}
330
C5
100
AcDbScale
 70
     0
300
3/4" = 1'-0"
140
0.75
141
12.0
290
     0
  0
SCALE
  5
E2
102
{ACAD_REACTORS
330
C5
102
}
330
C5
100
AcDbScale
 70
     0
300
1" = 1'-0"
140
1.0
141
12.0
290
     0
  0
SCALE
  5
E3
102
{ACAD_REACTORS
330
C5
102
}
330
C5
100
AcDbScale
 70
     0
300
1-1/2" = 1'-0"
140
1.5
141
12.0
290
     0
  0
SCALE
  5
E4
102
{ACAD_REACTORS
330
C5
102
}
330
C5
100
AcDbScale
 70
     0
300
3" = 1'-0"
140
3.0
141
12.0
290
     0
  0
SCALE
  5
E5
102
{ACAD_REACTORS
330
C5
102
}
330
C5
100
AcDbScale
 70
     0
300
6" = 1'-0"
140
6.0
141
12.0
290
     0
  0
SCALE
  5
E6
102
{ACAD_REACTORS
330
C5
102
}
330
C5
100
AcDbScale
 70
     0
300
1'-0" = 1'-0"
140
12.0
141
12.0
290
     0
  0
DICTIONARYVAR
  5
162
102
{ACAD_REACTORS
330
161
102
}
330
161
100
DictionaryVariables
280
     0
  1
1:1
  0
ENDSEC
  0
EOF
