  0
SECTION
  2
HEADER
  9
$ACADVER
  1
AC1015
  9
$ACADMAINTVER
 70
     6
  9
$DWGCODEPAGE
  3
ANSI_1252
  9
$INSBASE
 10
0.0
 20
0.0
 30
0.0
  9
$EXTMIN
 10
0.0
 20
0.0
 30
0.0
  9
$EXTMAX
 10
420.0
 20
297.0
 30
0.0
  9
$LIMMIN
 10
0.0
 20
0.0
  9
$LIMMAX
 10
420.0
 20
297.0
  9
$ORTHOMODE
 70
     0
  9
$REGENMODE
 70
     1
  9
$FILLMODE
 70
     1
  9
$QTEXTMODE
 70
     0
  9
$MIRRTEXT
 70
     1
  9
$LTSCALE
 40
1.0
  9
$ATTMODE
 70
     1
  9
$TEXTSIZE
 40
3.5
  9
$TRACEWID
 40
1.0
  9
$TEXTSTYLE
  7
STANDARD
  9
$CLAYER
  8
0
  9
$CELTYPE
  6
ByLayer
  9
$CECOLOR
 62
   256
  9
$CELTSCALE
 40
1.0
  9
$DISPSILH
 70
     0
  9
$DIMSCALE
 40
1.0
  9
$DIMASZ
 40
3.302
  9
$DIMEXO
 40
1.0
  9
$DIMDLI
 40
3.75
  9
$DIMRND
 40
0.0
  9
$DIMDLE
 40
0.0
  9
$DIMEXE
 40
1.0
  9
$DIMTP
 40
0.0
  9
$DIMTM
 40
0.0
  9
$DIMTXT
 40
3.5
  9
$DIMCEN
 40
2.5
  9
$DIMTSZ
 40
0.0
  9
$DIMTOL
 70
     0
  9
$DIMLIM
 70
     0
  9
$DIMTIH
 70
     1
  9
$DIMTOH
 70
     1
  9
$DIMSE1
 70
     0
  9
$DIMSE2
 70
     0
  9
$DIMTAD
 70
     1
  9
$DIMZIN
 70
     0
  9
$DIMBLK
  1

  9
$DIMASO
 70
     1
  9
$DIMSHO
 70
     1
  9
$DIMPOST
  1

  9
$DIMAPOST
  1

  9
$DIMALT
 70
     0
  9
$DIMALTD
 70
     3
  9
$DIMALTF
 40
0.0393700787
  9
$DIMLFAC
 40
1.0
  9
$DIMTOFL
 70
     1
  9
$DIMTVP
 40
0.0
  9
$DIMTIX
 70
     0
  9
$DIMSOXD
 70
     0
  9
$DIMSAH
 70
     0
  9
$DIMBLK1
  1

  9
$DIMBLK2
  1

  9
$DIMSTYLE
  2
ISO-25
  9
$DIMCLRD
 70
     0
  9
$DIMCLRE
 70
     0
  9
$DIMCLRT
 70
     0
  9
$DIMTFAC
 40
1.0
  9
$DIMGAP
 40
1.524
  9
$DIMJUST
 70
     0
  9
$DIMSD1
 70
     0
  9
$DIMSD2
 70
     0
  9
$DIMTOLJ
 70
     0
  9
$DIMTZIN
 70
     0
  9
$DIMALTZ
 70
     0
  9
$DIMALTTZ
 70
     0
  9
$DIMUPT
 70
     0
  9
$DIMDEC
 70
     1
  9
$DIMTDEC
 70
     1
  9
$DIMALTU
 70
     2
  9
$DIMALTTD
 70
     3
  9
$DIMTXSTY
  7
STANDARD
  9
$DIMAUNIT
 70
     0
  9
$DIMADEC
 70
     1
  9
$DIMALTRND
 40
0.0
  9
$DIMAZIN
 70
     0
  9
$DIMDSEP
 70
    44
  9
$DIMATFIT
 70
     3
  9
$DIMFRAC
 70
     0
  9
$DIMLDRBLK
  1

  9
$DIMLUNIT
 70
     2
  9
$DIMLWD
 70
    -2
  9
$DIMLWE
 70
    -2
  9
$DIMTMOVE
 70
     0
  9
$LUNITS
 70
     2
  9
$LUPREC
 70
     2
  9
$SKETCHINC
 40
1.0
  9
$FILLETRAD
 40
10.0
  9
$AUNITS
 70
     0
  9
$AUPREC
 70
     2
  9
$MENU
  1
.
  9
$ELEVATION
 40
0.0
  9
$PELEVATION
 40
0.0
  9
$THICKNESS
 40
0.0
  9
$LIMCHECK
 70
     0
  9
$CHAMFERA
 40
10.0
  9
$CHAMFERB
 40
10.0
  9
$CHAMFERC
 40
20.0
  9
$CHAMFERD
 40
0.0
  9
$SKPOLY
 70
     0
  9
$TDCREATE
 40
2455897.774413553
  9
$TDUCREATE
 40
2455897.732746887
  9
$TDUPDATE
 40
2455897.774413565
  9
$TDUUPDATE
 40
2455897.732746898
  9
$TDINDWG
 40
0.0000000116
  9
$TDUSRTIMER
 40
0.0000000116
  9
$USRTIMER
 70
     1
  9
$ANGBASE
 50
0.0
  9
$ANGDIR
 70
     0
  9
$PDMODE
 70
     0
  9
$PDSIZE
 40
-1.0
  9
$PLINEWID
 40
0.0
  9
$SPLFRAME
 70
     0
  9
$SPLINETYPE
 70
     6
  9
$SPLINESEGS
 70
     8
  9
$HANDSEED
  5
16D
  9
$SURFTAB1
 70
     6
  9
$SURFTAB2
 70
     6
  9
$SURFTYPE
 70
     6
  9
$SURFU
 70
     6
  9
$SURFV
 70
     6
  9
$UCSBASE
  2

  9
$UCSNAME
  2

  9
$UCSORG
 10
0.0
 20
0.0
 30
0.0
  9
$UCSXDIR
 10
1.0
 20
0.0
 30
0.0
  9
$UCSYDIR
 10
0.0
 20
1.0
 30
0.0
  9
$UCSORTHOREF
  2

  9
$UCSORTHOVIEW
 70
     0
  9
$UCSORGTOP
 10
0.0
 20
0.0
 30
0.0
  9
$UCSORGBOTTOM
 10
0.0
 20
0.0
 30
0.0
  9
$UCSORGLEFT
 10
0.0
 20
0.0
 30
0.0
  9
$UCSORGRIGHT
 10
0.0
 20
0.0
 30
0.0
  9
$UCSORGFRONT
 10
0.0
 20
0.0
 30
0.0
  9
$UCSORGBACK
 10
0.0
 20
0.0
 30
0.0
  9
$PUCSBASE
  2

  9
$PUCSNAME
  2

  9
$PUCSORG
 10
0.0
 20
0.0
 30
0.0
  9
$PUCSXDIR
 10
1.0
 20
0.0
 30
0.0
  9
$PUCSYDIR
 10
0.0
 20
1.0
 30
0.0
  9
$PUCSORTHOREF
  2

  9
$PUCSORTHOVIEW
 70
     0
  9
$PUCSORGTOP
 10
0.0
 20
0.0
 30
0.0
  9
$PUCSORGBOTTOM
 10
0.0
 20
0.0
 30
0.0
  9
$PUCSORGLEFT
 10
0.0
 20
0.0
 30
0.0
  9
$PUCSORGRIGHT
 10
0.0
 20
0.0
 30
0.0
  9
$PUCSORGFRONT
 10
0.0
 20
0.0
 30
0.0
  9
$PUCSORGBACK
 10
0.0
 20
0.0
 30
0.0
  9
$USERI1
 70
     0
  9
$USERI2
 70
     0
  9
$USERI3
 70
     0
  9
$USERI4
 70
     0
  9
$USERI5
 70
     0
  9
$USERR1
 40
0.0
  9
$USERR2
 40
0.0
  9
$USERR3
 40
0.0
  9
$USERR4
 40
0.0
  9
$USERR5
 40
0.0
  9
$WORLDVIEW
 70
     1
  9
$SHADEDGE
 70
     3
  9
$SHADEDIF
 70
    70
  9
$TILEMODE
 70
     1
  9
$MAXACTVP
 70
    64
  9
$PINSBASE
 10
0.0
 20
0.0
 30
0.0
  9
$PLIMCHECK
 70
     0
  9
$PEXTMIN
 10
1.0000000000E+20
 20
1.0000000000E+20
 30
1.0000000000E+20
  9
$PEXTMAX
 10
-1.0000000000E+20
 20
-1.0000000000E+20
 30
-1.0000000000E+20
  9
$PLIMMIN
 10
0.0
 20
0.0
  9
$PLIMMAX
 10
420.0
 20
297.0
  9
$UNITMODE
 70
     0
  9
$VISRETAIN
 70
     1
  9
$PLINEGEN
 70
     0
  9
$PSLTSCALE
 70
     1
  9
$TREEDEPTH
 70
  3020
  9
$CMLSTYLE
  2
Standard
  9
$CMLJUST
 70
     0
  9
$CMLSCALE
 40
20.0
  9
$PROXYGRAPHICS
 70
     1
  9
$MEASUREMENT
 70
     1
  9
$CELWEIGHT
370
    -1
  9
$ENDCAPS
280
     0
  9
$JOINSTYLE
280
     0
  9
$LWDISPLAY
290
     1
  9
$INSUNITS
 70
     4
  9
$HYPERLINKBASE
  1

  9
$STYLESHEET
  1

  9
$XEDIT
290
     1
  9
$CEPSNTYPE
380
     0
  9
$PSTYLEMODE
290
     1
  9
$FINGERPRINTGUID
  2
{42260EC9-75EC-410B-837F-7A988C830477}
  9
$VERSIONGUID
  2
{FAEB1C32-E019-11D5-929B-00C0DF256EC4}
  9
$EXTNAMES
290
     1
  9
$PSVPSCALE
 40
0.0
  9
$OLESTARTUP
290
     0
  0
ENDSEC
  0
SECTION
  2
CLASSES
  0
CLASS
  1
ACDBDICTIONARYWDFLT
  2
AcDbDictionaryWithDefault
  3
ObjectDBX Classes
 90
        0
280
     0
281
     0
  0
CLASS
  1
VISUALSTYLE
  2
AcDbVisualStyle
  3
ObjectDBX Classes
 90
     4095
280
     0
281
     0
  0
CLASS
  1
MATERIAL
  2
AcDbMaterial
  3
ObjectDBX Classes
 90
     1153
280
     0
281
     0
  0
CLASS
  1
SCALE
  2
AcDbScale
  3
ObjectDBX Classes
 90
     1153
280
     0
281
     0
  0
CLASS
  1
DICTIONARYVAR
  2
AcDbDictionaryVar
  3
ObjectDBX Classes
 90
        0
280
     0
281
     0
  0
CLASS
  1
ACDBPLACEHOLDER
  2
AcDbPlaceHolder
  3
ObjectDBX Classes
 90
        0
280
     0
281
     0
  0
CLASS
  1
LAYOUT
  2
AcDbLayout
  3
ObjectDBX Classes
 90
        0
280
     0
281
     0
  0
ENDSEC
  0
SECTION
  2
TABLES
  0
TABLE
  2
VPORT
  5
8
330
0
100
AcDbSymbolTable
 70
     1
  0
VPORT
  5
29
330
8
100
AcDbSymbolTableRecord
100
AcDbViewportTableRecord
  2
*Active
 70
     0
 10
0.0
 20
0.0
 11
1.0
 21
1.0
 12
210.0
 22
148.5
 13
0.0
 23
0.0
 14
10.0
 24
10.0
 15
10.0
 25
10.0
 16
0.0
 26
0.0
 36
1.0
 17
0.0
 27
0.0
 37
0.0
 40
297.0
 41
1.4141414141
 42
50.0
 43
0.0
 44
0.0
 50
0.0
 51
0.0
 71
     0
 72
  2000
 73
     1
 74
     3
 75
     0
 76
     0
 77
     0
 78
     0
281
     0
 65
     1
110
0.0
120
0.0
130
0.0
111
1.0
121
0.0
131
0.0
112
0.0
122
1.0
132
0.0
 79
     0
146
0.0
  0
ENDTAB
  0
TABLE
  2
LTYPE
  5
5
330
0
100
AcDbSymbolTable
 70
     6
  0
LTYPE
  5
14
330
5
100
AcDbSymbolTableRecord
100
AcDbLinetypeTableRecord
  2
ByBlock
 70
     0
  3

 72
    65
 73
     0
 40
0.0
  0
LTYPE
  5
15
330
5
100
AcDbSymbolTableRecord
100
AcDbLinetypeTableRecord
  2
ByLayer
 70
     0
  3

 72
    65
 73
     0
 40
0.0
  0
LTYPE
  5
16
330
5
100
AcDbSymbolTableRecord
100
AcDbLinetypeTableRecord
  2
Continuous
 70
     0
  3
Solid line
 72
    65
 73
     0
 40
0.0
  0
LTYPE
  5
3F
330
5
100
AcDbSymbolTableRecord
100
AcDbLinetypeTableRecord
  2
HIDDEN
 70
     0
  3
Hidden __ __ __ __ __ __ __ __ __ __ __ __ __ __
 72
    65
 73
     2
 40
1.905
 49
1.27
 74
     0
 49
-0.635
 74
     0
  0
LTYPE
  5
40
330
5
100
AcDbSymbolTableRecord
100
AcDbLinetypeTableRecord
  2
PHANTOM
 70
     0
  3
Phantom ______  __  __  ______  __  __  ______
 72
    65
 73
     6
 40
12.7
 49
6.35
 74
     0
 49
-1.27
 74
     0
 49
1.27
 74
     0
 49
-1.27
 74
     0
 49
1.27
 74
     0
 49
-1.27
 74
     0
  0
LTYPE
  5
41
330
5
100
AcDbSymbolTableRecord
100
AcDbLinetypeTableRecord
  2
CENTER
 70
     0
  3
Center ____ _ ____ _ ____ _ ____ _ ____ _ ____
 72
    65
 73
     4
 40
10.16
 49
6.35
 74
     0
 49
-1.27
 74
     0
 49
1.27
 74
     0
 49
-1.27
 74
     0
  0
LTYPE
  5
42
330
5
100
AcDbSymbolTableRecord
100
AcDbLinetypeTableRecord
  2
CENTERX2
 70
     0
  3
Center (2x) ________  __  ________  __  _____
 72
    65
 73
     4
 40
20.32
 49
12.7
 74
     0
 49
-2.54
 74
     0
 49
2.54
 74
     0
 49
-2.54
 74
     0
  0
LTYPE
  5
43
330
5
100
AcDbSymbolTableRecord
100
AcDbLinetypeTableRecord
  2
DOT2
 70
     0
  3
Dot (.5x) ........................................
 72
    65
 73
     2
 40
0.635
 49
0.0
 74
     0
 49
-0.635
 74
     0
  0
ENDTAB
  0
TABLE
  2
LAYER
  5
2
330
0
100
AcDbSymbolTable
 70
    20
  0
LAYER
  5
10
330
2
100
AcDbSymbolTableRecord
100
AcDbLayerTableRecord
  2
0
 70
     0
 62
     7
  6
Continuous
370
    -3
390
F
  0
LAYER
  5
44
330
2
100
AcDbSymbolTableRecord
100
AcDbLayerTableRecord
  2
SLD-DEFPOINTS
 70
     0
 62
     7
  6
Continuous
370
    -1
390
F
  0
LAYER
  5
45
330
2
100
AcDbSymbolTableRecord
100
AcDbLayerTableRecord
  2
1
 70
     0
 62
     4
  6
Continuous
370
    15
390
F
  0
LAYER
  5
46
330
2
100
AcDbSymbolTableRecord
100
AcDbLayerTableRecord
  2
2
 70
     0
 62
     7
  6
Continuous
370
    -3
390
F
  0
LAYER
  5
47
330
2
100
AcDbSymbolTableRecord
100
AcDbLayerTableRecord
  2
3
 70
     0
 62
     1
  6
HIDDEN
370
    -3
390
F
  0
LAYER
  5
48
330
2
100
AcDbSymbolTableRecord
100
AcDbLayerTableRecord
  2
4
 70
     0
 62
     2
  6
CENTERX2
370
    -3
390
F
  0
LAYER
  5
49
330
2
100
AcDbSymbolTableRecord
100
AcDbLayerTableRecord
  2
6
 70
     0
 62
     5
  6
Continuous
370
    -3
390
F
  0
LAYER
  5
4A
330
2
100
AcDbSymbolTableRecord
100
AcDbLayerTableRecord
  2
7
 70
     0
 62
     5
  6
Continuous
370
    -3
390
F
  0
LAYER
  5
4B
330
2
100
AcDbSymbolTableRecord
100
AcDbLayerTableRecord
  2
CUT
 70
     0
 62
     1
  6
Continuous
370
    -3
390
F
  0
LAYER
  5
4C
330
2
100
AcDbSymbolTableRecord
100
AcDbLayerTableRecord
  2
NOCUT
 70
     0
 62
     7
  6
Continuous
370
    -3
390
F
  0
LAYER
  5
4D
330
2
100
AcDbSymbolTableRecord
100
AcDbLayerTableRecord
  2
SK1
 70
     0
 62
     4
  6
Continuous
370
    15
390
F
  0
LAYER
  5
4E
330
2
100
AcDbSymbolTableRecord
100
AcDbLayerTableRecord
  2
SK2
 70
     0
 62
     7
  6
Continuous
370
    -3
390
F
  0
LAYER
  5
4F
330
2
100
AcDbSymbolTableRecord
100
AcDbLayerTableRecord
  2
SK3
 70
     0
 62
     1
  6
HIDDEN
370
    -3
390
F
  0
LAYER
  5
50
330
2
100
AcDbSymbolTableRecord
100
AcDbLayerTableRecord
  2
SK4
 70
     0
 62
     2
  6
CENTERX2
370
    -3
390
F
  0
LAYER
  5
51
330
2
100
AcDbSymbolTableRecord
100
AcDbLayerTableRecord
  2
SK6
 70
     0
 62
     5
  6
Continuous
370
    -3
390
F
  0
LAYER
  5
52
330
2
100
AcDbSymbolTableRecord
100
AcDbLayerTableRecord
  2
SK7
 70
     0
 62
     5
  6
Continuous
370
    -3
390
F
  0
LAYER
  5
53
330
2
100
AcDbSymbolTableRecord
100
AcDbLayerTableRecord
  2
SLD-0
 70
     0
 62
     7
  6
Continuous
370
    -1
390
F
  0
LAYER
  5
54
330
2
100
AcDbSymbolTableRecord
100
AcDbLayerTableRecord
  2
SLD-DEFPOINTS_0
 70
     0
 62
     7
  6
Continuous
370
    -1
390
F
  0
LAYER
  5
55
330
2
100
AcDbSymbolTableRecord
100
AcDbLayerTableRecord
  2
INFTOTAL
 70
     0
 62
     9
  6
Continuous
370
    -3
390
F
  0
LAYER
  5
56
330
2
100
AcDbSymbolTableRecord
100
AcDbLayerTableRecord
  2
INFTEXT63
 70
     0
 62
     5
  6
Continuous
370
    -3
390
F
  0
ENDTAB
  0
TABLE
  2
STYLE
  5
3
330
0
100
AcDbSymbolTable
 70
     2
  0
STYLE
  5
11
330
3
100
AcDbSymbolTableRecord
100
AcDbTextStyleTableRecord
  2
STANDARD
 70
     0
 40
0.0
 41
1.0
 50
0.0
 71
     0
 42
2.5
  3
GOTHIC.TTF
  4

1001
ACAD
1000
CENTURY GOTHIC
1071
       34
  0
STYLE
  5
57
330
3
100
AcDbSymbolTableRecord
100
AcDbTextStyleTableRecord
  2
SLDTEXTSTYLE0
 70
     0
 40
0.0
 41
1.0
 50
0.0
 71
     0
 42
0.2
  3
Monospac821 BT
  4

1001
ACAD
1000
Monospac821 BT
1071
      305
  0
ENDTAB
  0
TABLE
  2
VIEW
  5
6
330
0
100
AcDbSymbolTable
 70
     0
  0
ENDTAB
  0
TABLE
  2
UCS
  5
7
330
0
100
AcDbSymbolTable
 70
     0
  0
ENDTAB
  0
TABLE
  2
APPID
  5
9
330
0
100
AcDbSymbolTable
 70
     1
  0
APPID
  5
12
330
9
100
AcDbSymbolTableRecord
100
AcDbRegAppTableRecord
  2
ACAD
 70
     0
  0
ENDTAB
  0
TABLE
  2
DIMSTYLE
  5
A
330
0
100
AcDbSymbolTable
 70
     6
100
AcDbDimStyleTable
  0
DIMSTYLE
105
27
330
A
100
AcDbSymbolTableRecord
100
AcDbDimStyleTableRecord
  2
ISO-25
 70
     0
 41
2.5
 42
0.625
 43
3.75
 44
1.25
 73
     0
 74
     0
 77
     1
 78
     8
140
2.5
141
2.5
143
0.0393700787
147
0.625
171
     3
172
     1
271
     2
272
     2
274
     3
278
    44
283
     0
284
     8
340
57
  0
DIMSTYLE
105
EF
102
{ACAD_REACTORS
330
CC
102
}
330
A
100
AcDbSymbolTableRecord
100
AcDbDimStyleTableRecord
  2
SLDDIMSTYLE0
 70
     0
 41
3.302
 44
0.0
 45
0.000000001
 73
     0
 77
     1
 78
    12
140
3.5
147
0.875
173
     1
271
     1
272
     2
276
     2
284
    12
340
57
  0
DIMSTYLE
105
FD
102
{ACAD_REACTORS
330
FC
102
}
330
A
100
AcDbSymbolTableRecord
100
AcDbDimStyleTableRecord
  2
SLDDIMSTYLE1
 70
     0
 41
3.302
 44
0.0
 45
0.000000001
 73
     0
 77
     1
 78
    12
140
3.5
141
0.0
147
0.875
173
     1
271
     1
272
     1
276
     2
284
    12
340
57
  0
DIMSTYLE
105
107
102
{ACAD_REACTORS
330
106
102
}
330
A
100
AcDbSymbolTableRecord
100
AcDbDimStyleTableRecord
  2
SLDDIMSTYLE2
 70
     0
 41
3.302
 44
0.0
 45
0.000000001
 73
     0
 77
     1
 78
    12
140
3.5
147
0.875
173
     1
271
     1
272
     1
276
     2
284
    12
340
57
  0
DIMSTYLE
105
112
102
{ACAD_REACTORS
330
111
102
}
330
A
100
AcDbSymbolTableRecord
100
AcDbDimStyleTableRecord
  2
SLDDIMSTYLE3
 70
     0
 41
3.302
 44
0.0
 45
0.000000001
 73
     0
 77
     1
 78
    12
140
3.5
147
0.875
173
     1
271
     2
272
     2
276
     2
284
    12
340
57
  0
DIMSTYLE
105
11D
102
{ACAD_REACTORS
330
11C
330
129
330
135
330
142
330
14E
102
}
330
A
100
AcDbSymbolTableRecord
100
AcDbDimStyleTableRecord
  2
SLDDIMSTYLE4
 70
     0
 41
3.302
 44
0.0
 45
0.000000001
 73
     0
 77
     1
 78
    12
140
3.5
147
0.875
173
     1
271
     2
272
     2
276
     2
284
    12
340
57
  0
ENDTAB
  0
TABLE
  2
BLOCK_RECORD
  5
1
330
0
100
AcDbSymbolTable
 70
    12
  0
BLOCK_RECORD
  5
1F
330
1
100
AcDbSymbolTableRecord
100
AcDbBlockTableRecord
  2
*Model_Space
340
22
  0
BLOCK_RECORD
  5
1B
330
1
100
AcDbSymbolTableRecord
100
AcDbBlockTableRecord
  2
*Paper_Space
340
1E
  0
BLOCK_RECORD
  5
23
330
1
100
AcDbSymbolTableRecord
100
AcDbBlockTableRecord
  2
*Paper_Space0
340
26
  0
BLOCK_RECORD
  5
F0
330
1
100
AcDbSymbolTableRecord
100
AcDbBlockTableRecord
  2
*D1
340
0
  0
BLOCK_RECORD
  5
FE
330
1
100
AcDbSymbolTableRecord
100
AcDbBlockTableRecord
  2
*D2
340
0
  0
BLOCK_RECORD
  5
108
330
1
100
AcDbSymbolTableRecord
100
AcDbBlockTableRecord
  2
*D3
340
0
  0
BLOCK_RECORD
  5
113
330
1
100
AcDbSymbolTableRecord
100
AcDbBlockTableRecord
  2
*D4
340
0
  0
BLOCK_RECORD
  5
11E
330
1
100
AcDbSymbolTableRecord
100
AcDbBlockTableRecord
  2
*D5
340
0
  0
BLOCK_RECORD
  5
12A
330
1
100
AcDbSymbolTableRecord
100
AcDbBlockTableRecord
  2
*D6
340
0
  0
BLOCK_RECORD
  5
136
330
1
100
AcDbSymbolTableRecord
100
AcDbBlockTableRecord
  2
*D7
340
0
  0
BLOCK_RECORD
  5
143
330
1
100
AcDbSymbolTableRecord
100
AcDbBlockTableRecord
  2
*D8
340
0
  0
BLOCK_RECORD
  5
14F
330
1
100
AcDbSymbolTableRecord
100
AcDbBlockTableRecord
  2
*D9
340
0
  0
BLOCK_RECORD
  5
15B
330
1
100
AcDbSymbolTableRecord
100
AcDbBlockTableRecord
  2
SW_NOTE_0
340
0
102
{BLKREFS
331
163
102
}
  0
BLOCK_RECORD
  5
164
330
1
100
AcDbSymbolTableRecord
100
AcDbBlockTableRecord
  2
SW_NOTE_1
340
0
102
{BLKREFS
331
16A
102
}
  0
ENDTAB
  0
ENDSEC
  0
SECTION
  2
BLOCKS
  0
BLOCK
  5
20
330
1F
100
AcDbEntity
  8
0
100
AcDbBlockBegin
  2
*Model_Space
 70
     0
 10
0.0
 20
0.0
 30
0.0
  3
*Model_Space
  1

  0
ENDBLK
  5
21
330
1F
100
AcDbEntity
  8
0
100
AcDbBlockEnd
  0
BLOCK
  5
1C
330
1B
100
AcDbEntity
 67
     1
  8
0
100
AcDbBlockBegin
  2
*Paper_Space
 70
     0
 10
0.0
 20
0.0
 30
0.0
  3
*Paper_Space
  1

  0
ENDBLK
  5
1D
330
1B
100
AcDbEntity
 67
     1
  8
0
100
AcDbBlockEnd
  0
BLOCK
  5
24
330
23
100
AcDbEntity
  8
0
100
AcDbBlockBegin
  2
*Paper_Space0
 70
     0
 10
0.0
 20
0.0
 30
0.0
  3
*Paper_Space0
  1

  0
ENDBLK
  5
25
330
23
100
AcDbEntity
  8
0
100
AcDbBlockEnd
  0
BLOCK
  5
F1
330
F0
100
AcDbEntity
  8
0
100
AcDbBlockBegin
  2
*D1
 70
     1
 10
0.0
 20
0.0
 30
0.0
  3
*D1
  1

  0
SOLID
  5
F3
330
F0
100
AcDbEntity
  8
2
100
AcDbTrace
 10
118.9632346948
 20
-2.0
 30
0.0
 11
118.4552346948
 21
-5.302
 31
0.0
 12
119.4712346948
 22
-5.302
 32
0.0
 13
119.4712346948
 23
-5.302
 33
0.0
  0
SOLID
  5
F4
330
F0
100
AcDbEntity
  8
2
100
AcDbTrace
 10
118.9632346948
 20
2.0
 30
0.0
 11
119.4712346948
 21
5.302
 31
0.0
 12
118.4552346948
 22
5.302
 32
0.0
 13
118.4552346948
 23
5.302
 33
0.0
  0
LINE
  5
F5
330
F0
100
AcDbEntity
  8
2
100
AcDbLine
 10
15.0
 20
-2.0
 30
0.0
 11
119.9632346948
 21
-2.0
 31
0.0
  0
LINE
  5
F6
330
F0
100
AcDbEntity
  8
2
100
AcDbLine
 10
14.7
 20
2.0
 30
0.0
 11
119.9632346948
 21
2.0
 31
0.0
  0
LINE
  5
F7
330
F0
100
AcDbEntity
  8
2
100
AcDbLine
 10
118.9632346948
 20
-2.0
 30
0.0
 11
118.9632346948
 21
-8.35
 31
0.0
  0
LINE
  5
F8
330
F0
100
AcDbEntity
  8
2
100
AcDbLine
 10
118.9632346948
 20
-2.0
 30
0.0
 11
118.9632346948
 21
2.0
 31
0.0
  0
LINE
  5
F9
330
F0
100
AcDbEntity
  8
2
100
AcDbLine
 10
118.9632346948
 20
2.0
 30
0.0
 11
118.9632346948
 21
15.050646519
 31
0.0
  0
MTEXT
  5
FA
330
F0
100
AcDbEntity
  8
2
100
AcDbMText
 10
114.3565510066
 20
5.4375422464
 30
0.0
 40
3.5
 41
0.0
 71
     1
 72
     1
  1
%%c
  7
SLDTEXTSTYLE0
 11
-1.608122649676637E-16
 21
1.0
 31
0.0
 73
     1
 44
1.0
  0
MTEXT
  5
FB
330
F0
100
AcDbEntity
  8
2
100
AcDbMText
 10
114.3565512394
 20
10.6875674854
 30
0.0
 40
3.5
 41
0.0
 71
     1
 72
     1
  1
4
  7
SLDTEXTSTYLE0
 11
-1.608122649676637E-16
 21
1.0
 31
0.0
 73
     1
 44
1.0
  0
ENDBLK
  5
F2
330
F0
100
AcDbEntity
  8
0
100
AcDbBlockEnd
  0
BLOCK
  5
FF
330
FE
100
AcDbEntity
  8
0
100
AcDbBlockBegin
  2
*D2
 70
     1
 10
0.0
 20
0.0
 30
0.0
  3
*D2
  1

  0
SOLID
  5
101
330
FE
100
AcDbEntity
  8
SK2
100
AcDbTrace
 10
13.9121320344
 20
1.9121320344
 30
0.0
 11
16.6062088707
 21
3.887788381
 31
0.0
 12
15.887788381
 22
4.6062088707
 32
0.0
 13
15.887788381
 23
4.6062088707
 33
0.0
  0
LINE
  5
102
330
FE
100
AcDbEntity
  8
SK2
100
AcDbLine
 10
13.9121320344
 20
1.9121320344
 30
0.0
 11
38.5119958126
 21
26.5119958126
 31
0.0
  0
LINE
  5
103
330
FE
100
AcDbEntity
  8
SK2
100
AcDbLine
 10
13.9121320344
 20
1.9121320344
 30
0.0
 11
13.7
 21
1.7
 31
0.0
  0
MTEXT
  5
104
330
FE
100
AcDbEntity
  8
SK2
100
AcDbMText
 10
26.2909112972
 20
20.7869702469
 30
0.0
 40
3.5
 41
0.0
 71
     1
 72
     1
  1
R
  7
SLDTEXTSTYLE0
 11
0.7071067811865464
 21
0.7071067811865488
 31
0.0
 73
     1
 44
1.0
  0
MTEXT
  5
105
330
FE
100
AcDbEntity
  8
SK2
100
AcDbMText
 10
28.2535420535
 20
22.7496010032
 30
0.0
 40
3.5
 41
0.0
 71
     1
 72
     1
  1
0,3
  7
SLDTEXTSTYLE0
 11
0.7071067811865464
 21
0.7071067811865488
 31
0.0
 73
     1
 44
1.0
  0
ENDBLK
  5
100
330
FE
100
AcDbEntity
  8
0
100
AcDbBlockEnd
  0
BLOCK
  5
109
330
108
100
AcDbEntity
  8
0
100
AcDbBlockBegin
  2
*D3
 70
     1
 10
0.0
 20
0.0
 30
0.0
  3
*D3
  1

  0
SOLID
  5
10B
330
108
100
AcDbEntity
  8
SK2
100
AcDbTrace
 10
14.0
 20
84.2998788878
 30
0.0
 11
10.698
 21
84.8078788878
 31
0.0
 12
10.698
 22
83.7918788878
 32
0.0
 13
10.698
 23
83.7918788878
 33
0.0
  0
SOLID
  5
10C
330
108
100
AcDbEntity
  8
SK2
100
AcDbTrace
 10
-36.0
 20
84.2998788878
 30
0.0
 11
-32.698
 21
83.7918788878
 31
0.0
 12
-32.698
 22
84.8078788878
 32
0.0
 13
-32.698
 23
84.8078788878
 33
0.0
  0
LINE
  5
10D
330
108
100
AcDbEntity
  8
SK2
100
AcDbLine
 10
14.0
 20
2.7
 30
0.0
 11
14.0
 21
85.2998788878
 31
0.0
  0
LINE
  5
10E
330
108
100
AcDbEntity
  8
SK2
100
AcDbLine
 10
-36.0
 20
4.0
 30
0.0
 11
-36.0
 21
85.2998788878
 31
0.0
  0
LINE
  5
10F
330
108
100
AcDbEntity
  8
SK2
100
AcDbLine
 10
14.0
 20
84.2998788878
 30
0.0
 11
-36.0
 21
84.2998788878
 31
0.0
  0
MTEXT
  5
110
330
108
100
AcDbEntity
  8
SK2
100
AcDbMText
 10
-12.6329275631
 20
88.9065623432
 30
0.0
 40
3.5
 41
0.0
 71
     1
 72
     1
  1
50
  7
SLDTEXTSTYLE0
 73
     1
 44
1.0
  0
ENDBLK
  5
10A
330
108
100
AcDbEntity
  8
0
100
AcDbBlockEnd
  0
BLOCK
  5
114
330
113
100
AcDbEntity
  8
0
100
AcDbBlockBegin
  2
*D4
 70
     1
 10
0.0
 20
0.0
 30
0.0
  3
*D4
  1

  0
SOLID
  5
116
330
113
100
AcDbEntity
  8
SK2
100
AcDbTrace
 10
0.0
 20
48.7509423314
 30
0.0
 11
-3.302
 21
49.2589423314
 31
0.0
 12
-3.302
 22
48.2429423314
 32
0.0
 13
-3.302
 23
48.2429423314
 33
0.0
  0
SOLID
  5
117
330
113
100
AcDbEntity
  8
SK2
100
AcDbTrace
 10
-36.0
 20
48.7509423314
 30
0.0
 11
-32.698
 21
48.2429423314
 31
0.0
 12
-32.698
 22
49.2589423314
 32
0.0
 13
-32.698
 23
49.2589423314
 33
0.0
  0
LINE
  5
118
330
113
100
AcDbEntity
  8
SK2
100
AcDbLine
 10
0.0
 20
1.0
 30
0.0
 11
0.0
 21
49.7509423314
 31
0.0
  0
LINE
  5
119
330
113
100
AcDbEntity
  8
SK2
100
AcDbLine
 10
-36.0
 20
1.0
 30
0.0
 11
-36.0
 21
49.7509423314
 31
0.0
  0
LINE
  5
11A
330
113
100
AcDbEntity
  8
SK2
100
AcDbLine
 10
0.0
 20
48.7509423314
 30
0.0
 11
-36.0
 21
48.7509423314
 31
0.0
  0
MTEXT
  5
11B
330
113
100
AcDbEntity
  8
SK2
100
AcDbMText
 10
-21.6692871854
 20
53.3576257868
 30
0.0
 40
3.5
 41
0.0
 71
     1
 72
     1
  1
36
  7
SLDTEXTSTYLE0
 73
     1
 44
1.0
  0
ENDBLK
  5
115
330
113
100
AcDbEntity
  8
0
100
AcDbBlockEnd
  0
BLOCK
  5
11F
330
11E
100
AcDbEntity
  8
0
100
AcDbBlockBegin
  2
*D5
 70
     1
 10
0.0
 20
0.0
 30
0.0
  3
*D5
  1

  0
SOLID
  5
121
330
11E
100
AcDbEntity
  8
SK2
100
AcDbTrace
 10
1.9
 20
55.2009423314
 30
0.0
 11
-1.402
 21
55.7089423314
 31
0.0
 12
-1.402
 22
54.6929423314
 32
0.0
 13
-1.402
 23
54.6929423314
 33
0.0
  0
SOLID
  5
122
330
11E
100
AcDbEntity
  8
SK2
100
AcDbTrace
 10
14.0
 20
55.2009423314
 30
0.0
 11
17.302
 21
54.6929423314
 31
0.0
 12
17.302
 22
55.7089423314
 32
0.0
 13
17.302
 23
55.7089423314
 33
0.0
  0
LINE
  5
123
330
11E
100
AcDbEntity
  8
SK2
100
AcDbLine
 10
1.9
 20
2.95
 30
0.0
 11
1.9
 21
56.2009423314
 31
0.0
  0
LINE
  5
124
330
11E
100
AcDbEntity
  8
SK2
100
AcDbLine
 10
14.0
 20
3.0
 30
0.0
 11
14.0
 21
56.2009423314
 31
0.0
  0
LINE
  5
125
330
11E
100
AcDbEntity
  8
SK2
100
AcDbLine
 10
1.9
 20
55.2009423314
 30
0.0
 11
-4.45
 21
55.2009423314
 31
0.0
  0
LINE
  5
126
330
11E
100
AcDbEntity
  8
SK2
100
AcDbLine
 10
1.9
 20
55.2009423314
 30
0.0
 11
14.0
 21
55.2009423314
 31
0.0
  0
LINE
  5
127
330
11E
100
AcDbEntity
  8
SK2
100
AcDbLine
 10
14.0
 20
55.2009423314
 30
0.0
 11
20.35
 21
55.2009423314
 31
0.0
  0
MTEXT
  5
128
330
11E
100
AcDbEntity
  8
SK2
100
AcDbMText
 10
2.0786398981
 20
59.8076257868
 30
0.0
 40
3.5
 41
0.0
 71
     1
 72
     1
  1
12,1
  7
SLDTEXTSTYLE0
 73
     1
 44
1.0
  0
ENDBLK
  5
120
330
11E
100
AcDbEntity
  8
0
100
AcDbBlockEnd
  0
BLOCK
  5
12B
330
12A
100
AcDbEntity
  8
0
100
AcDbBlockBegin
  2
*D6
 70
     1
 10
0.0
 20
0.0
 30
0.0
  3
*D6
  1

  0
SOLID
  5
12D
330
12A
100
AcDbEntity
  8
SK2
100
AcDbTrace
 10
14.0
 20
42.7509423314
 30
0.0
 11
17.302
 21
42.2429423314
 31
0.0
 12
17.302
 22
43.2589423314
 32
0.0
 13
17.302
 23
43.2589423314
 33
0.0
  0
SOLID
  5
12E
330
12A
100
AcDbEntity
  8
SK2
100
AcDbTrace
 10
2.0
 20
42.7509423314
 30
0.0
 11
-1.302
 21
43.2589423314
 31
0.0
 12
-1.302
 22
42.2429423314
 32
0.0
 13
-1.302
 23
42.2429423314
 33
0.0
  0
LINE
  5
12F
330
12A
100
AcDbEntity
  8
SK2
100
AcDbLine
 10
14.0
 20
3.0
 30
0.0
 11
14.0
 21
43.7509423314
 31
0.0
  0
LINE
  5
130
330
12A
100
AcDbEntity
  8
SK2
100
AcDbLine
 10
2.0
 20
2.2
 30
0.0
 11
2.0
 21
43.7509423314
 31
0.0
  0
LINE
  5
131
330
12A
100
AcDbEntity
  8
SK2
100
AcDbLine
 10
14.0
 20
42.7509423314
 30
0.0
 11
20.35
 21
42.7509423314
 31
0.0
  0
LINE
  5
132
330
12A
100
AcDbEntity
  8
SK2
100
AcDbLine
 10
14.0
 20
42.7509423314
 30
0.0
 11
2.0
 21
42.7509423314
 31
0.0
  0
LINE
  5
133
330
12A
100
AcDbEntity
  8
SK2
100
AcDbLine
 10
2.0
 20
42.7509423314
 30
0.0
 11
-4.35
 21
42.7509423314
 31
0.0
  0
MTEXT
  5
134
330
12A
100
AcDbEntity
  8
SK2
100
AcDbMText
 10
5.0745300167
 20
47.3576257868
 30
0.0
 40
3.5
 41
0.0
 71
     1
 72
     1
  1
12
  7
SLDTEXTSTYLE0
 73
     1
 44
1.0
  0
ENDBLK
  5
12C
330
12A
100
AcDbEntity
  8
0
100
AcDbBlockEnd
  0
BLOCK
  5
137
330
136
100
AcDbEntity
  8
0
100
AcDbBlockBegin
  2
*D7
 70
     1
 10
0.0
 20
0.0
 30
0.0
  3
*D7
  1

  0
SOLID
  5
139
330
136
100
AcDbEntity
  8
SK2
100
AcDbTrace
 10
-10.0960344536
 20
1.95
 30
0.0
 11
-9.5880344536
 21
5.252
 31
0.0
 12
-10.6040344536
 22
5.252
 32
0.0
 13
-10.6040344536
 23
5.252
 33
0.0
  0
SOLID
  5
13A
330
136
100
AcDbEntity
  8
SK2
100
AcDbTrace
 10
-10.0960344536
 20
-1.95
 30
0.0
 11
-10.6040344536
 21
-5.252
 31
0.0
 12
-9.5880344536
 22
-5.252
 32
0.0
 13
-9.5880344536
 23
-5.252
 33
0.0
  0
LINE
  5
13B
330
136
100
AcDbEntity
  8
SK2
100
AcDbLine
 10
0.9
 20
1.95
 30
0.0
 11
-11.0960344536
 21
1.95
 31
0.0
  0
LINE
  5
13C
330
136
100
AcDbEntity
  8
SK2
100
AcDbLine
 10
0.9
 20
-1.95
 30
0.0
 11
-11.0960344536
 21
-1.95
 31
0.0
  0
LINE
  5
13D
330
136
100
AcDbEntity
  8
SK2
100
AcDbLine
 10
-10.0960344536
 20
1.95
 30
0.0
 11
-10.0960344536
 21
25.6281967675
 31
0.0
  0
LINE
  5
13E
330
136
100
AcDbEntity
  8
SK2
100
AcDbLine
 10
-10.0960344536
 20
1.95
 30
0.0
 11
-10.0960344536
 21
-1.95
 31
0.0
  0
LINE
  5
13F
330
136
100
AcDbEntity
  8
SK2
100
AcDbLine
 10
-10.0960344536
 20
-1.95
 30
0.0
 11
-10.0960344536
 21
-8.3
 31
0.0
  0
MTEXT
  5
140
330
136
100
AcDbEntity
  8
SK2
100
AcDbMText
 10
-14.7027181418
 20
10.4639344277
 30
0.0
 40
3.5
 41
0.0
 71
     1
 72
     1
  1
%%c
  7
SLDTEXTSTYLE0
 11
-7.044195017643634E-15
 21
1.0
 31
0.0
 73
     1
 44
1.0
  0
MTEXT
  5
141
330
136
100
AcDbEntity
  8
SK2
100
AcDbMText
 10
-14.702717909
 20
15.7139596668
 30
0.0
 40
3.5
 41
0.0
 71
     1
 72
     1
  1
3,9
  7
SLDTEXTSTYLE0
 11
-7.044195017643634E-15
 21
1.0
 31
0.0
 73
     1
 44
1.0
  0
ENDBLK
  5
138
330
136
100
AcDbEntity
  8
0
100
AcDbBlockEnd
  0
BLOCK
  5
144
330
143
100
AcDbEntity
  8
0
100
AcDbBlockBegin
  2
*D8
 70
     1
 10
0.0
 20
0.0
 30
0.0
  3
*D8
  1

  0
SOLID
  5
146
330
143
100
AcDbEntity
  8
2
100
AcDbTrace
 10
0.0
 20
74.9999940533
 30
0.0
 11
-3.302
 21
75.5079940533
 31
0.0
 12
-3.302
 22
74.4919940533
 32
0.0
 13
-3.302
 23
74.4919940533
 33
0.0
  0
SOLID
  5
147
330
143
100
AcDbEntity
  8
2
100
AcDbTrace
 10
14.0
 20
74.9999940533
 30
0.0
 11
17.302
 21
74.4919940533
 31
0.0
 12
17.302
 22
75.5079940533
 32
0.0
 13
17.302
 23
75.5079940533
 33
0.0
  0
LINE
  5
148
330
143
100
AcDbEntity
  8
2
100
AcDbLine
 10
0.0
 20
2.5
 30
0.0
 11
0.0
 21
75.9999940533
 31
0.0
  0
LINE
  5
149
330
143
100
AcDbEntity
  8
2
100
AcDbLine
 10
14.0
 20
3.0
 30
0.0
 11
14.0
 21
75.9999940533
 31
0.0
  0
LINE
  5
14A
330
143
100
AcDbEntity
  8
2
100
AcDbLine
 10
0.0
 20
74.9999940533
 30
0.0
 11
-6.35
 21
74.9999940533
 31
0.0
  0
LINE
  5
14B
330
143
100
AcDbEntity
  8
2
100
AcDbLine
 10
0.0
 20
74.9999940533
 30
0.0
 11
14.0
 21
74.9999940533
 31
0.0
  0
LINE
  5
14C
330
143
100
AcDbEntity
  8
2
100
AcDbLine
 10
14.0
 20
74.9999940533
 30
0.0
 11
20.35
 21
74.9999940533
 31
0.0
  0
MTEXT
  5
14D
330
143
100
AcDbEntity
  8
2
100
AcDbMText
 10
4.0862827892
 20
79.6066775087
 30
0.0
 40
3.5
 41
0.0
 71
     1
 72
     1
  1
14
  7
SLDTEXTSTYLE0
 73
     1
 44
1.0
  0
ENDBLK
  5
145
330
143
100
AcDbEntity
  8
0
100
AcDbBlockEnd
  0
BLOCK
  5
150
330
14F
100
AcDbEntity
  8
0
100
AcDbBlockBegin
  2
*D9
 70
     1
 10
0.0
 20
0.0
 30
0.0
  3
*D9
  1

  0
SOLID
  5
152
330
14F
100
AcDbEntity
  8
SK2
100
AcDbTrace
 10
-37.7386612653
 20
3.0
 30
0.0
 11
-37.2306612653
 21
6.302
 31
0.0
 12
-38.2466612653
 22
6.302
 32
0.0
 13
-38.2466612653
 23
6.302
 33
0.0
  0
SOLID
  5
153
330
14F
100
AcDbEntity
  8
SK2
100
AcDbTrace
 10
-37.7386612653
 20
-3.0
 30
0.0
 11
-38.2466612653
 21
-6.302
 31
0.0
 12
-37.2306612653
 22
-6.302
 32
0.0
 13
-37.2306612653
 23
-6.302
 33
0.0
  0
LINE
  5
154
330
14F
100
AcDbEntity
  8
SK2
100
AcDbLine
 10
-37.0
 20
3.0
 30
0.0
 11
-38.7386612653
 21
3.0
 31
0.0
  0
LINE
  5
155
330
14F
100
AcDbEntity
  8
SK2
100
AcDbLine
 10
-37.0
 20
-3.0
 30
0.0
 11
-38.7386612653
 21
-3.0
 31
0.0
  0
LINE
  5
156
330
14F
100
AcDbEntity
  8
SK2
100
AcDbLine
 10
-37.7386612653
 20
3.0
 30
0.0
 11
-37.7386612653
 21
17.9865800013
 31
0.0
  0
LINE
  5
157
330
14F
100
AcDbEntity
  8
SK2
100
AcDbLine
 10
-37.7386612653
 20
3.0
 30
0.0
 11
-37.7386612653
 21
-3.0
 31
0.0
  0
LINE
  5
158
330
14F
100
AcDbEntity
  8
SK2
100
AcDbLine
 10
-37.7386612653
 20
-3.0
 30
0.0
 11
-37.7386612653
 21
-9.35
 31
0.0
  0
MTEXT
  5
159
330
14F
100
AcDbEntity
  8
SK2
100
AcDbMText
 10
-42.3453449535
 20
8.3734757286
 30
0.0
 40
3.5
 41
0.0
 71
     1
 72
     1
  1
%%c
  7
SLDTEXTSTYLE0
 11
-7.044195017643634E-15
 21
1.0
 31
0.0
 73
     1
 44
1.0
  0
MTEXT
  5
15A
330
14F
100
AcDbEntity
  8
SK2
100
AcDbMText
 10
-42.3453447206
 20
13.6235009677
 30
0.0
 40
3.5
 41
0.0
 71
     1
 72
     1
  1
6
  7
SLDTEXTSTYLE0
 11
-7.044195017643634E-15
 21
1.0
 31
0.0
 73
     1
 44
1.0
  0
ENDBLK
  5
151
330
14F
100
AcDbEntity
  8
0
100
AcDbBlockEnd
  0
BLOCK
  5
15C
330
15B
100
AcDbEntity
  8
0
100
AcDbBlockBegin
  2
SW_NOTE_0
 70
     0
 10
0.0
 20
0.0
 30
0.0
  3
SW_NOTE_0
  1

  0
MTEXT
  5
15E
330
15B
100
AcDbEntity
  8
INFTEXT63
 62
     0
100
AcDbMText
 10
0.0
 20
4.6066838046
 30
0.0
 40
3.5
 41
0.0
 71
     1
 72
     1
  1
Katalogware 2570150003
  7
SLDTEXTSTYLE0
 73
     1
 44
1.0
  0
MTEXT
  5
15F
330
15B
100
AcDbEntity
  8
INFTEXT63
 62
     0
100
AcDbMText
 10
0.0
 20
0.0177948465
 30
0.0
 40
3.5
 41
0.0
 71
     1
 72
     1
  1
H. Sartorius Nachf. GmbH & Co. KG
  7
SLDTEXTSTYLE0
 73
     1
 44
1.0
  0
MTEXT
  5
160
330
15B
100
AcDbEntity
  8
INFTEXT63
 62
     0
100
AcDbMText
 10
0.0
 20
-4.5710941116
 30
0.0
 40
3.5
 41
0.0
 71
     1
 72
     1
  1
Harkortstrasse 54 
  7
SLDTEXTSTYLE0
 73
     1
 44
1.0
  0
MTEXT
  5
161
330
15B
100
AcDbEntity
  8
INFTEXT63
 62
     0
100
AcDbMText
 10
0.0
 20
-9.1599830697
 30
0.0
 40
3.5
 41
0.0
 71
     1
 72
     1
  1
40880 Ratingen
  7
SLDTEXTSTYLE0
 73
     1
 44
1.0
  0
MTEXT
  5
162
330
15B
100
AcDbEntity
  8
INFTEXT63
 62
     0
100
AcDbMText
 10
0.0
 20
-13.7488720278
 30
0.0
 40
3.5
 41
0.0
 71
     1
 72
     1
  1
Deutschland
  7
SLDTEXTSTYLE0
 73
     1
 44
1.0
  0
ENDBLK
  5
15D
330
15B
100
AcDbEntity
  8
0
100
AcDbBlockEnd
  0
BLOCK
  5
165
330
164
100
AcDbEntity
  8
0
100
AcDbBlockBegin
  2
SW_NOTE_1
 70
     0
 10
0.0
 20
0.0
 30
0.0
  3
SW_NOTE_1
  1

  0
MTEXT
  5
167
330
164
100
AcDbEntity
  8
INFTEXT63
 62
     0
100
AcDbMText
 10
0.0
 20
4.6066838046
 30
0.0
 40
3.5
 41
0.0
 71
     1
 72
     1
  1
Copyright
  7
SLDTEXTSTYLE0
 73
     1
 44
1.0
  0
MTEXT
  5
168
330
164
100
AcDbEntity
  8
INFTEXT63
 62
     0
100
AcDbMText
 10
0.0
 20
-4.5710941116
 30
0.0
 40
3.5
 41
0.0
 71
     1
 72
     1
  1
Zeichnung nach DIN SPEC 69874 konvertiert mit SolidBMG Version 1.2
  7
SLDTEXTSTYLE0
 73
     1
 44
1.0
  0
MTEXT
  5
169
330
164
100
AcDbEntity
  8
INFTEXT63
 62
     0
100
AcDbMText
 10
0.0
 20
-9.1599830697
 30
0.0
 40
3.5
 41
0.0
 71
     1
 72
     1
  1
Geprüft mit DWPTools V1.0.6-BMG Werkzeug / Schneidwerkzeug
  7
SLDTEXTSTYLE0
 73
     1
 44
1.0
  0
ENDBLK
  5
166
330
164
100
AcDbEntity
  8
0
100
AcDbBlockEnd
  0
ENDSEC
  0
SECTION
  2
ENTITIES
  0
LINE
  5
58
330
1F
100
AcDbEntity
  8
SK1
  6
Continuous
370
    15
100
AcDbLine
 10
-36.0
 20
-3.0
 30
0.0
 11
-2.0186533479
 21
-3.0
 31
0.0
  0
LINE
  5
59
330
1F
100
AcDbEntity
  8
SK1
  6
Continuous
370
    15
100
AcDbLine
 10
-2.0186533479
 20
3.0
 30
0.0
 11
-36.0
 21
3.0
 31
0.0
  0
LINE
  5
5A
330
1F
100
AcDbEntity
  8
SK1
  6
Continuous
370
    15
100
AcDbLine
 10
-2.0186533479
 20
-3.0
 30
0.0
 11
0.0
 21
-2.4591034656
 31
0.0
  0
LINE
  5
5B
330
1F
100
AcDbEntity
  8
SK1
  6
Continuous
370
    15
100
AcDbLine
 10
0.0
 20
2.4591034656
 30
0.0
 11
-2.0186533479
 21
3.0
 31
0.0
  0
LINE
  5
5C
330
1F
100
AcDbEntity
  8
1
  6
Continuous
370
    15
100
AcDbLine
 10
6.7670439027
 20
-2.0
 30
0.0
 11
7.8162052526
 21
-2.0
 31
0.0
  0
SPLINE
  5
5D
330
1F
100
AcDbEntity
  8
1
  6
Continuous
370
    15
100
AcDbSpline
210
0.0
220
0.0
230
1.0
 70
     8
 71
     3
 72
    13
 73
     9
 74
     0
 42
0.00000001
 43
0.00000001
 40
0.0
 40
0.0
 40
0.0
 40
0.0
 40
0.0736158892260571
 40
0.181199281093837
 40
0.3241496031363999
 40
0.5066970689775455
 40
0.7313101695257835
 40
1.0
 40
1.0
 40
1.0
 40
1.0
 10
5.971585945121801
 20
1.3089802151987
 30
0.0
 10
5.968593281868027
 20
1.313210481798003
 30
0.0
 10
5.961227094542974
 20
1.323622925017635
 30
0.0
 10
5.873030231336573
 20
1.34412765783075
 30
0.0
 10
5.730022061344174
 20
1.376767578099731
 30
0.0
 10
5.521711707271924
 20
1.428895252862353
 30
0.0
 10
5.251519183952682
 20
1.508587337379076
 30
0.0
 10
5.046636940920654
 20
1.585791624754956
 30
0.0
 10
4.93504268172306
 20
1.627842878826997
 30
0.0
  0
SPLINE
  5
5E
330
1F
100
AcDbEntity
  8
1
  6
Continuous
370
    15
100
AcDbSpline
210
0.0
220
0.0
230
1.0
 70
     8
 71
     3
 72
    14
 73
    10
 74
     0
 42
0.00000001
 43
0.00000001
 40
0.0
 40
0.0
 40
0.0
 40
0.0
 40
0.0278129094613038
 40
0.0677565486402991
 40
0.1583510697077721
 40
0.2890455723494899
 40
0.4715829712731381
 40
0.7079738231547491
 40
1.0
 40
1.0
 40
1.0
 40
1.0
 10
10.79292438381808
 20
1.314066222421066
 30
0.0
 10
10.7928901193371
 20
1.314924601065263
 30
0.0
 10
10.7928066457625
 20
1.317015744188506
 30
0.0
 10
10.77016973548825
 20
1.323114578376639
 30
0.0
 10
10.69701496107274
 20
1.336860378481343
 30
0.0
 10
10.54865155197989
 20
1.365900793421484
 30
0.0
 10
10.33352147426998
 20
1.416662188552736
 30
0.0
 10
10.04390867150856
 20
1.49941420765908
 30
0.0
 10
9.824987215512023
 20
1.58149020505094
 30
0.0
 10
9.704001720441779
 20
1.62684896229397
 30
0.0
  0
LINE
  5
5F
330
1F
100
AcDbEntity
  8
1
  6
Continuous
370
    15
100
AcDbLine
 10
11.5341538456
 20
-2.0
 30
0.0
 11
12.5836538062
 21
-2.0
 31
0.0
  0
LINE
  5
60
330
1F
100
AcDbEntity
  8
1
  6
Continuous
370
    15
100
AcDbLine
 10
3.0505906573
 20
2.0
 30
0.0
 11
2.0
 21
2.0
 31
0.0
  0
LINE
  5
61
330
1F
100
AcDbEntity
  8
1
  6
Continuous
370
    15
100
AcDbLine
 10
7.8162052526
 20
2.0
 30
0.0
 11
6.7670439027
 21
2.0
 31
0.0
  0
LINE
  5
62
330
1F
100
AcDbEntity
  8
1
  6
Continuous
370
    15
100
AcDbLine
 10
2.0
 20
-2.0
 30
0.0
 11
3.0505906573
 21
-2.0
 31
0.0
  0
LINE
  5
63
330
1F
100
AcDbEntity
  8
1
  6
Continuous
370
    15
100
AcDbLine
 10
12.5836538062
 20
2.0
 30
0.0
 11
11.5341538456
 21
2.0
 31
0.0
  0
LINE
  5
64
330
1F
100
AcDbEntity
  8
1
  6
Continuous
370
    15
100
AcDbLine
 10
0.0
 20
-2.4591034656
 30
0.0
 11
0.618143613
 21
-2.2934723837
 31
0.0
  0
LINE
  5
65
330
1F
100
AcDbEntity
  8
1
  6
Continuous
370
    15
100
AcDbLine
 10
0.618143613
 20
2.2934723837
 30
0.0
 11
0.0
 21
2.4591034656
 31
0.0
  0
LINE
  5
66
330
1F
100
AcDbEntity
  8
SK1
  6
Continuous
370
    15
100
AcDbLine
 10
-2.0186533479
 20
0.0
 30
0.0
 11
-2.0186533479
 21
3.0
 31
0.0
  0
LINE
  5
67
330
1F
100
AcDbEntity
  8
SK1
  6
Continuous
370
    15
100
AcDbLine
 10
-2.0186533479
 20
-3.0
 30
0.0
 11
-2.0186533479
 21
0.0
 31
0.0
  0
LINE
  5
68
330
1F
100
AcDbEntity
  8
SK1
  6
Continuous
370
    15
100
AcDbLine
 10
-36.0
 20
0.0
 30
0.0
 11
-36.0
 21
3.0
 31
0.0
  0
LINE
  5
69
330
1F
100
AcDbEntity
  8
SK1
  6
Continuous
370
    15
100
AcDbLine
 10
-36.0
 20
-3.0
 30
0.0
 11
-36.0
 21
0.0
 31
0.0
  0
LINE
  5
6A
330
1F
100
AcDbEntity
  8
SK1
  6
Continuous
370
    15
100
AcDbLine
 10
0.0
 20
2.4591034656
 30
0.0
 11
0.0
 21
-2.4591034656
 31
0.0
  0
SPLINE
  5
6B
330
1F
100
AcDbEntity
  8
1
  6
Continuous
370
    15
100
AcDbSpline
210
0.0
220
0.0
230
1.0
 70
     8
 71
     3
 72
    18
 73
    14
 74
     0
 42
0.00000001
 43
0.00000001
 40
0.0
 40
0.0
 40
0.0
 40
0.0
 40
0.0879193884005171
 40
0.1758387750994061
 40
0.265844485761756
 40
0.3558501863156521
 40
0.4526155857034014
 40
0.5493810024186807
 40
0.6489449733035304
 40
0.7485089691333822
 40
0.8454031508797397
 40
0.9422973043827189
 40
1.0
 40
1.0
 40
1.0
 40
1.0
 10
2.0
 20
-0.000000000000015
 30
0.0
 10
2.139698503115503
 20
-0.0920631554693809
 30
0.0
 10
2.419095506642724
 20
-0.2761894646262845
 30
0.0
 10
2.841493391852834
 20
-0.5493167015251565
 30
0.0
 10
3.267252211088763
 20
-0.8137482862035648
 30
0.0
 10
3.707046660378731
 20
-1.070415653967868
 30
0.0
 10
4.157588016349944
 20
-1.310052006153166
 30
0.0
 10
4.623329469055828
 20
-1.527547176910461
 30
0.0
 10
5.093510051371309
 20
-1.710271046696501
 30
0.0
 10
5.563914589104553
 20
-1.852664813306417
 30
0.0
 10
6.030069592408073
 20
-1.94734838603679
 30
0.0
 10
6.42967839029261
 20
-1.996855223436292
 30
0.0
 10
6.675348465936841
 20
-1.994759866701026
 30
0.0
 10
6.7670439026669
 20
-1.993977782637911
 30
0.0
  0
SPLINE
  5
6C
330
1F
100
AcDbEntity
  8
1
  6
Continuous
370
    15
100
AcDbSpline
210
0.0
220
0.0
230
1.0
 70
     8
 71
     3
 72
    23
 73
    19
 74
     0
 42
0.00000001
 43
0.00000001
 40
0.0
 40
0.0
 40
0.0
 40
0.0
 40
0.05866521328412
 40
0.1204441658982252
 40
0.1822230251936806
 40
0.2422479422855232
 40
0.3022709353129156
 40
0.3639982105866817
 40
0.4257244647320378
 40
0.4859679870570421
 40
0.5462134072360001
 40
0.6082302335671108
 40
0.6702474270817678
 40
0.7304500200778671
 40
0.7906527277906438
 40
0.8525824366511796
 40
0.914509119213006
 40
1.0
 40
1.0
 40
1.0
 40
1.0
 10
9.67811895782562
 20
-1.634758688765431
 30
0.0
 10
9.527566316244712
 20
-1.688194683613504
 30
0.0
 10
9.218470238281666
 20
-1.797902864460774
 30
0.0
 10
8.75362929790181
 20
-1.912246363280078
 30
0.0
 10
8.284922425143236
 20
-1.984731569750721
 30
0.0
 10
7.817503992899408
 20
-2.007442385214863
 30
0.0
 10
7.35473866872146
 20
-1.984276145975981
 30
0.0
 10
6.883544470433174
 20
-1.914216230971326
 30
0.0
 10
6.413113942611695
 20
-1.797395846665216
 30
0.0
 10
5.947333776356464
 20
-1.638752009160115
 30
0.0
 10
5.478160659864239
 20
-1.443983640987992
 30
0.0
 10
5.009815303859567
 20
-1.206424069979072
 30
0.0
 10
4.536889772377506
 20
-0.9455572721817105
 30
0.0
 10
4.068924521245552
 20
-0.6643068993826144
 30
0.0
 10
3.604713422310365
 20
-0.3629021798682985
 30
0.0
 10
3.131914603999461
 20
-0.056081133644656
 30
0.0
 10
2.599087145466124
 20
0.3031261240458869
 30
0.0
 10
2.219899660246752
 20
0.5396275819919475
 30
0.0
 10
2.000000000000002
 20
0.6767802894978724
 30
0.0
  0
LINE
  5
6D
330
1F
100
AcDbEntity
  8
1
  6
Continuous
370
    15
100
AcDbLine
 10
2.0
 20
0.0
 30
0.0
 11
2.0
 21
0.6767802895
 31
0.0
  0
LINE
  5
6E
330
1F
100
AcDbEntity
  8
1
  6
Continuous
370
    15
100
AcDbLine
 10
2.0
 20
1.9537722722
 30
0.0
 11
2.0
 21
2.0014999975
 31
0.0
  0
SPLINE
  5
6F
330
1F
100
AcDbEntity
  8
1
  6
Continuous
370
    15
100
AcDbSpline
210
0.0
220
0.0
230
1.0
 70
     8
 71
     3
 72
    28
 73
    24
 74
     0
 42
0.00000001
 43
0.00000001
 40
0.0
 40
0.0
 40
0.0
 40
0.0
 40
0.0439598432983628
 40
0.0879196857459087
 40
0.132922693713279
 40
0.1779256966264051
 40
0.2263085604198742
 40
0.2746914328771377
 40
0.3244735871651129
 40
0.3742557539256313
 40
0.4227030091168182
 40
0.4711502501862682
 40
0.5210021849259733
 40
0.5708541114534708
 40
0.6191341423860093
 40
0.6677530832170908
 40
0.7159285246470491
 40
0.7641039794877467
 40
0.8136603683229072
 40
0.8632167529123999
 40
0.9116603957817695
 40
0.9601040258779479
 40
1.0
 40
1.0
 40
1.0
 40
1.0
 10
2.0
 20
2.000000000000012
 30
0.0
 10
2.139698503112923
 20
1.996295561161503
 30
0.0
 10
2.41909550663499
 20
1.988886683556184
 30
0.0
 10
2.84149339188369
 20
1.929442737644489
 30
0.0
 10
3.267252210970059
 20
1.834283676735893
 30
0.0
 10
3.707046660835605
 20
1.697979958653133
 30
0.0
 10
4.157588014501359
 20
1.521230094554761
 30
0.0
 10
4.623329476021509
 20
1.303380677013084
 30
0.0
 10
5.093510024539647
 20
1.052017317301414
 30
0.0
 10
5.563914688008936
 20
0.7753543298876729
 30
0.0
 10
6.030069234314398
 20
0.4827474187045881
 30
0.0
 10
6.496417326976551
 20
0.178796160022802
 30
0.0
 10
6.967274930114734
 20
-0.1324103031995232
 30
0.0
 10
7.437586083249513
 20
-0.4400951142290905
 30
0.0
 10
7.903952880149846
 20
-0.7347088450317494
 30
0.0
 10
8.365030979847827
 20
-1.009020874407758
 30
0.0
 10
8.825732451465077
 20
-1.259780236476644
 30
0.0
 10
9.289443213033435
 20
-1.483315795551508
 30
0.0
 10
9.757538872920277
 20
-1.673557151159533
 30
0.0
 10
10.22647735070904
 20
-1.824730384120002
 30
0.0
 10
10.69189964574645
 20
-1.929912927975891
 30
0.0
 10
11.12658550382061
 20
-1.99149421602172
 30
0.0
 10
11.40735334118024
 20
-1.994614675775077
 30
0.0
 10
11.53415384558292
 20
-1.996023939294769
 30
0.0
  0
SPLINE
  5
70
330
1F
100
AcDbEntity
  8
1
  6
Continuous
370
    15
100
AcDbSpline
210
0.0
220
0.0
230
1.0
 70
    24
 71
     3
 72
    17
 73
    13
 74
     0
 42
0.00000001
 43
0.00000001
 40
0.0
 40
0.0
 40
0.0
 40
0.0
 40
0.125
 40
0.125
 40
0.2499999999999999
 40
0.2499999999999999
 40
0.3125
 40
0.3125
 40
0.3749999999999999
 40
0.4999999999999999
 40
0.4999999999999999
 40
1.0
 40
1.0
 40
1.0
 40
1.0
 10
2.000000000000001
 20
1.630000000000006
 30
0.0
 10
2.000000000000002
 20
1.541933576173627
 30
0.0
 10
1.999999999999962
 20
1.45648227329045
 30
0.0
 10
1.99999999999996
 20
1.326091489784852
 30
0.0
 10
1.999999999999998
 20
1.276569118358555
 30
0.0
 10
1.999999999999998
 20
1.238675287517691
 30
0.0
 10
1.999999999999998
 20
1.234970607614257
 30
0.0
 10
1.999999999999998
 20
1.222789773401639
 30
0.0
 10
1.999999999999998
 20
1.20185857636995
 30
0.0
 10
2.0
 20
1.172985395988768
 30
0.0
 10
1.999999999999998
 20
1.059092509955069
 30
0.0
 10
1.999999999999998
 20
0.9139586676652552
 30
0.0
 10
1.999999999999998
 20
0.7234766356338066
 30
0.0
  0
LINE
  5
71
330
1F
100
AcDbEntity
  8
1
  6
Continuous
370
    15
100
AcDbLine
 10
2.0
 20
1.63
 30
0.0
 11
2.0
 21
1.95192
 31
0.0
  0
SPLINE
  5
72
330
1F
100
AcDbEntity
  8
1
  6
Continuous
370
    15
100
AcDbSpline
210
0.0
220
0.0
230
1.0
 70
    24
 71
     3
 72
     8
 73
     4
 74
     0
 42
0.00000001
 43
0.00000001
 40
0.0
 40
0.0
 40
0.0
 40
0.0
 40
1.0
 40
1.0
 40
1.0
 40
1.0
 10
1.999999999999998
 20
0.6767802894978739
 30
0.0
 10
1.999999999999998
 20
0.6926422298285684
 30
0.0
 10
1.999999999999998
 20
0.7082081183640644
 30
0.0
 10
1.999999999999998
 20
0.7234766356338058
 30
0.0
  0
SPLINE
  5
73
330
1F
100
AcDbEntity
  8
1
  6
Continuous
370
    15
100
AcDbSpline
210
0.0
220
0.0
230
1.0
 70
     8
 71
     3
 72
    26
 73
    22
 74
     0
 42
0.00000001
 43
0.00000001
 40
0.0
 40
0.0
 40
0.0
 40
0.0
 40
0.0208361701878372
 40
0.0748379680220056
 40
0.1273917046449902
 40
0.1799454259492524
 40
0.2340229054291061
 40
0.2881003760006696
 40
0.3404727141190118
 40
0.3932126887830493
 40
0.4454715721937653
 40
0.4977304701519402
 40
0.5514873526946333
 40
0.6052442306317883
 40
0.6577940487456996
 40
0.7103438530037397
 40
0.7644168299363446
 40
0.8184898226386125
 40
0.9082732258045513
 40
0.9541366100637332
 40
0.9999999999999999
 40
0.9999999999999999
 40
0.9999999999999999
 40
0.9999999999999999
 10
4.910380139587223
 20
1.632501921429657
 30
0.0
 10
4.971424299133692
 20
1.656794309458839
 30
0.0
 10
5.190678644768462
 20
1.744046090477951
 30
0.0
 10
5.563914964685789
 20
1.850763551591405
 30
0.0
 10
6.030069161104166
 20
1.949092505738264
 30
0.0
 10
6.496417347223709
 20
1.999948605515579
 30
0.0
 10
6.967274924642292
 20
2.003705849660411
 30
0.0
 10
7.437586084580353
 20
1.959147700439893
 30
0.0
 10
7.903952880101303
 20
1.868459411206409
 30
0.0
 10
8.365030978713754
 20
1.735791558253378
 30
0.0
 10
8.82573245600257
 20
1.56303262907571
 30
0.0
 10
9.289443195798405
 20
1.353387807576473
 30
0.0
 10
9.757538939328676
 20
1.10941942001661
 30
0.0
 10
10.22647710544744
 20
0.8386043934006627
 30
0.0
 10
10.69190053816946
 20
0.5499832162471553
 30
0.0
 10
11.15820815953669
 20
0.2480193640528545
 30
0.0
 10
11.62905818270376
 20
-0.062832939845135
 30
0.0
 10
12.20888046189184
 20
-0.4438515702457728
 30
0.0
 10
12.76527383950479
 20
-0.7945745163922356
 30
0.0
 10
13.29690848647928
 20
-1.101758930299291
 30
0.0
 10
13.5656361566158
 20
-1.240122598277421
 30
0.0
 10
13.70000000000001
 20
-1.309304436548236
 30
0.0
  0
SPLINE
  5
74
330
1F
100
AcDbEntity
  8
1
  6
Continuous
370
    15
100
AcDbSpline
210
0.0
220
0.0
230
1.0
 70
     8
 71
     3
 72
    10
 73
     6
 74
     0
 42
0.00000001
 43
0.00000001
 40
0.0
 40
0.0
 40
0.0
 40
0.0
 40
0.5
 40
0.5
 40
1.0
 40
1.0
 40
1.0
 40
1.0
 10
13.7
 20
-1.309304436548251
 30
0.0
 10
13.77253979107604
 20
-1.345442118727205
 30
0.0
 10
13.84405686282515
 20
-1.362877363867531
 30
0.0
 10
13.95920112633544
 20
-1.341320719301882
 30
0.0
 10
14.00000000000058
 20
-1.297958158866141
 30
0.0
 10
14.00000000000059
 20
-1.234643642705177
 30
0.0
  0
SPLINE
  5
75
330
1F
100
AcDbEntity
  8
1
  6
Continuous
370
    15
100
AcDbSpline
210
0.0
220
0.0
230
1.0
 70
     8
 71
     3
 72
    10
 73
     6
 74
     0
 42
0.00000001
 43
0.00000001
 40
0.0
 40
0.0
 40
0.0
 40
0.0
 40
0.277285931585817
 40
0.6231769711527008
 40
1.0
 40
1.0
 40
1.0
 40
1.0
 10
13.61270284210748
 20
-1.263441124977254
 30
0.0
 10
13.61664751220489
 20
-1.343000301981289
 30
0.0
 10
13.62551282877338
 20
-1.521802907181011
 30
0.0
 10
13.66828847753197
 20
-1.732751524448105
 30
0.0
 10
13.72058677193313
 20
-1.811366469170084
 30
0.0
 10
13.74785509637995
 20
-1.852356291947163
 30
0.0
  0
SPLINE
  5
76
330
1F
100
AcDbEntity
  8
1
  6
Continuous
370
    15
100
AcDbSpline
210
0.0
220
0.0
230
1.0
 70
     8
 71
     3
 72
     8
 73
     4
 74
     0
 42
0.00000001
 43
0.00000001
 40
0.0
 40
0.0
 40
0.0
 40
0.0
 40
1.0
 40
1.0
 40
1.0
 40
1.0
 10
13.74785509637995
 20
-1.852356291947337
 30
0.0
 10
13.73130579874517
 20
-1.857565508729642
 30
0.0
 10
13.71528603516917
 20
-1.862000023633003
 30
0.0
 10
13.7
 20
-1.865676517461875
 30
0.0
  0
SPLINE
  5
77
330
1F
100
AcDbEntity
  8
1
  6
Continuous
370
    15
100
AcDbSpline
210
0.0
220
0.0
230
1.0
 70
     8
 71
     3
 72
    31
 73
    27
 74
     0
 42
0.00000001
 43
0.00000001
 40
0.0
 40
0.0
 40
0.0
 40
0.0
 40
0.0393548262277881
 40
0.0787106933362434
 40
0.1190170036791821
 40
0.1593225368376213
 40
0.2022453785868573
 40
0.2451691187448316
 40
0.2893076584000956
 40
0.3334439038899765
 40
0.3767098161639442
 40
0.4199773510807709
 40
0.4645111039013201
 40
0.5090447894525255
 40
0.552314134556705
 40
0.5955820926867331
 40
0.6400785935661426
 40
0.6845743583586111
 40
0.7280012864421928
 40
0.7714295826059203
 40
0.8161348082154294
 40
0.8608402985115474
 40
0.9042377224271899
 40
0.9476352290370826
 40
0.9922776554616085
 40
0.9999999999999999
 40
0.9999999999999999
 40
0.9999999999999999
 40
0.9999999999999999
 10
13.7
 20
-1.865676517461872
 30
0.0
 10
13.56081965531073
 20
-1.895573708526834
 30
0.0
 10
13.28245528480478
 20
-1.95536888139607
 30
0.0
 10
12.85908824850932
 20
-1.99782852081518
 30
0.0
 10
12.43275218213105
 20
-2.004193717361232
 30
0.0
 10
11.99599624276649
 20
-1.969220037843064
 30
0.0
 10
11.54920875267539
 20
-1.890207568816194
 30
0.0
 10
11.08843421411978
 20
-1.76562998317566
 30
0.0
 10
10.61950243681416
 20
-1.60199402777568
 30
0.0
 10
10.15115879595676
 20
-1.39890678015845
 30
0.0
 10
9.689239908838326
 20
-1.160623895133193
 30
0.0
 10
9.221747735157134
 20
-0.9000402941337211
 30
0.0
 10
8.753679418081072
 20
-0.6098087795833761
 30
0.0
 10
8.284909420216955
 20
-0.3060262702871755
 30
0.0
 10
7.817507431291231
 20
-0.00248201291553
 30
0.0
 10
7.354737719705221
 20
0.3077129771246444
 30
0.0
 10
6.883544721930635
 20
0.6075690166375248
 30
0.0
 10
6.413113898985597
 20
0.894997547219568
 30
0.0
 10
5.947333708200786
 20
1.160132674482625
 30
0.0
 10
5.478160979954256
 20
1.395525354690982
 30
0.0
 10
5.009814052274598
 20
1.604950799428991
 30
0.0
 10
4.536894385687742
 20
1.771313915371383
 30
0.0
 10
4.068907863858548
 20
1.894865305165168
 30
0.0
 10
3.604776404484124
 20
1.972363954424152
 30
0.0
 10
3.263312034173941
 20
2.005182756156373
 30
0.0
 10
3.077929426174707
 20
1.997586430887166
 30
0.0
 10
3.050590657302606
 20
1.996466184586537
 30
0.0
  0
SPLINE
  5
78
330
1F
100
AcDbEntity
  8
1
  6
Continuous
370
    15
100
AcDbSpline
210
0.0
220
0.0
230
1.0
 70
     8
 71
     3
 72
    16
 73
    12
 74
     0
 42
0.00000001
 43
0.00000001
 40
0.0
 40
0.0
 40
0.0
 40
0.0
 40
0.0197483625253759
 40
0.1372372849448821
 40
0.2520881047927537
 40
0.3669388943577773
 40
0.4851186703345954
 40
0.6032984807769705
 40
0.7995255626668619
 40
0.8997627751296245
 40
1.0
 40
1.0
 40
1.0
 40
1.0
 10
9.67811895782592
 20
1.63475868876557
 30
0.0
 10
9.704591766354163
 20
1.645626420332371
 30
0.0
 10
9.888559240245408
 20
1.721149541392214
 30
0.0
 10
10.22647667349363
 20
1.822321548274968
 30
0.0
 10
10.69190065268136
 20
1.931362563203306
 30
0.0
 10
11.15820812789615
 20
1.992508564878569
 30
0.0
 10
11.62905819115472
 20
2.007068374514026
 30
0.0
 10
12.2088804578603
 20
1.965518922503287
 30
0.0
 10
12.76527384012432
 20
1.849049863919926
 30
0.0
 10
13.29690848636882
 20
1.677967474607662
 30
0.0
 10
13.56563615657899
 20
1.567229432301285
 30
0.0
 10
13.70000000000001
 20
1.511860407721238
 30
0.0
  0
SPLINE
  5
79
330
1F
100
AcDbEntity
  8
1
  6
Continuous
370
    15
100
AcDbSpline
210
0.0
220
0.0
230
1.0
 70
     8
 71
     3
 72
    10
 73
     6
 74
     0
 42
0.00000001
 43
0.00000001
 40
0.0
 40
0.0
 40
0.0
 40
0.0
 40
0.5
 40
0.5
 40
1.0
 40
1.0
 40
1.0
 40
1.0
 10
13.7
 20
1.511860407721276
 30
0.0
 10
13.772539791076
 20
1.480564378430599
 30
0.0
 10
13.84405686282514
 20
1.429034360143956
 30
0.0
 10
13.95920112633545
 20
1.303324790106
 30
0.0
 10
14.00000000000057
 20
1.228766820051359
 30
0.0
 10
14.00000000000059
 20
1.168612457373725
 30
0.0
  0
SPLINE
  5
7A
330
1F
100
AcDbEntity
  8
1
  6
Continuous
370
    15
100
AcDbSpline
210
0.0
220
0.0
230
1.0
 70
     8
 71
     3
 72
    10
 73
     6
 74
     0
 42
0.00000001
 43
0.00000001
 40
0.0
 40
0.0
 40
0.0
 40
0.0
 40
0.5
 40
0.5
 40
1.0
 40
1.0
 40
1.0
 40
1.0
 10
14.0
 20
1.168612457373814
 30
0.0
 10
13.99957814344277
 20
1.135488499489367
 30
0.0
 10
13.99915416367725
 20
1.104099195898455
 30
0.0
 10
13.9983281041865
 20
1.021426131012538
 30
0.0
 10
13.99794876990034
 20
0.9750876005541728
 30
0.0
 10
13.99761933993743
 20
0.9268549148799688
 30
0.0
  0
SPLINE
  5
7B
330
1F
100
AcDbEntity
  8
1
  6
Continuous
370
    15
100
AcDbSpline
210
0.0
220
0.0
230
1.0
 70
     8
 71
     3
 72
     8
 73
     4
 74
     0
 42
0.00000001
 43
0.00000001
 40
0.0
 40
0.0
 40
0.0
 40
0.0
 40
1.0
 40
1.0
 40
1.0
 40
1.0
 10
13.99761933993743
 20
0.9268549148799675
 30
0.0
 10
13.86641098407694
 20
0.9125337641867581
 30
0.0
 10
13.72759808305361
 20
0.91321513576168
 30
0.0
 10
13.59031554737877
 20
0.9174366512921225
 30
0.0
  0
SPLINE
  5
7C
330
1F
100
AcDbEntity
  8
1
  6
Continuous
370
    15
100
AcDbSpline
210
0.0
220
0.0
230
1.0
 70
     8
 71
     3
 72
    14
 73
    10
 74
     0
 42
0.00000001
 43
0.00000001
 40
0.0
 40
0.0
 40
0.0
 40
0.0
 40
0.1249999999999999
 40
0.1249999999999999
 40
0.2499999999999999
 40
0.2499999999999999
 40
0.5
 40
0.5
 40
1.0
 40
1.0
 40
1.0
 40
1.0
 10
13.59031554737877
 20
0.9174366512921207
 30
0.0
 10
13.60146189423783
 20
0.8409819254620505
 30
0.0
 10
13.60857889970286
 20
0.7670463992684674
 30
0.0
 10
13.60805535701744
 20
0.6512136925187214
 30
0.0
 10
13.60873654272351
 20
0.5912703203529274
 30
0.0
 10
13.61367503054836
 20
0.4063553090005697
 30
0.0
 10
13.62077790746071
 20
0.2768143351329587
 30
0.0
 10
13.65417321835567
 20
-0.1316783040641805
 30
0.0
 10
13.69375207093153
 20
-0.4350769352486534
 30
0.0
 10
13.74785509638025
 20
-0.7439254967556584
 30
0.0
  0
SPLINE
  5
7D
330
1F
100
AcDbEntity
  8
1
  6
Continuous
370
    15
100
AcDbSpline
210
0.0
220
0.0
230
1.0
 70
     8
 71
     3
 72
     8
 73
     4
 74
     0
 42
0.00000001
 43
0.00000001
 40
0.0
 40
0.0
 40
0.0
 40
0.0
 40
1.0
 40
1.0
 40
1.0
 40
1.0
 10
13.74785509637964
 20
-0.7439254967559954
 30
0.0
 10
13.73130579874493
 20
-0.7381301231785907
 30
0.0
 10
13.71528603516907
 20
-0.7301096053605967
 30
0.0
 10
13.7
 20
-0.7205908216105391
 30
0.0
  0
SPLINE
  5
7E
330
1F
100
AcDbEntity
  8
1
  6
Continuous
370
    15
100
AcDbSpline
210
0.0
220
0.0
230
1.0
 70
     8
 71
     3
 72
    21
 73
    17
 74
     0
 42
0.00000001
 43
0.00000001
 40
0.0
 40
0.0
 40
0.0
 40
0.0
 40
0.0712296674523747
 40
0.1424612188308426
 40
0.215413010444522
 40
0.2883633954049731
 40
0.3660509381263792
 40
0.4437401069089823
 40
0.5236279835122837
 40
0.6035117078259387
 40
0.6818201858119344
 40
0.7601316006756214
 40
0.8407347873205796
 40
0.9213378522124123
 40
0.9996525433973287
 40
1.0
 40
1.0
 40
1.0
 40
1.0
 10
13.7
 20
-0.7205908216105441
 30
0.0
 10
13.56081965529332
 20
-0.6325930058060036
 30
0.0
 10
13.2824552847525
 20
-0.4565950467765195
 30
0.0
 10
12.85908824871307
 20
-0.1816021656410568
 30
0.0
 10
12.43275218132327
 20
0.09880151241587
 30
0.0
 10
11.99599624586149
 20
0.3892224220253317
 30
0.0
 10
11.54920874031933
 20
0.6761719844369031
 30
0.0
 10
11.08843426073833
 20
0.9556607120759812
 30
0.0
 10
10.61950225744502
 20
1.210694702475834
 30
0.0
 10
10.15115945922269
 20
1.440417461347323
 30
0.0
 10
9.689237488001414
 20
1.638101976102626
 30
0.0
 10
9.221756888110278
 20
1.794811436642477
 30
0.0
 10
8.753644142517519
 20
1.913761835472086
 30
0.0
 10
8.285039365851418
 20
1.980995587568105
 30
0.0
 10
7.970844754947684
 20
2.007500599830245
 30
0.0
 10
7.816885303047748
 20
1.99980130800762
 30
0.0
 10
7.816205252609119
 20
1.999767299658561
 30
0.0
  0
SPLINE
  5
7F
330
1F
100
AcDbEntity
  8
1
  6
Continuous
370
    15
100
AcDbSpline
210
0.0
220
0.0
230
1.0
 70
     8
 71
     3
 72
     9
 73
     5
 74
     0
 42
0.00000001
 43
0.00000001
 40
0.0
 40
0.0
 40
0.0
 40
0.0
 40
0.5523559319960262
 40
1.0
 40
1.0
 40
1.0
 40
1.0
 10
13.98551332668622
 20
1.28585524838489
 30
0.0
 10
13.99048622589664
 20
1.277794911493286
 30
0.0
 10
13.99948929605914
 20
1.263202261311227
 30
0.0
 10
13.99984207886863
 20
1.243474609164365
 30
0.0
 10
14.0000000000006
 20
1.234643642705176
 30
0.0
  0
SPLINE
  5
80
330
1F
100
AcDbEntity
  8
1
  6
Continuous
370
    15
100
AcDbSpline
210
0.0
220
0.0
230
1.0
 70
     8
 71
     3
 72
     8
 73
     4
 74
     0
 42
0.00000001
 43
0.00000001
 40
0.0
 40
0.0
 40
0.0
 40
0.0
 40
1.0
 40
1.0
 40
1.0
 40
1.0
 10
13.74785509637995
 20
1.852356291947335
 30
0.0
 10
13.73130579874517
 20
1.857565508729641
 30
0.0
 10
13.71528603516918
 20
1.862000023633001
 30
0.0
 10
13.7
 20
1.865676517461874
 30
0.0
  0
SPLINE
  5
81
330
1F
100
AcDbEntity
  8
1
  6
Continuous
370
    15
100
AcDbSpline
210
0.0
220
0.0
230
1.0
 70
     8
 71
     3
 72
    10
 73
     6
 74
     0
 42
0.00000001
 43
0.00000001
 40
0.0
 40
0.0
 40
0.0
 40
0.0
 40
0.3752106423263905
 40
0.7504312084547954
 40
1.0
 40
1.0
 40
1.0
 40
1.0
 10
13.7
 20
1.865676517461873
 30
0.0
 10
13.56083067809513
 20
1.895280046825732
 30
0.0
 10
13.28248835344951
 20
1.954487888525815
 30
0.0
 10
12.90923662640225
 20
1.995820066338919
 30
0.0
 10
12.67658518795635
 20
1.995501072057219
 30
0.0
 10
12.5836538061537
 20
1.995373651485124
 30
0.0
  0
SPLINE
  5
82
330
1F
100
AcDbEntity
  8
1
  6
Continuous
370
    15
100
AcDbSpline
210
0.0
220
0.0
230
1.0
 70
     8
 71
     3
 72
    13
 73
     9
 74
     0
 42
0.00000001
 43
0.00000001
 40
0.0
 40
0.0
 40
0.0
 40
0.0
 40
0.1297963970744306
 40
0.2886685868120788
 40
0.4475410792823651
 40
0.610971057408551
 40
0.7743930492557544
 40
1.0
 40
1.0
 40
1.0
 40
1.0
 10
4.910380139587223
 20
-1.632501921429657
 30
0.0
 10
4.78438640990194
 20
-1.679139901443516
 30
0.0
 10
4.504174996371119
 20
-1.782863271936233
 30
0.0
 10
4.068865275261613
 20
-1.893320520564629
 30
0.0
 10
3.604729787397794
 20
-1.975442696249342
 30
0.0
 10
3.131910234874951
 20
-2.00675710233762
 30
0.0
 10
2.599088733673375
 20
-1.99176243555925
 30
0.0
 10
2.219900243208645
 20
-1.922296640215202
 30
0.0
 10
2.000000000000002
 20
-1.882011806484841
 30
0.0
  0
SPLINE
  5
83
330
1F
100
AcDbEntity
  8
1
  6
Continuous
370
    15
100
AcDbSpline
210
0.0
220
0.0
230
1.0
 70
    24
 71
     3
 72
     8
 73
     4
 74
     0
 42
0.00000001
 43
0.00000001
 40
0.0
 40
0.0
 40
0.0
 40
0.0
 40
1.0
 40
1.0
 40
1.0
 40
1.0
 10
1.999999999999999
 20
-1.882011806484841
 30
0.0
 10
1.999999999999999
 20
-1.858434791805052
 30
0.0
 10
1.999999999999998
 20
-1.834705574218576
 30
0.0
 10
1.999999999999998
 20
-1.810823447415396
 30
0.0
  0
SPLINE
  5
84
330
1F
100
AcDbEntity
  8
1
  6
Continuous
370
    15
100
AcDbSpline
210
0.0
220
0.0
230
1.0
 70
    24
 71
     3
 72
    16
 73
    12
 74
     0
 42
0.00000001
 43
0.00000001
 40
0.0
 40
0.0
 40
0.0
 40
0.0
 40
0.0179721975659283
 40
0.0798241803357768
 40
0.1553351369101341
 40
0.2316484549112928
 40
0.3092095609480124
 40
0.3871211681564501
 40
0.5414133802359128
 40
0.7684389457039047
 40
1.0
 40
1.0
 40
1.0
 40
1.0
 10
1.999999999998756
 20
-0.0047910473013734
 30
0.0
 10
1.999999999998252
 20
-0.0060207882962135
 30
0.0
 10
1.999999999996015
 20
-0.0114827284166868
 30
0.0
 10
2.000000000001878
 20
-0.0644077807495443
 30
0.0
 10
1.999999999999474
 20
-0.1685459810913914
 30
0.0
 10
2.000000000000035
 20
-0.3134782765295449
 30
0.0
 10
1.999999999999929
 20
-0.4735647373224849
 30
0.0
 10
2.000000000000036
 20
-0.6868174217836098
 30
0.0
 10
1.999999999999984
 20
-0.9958238188102948
 30
0.0
 10
2.000000000000003
 20
-1.397082394344341
 30
0.0
 10
2.0
 20
-1.672003426634806
 30
0.0
 10
1.999999999999998
 20
-1.810823447415395
 30
0.0
  0
SPLINE
  5
85
330
1F
100
AcDbEntity
  8
1
  6
Continuous
370
    15
100
AcDbSpline
210
0.0
220
0.0
230
1.0
 70
     8
 71
     3
 72
    14
 73
    10
 74
     0
 42
0.00000001
 43
0.00000001
 40
0.0
 40
0.0
 40
0.0
 40
0.0
 40
0.4999999999999999
 40
0.4999999999999999
 40
0.7500000000000007
 40
0.7500000000000007
 40
0.8750000000000003
 40
0.8750000000000003
 40
1.0
 40
1.0
 40
1.0
 40
1.0
 10
13.74785509638012
 20
-0.7439254967557088
 30
0.0
 10
13.79091431663967
 20
-0.8781570593966845
 30
0.0
 10
13.83724142005886
 20
-1.002267876345178
 30
0.0
 10
13.90682937887934
 20
-1.148457553030718
 30
0.0
 10
13.93024564951064
 20
-1.191132696935703
 30
0.0
 10
13.96308670419209
 20
-1.233280578086084
 30
0.0
 10
13.97376118994661
 20
-1.243878657042194
 30
0.0
 10
13.99202837323481
 20
-1.248212983929901
 30
0.0
 10
14.00000000004442
 20
-1.24095201567164
 30
0.0
 10
14.00000000004104
 20
-1.212221991754585
 30
0.0
  0
LINE
  5
86
330
1F
100
AcDbEntity
  8
1
  6
Continuous
370
    15
100
AcDbLine
 10
13.5903155474
 20
0.9174366513
 30
0.0
 11
13.9858347426
 21
0.0528255953
 31
0.0
  0
SPLINE
  5
87
330
1F
100
AcDbEntity
  8
1
  6
Continuous
370
    15
100
AcDbSpline
210
0.0
220
0.0
230
1.0
 70
     8
 71
     3
 72
    12
 73
     8
 74
     0
 42
0.00000001
 43
0.00000001
 40
0.0
 40
0.0
 40
0.0
 40
0.0
 40
0.5
 40
0.5
 40
0.75
 40
0.75
 40
1.0
 40
1.0
 40
1.0
 40
1.0
 10
14.0
 20
-1.212221991681663
 30
0.0
 10
13.99752962231041
 20
-1.001148723764502
 30
0.0
 10
13.99505926185102
 20
-0.7900754923527841
 30
0.0
 10
13.99136560366063
 20
-0.4734908205490066
 30
0.0
 10
13.99013451614413
 20
-0.3679628760277089
 30
0.0
 10
13.98770307963156
 20
-0.1569721123361731
 30
0.0
 10
13.98583474255778
 20
-0.0500908882235793
 30
0.0
 10
13.98583474255778
 20
0.0528255952795354
 30
0.0
  0
LINE
  5
88
330
1F
100
AcDbEntity
  8
1
  6
Continuous
370
    15
100
AcDbLine
 10
13.7
 20
-1.3093044365
 30
0.0
 11
13.7
 21
-0.7205908216
 31
0.0
  0
LINE
  5
89
330
1F
100
AcDbEntity
  8
1
  6
Continuous
370
    15
100
AcDbLine
 10
14.0
 20
-1.2346436427
 30
0.0
 11
14.0
 21
-1.2122219917
 31
0.0
  0
LINE
  5
8A
330
1F
100
AcDbEntity
  8
1
  6
Continuous
370
    15
100
AcDbLine
 10
13.7
 20
1.5118604077
 30
0.0
 11
13.7
 21
1.8656765175
 31
0.0
  0
LINE
  5
8B
330
1F
100
AcDbEntity
  8
1
  6
Continuous
370
    15
100
AcDbLine
 10
2.0
 20
-2.0
 30
0.0
 11
2.0
 21
-1.8820118065
 31
0.0
  0
LINE
  5
8C
330
1F
100
AcDbEntity
  8
1
  6
Continuous
370
    15
100
AcDbLine
 10
14.0
 20
1.1686124574
 30
0.0
 11
14.0
 21
1.191854791
 31
0.0
  0
SPLINE
  5
8D
330
1F
100
AcDbEntity
  8
1
  6
Continuous
370
    15
100
AcDbSpline
210
0.0
220
0.0
230
1.0
 70
     8
 71
     3
 72
    14
 73
    10
 74
     0
 42
0.00000001
 43
0.00000001
 40
0.0
 40
0.0
 40
0.0
 40
0.0
 40
0.4999999999999999
 40
0.4999999999999999
 40
0.7500000000000007
 40
0.7500000000000007
 40
0.8750000000000003
 40
0.8750000000000003
 40
1.0
 40
1.0
 40
1.0
 40
1.0
 10
13.74785509638044
 20
1.852356291947358
 30
0.0
 10
13.79091431663997
 20
1.790949588120457
 30
0.0
 10
13.83724142005907
 20
1.705649328741547
 30
0.0
 10
13.90682937887949
 20
1.539411949175075
 30
0.0
 10
13.93024564951076
 20
1.477300650798039
 30
0.0
 10
13.96308670419216
 20
1.37342362158529
 30
0.0
 10
13.97376118994666
 20
1.336722654533436
 30
0.0
 10
13.99202837323484
 20
1.260844830474199
 30
0.0
 10
14.00000000004442
 20
1.219064391028639
 30
0.0
 10
14.00000000004104
 20
1.191854790911896
 30
0.0
  0
LWPOLYLINE
  5
8E
330
1F
100
AcDbEntity
  8
1
  6
Continuous
370
    15
100
AcDbPolyline
 90
        4
 70
   128
 43
0.0
 10
13.9858347426
 20
0.0528255953
 10
13.9865567721
 20
0.1064102835
 10
13.9906389356
 20
0.4091747653
 10
13.9976193399
 20
0.9268549149
  0
LINE
  5
8F
330
1F
100
AcDbEntity
  8
1
  6
Continuous
370
    15
100
AcDbLine
 10
14.0
 20
1.2346436427
 30
0.0
 11
14.0
 21
1.2122219917
 31
0.0
  0
SPLINE
  5
90
330
1F
100
AcDbEntity
  8
1
  6
Continuous
370
    15
100
AcDbSpline
210
0.0
220
0.0
230
1.0
 70
     8
 71
     3
 72
     9
 73
     5
 74
     0
 42
0.00000001
 43
0.00000001
 40
0.0
 40
0.0
 40
0.0
 40
0.0
 40
0.3306457395888397
 40
1.0
 40
1.0
 40
1.0
 40
1.0
 10
13.99052576788708
 20
0.4007813818861647
 30
0.0
 10
13.98999788811041
 20
0.3564678571505218
 30
0.0
 10
13.98840137645622
 20
0.2224466996701709
 30
0.0
 10
13.98716686100026
 20
0.0891935580539733
 30
0.0
 10
13.98634053282027
 20
-0.0000000000000001
 30
0.0
  0
SPLINE
  5
91
330
1F
100
AcDbEntity
  8
1
  6
Continuous
370
    15
100
AcDbSpline
210
0.0
220
0.0
230
1.0
 70
     8
 71
     3
 72
    12
 73
     8
 74
     0
 42
0.00000001
 43
0.00000001
 40
0.0
 40
0.0
 40
0.0
 40
0.0
 40
0.3842185841901031
 40
0.6867138861669595
 40
0.8723039718537026
 40
0.9718881811380415
 40
1.0
 40
1.0
 40
1.0
 40
1.0
 10
13.74785509637995
 20
-1.852356291947163
 30
0.0
 10
13.77824480857513
 20
-1.803722545542556
 30
0.0
 10
13.83256034202346
 20
-1.716799449246301
 30
0.0
 10
13.90589369457705
 20
-1.545795848861376
 30
0.0
 10
13.95263506590624
 20
-1.408829264078126
 30
0.0
 10
13.97650426188517
 20
-1.327731114866076
 30
0.0
 10
13.98388785529525
 20
-1.293410752140346
 30
0.0
 10
13.98551332668624
 20
-1.28585524838484
 30
0.0
  0
SPLINE
  5
92
330
1F
100
AcDbEntity
  8
1
  6
Continuous
370
    15
100
AcDbSpline
210
0.0
220
0.0
230
1.0
 70
     8
 71
     3
 72
     8
 73
     4
 74
     0
 42
0.00000001
 43
0.00000001
 40
0.0
 40
0.0
 40
0.0
 40
0.0
 40
0.0166900076188259
 40
0.0166900076188259
 40
0.0166900076188259
 40
0.0166900076188259
 10
2.0
 20
-0.0000000000000107
 30
0.0
 10
1.866493075269586
 20
0.0717075390235294
 30
0.0
 10
1.732972118947814
 20
0.1612213129297959
 30
0.0
 10
1.599448372028276
 20
0.2673449510992986
 30
0.0
  0
SPLINE
  5
93
330
1F
100
AcDbEntity
  8
1
  6
Continuous
370
    15
100
AcDbSpline
210
0.0
220
0.0
230
1.0
 70
    24
 71
     3
 72
    14
 73
    10
 74
     0
 42
0.00000001
 43
0.00000001
 40
0.0
 40
0.0
 40
0.0
 40
0.0
 40
0.2500000000000004
 40
0.2500000000000004
 40
0.5000000000000009
 40
0.5000000000000009
 40
0.7500000000000004
 40
0.7500000000000004
 40
1.0
 40
1.0
 40
1.0
 40
1.0
 10
1.79639775445039
 20
-0.3089435637898373
 30
0.0
 10
1.820392509199213
 20
-0.2725342156298829
 30
0.0
 10
1.846279848373651
 20
-0.2332530829488663
 30
0.0
 10
1.896405479410586
 20
-0.1571930618623543
 30
0.0
 10
1.920488377257771
 20
-0.1206499664401448
 30
0.0
 10
1.960244188628885
 20
-0.0603249832200771
 30
0.0
 10
1.975782600318917
 20
-0.03674718686428
 30
0.0
 10
1.995626880545999
 20
-0.0066357181147619
 30
0.0
 10
2.0
 20
-0.0000000000000103
 30
0.0
 10
2.0
 20
-0.0000000000000107
 30
0.0
  0
SPLINE
  5
94
330
1F
100
AcDbEntity
  8
1
  6
Continuous
370
    15
100
AcDbSpline
210
0.0
220
0.0
230
1.0
 70
     8
 71
     3
 72
    10
 73
     6
 74
     0
 42
0.00000001
 43
0.00000001
 40
0.0
 40
0.0
 40
0.0
 40
0.0
 40
0.03125
 40
0.03125
 40
0.0396323400688372
 40
0.0396323400688372
 40
0.0396323400688372
 40
0.0396323400688372
 10
1.796397754450389
 20
-0.3089435637898376
 30
0.0
 10
1.546410916058807
 20
-0.205152225831665
 30
0.0
 10
1.296397754450418
 20
-0.0357886761244477
 30
0.0
 10
0.9793390338996844
 20
0.2532832084093961
 30
0.0
 10
0.9122803133489827
 20
0.3186328535715726
 30
0.0
 10
0.8452215927982846
 20
0.3879197947452628
 30
0.0
  0
SPLINE
  5
95
330
1F
100
AcDbEntity
  8
1
  6
Continuous
370
    15
100
AcDbSpline
210
0.0
220
0.0
230
1.0
 70
     8
 71
     3
 72
    12
 73
     8
 74
     0
 42
0.00000001
 43
0.00000001
 40
0.0
 40
0.0
 40
0.0
 40
0.0
 40
0.4999999999999998
 40
0.4999999999999998
 40
0.7499999999999999
 40
0.7499999999999999
 40
1.0
 40
1.0
 40
1.0
 40
1.0
 10
1.599448372028297
 20
0.2673449510993091
 30
0.0
 10
1.485237953326923
 20
0.3471144911658249
 30
0.0
 10
1.358640355315694
 20
0.4075001744354341
 30
0.0
 10
1.160323909459594
 20
0.4590910089580861
 30
0.0
 10
1.091894834965399
 20
0.4699191225308572
 30
0.0
 10
0.956801087989352
 20
0.461957190178114
 30
0.0
 10
0.88767895737598
 20
0.4413851353623909
 30
0.0
 10
0.8452215927991346
 20
0.3879197947443903
 30
0.0
  0
SPLINE
  5
96
330
1F
100
AcDbEntity
  8
1
  6
Continuous
370
    15
100
AcDbSpline
210
0.0
220
0.0
230
1.0
 70
     8
 71
     3
 72
    11
 73
     7
 74
     0
 42
0.00000001
 43
0.00000001
 40
0.0
 40
0.0
 40
0.0
 40
0.0
 40
0.0001840795874581
 40
0.0001840795874581
 40
0.0001840795874581
 40
0.0003683674627976
 40
0.0003683674627976
 40
0.0003683674627976
 40
0.0003683674627976
 10
1.899999999999999
 20
0.0642687952959126
 30
0.0
 10
1.849651170900867
 20
0.0970690298181099
 30
0.0
 10
1.799443524940556
 20
0.1304290323887503
 30
0.0
 10
1.749383754989986
 20
0.1642741614563031
 30
0.0
 10
1.699267308337607
 20
0.1981576093233569
 30
0.0
 10
1.649284895351144
 20
0.2325368923048655
 30
0.0
 10
1.599448372028042
 20
0.2673449510994838
 30
0.0
  0
SPLINE
  5
97
330
1F
100
AcDbEntity
  8
1
  6
Continuous
370
    15
100
AcDbSpline
210
0.0
220
0.0
230
1.0
 70
     8
 71
     3
 72
    20
 73
    16
 74
     0
 42
0.00000001
 43
0.00000001
 40
0.0
 40
0.0
 40
0.0
 40
0.0
 40
0.1250000000000001
 40
0.1250000000000001
 40
0.2500000000000001
 40
0.2500000000000001
 40
0.3750000000000002
 40
0.3750000000000002
 40
0.5000000000000002
 40
0.5000000000000002
 40
0.6250000000000002
 40
0.6250000000000002
 40
0.7500000000000002
 40
0.7500000000000002
 40
1.0
 40
1.0
 40
1.0
 40
1.0
 10
0.8452215927990981
 20
0.3879197947444223
 30
0.0
 10
0.7756662137111767
 20
0.3003307022086737
 30
0.0
 10
0.7157034602594701
 20
0.2054081946154511
 30
0.0
 10
0.6140428156867798
 20
0.0004627854886018
 30
0.0
 10
0.5726883502399429
 20
-0.1097722896548713
 30
0.0
 10
0.5109934818287735
 20
-0.332087697308621
 30
0.0
 10
0.4896922228507482
 20
-0.4472442934036363
 30
0.0
 10
0.4650812860292567
 20
-0.6726016234636635
 30
0.0
 10
0.4614334819049289
 20
-0.7830251646093686
 30
0.0
 10
0.4685211172091282
 20
-0.9982532283502253
 30
0.0
 10
0.4791262353514517
 20
-1.099814306369758
 30
0.0
 10
0.5117628435987766
 20
-1.29194324020493
 30
0.0
 10
0.5340300575215817
 20
-1.382688248114354
 30
0.0
 10
0.6137123724147724
 20
-1.629523257233957
 30
0.0
 10
0.6851361017472576
 20
-1.765245167666295
 30
0.0
 10
0.7690964047998936
 20
-1.867758100389794
 30
0.0
  0
SPLINE
  5
98
330
1F
100
AcDbEntity
  8
1
  6
Continuous
370
    15
100
AcDbSpline
210
0.0
220
0.0
230
1.0
 70
     8
 71
     3
 72
     8
 73
     4
 74
     0
 42
0.00000001
 43
0.00000001
 40
0.0
 40
0.0
 40
0.0
 40
0.0
 40
1.0
 40
1.0
 40
1.0
 40
1.0
 10
1.899999999999999
 20
-1.786179273625984
 30
0.0
 10
1.514766077569863
 20
-1.839671429149672
 30
0.0
 10
1.141392017289666
 20
-1.865126881326439
 30
0.0
 10
0.7690964047998945
 20
-1.867758100389791
 30
0.0
  0
LINE
  5
99
330
1F
100
AcDbEntity
  8
1
  6
Continuous
370
    15
100
AcDbLine
 10
1.9
 20
-1.9489406153
 30
0.0
 11
1.9
 21
-1.7861792736
 31
0.0
  0
SPLINE
  5
9A
330
1F
100
AcDbEntity
  8
1
  6
Continuous
370
    15
100
AcDbSpline
210
0.0
220
0.0
230
1.0
 70
     8
 71
     3
 72
    11
 73
     7
 74
     0
 42
0.00000001
 43
0.00000001
 40
0.0
 40
0.0
 40
0.0
 40
0.0
 40
0.0001840795874582
 40
0.0001840795874582
 40
0.0001840795874582
 40
0.0003683674627979
 40
0.0003683674627979
 40
0.0003683674627979
 40
0.0003683674627979
 10
1.899999999999999
 20
-1.948940615296241
 30
0.0
 10
1.849651170900855
 20
-1.961357247204365
 30
0.0
 10
1.799443524940551
 20
-1.972910307496196
 30
0.0
 10
1.749383754989967
 20
-1.98356673256294
 30
0.0
 10
1.699267308337578
 20
-1.994235222627713
 30
0.0
 10
1.649284895351102
 20
-2.004008211484704
 30
0.0
 10
1.599448372027989
 20
-2.012855975648522
 30
0.0
  0
SPLINE
  5
9B
330
1F
100
AcDbEntity
  8
1
  6
Continuous
370
    15
100
AcDbSpline
210
0.0
220
0.0
230
1.0
 70
     8
 71
     3
 72
    12
 73
     8
 74
     0
 42
0.00000001
 43
0.00000001
 40
0.0
 40
0.0
 40
0.0
 40
0.0
 40
0.5000000000000002
 40
0.5000000000000002
 40
0.7500000000000001
 40
0.7500000000000001
 40
1.0
 40
1.0
 40
1.0
 40
1.0
 10
1.599448372028045
 20
-2.01285597564851
 30
0.0
 10
1.485237953326701
 20
-2.033132424239128
 30
0.0
 10
1.358640355315546
 20
-2.055230232633452
 30
0.0
 10
1.160323909459389
 20
-2.098611665425242
 30
0.0
 10
1.091894834965197
 20
-2.114969870596127
 30
0.0
 10
0.9568010879892211
 20
-2.153758742181487
 30
0.0
 10
0.8876789573759097
 20
-2.177682923657823
 30
0.0
 10
0.845221592799073
 20
-2.19866815459059
 30
0.0
  0
SPLINE
  5
9C
330
1F
100
AcDbEntity
  8
1
  6
Continuous
370
    15
100
AcDbSpline
210
0.0
220
0.0
230
1.0
 70
     8
 71
     3
 72
     9
 73
     5
 74
     0
 42
0.00000001
 43
0.00000001
 40
0.0
 40
0.0
 40
0.0
 40
0.0
 40
0.4954262039918574
 40
0.9999999999999999
 40
0.9999999999999999
 40
0.9999999999999999
 40
0.9999999999999999
 10
0.845221592799073
 20
-2.19866815459059
 30
0.0
 10
0.8015994392587718
 20
-2.219839295757471
 30
0.0
 10
0.7135496889855344
 20
-2.262572483861564
 30
0.0
 10
0.6501242146309147
 20
-2.28305465213208
 30
0.0
 10
0.6181213822721872
 20
-2.293389417526812
 30
0.0
  0
SPLINE
  5
9D
330
1F
100
AcDbEntity
  8
1
  6
Continuous
370
    15
100
AcDbSpline
210
0.0
220
0.0
230
1.0
 70
     8
 71
     3
 72
    11
 73
     7
 74
     0
 42
0.00000001
 43
0.00000001
 40
0.0
 40
0.0
 40
0.0
 40
0.0
 40
0.0001840795874582
 40
0.0001840795874582
 40
0.0001840795874582
 40
0.0003683674627976
 40
0.0003683674627976
 40
0.0003683674627976
 40
0.0003683674627976
 10
1.899999999999999
 20
1.948940615296273
 30
0.0
 10
1.849651170900864
 20
1.961357247204395
 30
0.0
 10
1.799443524940578
 20
1.972910307496193
 30
0.0
 10
1.749383754990002
 20
1.983566732562935
 30
0.0
 10
1.699267308337618
 20
1.994235222627708
 30
0.0
 10
1.64928489535115
 20
2.004008211484695
 30
0.0
 10
1.599448372028043
 20
2.012855975648514
 30
0.0
  0
SPLINE
  5
9E
330
1F
100
AcDbEntity
  8
1
  6
Continuous
370
    15
100
AcDbSpline
210
0.0
220
0.0
230
1.0
 70
     8
 71
     3
 72
    12
 73
     8
 74
     0
 42
0.00000001
 43
0.00000001
 40
0.0
 40
0.0
 40
0.0
 40
0.0
 40
0.4999999999999996
 40
0.4999999999999996
 40
0.7499999999999998
 40
0.7499999999999998
 40
1.0
 40
1.0
 40
1.0
 40
1.0
 10
1.599448372028298
 20
2.012855975648382
 30
0.0
 10
1.485237953326923
 20
2.033132424239014
 30
0.0
 10
1.358640355315688
 20
2.055230232633425
 30
0.0
 10
1.160323909459589
 20
2.098611665425199
 30
0.0
 10
1.091894834965393
 20
2.114969870596084
 30
0.0
 10
0.9568010879893417
 20
2.153758742181457
 30
0.0
 10
0.8876789573759583
 20
2.17768292365781
 30
0.0
 10
0.8452215927990756
 20
2.19866815459059
 30
0.0
  0
SPLINE
  5
9F
330
1F
100
AcDbEntity
  8
1
  6
Continuous
370
    15
100
AcDbSpline
210
0.0
220
0.0
230
1.0
 70
     8
 71
     3
 72
    20
 73
    16
 74
     0
 42
0.00000001
 43
0.00000001
 40
0.0
 40
0.0
 40
0.0
 40
0.0
 40
0.1249999999999999
 40
0.1249999999999999
 40
0.2499999999999999
 40
0.2499999999999999
 40
0.3749999999999998
 40
0.3749999999999998
 40
0.4999999999999997
 40
0.4999999999999997
 40
0.6249999999999998
 40
0.6249999999999998
 40
0.75
 40
0.75
 40
1.0
 40
1.0
 40
1.0
 40
1.0
 10
0.8452215927990747
 20
2.198668154590591
 30
0.0
 10
0.7756662137111542
 20
2.233047012235748
 30
0.0
 10
0.7157034602594484
 20
2.260364437963239
 30
0.0
 10
0.6140428156867642
 20
2.296890379579668
 30
0.0
 10
0.5726883502399326
 20
2.305704850579229
 30
0.0
 10
0.5109934818287691
 20
2.300987991453604
 30
0.0
 10
0.4896922228507456
 20
2.287429411116418
 30
0.0
 10
0.4650812860292576
 20
2.23846236827009
 30
0.0
 10
0.4614334819049298
 20
2.203384368543211
 30
0.0
 10
0.4685211172091317
 20
2.112499587214395
 30
0.0
 10
0.479126235351456
 20
2.058108396599793
 30
0.0
 10
0.5117628435987792
 20
1.932769182147136
 30
0.0
 10
0.5340300575215826
 20
1.861367102816015
 30
0.0
 10
0.6137123724147706
 20
1.631120788432846
 30
0.0
 10
0.6851361017472549
 20
1.452187200170905
 30
0.0
 10
0.7690964047998936
 20
1.259999999999962
 30
0.0
  0
SPLINE
  5
A0
330
1F
100
AcDbEntity
  8
1
  6
Continuous
370
    15
100
AcDbSpline
210
0.0
220
0.0
230
1.0
 70
     8
 71
     3
 72
     8
 73
     4
 74
     0
 42
0.00000001
 43
0.00000001
 40
0.0
 40
0.0
 40
0.0
 40
0.0
 40
1.0
 40
1.0
 40
1.0
 40
1.0
 10
1.899999999999999
 20
0.7823449382915697
 30
0.0
 10
1.51476607756998
 20
0.9175007963160737
 30
0.0
 10
1.141392017289189
 20
1.085524645003661
 30
0.0
 10
0.7690964047998936
 20
1.259999999999962
 30
0.0
  0
LINE
  5
A1
330
1F
100
AcDbEntity
  8
1
  6
Continuous
370
    15
100
AcDbLine
 10
1.9
 20
0.0642687953
 30
0.0
 11
1.9
 21
0.7823449383
 31
0.0
  0
LINE
  5
A2
330
1F
100
AcDbEntity
  8
1
  6
Continuous
370
    15
100
AcDbLine
 10
0.0
 20
2.4591034656
 30
0.0
 11
0.0
 21
-2.4591034656
 31
0.0
  0
LINE
  5
A3
330
1F
100
AcDbEntity
  8
1
  6
Continuous
370
    15
100
AcDbLine
 10
0.7690964048
 20
-1.8677581004
 30
0.0
 11
1.7963977545
 21
-0.3089435638
 31
0.0
  0
SPLINE
  5
A4
330
1F
100
AcDbEntity
  8
1
  6
Continuous
370
    15
100
AcDbSpline
210
0.0
220
0.0
230
1.0
 70
     8
 71
     3
 72
     8
 73
     4
 74
     0
 42
0.00000001
 43
0.00000001
 40
0.0
 40
0.0
 40
0.0
 40
0.0
 40
0.000118876407856
 40
0.000118876407856
 40
0.000118876407856
 40
0.000118876407856
 10
2.0
 20
-0.0000000000000068
 30
0.0
 10
1.966663270291848
 20
0.02142055714605
 30
0.0
 10
1.93333021003638
 20
0.0428497377504315
 30
0.0
 10
1.900000000000004
 20
0.0642687952958942
 30
0.0
  0
SPLINE
  5
A5
330
1F
100
AcDbEntity
  8
1
  6
Continuous
370
    15
100
AcDbSpline
210
0.0
220
0.0
230
1.0
 70
     8
 71
     3
 72
     8
 73
     4
 74
     0
 42
0.00000001
 43
0.00000001
 40
0.0000000000000054
 40
0.0000000000000054
 40
0.0000000000000054
 40
0.0000000000000054
 40
0.0001186288850089
 40
0.0001186288850089
 40
0.0001186288850089
 40
0.0001186288850089
 10
2.000000000000002
 20
0.723476635640332
 30
0.0
 10
1.966624557959994
 20
0.7431697926984495
 30
0.0
 10
1.933293833800314
 20
0.7628026437340022
 30
0.0
 10
1.900000000000001
 20
0.7823449382915721
 30
0.0
  0
LINE
  5
A6
330
1F
100
AcDbEntity
  8
1
  6
Continuous
370
    15
100
AcDbLine
 10
0.7690964048
 20
1.26
 30
0.0
 11
1.7963977545
 21
1.26
 31
0.0
  0
SPLINE
  5
A7
330
1F
100
AcDbEntity
  8
1
  6
Continuous
370
    15
100
AcDbSpline
210
0.0
220
0.0
230
1.0
 70
     8
 71
     3
 72
    14
 73
    10
 74
     0
 42
0.00000001
 43
0.00000001
 40
0.0
 40
0.0
 40
0.0
 40
0.0
 40
0.2500000000000004
 40
0.2500000000000004
 40
0.5000000000000008
 40
0.5000000000000008
 40
0.7500000000000003
 40
0.7500000000000003
 40
1.0
 40
1.0
 40
1.0
 40
1.0
 10
1.79639775445039
 20
1.259999999999994
 30
0.0
 10
1.820392509199213
 20
1.259999999999995
 30
0.0
 10
1.846279848373652
 20
1.267947133360988
 30
0.0
 10
1.896405479410585
 20
1.304009523852806
 30
0.0
 10
1.92048837725777
 20
1.332246993973983
 30
0.0
 10
1.960244188628885
 20
1.404493987947971
 30
0.0
 10
1.975782600318916
 20
1.448259085820073
 30
0.0
 10
1.995626880545998
 20
1.539350829104148
 30
0.0
 10
2.0
 20
1.586395081826835
 30
0.0
 10
2.0
 20
1.630000000000006
 30
0.0
  0
SPLINE
  5
A8
330
1F
100
AcDbEntity
  8
1
  6
Continuous
370
    15
100
AcDbSpline
210
0.0
220
0.0
230
1.0
 70
    24
 71
     3
 72
    17
 73
    13
 74
     0
 42
0.00000001
 43
0.00000001
 40
0.0
 40
0.0
 40
0.0
 40
0.0
 40
0.1250000000000001
 40
0.1250000000000001
 40
0.2500000000000003
 40
0.2500000000000003
 40
0.3125000000000003
 40
0.3125000000000003
 40
0.3750000000000003
 40
0.5000000000000002
 40
0.5000000000000002
 40
1.0
 40
1.0
 40
1.0
 40
1.0
 10
1.999999999999999
 20
1.630000000000005
 30
0.0
 10
2.0
 20
1.541933576173625
 30
0.0
 10
1.999999999999964
 20
1.456482273290451
 30
0.0
 10
1.999999999999962
 20
1.326091489784851
 30
0.0
 10
1.999999999999997
 20
1.276569118358555
 30
0.0
 10
1.999999999999998
 20
1.238675287517691
 30
0.0
 10
1.999999999999999
 20
1.234970607614256
 30
0.0
 10
1.999999999999999
 20
1.222789773401639
 30
0.0
 10
2.0
 20
1.20185857636995
 30
0.0
 10
1.999999999999998
 20
1.172985395988768
 30
0.0
 10
1.999999999999998
 20
1.059092509955068
 30
0.0
 10
1.999999999999998
 20
0.9139586676652556
 30
0.0
 10
1.999999999999998
 20
0.7234766356338066
 30
0.0
  0
LINE
  5
A9
330
1F
100
AcDbEntity
  8
1
  6
Continuous
370
    15
100
AcDbLine
 10
2.0
 20
0.6767802895
 30
0.0
 11
2.0
 21
0.7234766356
 31
0.0
  0
SPLINE
  5
AA
330
1F
100
AcDbEntity
  8
1
  6
Continuous
370
    15
100
AcDbSpline
210
0.0
220
0.0
230
1.0
 70
     8
 71
     3
 72
    10
 73
     6
 74
     0
 42
0.00000001
 43
0.00000001
 40
0.0
 40
0.0
 40
0.0
 40
0.0
 40
0.03125
 40
0.03125
 40
0.0396323400688392
 40
0.0396323400688392
 40
0.0396323400688392
 40
0.0396323400688392
 10
1.796397754450389
 20
1.259999999999994
 30
0.0
 10
1.546410916058805
 20
1.535435788806376
 30
0.0
 10
1.296397754450418
 20
1.797930784439767
 30
0.0
 10
0.9793390338996679
 20
2.08528211280479
 30
0.0
 10
0.9122803133489507
 20
2.143463646183597
 30
0.0
 10
0.8452215927982352
 20
2.198668154591283
 30
0.0
  0
SPLINE
  5
AB
330
1F
100
AcDbEntity
  8
1
  6
Continuous
370
    15
100
AcDbSpline
210
0.0
220
0.0
230
1.0
 70
     8
 71
     3
 72
     8
 73
     4
 74
     0
 42
0.00000001
 43
0.00000001
 40
0.0000000000000037
 40
0.0000000000000037
 40
0.0000000000000037
 40
0.0000000000000037
 40
0.0001186288850089
 40
0.0001186288850089
 40
0.0001186288850089
 40
0.0001186288850089
 10
2.000000000000002
 20
-1.810823447408346
 30
0.0
 10
1.966624557959979
 20
-1.802955458381647
 30
0.0
 10
1.933293833800301
 20
-1.794738781316755
 30
0.0
 10
1.900000000000001
 20
-1.786179273625982
 30
0.0
  0
SPLINE
  5
AC
330
1F
100
AcDbEntity
  8
1
  6
Continuous
370
    15
100
AcDbSpline
210
0.0
220
0.0
230
1.0
 70
    24
 71
     3
 72
    17
 73
    13
 74
     0
 42
0.00000001
 43
0.00000001
 40
0.0
 40
0.0
 40
0.0
 40
0.0
 40
0.1250000000000001
 40
0.1250000000000001
 40
0.2500000000000002
 40
0.2500000000000002
 40
0.3125000000000003
 40
0.3125000000000003
 40
0.3750000000000004
 40
0.5000000000000003
 40
0.5000000000000003
 40
1.0
 40
1.0
 40
1.0
 40
1.0
 10
1.999999999999999
 20
-0.0000000000000107
 30
0.0
 10
2.0
 20
-0.00000000000001
 30
0.0
 10
1.999999999999962
 20
-0.0424816938906599
 30
0.0
 10
1.999999999999962
 20
-0.1608055200747349
 30
0.0
 10
1.999999999999997
 20
-0.2376007556284405
 30
0.0
 10
1.999999999999997
 20
-0.3657462771525539
 30
0.0
 10
1.999999999999998
 20
-0.4103245257056593
 30
0.0
 10
1.999999999999998
 20
-0.4984851659070065
 30
0.0
 10
1.999999999999999
 20
-0.6301709675558657
 30
0.0
 10
1.999999999999999
 20
-0.7601991937291768
 30
0.0
 10
2.0
 20
-1.189943092474647
 30
0.0
 10
1.999999999999998
 20
-1.512891616910051
 30
0.0
 10
1.999999999999998
 20
-1.810823447415396
 30
0.0
  0
LINE
  5
AD
330
1F
100
AcDbEntity
  8
1
  6
Continuous
370
    15
100
AcDbLine
 10
13.2456365661
 20
0.0
 30
0.0
 11
13.2456365661
 21
1.2
 31
0.0
  0
SPLINE
  5
AE
330
1F
100
AcDbEntity
  8
1
  6
Continuous
370
    15
100
AcDbSpline
210
0.0
220
0.0
230
1.0
 70
     8
 71
     3
 72
     8
 73
     4
 74
     0
 42
0.00000001
 43
0.00000001
 40
0.0
 40
0.0
 40
0.0
 40
0.0
 40
0.000118876407856
 40
0.000118876407856
 40
0.000118876407856
 40
0.000118876407856
 10
2.0
 20
-1.950000000000046
 30
0.0
 10
1.966663270291845
 20
-1.950000000000047
 30
0.0
 10
1.933330210036393
 20
-1.949646935957835
 30
0.0
 10
1.900000000000013
 20
-1.948940615296232
 30
0.0
  0
LINE
  5
AF
330
1F
100
AcDbEntity
  8
1
  6
Continuous
370
    15
100
AcDbLine
 10
2.0
 20
-1.8820118065
 30
0.0
 11
2.0
 21
-1.8108234474
 31
0.0
  0
SPLINE
  5
B0
330
1F
100
AcDbEntity
  8
1
  6
Continuous
370
    15
100
AcDbSpline
210
0.0
220
0.0
230
1.0
 70
     8
 71
     3
 72
     8
 73
     4
 74
     0
 42
0.00000001
 43
0.00000001
 40
0.0
 40
0.0
 40
0.0
 40
0.0
 40
0.0166900076188259
 40
0.0166900076188259
 40
0.0166900076188259
 40
0.0166900076188259
 10
2.0
 20
1.630000000000006
 30
0.0
 10
1.866493075269587
 20
1.763506929682646
 30
0.0
 10
1.732972118947814
 20
1.892249061736784
 30
0.0
 10
1.599448372028276
 20
2.012855975648302
 30
0.0
  0
SPLINE
  5
B1
330
1F
100
AcDbEntity
  8
1
  6
Continuous
370
    15
100
AcDbSpline
210
0.0
220
0.0
230
1.0
 70
     8
 71
     3
 72
     8
 73
     4
 74
     0
 42
0.00000001
 43
0.00000001
 40
0.0
 40
0.0
 40
0.0
 40
0.0
 40
0.000118876407856
 40
0.000118876407856
 40
0.000118876407856
 40
0.000118876407856
 10
2.0
 20
1.950000000000057
 30
0.0
 10
1.966663270291838
 20
1.950000000000058
 30
0.0
 10
1.933330210036383
 20
1.949646935957834
 30
0.0
 10
1.899999999999995
 20
1.948940615296231
 30
0.0
  0
LINE
  5
B2
330
1F
100
AcDbEntity
  8
1
  6
Continuous
370
    15
100
AcDbLine
 10
2.0
 20
1.63
 30
0.0
 11
2.0
 21
1.95192
 31
0.0
  0
LINE
  5
B3
330
1F
100
AcDbEntity
  8
1
  6
Continuous
370
    15
100
AcDbLine
 10
13.9851651974
 20
0.0
 30
0.0
 11
13.9851651974
 21
0.0001
 31
0.0
  0
LINE
  5
B4
330
1F
100
AcDbEntity
  8
1
  6
Continuous
370
    15
100
AcDbLine
 10
13.9851651974
 20
-0.0001
 30
0.0
 11
13.9851651974
 21
0.0
 31
0.0
  0
LINE
  5
B5
330
1F
100
AcDbEntity
  8
SK4
100
AcDbLine
 10
0.0
 20
0.0
 30
0.0
 11
-36.0
 21
0.0
 31
0.0
  0
LINE
  5
B6
330
1F
100
AcDbEntity
  8
4
100
AcDbLine
 10
0.0
 20
0.0
 30
0.0
 11
14.0
 21
0.0
 31
0.0
  0
LINE
  5
B7
330
1F
100
AcDbEntity
  8
INFTOTAL
100
AcDbLine
 10
-46.0
 20
-52.0
 30
0.0
 11
254.0
 21
-52.0
 31
0.0
  0
LINE
  5
B8
330
1F
100
AcDbEntity
  8
INFTOTAL
100
AcDbLine
 10
254.0
 20
-52.0
 30
0.0
 11
254.0
 21
148.0
 31
0.0
  0
LINE
  5
B9
330
1F
100
AcDbEntity
  8
INFTOTAL
100
AcDbLine
 10
254.0
 20
148.0
 30
0.0
 11
-46.0
 21
148.0
 31
0.0
  0
LINE
  5
BA
330
1F
100
AcDbEntity
  8
INFTOTAL
100
AcDbLine
 10
-46.0
 20
148.0
 30
0.0
 11
-46.0
 21
-52.0
 31
0.0
  0
LINE
  5
BB
330
1F
100
AcDbEntity
  8
NOCUT
100
AcDbLine
 10
13.9851651974
 20
0.0
 30
0.0
 11
13.9851651974
 21
0.0001
 31
0.0
  0
LINE
  5
BC
330
1F
100
AcDbEntity
  8
NOCUT
100
AcDbLine
 10
13.9851651974
 20
0.0001
 30
0.0
 11
13.2456365661
 21
0.0001
 31
0.0
  0
LINE
  5
BD
330
1F
100
AcDbEntity
  8
NOCUT
100
AcDbLine
 10
13.2456365661
 20
0.0001
 30
0.0
 11
13.2456365661
 21
1.2
 31
0.0
  0
LINE
  5
BE
330
1F
100
AcDbEntity
  8
NOCUT
100
AcDbLine
 10
13.2456365661
 20
1.2
 30
0.0
 11
2.0
 21
1.2
 31
0.0
  0
LINE
  5
BF
330
1F
100
AcDbEntity
  8
NOCUT
100
AcDbLine
 10
2.0
 20
1.2
 30
0.0
 11
2.0
 21
1.95
 31
0.0
  0
LINE
  5
C0
330
1F
100
AcDbEntity
  8
NOCUT
100
AcDbLine
 10
2.0
 20
1.95
 30
0.0
 11
1.9
 21
1.95
 31
0.0
  0
LINE
  5
C1
330
1F
100
AcDbEntity
  8
NOCUT
100
AcDbLine
 10
1.9
 20
1.95
 30
0.0
 11
-2.0186533479
 21
3.0
 31
0.0
  0
LINE
  5
C2
330
1F
100
AcDbEntity
  8
NOCUT
100
AcDbLine
 10
-2.0186533479
 20
3.0
 30
0.0
 11
-36.0
 21
3.0
 31
0.0
  0
LINE
  5
C3
330
1F
100
AcDbEntity
  8
NOCUT
100
AcDbLine
 10
-36.0
 20
3.0
 30
0.0
 11
-36.0
 21
0.0
 31
0.0
  0
LINE
  5
C4
330
1F
100
AcDbEntity
  8
NOCUT
100
AcDbLine
 10
-36.0
 20
0.0
 30
0.0
 11
13.9851651974
 21
0.0
 31
0.0
  0
LINE
  5
C5
330
1F
100
AcDbEntity
  8
CUT
100
AcDbLine
 10
13.7
 20
2.0
 30
0.0
 11
2.0
 21
2.0
 31
0.0
  0
LINE
  5
C6
330
1F
100
AcDbEntity
  8
CUT
100
AcDbLine
 10
13.9851651974
 20
0.0001
 30
0.0
 11
14.0
 21
1.7
 31
0.0
  0
LINE
  5
C7
330
1F
100
AcDbEntity
  8
CUT
100
AcDbLine
 10
13.2456365661
 20
0.0001
 30
0.0
 11
13.9851651974
 21
0.0001
 31
0.0
  0
LINE
  5
C8
330
1F
100
AcDbEntity
  8
CUT
100
AcDbLine
 10
13.2456365661
 20
1.2
 30
0.0
 11
13.2456365661
 21
0.0001
 31
0.0
  0
LINE
  5
C9
330
1F
100
AcDbEntity
  8
CUT
100
AcDbLine
 10
2.0
 20
1.2
 30
0.0
 11
13.2456365661
 21
1.2
 31
0.0
  0
LINE
  5
CA
330
1F
100
AcDbEntity
  8
CUT
100
AcDbLine
 10
2.0
 20
2.0
 30
0.0
 11
2.0
 21
1.2
 31
0.0
  0
ARC
  5
CB
330
1F
100
AcDbEntity
  8
CUT
100
AcDbCircle
 10
13.7
 20
1.7
 30
0.0
 40
0.3000000000000007
100
AcDbArc
 50
0.0
 51
90.0
  0
DIMENSION
  5
CC
330
1F
100
AcDbEntity
  8
2
100
AcDbDimension
  2
*D1
 10
118.9632346948
 20
2.0
 30
0.0
 11
118.9632346948
 21
9.4503443827
 31
0.0
 70
   160
  1
%%c<>
 71
     2
 42
-1.0
  3
SLDDIMSTYLE0
100
AcDbAlignedDimension
 13
14.0
 23
-2.0
 33
0.0
 14
13.7
 24
2.0
 34
0.0
 50
90.0
100
AcDbRotatedDimension
  0
DIMENSION
  5
FC
330
1F
100
AcDbEntity
  8
SK2
100
AcDbDimension
  2
*D2
 10
13.7
 20
1.7
 30
0.0
 11
33.5596320187
 21
21.5596320187
 31
0.0
 70
   164
  1
<>
 71
     1
 42
-1.0
  3
SLDDIMSTYLE1
100
AcDbRadialDimension
 15
13.9121320344
 25
1.9121320344
 35
0.0
 40
0.0
  0
DIMENSION
  5
106
330
1F
100
AcDbEntity
  8
SK2
100
AcDbDimension
  2
*D3
 10
-36.0
 20
84.2998788878
 30
0.0
 11
-9.8573485296
 21
84.2998788878
 31
0.0
 70
   160
 71
     2
 42
-1.0
  3
SLDDIMSTYLE2
100
AcDbAlignedDimension
 13
14.0
 23
1.7
 33
0.0
 14
-36.0
 24
3.0
 34
0.0
 50
0.0
100
AcDbRotatedDimension
  0
DIMENSION
  5
111
330
1F
100
AcDbEntity
  8
SK2
100
AcDbDimension
  2
*D4
 10
-36.0
 20
48.7509423314
 30
0.0
 11
-18.8937081518
 21
48.7509423314
 31
0.0
 70
   160
 71
     2
 42
-1.0
  3
SLDDIMSTYLE3
100
AcDbAlignedDimension
 13
0.0
 23
0.0
 33
0.0
 14
-36.0
 24
0.0
 34
0.0
100
AcDbRotatedDimension
  0
DIMENSION
  5
11C
330
1F
100
AcDbEntity
  8
SK2
100
AcDbDimension
  2
*D5
 10
14.0
 20
55.2009423314
 30
0.0
 11
7.6297979653
 21
55.2009423314
 31
0.0
 70
   160
 71
     2
 42
-1.0
  3
SLDDIMSTYLE4
100
AcDbAlignedDimension
 13
1.9
 23
1.95
 33
0.0
 14
14.0
 24
2.0
 34
0.0
100
AcDbRotatedDimension
  0
DIMENSION
  5
129
330
1F
100
AcDbEntity
  8
SK2
100
AcDbDimension
  2
*D6
 10
2.0
 20
42.7509423314
 30
0.0
 11
7.8501090503
 21
42.7509423314
 31
0.0
 70
   160
 71
     2
 42
-1.0
  3
SLDDIMSTYLE4
100
AcDbAlignedDimension
 13
14.0
 23
2.0
 33
0.0
 14
2.0
 24
1.2
 34
0.0
100
AcDbRotatedDimension
  0
DIMENSION
  5
135
330
1F
100
AcDbEntity
  8
SK2
100
AcDbDimension
  2
*D7
 10
-10.0960344536
 20
-1.95
 30
0.0
 11
-10.0960344536
 21
17.2523155976
 31
0.0
 70
   160
  1
%%c<>
 71
     2
 42
-1.0
  3
SLDDIMSTYLE4
100
AcDbAlignedDimension
 13
1.9
 23
1.95
 33
0.0
 14
1.9
 24
-1.95
 34
0.0
 50
90.0
100
AcDbRotatedDimension
  0
DIMENSION
  5
142
330
1F
100
AcDbEntity
  8
2
100
AcDbDimension
  2
*D8
 10
14.0
 20
74.9999940533
 30
0.0
 11
6.8618618228
 21
74.9999940533
 31
0.0
 70
   160
 71
     2
 42
-1.0
  3
SLDDIMSTYLE4
100
AcDbAlignedDimension
 13
0.0
 23
1.5
 33
0.0
 14
14.0
 24
2.0
 34
0.0
100
AcDbRotatedDimension
  0
DIMENSION
  5
14E
330
1F
100
AcDbEntity
  8
SK2
100
AcDbDimension
  2
*D9
 10
-37.7386612653
 20
-3.0
 30
0.0
 11
-37.7386612653
 21
12.386277865
 31
0.0
 70
   160
  1
%%c<>
 71
     2
 42
-1.0
  3
SLDDIMSTYLE4
100
AcDbAlignedDimension
 13
-36.0
 23
3.0
 33
0.0
 14
-36.0
 24
-3.0
 34
0.0
 50
90.0
100
AcDbRotatedDimension
  0
INSERT
  5
163
330
1F
100
AcDbEntity
  8
INFTEXT63
100
AcDbBlockReference
  2
SW_NOTE_0
 10
-39.8847508068
 20
-33.794739665
 30
0.0
  0
INSERT
  5
16A
330
1F
100
AcDbEntity
  8
INFTEXT63
100
AcDbBlockReference
  2
SW_NOTE_1
 10
-39.8847508068
 20
-70.1731114039
 30
0.0
  0
ENDSEC
  0
SECTION
  2
OBJECTS
  0
DICTIONARY
  5
C
330
0
100
AcDbDictionary
281
     1
  3
ACAD_GROUP
350
D
  3
ACAD_LAYOUT
350
1A
  3
ACAD_MLINESTYLE
350
17
  3
ACAD_PLOTSETTINGS
350
19
  3
ACAD_PLOTSTYLENAME
350
E
  3
ACAD_SCALELIST
350
CD
  3
AcDbVariableDictionary
350
16B
  0
DICTIONARY
  5
D
102
{ACAD_REACTORS
330
C
102
}
330
C
100
AcDbDictionary
281
     1
  0
DICTIONARY
  5
1A
102
{ACAD_REACTORS
330
C
102
}
330
C
100
AcDbDictionary
281
     1
  3
Layout1
350
1E
  3
Layout2
350
26
  3
Model
350
22
  0
DICTIONARY
  5
17
102
{ACAD_REACTORS
330
C
102
}
330
C
100
AcDbDictionary
281
     1
  3
Standard
350
18
  0
DICTIONARY
  5
19
102
{ACAD_REACTORS
330
C
102
}
330
C
100
AcDbDictionary
281
     1
  0
ACDBDICTIONARYWDFLT
  5
E
102
{ACAD_REACTORS
330
C
102
}
330
C
100
AcDbDictionary
281
     1
  3
Normal
350
F
100
AcDbDictionaryWithDefault
340
F
  0
DICTIONARY
  5
CD
102
{ACAD_REACTORS
330
C
102
}
330
C
100
AcDbDictionary
281
     1
  3
A0
350
CE
  3
A1
350
CF
  3
A2
350
D0
  3
A3
350
D1
  3
A4
350
D2
  3
A5
350
D3
  3
A6
350
D4
  3
A7
350
D5
  3
A8
350
D6
  3
A9
350
D7
  3
B0
350
D8
  3
B1
350
D9
  3
B2
350
DA
  3
B3
350
DB
  3
B4
350
DC
  3
B5
350
DD
  3
B6
350
DE
  3
B7
350
DF
  3
B8
350
E0
  3
B9
350
E1
  3
C0
350
E2
  3
C1
350
E3
  3
C2
350
E4
  3
C3
350
E5
  3
C4
350
E6
  3
C5
350
E7
  3
C6
350
E8
  3
C7
350
E9
  3
C8
350
EA
  3
C9
350
EB
  3
D0
350
EC
  3
D1
350
ED
  3
D2
350
EE
  0
DICTIONARY
  5
16B
102
{ACAD_REACTORS
330
C
102
}
330
C
100
AcDbDictionary
281
     1
  3
CANNOSCALE
350
16C
  0
LAYOUT
  5
1E
102
{ACAD_REACTORS
330
1A
102
}
330
1A
100
AcDbPlotSettings
  1

  2
none_device
  4

  6

 40
0.0
 41
0.0
 42
0.0
 43
0.0
 44
0.0
 45
0.0
 46
0.0
 47
0.0
 48
0.0
 49
0.0
140
0.0
141
0.0
142
1.0
143
1.0
 70
   688
 72
     0
 73
     0
 74
     5
  7

 75
    16
147
1.0
148
0.0
149
0.0
100
AcDbLayout
  1
Layout1
 70
     1
 71
     1
 10
0.0
 20
0.0
 11
420.0
 21
297.0
 12
0.0
 22
0.0
 32
0.0
 14
1.0000000000E+20
 24
1.0000000000E+20
 34
1.0000000000E+20
 15
-1.0000000000E+20
 25
-1.0000000000E+20
 35
-1.0000000000E+20
146
0.0
 13
0.0
 23
0.0
 33
0.0
 16
1.0
 26
0.0
 36
0.0
 17
0.0
 27
1.0
 37
0.0
 76
     0
330
1B
  0
LAYOUT
  5
26
102
{ACAD_REACTORS
330
1A
102
}
330
1A
100
AcDbPlotSettings
  1

  2
none_device
  4

  6

 40
0.0
 41
0.0
 42
0.0
 43
0.0
 44
0.0
 45
0.0
 46
0.0
 47
0.0
 48
0.0
 49
0.0
140
0.0
141
0.0
142
1.0
143
1.0
 70
   688
 72
     0
 73
     0
 74
     5
  7

 75
    16
147
1.0
148
0.0
149
0.0
100
AcDbLayout
  1
Layout2
 70
     1
 71
     2
 10
0.0
 20
0.0
 11
0.0
 21
0.0
 12
0.0
 22
0.0
 32
0.0
 14
0.0
 24
0.0
 34
0.0
 15
0.0
 25
0.0
 35
0.0
146
0.0
 13
0.0
 23
0.0
 33
0.0
 16
1.0
 26
0.0
 36
0.0
 17
0.0
 27
1.0
 37
0.0
 76
     0
330
23
  0
LAYOUT
  5
22
102
{ACAD_REACTORS
330
1A
102
}
330
1A
100
AcDbPlotSettings
  1

  2
none_device
  4

  6

 40
0.0
 41
0.0
 42
0.0
 43
0.0
 44
0.0
 45
0.0
 46
0.0
 47
0.0
 48
0.0
 49
0.0
140
0.0
141
0.0
142
1.0
143
1.0
 70
  1712
 72
     0
 73
     0
 74
     0
  7

 75
     0
147
1.0
148
0.0
149
0.0
100
AcDbLayout
  1
Model
 70
     1
 71
     0
 10
0.0
 20
0.0
 11
420.0
 21
297.0
 12
0.0
 22
0.0
 32
0.0
 14
0.0
 24
0.0
 34
0.0
 15
420.0
 25
297.0
 35
0.0
146
0.0
 13
0.0
 23
0.0
 33
0.0
 16
1.0
 26
0.0
 36
0.0
 17
0.0
 27
1.0
 37
0.0
 76
     0
330
1F
331
29
  0
MLINESTYLE
  5
18
102
{ACAD_REACTORS
330
17
102
}
330
17
100
AcDbMlineStyle
  2
Standard
 70
     0
  3

 62
   256
 51
90.0
 52
90.0
 71
     2
 49
0.5
 62
   256
  6
BYLAYER
 49
-0.5
 62
   256
  6
BYLAYER
  0
ACDBPLACEHOLDER
  5
F
102
{ACAD_REACTORS
330
E
102
}
330
E
  0
SCALE
  5
CE
102
{ACAD_REACTORS
330
CD
102
}
330
CD
100
AcDbScale
 70
     0
300
1:1
140
1.0
141
1.0
290
     1
  0
SCALE
  5
CF
102
{ACAD_REACTORS
330
CD
102
}
330
CD
100
AcDbScale
 70
     0
300
1:2
140
1.0
141
2.0
290
     0
  0
SCALE
  5
D0
102
{ACAD_REACTORS
330
CD
102
}
330
CD
100
AcDbScale
 70
     0
300
1:4
140
1.0
141
4.0
290
     0
  0
SCALE
  5
D1
102
{ACAD_REACTORS
330
CD
102
}
330
CD
100
AcDbScale
 70
     0
300
1:5
140
1.0
141
5.0
290
     0
  0
SCALE
  5
D2
102
{ACAD_REACTORS
330
CD
102
}
330
CD
100
AcDbScale
 70
     0
300
1:8
140
1.0
141
8.0
290
     0
  0
SCALE
  5
D3
102
{ACAD_REACTORS
330
CD
102
}
330
CD
100
AcDbScale
 70
     0
300
1:10
140
1.0
141
10.0
290
     0
  0
SCALE
  5
D4
102
{ACAD_REACTORS
330
CD
102
}
330
CD
100
AcDbScale
 70
     0
300
1:16
140
1.0
141
16.0
290
     0
  0
SCALE
  5
D5
102
{ACAD_REACTORS
330
CD
102
}
330
CD
100
AcDbScale
 70
     0
300
1:20
140
1.0
141
20.0
290
     0
  0
SCALE
  5
D6
102
{ACAD_REACTORS
330
CD
102
}
330
CD
100
AcDbScale
 70
     0
300
1:30
140
1.0
141
30.0
290
     0
  0
SCALE
  5
D7
102
{ACAD_REACTORS
330
CD
102
}
330
CD
100
AcDbScale
 70
     0
300
1:40
140
1.0
141
40.0
290
     0
  0
SCALE
  5
D8
102
{ACAD_REACTORS
330
CD
102
}
330
CD
100
AcDbScale
 70
     0
300
1:50
140
1.0
141
50.0
290
     0
  0
SCALE
  5
D9
102
{ACAD_REACTORS
330
CD
102
}
330
CD
100
AcDbScale
 70
     0
300
1:100
140
1.0
141
100.0
290
     0
  0
SCALE
  5
DA
102
{ACAD_REACTORS
330
CD
102
}
330
CD
100
AcDbScale
 70
     0
300
2:1
140
2.0
141
1.0
290
     0
  0
SCALE
  5
DB
102
{ACAD_REACTORS
330
CD
102
}
330
CD
100
AcDbScale
 70
     0
300
4:1
140
4.0
141
1.0
290
     0
  0
SCALE
  5
DC
102
{ACAD_REACTORS
330
CD
102
}
330
CD
100
AcDbScale
 70
     0
300
8:1
140
8.0
141
1.0
290
     0
  0
SCALE
  5
DD
102
{ACAD_REACTORS
330
CD
102
}
330
CD
100
AcDbScale
 70
     0
300
10:1
140
10.0
141
1.0
290
     0
  0
SCALE
  5
DE
102
{ACAD_REACTORS
330
CD
102
}
330
CD
100
AcDbScale
 70
     0
300
100:1
140
100.0
141
1.0
290
     0
  0
SCALE
  5
DF
102
{ACAD_REACTORS
330
CD
102
}
330
CD
100
AcDbScale
 70
     0
300
1/128" = 1'-0"
140
0.0078125
141
12.0
290
     0
  0
SCALE
  5
E0
102
{ACAD_REACTORS
330
CD
102
}
330
CD
100
AcDbScale
 70
     0
300
1/64" = 1'-0"
140
0.015625
141
12.0
290
     0
  0
SCALE
  5
E1
102
{ACAD_REACTORS
330
CD
102
}
330
CD
100
AcDbScale
 70
     0
300
1/32" = 1'-0"
140
0.03125
141
12.0
290
     0
  0
SCALE
  5
E2
102
{ACAD_REACTORS
330
CD
102
}
330
CD
100
AcDbScale
 70
     0
300
1/16" = 1'-0"
140
0.0625
141
12.0
290
     0
  0
SCALE
  5
E3
102
{ACAD_REACTORS
330
CD
102
}
330
CD
100
AcDbScale
 70
     0
300
3/32" = 1'-0"
140
0.09375
141
12.0
290
     0
  0
SCALE
  5
E4
102
{ACAD_REACTORS
330
CD
102
}
330
CD
100
AcDbScale
 70
     0
300
1/8" = 1'-0"
140
0.125
141
12.0
290
     0
  0
SCALE
  5
E5
102
{ACAD_REACTORS
330
CD
102
}
330
CD
100
AcDbScale
 70
     0
300
3/16" = 1'-0"
140
0.1875
141
12.0
290
     0
  0
SCALE
  5
E6
102
{ACAD_REACTORS
330
CD
102
}
330
CD
100
AcDbScale
 70
     0
300
1/4" = 1'-0"
140
0.25
141
12.0
290
     0
  0
SCALE
  5
E7
102
{ACAD_REACTORS
330
CD
102
}
330
CD
100
AcDbScale
 70
     0
300
3/8" = 1'-0"
140
0.375
141
12.0
290
     0
  0
SCALE
  5
E8
102
{ACAD_REACTORS
330
CD
102
}
330
CD
100
AcDbScale
 70
     0
300
1/2" = 1'-0"
140
0.5
141
12.0
290
     0
  0
SCALE
  5
E9
102
{ACAD_REACTORS
330
CD
102
}
330
CD
100
AcDbScale
 70
     0
300
3/4" = 1'-0"
140
0.75
141
12.0
290
     0
  0
SCALE
  5
EA
102
{ACAD_REACTORS
330
CD
102
}
330
CD
100
AcDbScale
 70
     0
300
1" = 1'-0"
140
1.0
141
12.0
290
     0
  0
SCALE
  5
EB
102
{ACAD_REACTORS
330
CD
102
}
330
CD
100
AcDbScale
 70
     0
300
1-1/2" = 1'-0"
140
1.5
141
12.0
290
     0
  0
SCALE
  5
EC
102
{ACAD_REACTORS
330
CD
102
}
330
CD
100
AcDbScale
 70
     0
300
3" = 1'-0"
140
3.0
141
12.0
290
     0
  0
SCALE
  5
ED
102
{ACAD_REACTORS
330
CD
102
}
330
CD
100
AcDbScale
 70
     0
300
6" = 1'-0"
140
6.0
141
12.0
290
     0
  0
SCALE
  5
EE
102
{ACAD_REACTORS
330
CD
102
}
330
CD
100
AcDbScale
 70
     0
300
1'-0" = 1'-0"
140
12.0
141
12.0
290
     0
  0
DICTIONARYVAR
  5
16C
102
{ACAD_REACTORS
330
16B
102
}
330
16B
100
DictionaryVariables
280
     0
  1
1:1
  0
ENDSEC
  0
EOF
