  0
SECTION
  2
HEADER
  9
$ACADVER
  1
AC1015
  9
$ACADMAINTVER
 70
     6
  9
$DWGCODEPAGE
  3
ANSI_1252
  9
$INSBASE
 10
0.0
 20
0.0
 30
0.0
  9
$EXTMIN
 10
0.0
 20
0.0
 30
0.0
  9
$EXTMAX
 10
420.0
 20
297.0
 30
0.0
  9
$LIMMIN
 10
0.0
 20
0.0
  9
$LIMMAX
 10
420.0
 20
297.0
  9
$ORTHOMODE
 70
     0
  9
$REGENMODE
 70
     1
  9
$FILLMODE
 70
     1
  9
$QTEXTMODE
 70
     0
  9
$MIRRTEXT
 70
     1
  9
$LTSCALE
 40
1.0
  9
$ATTMODE
 70
     1
  9
$TEXTSIZE
 40
3.5
  9
$TRACEWID
 40
1.0
  9
$TEXTSTYLE
  7
STANDARD
  9
$CLAYER
  8
0
  9
$CELTYPE
  6
ByLayer
  9
$CECOLOR
 62
   256
  9
$CELTSCALE
 40
1.0
  9
$DISPSILH
 70
     0
  9
$DIMSCALE
 40
1.0
  9
$DIMASZ
 40
3.302
  9
$DIMEXO
 40
1.0
  9
$DIMDLI
 40
3.75
  9
$DIMRND
 40
0.0
  9
$DIMDLE
 40
0.0
  9
$DIMEXE
 40
1.0
  9
$DIMTP
 40
0.0
  9
$DIMTM
 40
0.0
  9
$DIMTXT
 40
3.5
  9
$DIMCEN
 40
2.5
  9
$DIMTSZ
 40
0.0
  9
$DIMTOL
 70
     0
  9
$DIMLIM
 70
     0
  9
$DIMTIH
 70
     1
  9
$DIMTOH
 70
     1
  9
$DIMSE1
 70
     0
  9
$DIMSE2
 70
     0
  9
$DIMTAD
 70
     1
  9
$DIMZIN
 70
     0
  9
$DIMBLK
  1

  9
$DIMASO
 70
     1
  9
$DIMSHO
 70
     1
  9
$DIMPOST
  1

  9
$DIMAPOST
  1

  9
$DIMALT
 70
     0
  9
$DIMALTD
 70
     3
  9
$DIMALTF
 40
0.0393700787
  9
$DIMLFAC
 40
1.0
  9
$DIMTOFL
 70
     1
  9
$DIMTVP
 40
0.0
  9
$DIMTIX
 70
     0
  9
$DIMSOXD
 70
     0
  9
$DIMSAH
 70
     0
  9
$DIMBLK1
  1

  9
$DIMBLK2
  1

  9
$DIMSTYLE
  2
ISO-25
  9
$DIMCLRD
 70
     0
  9
$DIMCLRE
 70
     0
  9
$DIMCLRT
 70
     0
  9
$DIMTFAC
 40
1.0
  9
$DIMGAP
 40
1.524
  9
$DIMJUST
 70
     0
  9
$DIMSD1
 70
     0
  9
$DIMSD2
 70
     0
  9
$DIMTOLJ
 70
     0
  9
$DIMTZIN
 70
     0
  9
$DIMALTZ
 70
     0
  9
$DIMALTTZ
 70
     0
  9
$DIMUPT
 70
     0
  9
$DIMDEC
 70
     1
  9
$DIMTDEC
 70
     1
  9
$DIMALTU
 70
     2
  9
$DIMALTTD
 70
     3
  9
$DIMTXSTY
  7
STANDARD
  9
$DIMAUNIT
 70
     0
  9
$DIMADEC
 70
     1
  9
$DIMALTRND
 40
0.0
  9
$DIMAZIN
 70
     0
  9
$DIMDSEP
 70
    44
  9
$DIMATFIT
 70
     3
  9
$DIMFRAC
 70
     0
  9
$DIMLDRBLK
  1

  9
$DIMLUNIT
 70
     2
  9
$DIMLWD
 70
    -2
  9
$DIMLWE
 70
    -2
  9
$DIMTMOVE
 70
     0
  9
$LUNITS
 70
     2
  9
$LUPREC
 70
     2
  9
$SKETCHINC
 40
1.0
  9
$FILLETRAD
 40
10.0
  9
$AUNITS
 70
     0
  9
$AUPREC
 70
     2
  9
$MENU
  1
.
  9
$ELEVATION
 40
0.0
  9
$PELEVATION
 40
0.0
  9
$THICKNESS
 40
0.0
  9
$LIMCHECK
 70
     0
  9
$CHAMFERA
 40
10.0
  9
$CHAMFERB
 40
10.0
  9
$CHAMFERC
 40
20.0
  9
$CHAMFERD
 40
0.0
  9
$SKPOLY
 70
     0
  9
$TDCREATE
 40
2455896.91335515
  9
$TDUCREATE
 40
2455896.871688484
  9
$TDUPDATE
 40
2455896.913355162
  9
$TDUUPDATE
 40
2455896.871688495
  9
$TDINDWG
 40
0.0000000116
  9
$TDUSRTIMER
 40
0.0000000116
  9
$USRTIMER
 70
     1
  9
$ANGBASE
 50
0.0
  9
$ANGDIR
 70
     0
  9
$PDMODE
 70
     0
  9
$PDSIZE
 40
-1.0
  9
$PLINEWID
 40
0.0
  9
$SPLFRAME
 70
     0
  9
$SPLINETYPE
 70
     6
  9
$SPLINESEGS
 70
     8
  9
$HANDSEED
  5
14D
  9
$SURFTAB1
 70
     6
  9
$SURFTAB2
 70
     6
  9
$SURFTYPE
 70
     6
  9
$SURFU
 70
     6
  9
$SURFV
 70
     6
  9
$UCSBASE
  2

  9
$UCSNAME
  2

  9
$UCSORG
 10
0.0
 20
0.0
 30
0.0
  9
$UCSXDIR
 10
1.0
 20
0.0
 30
0.0
  9
$UCSYDIR
 10
0.0
 20
1.0
 30
0.0
  9
$UCSORTHOREF
  2

  9
$UCSORTHOVIEW
 70
     0
  9
$UCSORGTOP
 10
0.0
 20
0.0
 30
0.0
  9
$UCSORGBOTTOM
 10
0.0
 20
0.0
 30
0.0
  9
$UCSORGLEFT
 10
0.0
 20
0.0
 30
0.0
  9
$UCSORGRIGHT
 10
0.0
 20
0.0
 30
0.0
  9
$UCSORGFRONT
 10
0.0
 20
0.0
 30
0.0
  9
$UCSORGBACK
 10
0.0
 20
0.0
 30
0.0
  9
$PUCSBASE
  2

  9
$PUCSNAME
  2

  9
$PUCSORG
 10
0.0
 20
0.0
 30
0.0
  9
$PUCSXDIR
 10
1.0
 20
0.0
 30
0.0
  9
$PUCSYDIR
 10
0.0
 20
1.0
 30
0.0
  9
$PUCSORTHOREF
  2

  9
$PUCSORTHOVIEW
 70
     0
  9
$PUCSORGTOP
 10
0.0
 20
0.0
 30
0.0
  9
$PUCSORGBOTTOM
 10
0.0
 20
0.0
 30
0.0
  9
$PUCSORGLEFT
 10
0.0
 20
0.0
 30
0.0
  9
$PUCSORGRIGHT
 10
0.0
 20
0.0
 30
0.0
  9
$PUCSORGFRONT
 10
0.0
 20
0.0
 30
0.0
  9
$PUCSORGBACK
 10
0.0
 20
0.0
 30
0.0
  9
$USERI1
 70
     0
  9
$USERI2
 70
     0
  9
$USERI3
 70
     0
  9
$USERI4
 70
     0
  9
$USERI5
 70
     0
  9
$USERR1
 40
0.0
  9
$USERR2
 40
0.0
  9
$USERR3
 40
0.0
  9
$USERR4
 40
0.0
  9
$USERR5
 40
0.0
  9
$WORLDVIEW
 70
     1
  9
$SHADEDGE
 70
     3
  9
$SHADEDIF
 70
    70
  9
$TILEMODE
 70
     1
  9
$MAXACTVP
 70
    64
  9
$PINSBASE
 10
0.0
 20
0.0
 30
0.0
  9
$PLIMCHECK
 70
     0
  9
$PEXTMIN
 10
1.0000000000E+20
 20
1.0000000000E+20
 30
1.0000000000E+20
  9
$PEXTMAX
 10
-1.0000000000E+20
 20
-1.0000000000E+20
 30
-1.0000000000E+20
  9
$PLIMMIN
 10
0.0
 20
0.0
  9
$PLIMMAX
 10
420.0
 20
297.0
  9
$UNITMODE
 70
     0
  9
$VISRETAIN
 70
     1
  9
$PLINEGEN
 70
     0
  9
$PSLTSCALE
 70
     1
  9
$TREEDEPTH
 70
  3020
  9
$CMLSTYLE
  2
Standard
  9
$CMLJUST
 70
     0
  9
$CMLSCALE
 40
20.0
  9
$PROXYGRAPHICS
 70
     1
  9
$MEASUREMENT
 70
     1
  9
$CELWEIGHT
370
    -1
  9
$ENDCAPS
280
     0
  9
$JOINSTYLE
280
     0
  9
$LWDISPLAY
290
     1
  9
$INSUNITS
 70
     4
  9
$HYPERLINKBASE
  1

  9
$STYLESHEET
  1

  9
$XEDIT
290
     1
  9
$CEPSNTYPE
380
     0
  9
$PSTYLEMODE
290
     1
  9
$FINGERPRINTGUID
  2
{270AAF69-E2E5-42A7-808A-7BD9A6B3B3AB}
  9
$VERSIONGUID
  2
{FAEB1C32-E019-11D5-929B-00C0DF256EC4}
  9
$EXTNAMES
290
     1
  9
$PSVPSCALE
 40
0.0
  9
$OLESTARTUP
290
     0
  0
ENDSEC
  0
SECTION
  2
CLASSES
  0
CLASS
  1
ACDBDICTIONARYWDFLT
  2
AcDbDictionaryWithDefault
  3
ObjectDBX Classes
 90
        0
280
     0
281
     0
  0
CLASS
  1
VISUALSTYLE
  2
AcDbVisualStyle
  3
ObjectDBX Classes
 90
     4095
280
     0
281
     0
  0
CLASS
  1
MATERIAL
  2
AcDbMaterial
  3
ObjectDBX Classes
 90
     1153
280
     0
281
     0
  0
CLASS
  1
SCALE
  2
AcDbScale
  3
ObjectDBX Classes
 90
     1153
280
     0
281
     0
  0
CLASS
  1
DICTIONARYVAR
  2
AcDbDictionaryVar
  3
ObjectDBX Classes
 90
        0
280
     0
281
     0
  0
CLASS
  1
ACDBPLACEHOLDER
  2
AcDbPlaceHolder
  3
ObjectDBX Classes
 90
        0
280
     0
281
     0
  0
CLASS
  1
LAYOUT
  2
AcDbLayout
  3
ObjectDBX Classes
 90
        0
280
     0
281
     0
  0
ENDSEC
  0
SECTION
  2
TABLES
  0
TABLE
  2
VPORT
  5
8
330
0
100
AcDbSymbolTable
 70
     1
  0
VPORT
  5
29
330
8
100
AcDbSymbolTableRecord
100
AcDbViewportTableRecord
  2
*Active
 70
     0
 10
0.0
 20
0.0
 11
1.0
 21
1.0
 12
210.0
 22
148.5
 13
0.0
 23
0.0
 14
10.0
 24
10.0
 15
10.0
 25
10.0
 16
0.0
 26
0.0
 36
1.0
 17
0.0
 27
0.0
 37
0.0
 40
297.0
 41
1.4141414141
 42
50.0
 43
0.0
 44
0.0
 50
0.0
 51
0.0
 71
     0
 72
  2000
 73
     1
 74
     3
 75
     0
 76
     0
 77
     0
 78
     0
281
     0
 65
     1
110
0.0
120
0.0
130
0.0
111
1.0
121
0.0
131
0.0
112
0.0
122
1.0
132
0.0
 79
     0
146
0.0
  0
ENDTAB
  0
TABLE
  2
LTYPE
  5
5
330
0
100
AcDbSymbolTable
 70
     6
  0
LTYPE
  5
14
330
5
100
AcDbSymbolTableRecord
100
AcDbLinetypeTableRecord
  2
ByBlock
 70
     0
  3

 72
    65
 73
     0
 40
0.0
  0
LTYPE
  5
15
330
5
100
AcDbSymbolTableRecord
100
AcDbLinetypeTableRecord
  2
ByLayer
 70
     0
  3

 72
    65
 73
     0
 40
0.0
  0
LTYPE
  5
16
330
5
100
AcDbSymbolTableRecord
100
AcDbLinetypeTableRecord
  2
Continuous
 70
     0
  3
Solid line
 72
    65
 73
     0
 40
0.0
  0
LTYPE
  5
3F
330
5
100
AcDbSymbolTableRecord
100
AcDbLinetypeTableRecord
  2
HIDDEN
 70
     0
  3
Hidden __ __ __ __ __ __ __ __ __ __ __ __ __ __
 72
    65
 73
     2
 40
1.905
 49
1.27
 74
     0
 49
-0.635
 74
     0
  0
LTYPE
  5
40
330
5
100
AcDbSymbolTableRecord
100
AcDbLinetypeTableRecord
  2
PHANTOM
 70
     0
  3
Phantom ______  __  __  ______  __  __  ______
 72
    65
 73
     6
 40
12.7
 49
6.35
 74
     0
 49
-1.27
 74
     0
 49
1.27
 74
     0
 49
-1.27
 74
     0
 49
1.27
 74
     0
 49
-1.27
 74
     0
  0
LTYPE
  5
41
330
5
100
AcDbSymbolTableRecord
100
AcDbLinetypeTableRecord
  2
CENTER
 70
     0
  3
Center ____ _ ____ _ ____ _ ____ _ ____ _ ____
 72
    65
 73
     4
 40
10.16
 49
6.35
 74
     0
 49
-1.27
 74
     0
 49
1.27
 74
     0
 49
-1.27
 74
     0
  0
LTYPE
  5
42
330
5
100
AcDbSymbolTableRecord
100
AcDbLinetypeTableRecord
  2
CENTERX2
 70
     0
  3
Center (2x) ________  __  ________  __  _____
 72
    65
 73
     4
 40
20.32
 49
12.7
 74
     0
 49
-2.54
 74
     0
 49
2.54
 74
     0
 49
-2.54
 74
     0
  0
LTYPE
  5
43
330
5
100
AcDbSymbolTableRecord
100
AcDbLinetypeTableRecord
  2
DOT2
 70
     0
  3
Dot (.5x) ........................................
 72
    65
 73
     2
 40
0.635
 49
0.0
 74
     0
 49
-0.635
 74
     0
  0
ENDTAB
  0
TABLE
  2
LAYER
  5
2
330
0
100
AcDbSymbolTable
 70
    20
  0
LAYER
  5
10
330
2
100
AcDbSymbolTableRecord
100
AcDbLayerTableRecord
  2
0
 70
     0
 62
     7
  6
Continuous
370
    -3
390
F
  0
LAYER
  5
44
330
2
100
AcDbSymbolTableRecord
100
AcDbLayerTableRecord
  2
SLD-DEFPOINTS
 70
     0
 62
     7
  6
Continuous
370
    -1
390
F
  0
LAYER
  5
45
330
2
100
AcDbSymbolTableRecord
100
AcDbLayerTableRecord
  2
1
 70
     0
 62
     4
  6
Continuous
370
    15
390
F
  0
LAYER
  5
46
330
2
100
AcDbSymbolTableRecord
100
AcDbLayerTableRecord
  2
2
 70
     0
 62
     7
  6
Continuous
370
    -3
390
F
  0
LAYER
  5
47
330
2
100
AcDbSymbolTableRecord
100
AcDbLayerTableRecord
  2
3
 70
     0
 62
     1
  6
HIDDEN
370
    -3
390
F
  0
LAYER
  5
48
330
2
100
AcDbSymbolTableRecord
100
AcDbLayerTableRecord
  2
4
 70
     0
 62
     2
  6
CENTERX2
370
    -3
390
F
  0
LAYER
  5
49
330
2
100
AcDbSymbolTableRecord
100
AcDbLayerTableRecord
  2
6
 70
     0
 62
     5
  6
Continuous
370
    -3
390
F
  0
LAYER
  5
4A
330
2
100
AcDbSymbolTableRecord
100
AcDbLayerTableRecord
  2
7
 70
     0
 62
     5
  6
Continuous
370
    -3
390
F
  0
LAYER
  5
4B
330
2
100
AcDbSymbolTableRecord
100
AcDbLayerTableRecord
  2
CUT
 70
     0
 62
     1
  6
Continuous
370
    -3
390
F
  0
LAYER
  5
4C
330
2
100
AcDbSymbolTableRecord
100
AcDbLayerTableRecord
  2
NOCUT
 70
     0
 62
     7
  6
Continuous
370
    -3
390
F
  0
LAYER
  5
4D
330
2
100
AcDbSymbolTableRecord
100
AcDbLayerTableRecord
  2
SK1
 70
     0
 62
     4
  6
Continuous
370
    15
390
F
  0
LAYER
  5
4E
330
2
100
AcDbSymbolTableRecord
100
AcDbLayerTableRecord
  2
SK2
 70
     0
 62
     7
  6
Continuous
370
    -3
390
F
  0
LAYER
  5
4F
330
2
100
AcDbSymbolTableRecord
100
AcDbLayerTableRecord
  2
SK3
 70
     0
 62
     1
  6
HIDDEN
370
    -3
390
F
  0
LAYER
  5
50
330
2
100
AcDbSymbolTableRecord
100
AcDbLayerTableRecord
  2
SK4
 70
     0
 62
     2
  6
CENTERX2
370
    -3
390
F
  0
LAYER
  5
51
330
2
100
AcDbSymbolTableRecord
100
AcDbLayerTableRecord
  2
SK6
 70
     0
 62
     5
  6
Continuous
370
    -3
390
F
  0
LAYER
  5
52
330
2
100
AcDbSymbolTableRecord
100
AcDbLayerTableRecord
  2
SK7
 70
     0
 62
     5
  6
Continuous
370
    -3
390
F
  0
LAYER
  5
53
330
2
100
AcDbSymbolTableRecord
100
AcDbLayerTableRecord
  2
SLD-0
 70
     0
 62
     7
  6
Continuous
370
    -1
390
F
  0
LAYER
  5
54
330
2
100
AcDbSymbolTableRecord
100
AcDbLayerTableRecord
  2
SLD-DEFPOINTS_0
 70
     0
 62
     7
  6
Continuous
370
    -1
390
F
  0
LAYER
  5
55
330
2
100
AcDbSymbolTableRecord
100
AcDbLayerTableRecord
  2
INFTOTAL
 70
     0
 62
     9
  6
Continuous
370
    -3
390
F
  0
LAYER
  5
56
330
2
100
AcDbSymbolTableRecord
100
AcDbLayerTableRecord
  2
INFTEXT63
 70
     0
 62
     5
  6
Continuous
370
    -3
390
F
  0
ENDTAB
  0
TABLE
  2
STYLE
  5
3
330
0
100
AcDbSymbolTable
 70
     2
  0
STYLE
  5
11
330
3
100
AcDbSymbolTableRecord
100
AcDbTextStyleTableRecord
  2
STANDARD
 70
     0
 40
0.0
 41
1.0
 50
0.0
 71
     0
 42
2.5
  3
GOTHIC.TTF
  4

1001
ACAD
1000
CENTURY GOTHIC
1071
       34
  0
STYLE
  5
57
330
3
100
AcDbSymbolTableRecord
100
AcDbTextStyleTableRecord
  2
SLDTEXTSTYLE0
 70
     0
 40
0.0
 41
1.0
 50
0.0
 71
     0
 42
0.2
  3
Monospac821 BT
  4

1001
ACAD
1000
Monospac821 BT
1071
      305
  0
ENDTAB
  0
TABLE
  2
VIEW
  5
6
330
0
100
AcDbSymbolTable
 70
     0
  0
ENDTAB
  0
TABLE
  2
UCS
  5
7
330
0
100
AcDbSymbolTable
 70
     0
  0
ENDTAB
  0
TABLE
  2
APPID
  5
9
330
0
100
AcDbSymbolTable
 70
     1
  0
APPID
  5
12
330
9
100
AcDbSymbolTableRecord
100
AcDbRegAppTableRecord
  2
ACAD
 70
     0
  0
ENDTAB
  0
TABLE
  2
DIMSTYLE
  5
A
330
0
100
AcDbSymbolTable
 70
     4
100
AcDbDimStyleTable
  0
DIMSTYLE
105
27
330
A
100
AcDbSymbolTableRecord
100
AcDbDimStyleTableRecord
  2
ISO-25
 70
     0
 41
2.5
 42
0.625
 43
3.75
 44
1.25
 73
     0
 74
     0
 77
     1
 78
     8
140
2.5
141
2.5
143
0.0393700787
147
0.625
171
     3
172
     1
271
     2
272
     2
274
     3
278
    44
283
     0
284
     8
340
57
  0
DIMSTYLE
105
E3
102
{ACAD_REACTORS
330
C0
102
}
330
A
100
AcDbSymbolTableRecord
100
AcDbDimStyleTableRecord
  2
SLDDIMSTYLE0
 70
     0
 41
3.302
 44
0.0
 45
0.000000001
 73
     0
 77
     1
 78
    12
140
3.5
147
0.875
173
     1
271
     1
272
     2
276
     2
284
    12
340
57
  0
DIMSTYLE
105
F0
102
{ACAD_REACTORS
330
EF
102
}
330
A
100
AcDbSymbolTableRecord
100
AcDbDimStyleTableRecord
  2
SLDDIMSTYLE1
 70
     0
 41
3.302
 44
0.0
 45
0.000000001
 73
     0
 77
     1
 78
    12
140
3.5
147
0.875
173
     1
271
     1
272
     1
276
     2
284
    12
340
57
  0
DIMSTYLE
105
FD
102
{ACAD_REACTORS
330
FC
330
107
330
111
330
11B
330
125
330
131
102
}
330
A
100
AcDbSymbolTableRecord
100
AcDbDimStyleTableRecord
  2
SLDDIMSTYLE2
 70
     0
 41
3.302
 44
0.0
 45
0.000000001
 73
     0
 77
     1
 78
    12
140
3.5
147
0.875
173
     1
271
     2
272
     2
276
     2
284
    12
340
57
  0
ENDTAB
  0
TABLE
  2
BLOCK_RECORD
  5
1
330
0
100
AcDbSymbolTable
 70
    11
  0
BLOCK_RECORD
  5
1F
330
1
100
AcDbSymbolTableRecord
100
AcDbBlockTableRecord
  2
*Model_Space
340
22
  0
BLOCK_RECORD
  5
1B
330
1
100
AcDbSymbolTableRecord
100
AcDbBlockTableRecord
  2
*Paper_Space
340
1E
  0
BLOCK_RECORD
  5
23
330
1
100
AcDbSymbolTableRecord
100
AcDbBlockTableRecord
  2
*Paper_Space0
340
26
  0
BLOCK_RECORD
  5
E4
330
1
100
AcDbSymbolTableRecord
100
AcDbBlockTableRecord
  2
*D1
340
0
  0
BLOCK_RECORD
  5
F1
330
1
100
AcDbSymbolTableRecord
100
AcDbBlockTableRecord
  2
*D2
340
0
  0
BLOCK_RECORD
  5
FE
330
1
100
AcDbSymbolTableRecord
100
AcDbBlockTableRecord
  2
*D3
340
0
  0
BLOCK_RECORD
  5
108
330
1
100
AcDbSymbolTableRecord
100
AcDbBlockTableRecord
  2
*D4
340
0
  0
BLOCK_RECORD
  5
112
330
1
100
AcDbSymbolTableRecord
100
AcDbBlockTableRecord
  2
*D5
340
0
  0
BLOCK_RECORD
  5
11C
330
1
100
AcDbSymbolTableRecord
100
AcDbBlockTableRecord
  2
*D6
340
0
  0
BLOCK_RECORD
  5
126
330
1
100
AcDbSymbolTableRecord
100
AcDbBlockTableRecord
  2
*D7
340
0
  0
BLOCK_RECORD
  5
132
330
1
100
AcDbSymbolTableRecord
100
AcDbBlockTableRecord
  2
*D8
340
0
  0
BLOCK_RECORD
  5
13B
330
1
100
AcDbSymbolTableRecord
100
AcDbBlockTableRecord
  2
SW_NOTE_0
340
0
102
{BLKREFS
331
143
102
}
  0
BLOCK_RECORD
  5
144
330
1
100
AcDbSymbolTableRecord
100
AcDbBlockTableRecord
  2
SW_NOTE_1
340
0
102
{BLKREFS
331
14A
102
}
  0
ENDTAB
  0
ENDSEC
  0
SECTION
  2
BLOCKS
  0
BLOCK
  5
20
330
1F
100
AcDbEntity
  8
0
100
AcDbBlockBegin
  2
*Model_Space
 70
     0
 10
0.0
 20
0.0
 30
0.0
  3
*Model_Space
  1

  0
ENDBLK
  5
21
330
1F
100
AcDbEntity
  8
0
100
AcDbBlockEnd
  0
BLOCK
  5
1C
330
1B
100
AcDbEntity
 67
     1
  8
0
100
AcDbBlockBegin
  2
*Paper_Space
 70
     0
 10
0.0
 20
0.0
 30
0.0
  3
*Paper_Space
  1

  0
ENDBLK
  5
1D
330
1B
100
AcDbEntity
 67
     1
  8
0
100
AcDbBlockEnd
  0
BLOCK
  5
24
330
23
100
AcDbEntity
  8
0
100
AcDbBlockBegin
  2
*Paper_Space0
 70
     0
 10
0.0
 20
0.0
 30
0.0
  3
*Paper_Space0
  1

  0
ENDBLK
  5
25
330
23
100
AcDbEntity
  8
0
100
AcDbBlockEnd
  0
BLOCK
  5
E5
330
E4
100
AcDbEntity
  8
0
100
AcDbBlockBegin
  2
*D1
 70
     1
 10
0.0
 20
0.0
 30
0.0
  3
*D1
  1

  0
SOLID
  5
E7
330
E4
100
AcDbEntity
  8
2
100
AcDbTrace
 10
118.9632346948
 20
-5.0
 30
0.0
 11
119.4712346948
 21
-1.698
 31
0.0
 12
118.4552346948
 22
-1.698
 32
0.0
 13
118.4552346948
 23
-1.698
 33
0.0
  0
SOLID
  5
E8
330
E4
100
AcDbEntity
  8
2
100
AcDbTrace
 10
118.9632346948
 20
5.0
 30
0.0
 11
118.4552346948
 21
1.698
 31
0.0
 12
119.4712346948
 22
1.698
 32
0.0
 13
119.4712346948
 23
1.698
 33
0.0
  0
LINE
  5
E9
330
E4
100
AcDbEntity
  8
2
100
AcDbLine
 10
31.0
 20
-5.0
 30
0.0
 11
119.9632346948
 21
-5.0
 31
0.0
  0
LINE
  5
EA
330
E4
100
AcDbEntity
  8
2
100
AcDbLine
 10
30.9650934015
 20
5.0
 30
0.0
 11
119.9632346948
 21
5.0
 31
0.0
  0
LINE
  5
EB
330
E4
100
AcDbEntity
  8
2
100
AcDbLine
 10
118.9632346948
 20
-5.0
 30
0.0
 11
118.9632346948
 21
5.0
 31
0.0
  0
LINE
  5
EC
330
E4
100
AcDbEntity
  8
2
100
AcDbLine
 10
118.9632346948
 20
5.0
 30
0.0
 11
118.9632346948
 21
19.4382594202
 31
0.0
  0
MTEXT
  5
ED
330
E4
100
AcDbEntity
  8
2
100
AcDbMText
 10
114.3565510066
 20
7.0499293453
 30
0.0
 40
3.5
 41
0.0
 71
     1
 72
     1
  1
%%c
  7
SLDTEXTSTYLE0
 11
-1.608122649676637E-16
 21
1.0
 31
0.0
 73
     1
 44
1.0
  0
MTEXT
  5
EE
330
E4
100
AcDbEntity
  8
2
100
AcDbMText
 10
114.3565512394
 20
12.2995993012
 30
0.0
 40
3.5
 41
0.0
 71
     1
 72
     1
  1
10
  7
SLDTEXTSTYLE0
 11
-1.608122649676637E-16
 21
1.0
 31
0.0
 73
     1
 44
1.0
  0
ENDBLK
  5
E6
330
E4
100
AcDbEntity
  8
0
100
AcDbBlockEnd
  0
BLOCK
  5
F2
330
F1
100
AcDbEntity
  8
0
100
AcDbBlockBegin
  2
*D2
 70
     1
 10
0.0
 20
0.0
 30
0.0
  3
*D2
  1

  0
SOLID
  5
F4
330
F1
100
AcDbEntity
  8
SK2
100
AcDbTrace
 10
-44.2657186151
 20
5.0
 30
0.0
 11
-44.7737186151
 21
1.698
 31
0.0
 12
-43.7577186151
 22
1.698
 32
0.0
 13
-43.7577186151
 23
1.698
 33
0.0
  0
SOLID
  5
F5
330
F1
100
AcDbEntity
  8
SK2
100
AcDbTrace
 10
-44.2657186151
 20
-5.0
 30
0.0
 11
-43.7577186151
 21
-1.698
 31
0.0
 12
-44.7737186151
 22
-1.698
 32
0.0
 13
-44.7737186151
 23
-1.698
 33
0.0
  0
LINE
  5
F6
330
F1
100
AcDbEntity
  8
SK2
100
AcDbLine
 10
-41.0
 20
5.0
 30
0.0
 11
-45.2657186151
 21
5.0
 31
0.0
  0
LINE
  5
F7
330
F1
100
AcDbEntity
  8
SK2
100
AcDbLine
 10
-41.0
 20
-5.0
 30
0.0
 11
-45.2657186151
 21
-5.0
 31
0.0
  0
LINE
  5
F8
330
F1
100
AcDbEntity
  8
SK2
100
AcDbLine
 10
-44.2657186151
 20
5.0
 30
0.0
 11
-44.2657186151
 21
19.6725739952
 31
0.0
  0
LINE
  5
F9
330
F1
100
AcDbEntity
  8
SK2
100
AcDbLine
 10
-44.2657186151
 20
5.0
 30
0.0
 11
-44.2657186151
 21
-5.0
 31
0.0
  0
MTEXT
  5
FA
330
F1
100
AcDbEntity
  8
SK2
100
AcDbMText
 10
-48.8724023033
 20
7.2842439203
 30
0.0
 40
3.5
 41
0.0
 71
     1
 72
     1
  1
%%c
  7
SLDTEXTSTYLE0
 11
-7.044195017643634E-15
 21
1.0
 31
0.0
 73
     1
 44
1.0
  0
MTEXT
  5
FB
330
F1
100
AcDbEntity
  8
SK2
100
AcDbMText
 10
-48.8724020705
 20
12.5339138762
 30
0.0
 40
3.5
 41
0.0
 71
     1
 72
     1
  1
10
  7
SLDTEXTSTYLE0
 11
-7.044195017643634E-15
 21
1.0
 31
0.0
 73
     1
 44
1.0
  0
ENDBLK
  5
F3
330
F1
100
AcDbEntity
  8
0
100
AcDbBlockEnd
  0
BLOCK
  5
FF
330
FE
100
AcDbEntity
  8
0
100
AcDbBlockBegin
  2
*D3
 70
     1
 10
0.0
 20
0.0
 30
0.0
  3
*D3
  1

  0
SOLID
  5
101
330
FE
100
AcDbEntity
  8
SK2
100
AcDbTrace
 10
0.0
 20
48.7509423314
 30
0.0
 11
-3.302
 21
49.2589423314
 31
0.0
 12
-3.302
 22
48.2429423314
 32
0.0
 13
-3.302
 23
48.2429423314
 33
0.0
  0
SOLID
  5
102
330
FE
100
AcDbEntity
  8
SK2
100
AcDbTrace
 10
-40.0
 20
48.7509423314
 30
0.0
 11
-36.698
 21
48.2429423314
 31
0.0
 12
-36.698
 22
49.2589423314
 32
0.0
 13
-36.698
 23
49.2589423314
 33
0.0
  0
LINE
  5
103
330
FE
100
AcDbEntity
  8
SK2
100
AcDbLine
 10
0.0
 20
1.0
 30
0.0
 11
0.0
 21
49.7509423314
 31
0.0
  0
LINE
  5
104
330
FE
100
AcDbEntity
  8
SK2
100
AcDbLine
 10
-40.0
 20
1.0
 30
0.0
 11
-40.0
 21
49.7509423314
 31
0.0
  0
LINE
  5
105
330
FE
100
AcDbEntity
  8
SK2
100
AcDbLine
 10
0.0
 20
48.7509423314
 30
0.0
 11
-40.0
 21
48.7509423314
 31
0.0
  0
MTEXT
  5
106
330
FE
100
AcDbEntity
  8
SK2
100
AcDbMText
 10
-23.768589117
 20
53.3576257868
 30
0.0
 40
3.5
 41
0.0
 71
     1
 72
     1
  1
40
  7
SLDTEXTSTYLE0
 73
     1
 44
1.0
  0
ENDBLK
  5
100
330
FE
100
AcDbEntity
  8
0
100
AcDbBlockEnd
  0
BLOCK
  5
109
330
108
100
AcDbEntity
  8
0
100
AcDbBlockBegin
  2
*D4
 70
     1
 10
0.0
 20
0.0
 30
0.0
  3
*D4
  1

  0
SOLID
  5
10B
330
108
100
AcDbEntity
  8
SK2
100
AcDbTrace
 10
-2.0
 20
57.8509423314
 30
0.0
 11
1.302
 21
57.3429423314
 31
0.0
 12
1.302
 22
58.3589423314
 32
0.0
 13
1.302
 23
58.3589423314
 33
0.0
  0
SOLID
  5
10C
330
108
100
AcDbEntity
  8
SK2
100
AcDbTrace
 10
30.0
 20
57.8509423314
 30
0.0
 11
26.698
 21
58.3589423314
 31
0.0
 12
26.698
 22
57.3429423314
 32
0.0
 13
26.698
 23
57.3429423314
 33
0.0
  0
LINE
  5
10D
330
108
100
AcDbEntity
  8
SK2
100
AcDbLine
 10
-2.0
 20
5.6
 30
0.0
 11
-2.0
 21
58.8509423314
 31
0.0
  0
LINE
  5
10E
330
108
100
AcDbEntity
  8
SK2
100
AcDbLine
 10
30.0
 20
6.0
 30
0.0
 11
30.0
 21
58.8509423314
 31
0.0
  0
LINE
  5
10F
330
108
100
AcDbEntity
  8
SK2
100
AcDbLine
 10
-2.0
 20
57.8509423314
 30
0.0
 11
30.0
 21
57.8509423314
 31
0.0
  0
MTEXT
  5
110
330
108
100
AcDbEntity
  8
SK2
100
AcDbMText
 10
10.3776046422
 20
62.4576257868
 30
0.0
 40
3.5
 41
0.0
 71
     1
 72
     1
  1
32
  7
SLDTEXTSTYLE0
 73
     1
 44
1.0
  0
ENDBLK
  5
10A
330
108
100
AcDbEntity
  8
0
100
AcDbBlockEnd
  0
BLOCK
  5
113
330
112
100
AcDbEntity
  8
0
100
AcDbBlockBegin
  2
*D5
 70
     1
 10
0.0
 20
0.0
 30
0.0
  3
*D5
  1

  0
SOLID
  5
115
330
112
100
AcDbEntity
  8
SK2
100
AcDbTrace
 10
30.0
 20
93.3258208239
 30
0.0
 11
26.698
 21
93.8338208239
 31
0.0
 12
26.698
 22
92.8178208239
 32
0.0
 13
26.698
 23
92.8178208239
 33
0.0
  0
SOLID
  5
116
330
112
100
AcDbEntity
  8
SK2
100
AcDbTrace
 10
-40.0
 20
93.3258208239
 30
0.0
 11
-36.698
 21
92.8178208239
 31
0.0
 12
-36.698
 22
93.8338208239
 32
0.0
 13
-36.698
 23
93.8338208239
 33
0.0
  0
LINE
  5
117
330
112
100
AcDbEntity
  8
SK2
100
AcDbLine
 10
30.0
 20
1.0
 30
0.0
 11
30.0
 21
94.3258208239
 31
0.0
  0
LINE
  5
118
330
112
100
AcDbEntity
  8
SK2
100
AcDbLine
 10
-40.0
 20
1.0
 30
0.0
 11
-40.0
 21
94.3258208239
 31
0.0
  0
LINE
  5
119
330
112
100
AcDbEntity
  8
SK2
100
AcDbLine
 10
30.0
 20
93.3258208239
 30
0.0
 11
-40.0
 21
93.3258208239
 31
0.0
  0
MTEXT
  5
11A
330
112
100
AcDbEntity
  8
SK2
100
AcDbMText
 10
-9.2821257877
 20
97.9325042793
 30
0.0
 40
3.5
 41
0.0
 71
     1
 72
     1
  1
70
  7
SLDTEXTSTYLE0
 73
     1
 44
1.0
  0
ENDBLK
  5
114
330
112
100
AcDbEntity
  8
0
100
AcDbBlockEnd
  0
BLOCK
  5
11D
330
11C
100
AcDbEntity
  8
0
100
AcDbBlockBegin
  2
*D6
 70
     1
 10
0.0
 20
0.0
 30
0.0
  3
*D6
  1

  0
SOLID
  5
11F
330
11C
100
AcDbEntity
  8
SK2
100
AcDbTrace
 10
30.0
 20
45.7509423314
 30
0.0
 11
26.698
 21
46.2589423314
 31
0.0
 12
26.698
 22
45.2429423314
 32
0.0
 13
26.698
 23
45.2429423314
 33
0.0
  0
SOLID
  5
120
330
11C
100
AcDbEntity
  8
SK2
100
AcDbTrace
 10
8.0
 20
45.7509423314
 30
0.0
 11
11.302
 21
45.2429423314
 31
0.0
 12
11.302
 22
46.2589423314
 32
0.0
 13
11.302
 23
46.2589423314
 33
0.0
  0
LINE
  5
121
330
11C
100
AcDbEntity
  8
SK2
100
AcDbLine
 10
30.0
 20
6.0
 30
0.0
 11
30.0
 21
46.7509423314
 31
0.0
  0
LINE
  5
122
330
11C
100
AcDbEntity
  8
SK2
100
AcDbLine
 10
8.0
 20
3.5
 30
0.0
 11
8.0
 21
46.7509423314
 31
0.0
  0
LINE
  5
123
330
11C
100
AcDbEntity
  8
SK2
100
AcDbLine
 10
30.0
 20
45.7509423314
 30
0.0
 11
8.0
 21
45.7509423314
 31
0.0
  0
MTEXT
  5
124
330
11C
100
AcDbEntity
  8
SK2
100
AcDbMText
 10
15.9496198661
 20
50.3576257868
 30
0.0
 40
3.5
 41
0.0
 71
     1
 72
     1
  1
22
  7
SLDTEXTSTYLE0
 73
     1
 44
1.0
  0
ENDBLK
  5
11E
330
11C
100
AcDbEntity
  8
0
100
AcDbBlockEnd
  0
BLOCK
  5
127
330
126
100
AcDbEntity
  8
0
100
AcDbBlockBegin
  2
*D7
 70
     1
 10
0.0
 20
0.0
 30
0.0
  3
*D7
  1

  0
SOLID
  5
129
330
126
100
AcDbEntity
  8
SK2
100
AcDbTrace
 10
17.0485279454
 20
4.6
 30
0.0
 11
16.5405279454
 21
1.298
 31
0.0
 12
17.5565279454
 22
1.298
 32
0.0
 13
17.5565279454
 23
1.298
 33
0.0
  0
SOLID
  5
12A
330
126
100
AcDbEntity
  8
SK2
100
AcDbTrace
 10
17.0485279454
 20
-4.6
 30
0.0
 11
17.5565279454
 21
-1.298
 31
0.0
 12
16.5405279454
 22
-1.298
 32
0.0
 13
16.5405279454
 23
-1.298
 33
0.0
  0
LINE
  5
12B
330
126
100
AcDbEntity
  8
SK2
100
AcDbLine
 10
9.0
 20
4.6
 30
0.0
 11
18.0485279454
 21
4.6
 31
0.0
  0
LINE
  5
12C
330
126
100
AcDbEntity
  8
SK2
100
AcDbLine
 10
9.0
 20
-4.6
 30
0.0
 11
18.0485279454
 21
-4.6
 31
0.0
  0
LINE
  5
12D
330
126
100
AcDbEntity
  8
SK2
100
AcDbLine
 10
17.0485279454
 20
4.6
 30
0.0
 11
17.0485279454
 21
36.7390111376
 31
0.0
  0
LINE
  5
12E
330
126
100
AcDbEntity
  8
SK2
100
AcDbLine
 10
17.0485279454
 20
4.6
 30
0.0
 11
17.0485279454
 21
-4.6
 31
0.0
  0
MTEXT
  5
12F
330
126
100
AcDbEntity
  8
SK2
100
AcDbMText
 10
12.4418442572
 20
21.5756511678
 30
0.0
 40
3.5
 41
0.0
 71
     1
 72
     1
  1
%%c
  7
SLDTEXTSTYLE0
 11
-7.044195017643634E-15
 21
1.0
 31
0.0
 73
     1
 44
1.0
  0
MTEXT
  5
130
330
126
100
AcDbEntity
  8
SK2
100
AcDbMText
 10
12.44184449
 20
26.8253211237
 30
0.0
 40
3.5
 41
0.0
 71
     1
 72
     1
  1
9,2
  7
SLDTEXTSTYLE0
 11
-7.044195017643634E-15
 21
1.0
 31
0.0
 73
     1
 44
1.0
  0
ENDBLK
  5
128
330
126
100
AcDbEntity
  8
0
100
AcDbBlockEnd
  0
BLOCK
  5
133
330
132
100
AcDbEntity
  8
0
100
AcDbBlockBegin
  2
*D8
 70
     1
 10
0.0
 20
0.0
 30
0.0
  3
*D8
  1

  0
SOLID
  5
135
330
132
100
AcDbEntity
  8
2
100
AcDbTrace
 10
0.0
 20
75.9999940533
 30
0.0
 11
3.302
 21
75.4919940533
 31
0.0
 12
3.302
 22
76.5079940533
 32
0.0
 13
3.302
 23
76.5079940533
 33
0.0
  0
SOLID
  5
136
330
132
100
AcDbEntity
  8
2
100
AcDbTrace
 10
30.0
 20
75.9999940533
 30
0.0
 11
26.698
 21
76.5079940533
 31
0.0
 12
26.698
 22
75.4919940533
 32
0.0
 13
26.698
 23
75.4919940533
 33
0.0
  0
LINE
  5
137
330
132
100
AcDbEntity
  8
2
100
AcDbLine
 10
0.0
 20
3.5
 30
0.0
 11
0.0
 21
76.9999940533
 31
0.0
  0
LINE
  5
138
330
132
100
AcDbEntity
  8
2
100
AcDbLine
 10
30.0
 20
6.0
 30
0.0
 11
30.0
 21
76.9999940533
 31
0.0
  0
LINE
  5
139
330
132
100
AcDbEntity
  8
2
100
AcDbLine
 10
0.0
 20
75.9999940533
 30
0.0
 11
30.0
 21
75.9999940533
 31
0.0
  0
MTEXT
  5
13A
330
132
100
AcDbEntity
  8
2
100
AcDbMText
 10
11.9284095609
 20
80.6066775087
 30
0.0
 40
3.5
 41
0.0
 71
     1
 72
     1
  1
30
  7
SLDTEXTSTYLE0
 73
     1
 44
1.0
  0
ENDBLK
  5
134
330
132
100
AcDbEntity
  8
0
100
AcDbBlockEnd
  0
BLOCK
  5
13C
330
13B
100
AcDbEntity
  8
0
100
AcDbBlockBegin
  2
SW_NOTE_0
 70
     0
 10
0.0
 20
0.0
 30
0.0
  3
SW_NOTE_0
  1

  0
MTEXT
  5
13E
330
13B
100
AcDbEntity
  8
INFTEXT63
 62
     0
100
AcDbMText
 10
0.0
 20
4.6066838046
 30
0.0
 40
3.5
 41
0.0
 71
     1
 72
     1
  1
Katalogware 2570030100
  7
SLDTEXTSTYLE0
 73
     1
 44
1.0
  0
MTEXT
  5
13F
330
13B
100
AcDbEntity
  8
INFTEXT63
 62
     0
100
AcDbMText
 10
0.0
 20
0.0177948465
 30
0.0
 40
3.5
 41
0.0
 71
     1
 72
     1
  1
H. Sartorius Nachf. GmbH & Co. KG
  7
SLDTEXTSTYLE0
 73
     1
 44
1.0
  0
MTEXT
  5
140
330
13B
100
AcDbEntity
  8
INFTEXT63
 62
     0
100
AcDbMText
 10
0.0
 20
-4.5710941116
 30
0.0
 40
3.5
 41
0.0
 71
     1
 72
     1
  1
Harkortstrasse 54 
  7
SLDTEXTSTYLE0
 73
     1
 44
1.0
  0
MTEXT
  5
141
330
13B
100
AcDbEntity
  8
INFTEXT63
 62
     0
100
AcDbMText
 10
0.0
 20
-9.1599830697
 30
0.0
 40
3.5
 41
0.0
 71
     1
 72
     1
  1
40880 Ratingen
  7
SLDTEXTSTYLE0
 73
     1
 44
1.0
  0
MTEXT
  5
142
330
13B
100
AcDbEntity
  8
INFTEXT63
 62
     0
100
AcDbMText
 10
0.0
 20
-13.7488720278
 30
0.0
 40
3.5
 41
0.0
 71
     1
 72
     1
  1
Deutschland
  7
SLDTEXTSTYLE0
 73
     1
 44
1.0
  0
ENDBLK
  5
13D
330
13B
100
AcDbEntity
  8
0
100
AcDbBlockEnd
  0
BLOCK
  5
145
330
144
100
AcDbEntity
  8
0
100
AcDbBlockBegin
  2
SW_NOTE_1
 70
     0
 10
0.0
 20
0.0
 30
0.0
  3
SW_NOTE_1
  1

  0
MTEXT
  5
147
330
144
100
AcDbEntity
  8
INFTEXT63
 62
     0
100
AcDbMText
 10
0.0
 20
4.6066838046
 30
0.0
 40
3.5
 41
0.0
 71
     1
 72
     1
  1
Copyright
  7
SLDTEXTSTYLE0
 73
     1
 44
1.0
  0
MTEXT
  5
148
330
144
100
AcDbEntity
  8
INFTEXT63
 62
     0
100
AcDbMText
 10
0.0
 20
-4.5710941116
 30
0.0
 40
3.5
 41
0.0
 71
     1
 72
     1
  1
Zeichnung nach DIN SPEC 69874 konvertiert mit SolidBMG Version 1.2
  7
SLDTEXTSTYLE0
 73
     1
 44
1.0
  0
MTEXT
  5
149
330
144
100
AcDbEntity
  8
INFTEXT63
 62
     0
100
AcDbMText
 10
0.0
 20
-9.1599830697
 30
0.0
 40
3.5
 41
0.0
 71
     1
 72
     1
  1
Geprüft mit DWPTools V1.0.6-BMG Werkzeug / Schneidwerkzeug
  7
SLDTEXTSTYLE0
 73
     1
 44
1.0
  0
ENDBLK
  5
146
330
144
100
AcDbEntity
  8
0
100
AcDbBlockEnd
  0
ENDSEC
  0
SECTION
  2
ENTITIES
  0
LINE
  5
58
330
1F
100
AcDbEntity
  8
SK1
  6
Continuous
370
    15
100
AcDbLine
 10
-40.0
 20
-5.0
 30
0.0
 11
-2.0
 21
-5.0
 31
0.0
  0
LINE
  5
59
330
1F
100
AcDbEntity
  8
SK1
  6
Continuous
370
    15
100
AcDbLine
 10
-2.0
 20
5.0
 30
0.0
 11
-40.0
 21
5.0
 31
0.0
  0
LINE
  5
5A
330
1F
100
AcDbEntity
  8
SK1
  6
Continuous
370
    15
100
AcDbLine
 10
-2.0
 20
-4.6
 30
0.0
 11
0.0
 21
-4.6
 31
0.0
  0
LINE
  5
5B
330
1F
100
AcDbEntity
  8
SK1
  6
Continuous
370
    15
100
AcDbLine
 10
0.0
 20
4.6
 30
0.0
 11
-2.0
 21
4.6
 31
0.0
  0
SPLINE
  5
5C
330
1F
100
AcDbEntity
  8
1
  6
Continuous
370
    15
100
AcDbSpline
210
0.0
220
0.0
230
1.0
 70
     8
 71
     3
 72
    17
 73
    13
 74
     0
 42
0.00000001
 43
0.00000001
 40
0.0
 40
0.0
 40
0.0
 40
0.0
 40
0.0343846270057377
 40
0.0842409360235555
 40
0.1394951912972644
 40
0.2352364264733251
 40
0.3271676218166468
 40
0.4186083701488476
 40
0.5146036437085824
 40
0.6460687862044437
 40
0.814923862340524
 40
0.9999999999999999
 40
0.9999999999999999
 40
0.9999999999999999
 40
0.9999999999999999
 10
17.76467960854657
 20
2.828944006441368
 30
0.0
 10
17.76497513697084
 20
2.830602712493733
 30
0.0
 10
17.7656991695764
 20
2.834666474779589
 30
0.0
 10
17.68826286593896
 20
2.850650782260557
 30
0.0
 10
17.51828969848557
 20
2.885945557038374
 30
0.0
 10
17.25909536931614
 20
2.944414225446203
 30
0.0
 10
16.97692390820292
 20
3.015797153738373
 30
0.0
 10
16.69169340451294
 20
3.094689541059683
 30
0.0
 10
16.36921971664223
 20
3.191854986245086
 30
0.0
 10
15.97114744805054
 20
3.323742569514775
 30
0.0
 10
15.485875637759
 20
3.500853302362432
 30
0.0
 10
15.1343000448219
 20
3.649569473193975
 30
0.0
 10
14.95045569795476
 20
3.727335472439547
 30
0.0
  0
LINE
  5
5D
330
1F
100
AcDbEntity
  8
1
  6
Continuous
370
    15
100
AcDbLine
 10
19.9174371733
 20
-5.0
 30
0.0
 11
21.324222458
 21
-5.0
 31
0.0
  0
LINE
  5
5E
330
1F
100
AcDbEntity
  8
1
  6
Continuous
370
    15
100
AcDbLine
 10
21.324222458
 20
5.0
 30
0.0
 11
19.9174371733
 21
5.0
 31
0.0
  0
LINE
  5
5F
330
1F
100
AcDbEntity
  8
1
  6
Continuous
370
    15
100
AcDbLine
 10
9.4107651653
 20
5.0
 30
0.0
 11
8.0
 21
5.0
 31
0.0
  0
SPLINE
  5
60
330
1F
100
AcDbEntity
  8
1
  6
Continuous
370
    15
100
AcDbSpline
210
0.0
220
0.0
230
1.0
 70
     8
 71
     3
 72
    14
 73
    10
 74
     0
 42
0.00000001
 43
0.00000001
 40
0.0
 40
0.0
 40
0.0
 40
0.0
 40
0.060991807561714
 40
0.1624189345002029
 40
0.2744751719599569
 40
0.3931666854247402
 40
0.5566365343460536
 40
0.7664945734958737
 40
1.0
 40
1.0
 40
1.0
 40
1.0
 10
29.29553421002375
 20
2.919431004950233
 30
0.0
 10
29.24537339976133
 20
2.930761560577844
 30
0.0
 10
29.11179701168253
 20
2.96093441240667
 30
0.0
 10
28.88684043449254
 20
3.018268039988579
 30
0.0
 10
28.61562621512398
 20
3.092350065205797
 30
0.0
 10
28.29446714416354
 20
3.187899595854412
 30
0.0
 10
27.89212508002736
 20
3.319317705561588
 30
0.0
 10
27.39616940043642
 20
3.497034843370786
 30
0.0
 10
27.03507892924825
 20
3.649401706775751
 30
0.0
 10
26.84490407044024
 20
3.729648484376145
 30
0.0
  0
LINE
  5
61
330
1F
100
AcDbEntity
  8
1
  6
Continuous
370
    15
100
AcDbLine
 10
8.0
 20
-5.0
 30
0.0
 11
9.4107651653
 21
-5.0
 31
0.0
  0
LINE
  5
62
330
1F
100
AcDbEntity
  8
1
  6
Continuous
370
    15
100
AcDbLine
 10
0.0
 20
-4.6
 30
0.0
 11
5.4380291987
 21
-4.6
 31
0.0
  0
LINE
  5
63
330
1F
100
AcDbEntity
  8
1
  6
Continuous
370
    15
100
AcDbLine
 10
5.4380291987
 20
4.6
 30
0.0
 11
0.0
 21
4.6
 31
0.0
  0
LINE
  5
64
330
1F
100
AcDbEntity
  8
SK1
  6
Continuous
370
    15
100
AcDbLine
 10
-2.0
 20
0.0
 30
0.0
 11
-2.0
 21
5.0
 31
0.0
  0
LINE
  5
65
330
1F
100
AcDbEntity
  8
SK1
  6
Continuous
370
    15
100
AcDbLine
 10
-2.0
 20
-5.0
 30
0.0
 11
-2.0
 21
0.0
 31
0.0
  0
LINE
  5
66
330
1F
100
AcDbEntity
  8
SK1
  6
Continuous
370
    15
100
AcDbLine
 10
-40.0
 20
0.0
 30
0.0
 11
-40.0
 21
5.0
 31
0.0
  0
LINE
  5
67
330
1F
100
AcDbEntity
  8
SK1
  6
Continuous
370
    15
100
AcDbLine
 10
-40.0
 20
-5.0
 30
0.0
 11
-40.0
 21
0.0
 31
0.0
  0
LINE
  5
68
330
1F
100
AcDbEntity
  8
SK1
  6
Continuous
370
    15
100
AcDbLine
 10
0.0
 20
4.6
 30
0.0
 11
0.0
 21
-4.6
 31
0.0
  0
LINE
  5
69
330
1F
100
AcDbEntity
  8
1
  6
Continuous
370
    15
100
AcDbLine
 10
8.0
 20
4.605184375
 30
0.0
 11
8.0
 21
5.0
 31
0.0
  0
SPLINE
  5
6A
330
1F
100
AcDbEntity
  8
1
  6
Continuous
370
    15
100
AcDbSpline
210
0.0
220
0.0
230
1.0
 70
     8
 71
     3
 72
    32
 73
    28
 74
     0
 42
0.00000001
 43
0.00000001
 40
0.0
 40
0.0
 40
0.0
 40
0.0
 40
0.0625
 40
0.0625
 40
0.1250000000000001
 40
0.1250000000000001
 40
0.2500000000000002
 40
0.2500000000000002
 40
0.3125000000000002
 40
0.3125000000000002
 40
0.3750000000000001
 40
0.3750000000000001
 40
0.4375000000000001
 40
0.4375000000000001
 40
0.5000000000000001
 40
0.5000000000000001
 40
0.6250000000000001
 40
0.6250000000000001
 40
0.6875000000000001
 40
0.6875000000000001
 40
0.75
 40
0.75
 40
0.875
 40
0.875
 40
0.9375
 40
0.9375
 40
1.0
 40
1.0
 40
1.0
 40
1.0
 10
8.000000000000007
 20
5.000000000000016
 30
0.0
 10
8.461864575454744
 20
5.000000000000011
 30
0.0
 10
8.922054463733062
 20
4.972223425805526
 30
0.0
 10
9.843687160313353
 20
4.86210837193028
 30
0.0
 10
10.30608116422758
 20
4.779373170893337
 30
0.0
 10
11.68272013544953
 20
4.456061520259655
 30
0.0
 10
12.59217818241641
 20
4.14012965731319
 30
0.0
 10
13.97108916368853
 20
3.536495485699929
 30
0.0
 10
14.43386782584687
 20
3.313115801035742
 30
0.0
 10
15.34979826617259
 20
2.837161316527222
 30
0.0
 10
15.80531174916662
 20
2.583614918138518
 30
0.0
 10
16.71601393055789
 20
2.051765787521521
 30
0.0
 10
17.17121222556651
 20
1.773479893612707
 30
0.0
 10
18.08567430667016
 20
1.198148195169739
 30
0.0
 10
18.54714702253948
 20
0.899563643097652
 30
0.0
 10
19.92806106089744
 20
-0.004092693510416
 30
0.0
 10
20.83538127513865
 20
-0.6105243224926679
 30
0.0
 10
22.20299102311129
 20
-1.485832750368903
 30
0.0
 10
22.65995323776227
 20
-1.771889732560486
 30
0.0
 10
23.58073770741922
 20
-2.325407527655641
 30
0.0
 10
24.04214820329021
 20
-2.591257220827263
 30
0.0
 10
25.41362563098635
 20
-3.335244219692215
 30
0.0
 10
26.31981726979728
 20
-3.765143692553005
 30
0.0
 10
27.69375705382088
 20
-4.280987336274126
 30
0.0
 10
28.15592773137322
 20
-4.431856551753383
 30
0.0
 10
29.07784489066656
 20
-4.681945283467096
 30
0.0
 10
29.53811105400399
 20
-4.781558524981745
 30
0.0
 10
30.00000000000001
 20
-4.854455878755164
 30
0.0
  0
SPLINE
  5
6B
330
1F
100
AcDbEntity
  8
1
  6
Continuous
370
    15
100
AcDbSpline
210
0.0
220
0.0
230
1.0
 70
     8
 71
     3
 72
    24
 73
    20
 74
     0
 42
0.00000001
 43
0.00000001
 40
0.0
 40
0.0
 40
0.0
 40
0.0
 40
0.0441484717864201
 40
0.106077907508434
 40
0.1680103592052329
 40
0.2317534168253838
 40
0.2954961869285979
 40
0.3575280573405041
 40
0.4195580354733138
 40
0.4833440889644806
 40
0.5471285955343249
 40
0.6093763419842236
 40
0.6716278410190095
 40
0.7357147412848879
 40
0.7998016249027096
 40
0.8494073323387498
 40
0.8990109219463744
 40
0.9495036906026424
 40
1.0
 40
1.0
 40
1.0
 40
1.0
 10
26.58172137089877
 20
-3.839371403237525
 30
0.0
 10
26.30805585251143
 20
-3.951923296647571
 30
0.0
 10
25.65050499348782
 20
-4.222357784092781
 30
0.0
 10
24.61244447197186
 20
-4.553534694478945
 30
0.0
 10
23.44390325509196
 20
-4.821807288737559
 30
0.0
 10
22.277981017075
 20
-4.979676814493768
 30
0.0
 10
21.10463098695136
 20
-5.017795043163352
 30
0.0
 10
19.93566953056646
 20
-4.936539755793446
 30
0.0
 10
18.77908706674069
 20
-4.738463227084244
 30
0.0
 10
17.60020972067627
 20
-4.430070382543664
 30
0.0
 10
16.42334379199445
 20
-4.01269955633332
 30
0.0
 10
15.26130694096997
 20
-3.498571464584014
 30
0.0
 10
14.0864102208688
 20
-2.914169342685236
 30
0.0
 10
12.91116451907459
 20
-2.239967635898787
 30
0.0
 10
11.81150252820349
 20
-1.563224546301255
 30
0.0
 10
10.79524471838368
 20
-0.9226429216057228
 30
0.0
 10
9.873775374362857
 20
-0.3069187508018029
 30
0.0
 10
8.943953972961665
 20
0.3140750487149949
 30
0.0
 10
8.31465867881786
 20
0.7160974822711274
 30
0.0
 10
8.000000000000007
 20
0.9171157466298672
 30
0.0
  0
SPLINE
  5
6C
330
1F
100
AcDbEntity
  8
1
  6
Continuous
370
    15
100
AcDbSpline
210
0.0
220
0.0
230
1.0
 70
    24
 71
     3
 72
     8
 73
     4
 74
     0
 42
0.00000001
 43
0.00000001
 40
0.0
 40
0.0
 40
0.0
 40
0.0
 40
1.0
 40
1.0
 40
1.0
 40
1.0
 10
8.00000000000001
 20
0.9171157466298681
 30
0.0
 10
8.00000000000001
 20
1.040861035663087
 30
0.0
 10
8.000000000000007
 20
1.158900006503707
 30
0.0
 10
8.000000000000007
 20
1.271045549138341
 30
0.0
  0
SPLINE
  5
6D
330
1F
100
AcDbEntity
  8
1
  6
Continuous
370
    15
100
AcDbSpline
210
0.0
220
0.0
230
1.0
 70
    24
 71
     3
 72
    26
 73
    22
 74
     0
 42
0.00000001
 43
0.00000001
 40
0.0
 40
0.0
 40
0.0
 40
0.0
 40
0.2500000000000001
 40
0.2500000000000001
 40
0.5000000000000001
 40
0.5000000000000001
 40
0.6250000000000001
 40
0.6250000000000001
 40
0.6562500000000001
 40
0.6562500000000001
 40
0.6875000000000001
 40
0.6875000000000001
 40
0.75
 40
0.75
 40
0.8125000000000001
 40
0.8125000000000001
 40
0.8750000000000001
 40
0.8750000000000001
 40
0.9375000000000001
 40
0.9375000000000001
 40
1.0
 40
1.0
 40
1.0
 40
1.0
 10
8.000000000000004
 20
1.271045549150474
 30
0.0
 10
8.000000000000005
 20
1.520033553333242
 30
0.0
 10
8.000000000000012
 20
1.740379891591647
 30
0.0
 10
8.000000000000009
 20
2.110845527583773
 30
0.0
 10
8.000000000000005
 20
2.262135069705703
 30
0.0
 10
8.000000000000007
 20
2.43135269974869
 30
0.0
 10
8.000000000000005
 20
2.478349272052776
 30
0.0
 10
8.000000000000004
 20
2.525210180542784
 30
0.0
 10
8.000000000000002
 20
2.532879656340586
 30
0.0
 10
8.000000000000002
 20
2.555823579384321
 30
0.0
 10
7.999999999999995
 20
2.570348352053237
 30
0.0
 10
7.999999999999995
 20
2.622418053388764
 30
0.0
 10
8.000000000000009
 20
2.668948914851706
 30
0.0
 10
8.00000000000001
 20
2.781838959098206
 30
0.0
 10
8.000000000000007
 20
2.847764501272164
 30
0.0
 10
8.000000000000007
 20
3.001359785029645
 30
0.0
 10
7.999999999998626
 20
3.087880361319723
 30
0.0
 10
7.999999999998622
 20
3.274717218764338
 30
0.0
 10
8.000000000000039
 20
3.377764283118466
 30
0.0
 10
8.000000000000037
 20
3.590633853214833
 30
0.0
 10
8.000000000000009
 20
3.700196230558294
 30
0.0
 10
8.00000000000001
 20
3.813531150959222
 30
0.0
  0
LINE
  5
6E
330
1F
100
AcDbEntity
  8
1
  6
Continuous
370
    15
100
AcDbLine
 10
8.0
 20
3.8125
 30
0.0
 11
8.0
 21
4.6
 31
0.0
  0
SPLINE
  5
6F
330
1F
100
AcDbEntity
  8
1
  6
Continuous
370
    15
100
AcDbSpline
210
0.0
220
0.0
230
1.0
 70
     8
 71
     3
 72
    21
 73
    17
 74
     0
 42
0.00000001
 43
0.00000001
 40
0.0
 40
0.0
 40
0.0
 40
0.0
 40
0.0346845809473892
 40
0.109812891996584
 40
0.1871111079189166
 40
0.2644093160116089
 40
0.3396784775781966
 40
0.414947665006244
 40
0.492399821506278
 40
0.5698519837933973
 40
0.6451210961981442
 40
0.7203901801705802
 40
0.797841604025237
 40
0.8752930260552264
 40
0.937496739985273
 40
1.0
 40
1.0
 40
1.0
 40
1.0
 10
14.65818692604839
 20
3.834932174901299
 30
0.0
 10
14.83556357367197
 20
3.911974659229761
 30
0.0
 10
15.39714575561469
 20
4.155894515823761
 30
0.0
 10
16.35397129490016
 20
4.473226620068785
 30
0.0
 10
17.52884922159118
 20
4.774121001100655
 30
0.0
 10
18.70442207938771
 20
4.955787909296313
 30
0.0
 10
19.86951798552583
 20
5.018944382134543
 30
0.0
 10
21.03549440170412
 20
4.965692862024093
 30
0.0
 10
22.21258102081228
 20
4.79214689839927
 30
0.0
 10
23.38968356614392
 20
4.503458474855774
 30
0.0
 10
24.55565698019481
 20
4.110004697455202
 30
0.0
 10
25.72153399809994
 20
3.621364015025923
 30
0.0
 10
26.89866486313785
 20
3.040760932483801
 30
0.0
 10
28.00904491452966
 20
2.423685485733458
 30
0.0
 10
29.04266048361667
 20
1.804535546744871
 30
0.0
 10
29.68037623024486
 20
1.400238996160166
 30
0.0
 10
30.00000000000002
 20
1.197605160818738
 30
0.0
  0
LINE
  5
70
330
1F
100
AcDbEntity
  8
1
  6
Continuous
370
    15
100
AcDbLine
 10
30.0
 20
1.1976051608
 30
0.0
 11
30.0
 21
0.9568265954
 31
0.0
  0
SPLINE
  5
71
330
1F
100
AcDbEntity
  8
1
  6
Continuous
370
    15
100
AcDbSpline
210
0.0
220
0.0
230
1.0
 70
     8
 71
     3
 72
    12
 73
     8
 74
     0
 42
0.00000001
 43
0.00000001
 40
0.0
 40
0.0
 40
0.0
 40
0.0
 40
0.2499999999999997
 40
0.2499999999999997
 40
0.4999999999999993
 40
0.4999999999999993
 40
1.0
 40
1.0
 40
1.0
 40
1.0
 10
30.00000000000001
 20
0.9568265954261149
 30
0.0
 10
29.99942241917575
 20
0.9411936024855607
 30
0.0
 10
29.99884407677342
 20
0.9261632584991857
 30
0.0
 10
29.99769067858568
 20
0.8935025274087197
 30
0.0
 10
29.99712138532719
 20
0.8712077054305742
 30
0.0
 10
29.99543598172812
 20
0.7883212297200555
 30
0.0
 10
29.99432084400004
 20
0.7097979021698453
 30
0.0
 10
29.99334330137034
 20
0.6175835380554058
 30
0.0
  0
SPLINE
  5
72
330
1F
100
AcDbEntity
  8
1
  6
Continuous
370
    15
100
AcDbSpline
210
0.0
220
0.0
230
1.0
 70
     8
 71
     3
 72
    10
 73
     6
 74
     0
 42
0.00000001
 43
0.00000001
 40
0.0
 40
0.0
 40
0.0
 40
0.0
 40
0.5
 40
0.5
 40
1.0
 40
1.0
 40
1.0
 40
1.0
 10
29.99334330137091
 20
0.6175835380529229
 30
0.0
 10
29.85027689470422
 20
0.6302829989809422
 30
0.0
 10
29.70229058075442
 20
0.6461268331281484
 30
0.0
 10
29.40595697189806
 20
0.6804249385796729
 30
0.0
 10
29.25657559087706
 20
0.6990169778809833
 30
0.0
 10
29.10649564881541
 20
0.718438947719344
 30
0.0
  0
SPLINE
  5
73
330
1F
100
AcDbEntity
  8
1
  6
Continuous
370
    15
100
AcDbSpline
210
0.0
220
0.0
230
1.0
 70
     8
 71
     3
 72
    20
 73
    16
 74
     0
 42
0.00000001
 43
0.00000001
 40
0.0
 40
0.0
 40
0.0
 40
0.0
 40
0.125
 40
0.125
 40
0.1875
 40
0.1875
 40
0.2187500000000001
 40
0.2187500000000001
 40
0.2500000000000001
 40
0.2500000000000001
 40
0.5000000000000001
 40
0.5000000000000001
 40
0.7500000000000001
 40
0.7500000000000001
 40
1.0
 40
1.0
 40
1.0
 40
1.0
 10
29.10649564881541
 20
0.7184389477193704
 30
0.0
 10
29.14819960330813
 20
0.5156279703887667
 30
0.0
 10
29.17947649600156
 20
0.2988489022850313
 30
0.0
 10
29.20896061224108
 20
-0.0362237702009943
 30
0.0
 10
29.21559518722242
 20
-0.1473982650252727
 30
0.0
 10
29.21956920481823
 20
-0.3131933655722928
 30
0.0
 10
29.22029806625577
 20
-0.3683621686598442
 30
0.0
 10
29.22279968464166
 20
-0.478862801550928
 30
0.0
 10
29.22424012979954
 20
-0.5341416416342416
 30
0.0
 10
29.23900850321802
 20
-1.031922601908298
 30
0.0
 10
29.2648329982384
 20
-1.476304363146142
 30
0.0
 10
29.34503719943272
 20
-2.369362949060014
 30
0.0
 10
29.39875094498131
 20
-2.808896841948901
 30
0.0
 10
29.5320257972423
 20
-3.661732787132274
 30
0.0
 10
29.61213824113418
 20
-4.077486310967117
 30
0.0
 10
29.70262055360494
 20
-4.470051940391919
 30
0.0
  0
SPLINE
  5
74
330
1F
100
AcDbEntity
  8
1
  6
Continuous
370
    15
100
AcDbSpline
210
0.0
220
0.0
230
1.0
 70
     8
 71
     3
 72
    26
 73
    22
 74
     0
 42
0.00000001
 43
0.00000001
 40
0.0
 40
0.0
 40
0.0
 40
0.0
 40
0.0480840416643497
 40
0.0961680705135973
 40
0.1452375766297716
 40
0.1943047314925049
 40
0.2509983743908134
 40
0.3076947782798455
 40
0.3660487113301071
 40
0.4244023811714068
 40
0.4811897984704516
 40
0.5379754834721802
 40
0.5963687773292131
 40
0.6547606550486045
 40
0.7117456972550982
 40
0.7687341747860879
 40
0.8274028804792535
 40
0.886071570931866
 40
0.9314833889200104
 40
0.9768932681304797
 40
1.0
 40
1.0
 40
1.0
 40
1.0
 10
29.70262055360494
 20
-4.470051940391922
 30
0.0
 10
29.37819380245459
 20
-4.366028097045871
 30
0.0
 10
28.72934038661835
 20
-4.157980438077648
 30
0.0
 10
27.75182121276946
 20
-3.751940728448001
 30
0.0
 10
26.75624299518044
 20
-3.296387103489171
 30
0.0
 10
25.70931652950822
 20
-2.745357773962936
 30
0.0
 10
24.61232432281419
 20
-2.108323651866789
 30
0.0
 10
23.44393650131233
 20
-1.398309482929778
 30
0.0
 10
22.27797199195017
 20
-0.627840910767486
 30
0.0
 10
21.10463333465366
 20
0.1480436584351941
 30
0.0
 10
19.93566890307785
 20
0.9038640403782785
 30
0.0
 10
18.77908726392646
 20
1.657677426035064
 30
0.0
 10
17.60020957557262
 20
2.362778469148508
 30
0.0
 10
16.4233441678833
 20
3.016404293632922
 30
0.0
 10
15.2613056166866
 20
3.599059796582285
 30
0.0
 10
14.08641521792836
 20
4.087761633153661
 30
0.0
 10
12.91114525880311
 20
4.491688594754017
 30
0.0
 10
11.81156747896609
 20
4.767372410790518
 30
0.0
 10
10.79506241395691
 20
4.924035237261124
 30
0.0
 10
10.02975483961216
 20
4.997870861993783
 30
0.0
 10
9.56686979947989
 20
4.992271880483896
 30
0.0
 10
9.410765165287437
 20
4.990383664437421
 30
0.0
  0
SPLINE
  5
75
330
1F
100
AcDbEntity
  8
1
  6
Continuous
370
    15
100
AcDbSpline
210
0.0
220
0.0
230
1.0
 70
     8
 71
     3
 72
    19
 73
    15
 74
     0
 42
0.00000001
 43
0.00000001
 40
0.0
 40
0.0
 40
0.0
 40
0.0
 40
0.0836203044755364
 40
0.1676799926496603
 40
0.251519640905442
 40
0.3353592967612308
 40
0.4210037760461532
 40
0.5066482620610774
 40
0.6033611468063673
 40
0.7000740091002083
 40
0.7995801953521661
 40
0.8990863715250084
 40
0.9959805510413773
 40
1.0
 40
1.0
 40
1.0
 40
1.0
 10
8.000000000000007
 20
-0.0000000000000353
 30
0.0
 10
8.33216627651299
 20
-0.2189010807183316
 30
0.0
 10
8.998244200451389
 20
-0.6578534600006262
 30
0.0
 10
9.997291962234119
 20
-1.305042922607668
 30
0.0
 10
10.99733130361155
 20
-1.929851071784174
 30
0.0
 10
12.00367765599588
 20
-2.525133916882857
 30
0.0
 10
13.01709226885533
 20
-3.079773930685907
 30
0.0
 10
14.08164542887255
 20
-3.604663082334756
 30
0.0
 10
15.19033312182011
 20
-4.075966431956874
 30
0.0
 10
16.35397051102893
 20
-4.475807219482982
 30
0.0
 10
17.52884863906825
 20
-4.775565920646327
 30
0.0
 10
18.70442516289166
 20
-4.94750279372712
 30
0.0
 10
19.50057147531594
 20
-5.017348127077959
 30
0.0
 10
19.90146918264913
 20
-4.998289572713555
 30
0.0
 10
19.91743717326255
 20
-4.997530459324705
 30
0.0
  0
SPLINE
  5
76
330
1F
100
AcDbEntity
  8
1
  6
Continuous
370
    15
100
AcDbSpline
210
0.0
220
0.0
230
1.0
 70
     8
 71
     3
 72
    12
 73
     8
 74
     0
 42
0.00000001
 43
0.00000001
 40
0.0
 40
0.0
 40
0.0
 40
0.0
 40
0.2500000000000003
 40
0.2500000000000003
 40
0.5000000000000007
 40
0.5000000000000007
 40
1.0
 40
1.0
 40
1.0
 40
1.0
 10
30.0
 20
-0.9568265954257033
 30
0.0
 10
29.99942241917573
 20
-0.9411936024851828
 30
0.0
 10
29.99884407677341
 20
-0.9261632584989055
 30
0.0
 10
29.99769067858569
 20
-0.8935025274083511
 30
0.0
 10
29.9971213853272
 20
-0.871207705430192
 30
0.0
 10
29.99543598172813
 20
-0.7883212297197271
 30
0.0
 10
29.99432084400001
 20
-0.7097979021696739
 30
0.0
 10
29.99334330137032
 20
-0.6175835380554349
 30
0.0
  0
SPLINE
  5
77
330
1F
100
AcDbEntity
  8
1
  6
Continuous
370
    15
100
AcDbSpline
210
0.0
220
0.0
230
1.0
 70
     8
 71
     3
 72
    14
 73
    10
 74
     0
 42
0.00000001
 43
0.00000001
 40
0.0
 40
0.0
 40
0.0
 40
0.0
 40
0.0836551943480531
 40
0.2624940409505909
 40
0.4413328410956026
 40
0.5797609358553317
 40
0.7181831206710946
 40
0.8590866199963411
 40
1.0
 40
1.0
 40
1.0
 40
1.0
 10
14.65818692604839
 20
-3.834932174901299
 30
0.0
 10
14.4718632211963
 20
-3.914785819014134
 30
0.0
 10
13.8872149803707
 20
-4.165351320548905
 30
0.0
 10
12.9111687862562
 20
-4.488780317390877
 30
0.0
 10
11.81150166855605
 20
-4.767065660693418
 30
0.0
 10
10.7952449232696
 20
-4.92654678387919
 30
0.0
 10
9.873775318670663
 20
-5.002789244347129
 30
0.0
 10
8.94395398700279
 20
-5.006122384776907
 30
0.0
 10
8.314658683498335
 20
-4.945488345073325
 30
0.0
 10
8.000000000000007
 20
-4.915170262287602
 30
0.0
  0
SPLINE
  5
78
330
1F
100
AcDbEntity
  8
1
  6
Continuous
370
    15
100
AcDbSpline
210
0.0
220
0.0
230
1.0
 70
    24
 71
     3
 72
     8
 73
     4
 74
     0
 42
0.00000001
 43
0.00000001
 40
0.0
 40
0.0
 40
0.0
 40
0.0
 40
1.0
 40
1.0
 40
1.0
 40
1.0
 10
8.000000000000004
 20
-4.915170262287607
 30
0.0
 10
8.000000000000004
 20
-4.754338576756604
 30
0.0
 10
8.000000000000012
 20
-4.589628359677566
 30
0.0
 10
8.000000000000012
 20
-4.420909771978176
 30
0.0
  0
SPLINE
  5
79
330
1F
100
AcDbEntity
  8
1
  6
Continuous
370
    15
100
AcDbSpline
210
0.0
220
0.0
230
1.0
 70
    24
 71
     3
 72
    24
 73
    20
 74
     0
 42
0.00000001
 43
0.00000001
 40
0.0
 40
0.0
 40
0.0
 40
0.0
 40
0.0625000000000001
 40
0.0625000000000001
 40
0.1250000000000003
 40
0.1250000000000003
 40
0.2500000000000006
 40
0.2500000000000006
 40
0.3125000000000007
 40
0.3125000000000007
 40
0.3437500000000007
 40
0.3437500000000007
 40
0.3750000000000007
 40
0.3750000000000007
 40
0.5000000000000006
 40
0.5000000000000006
 40
0.7500000000000003
 40
0.7500000000000003
 40
1.0
 40
1.0
 40
1.0
 40
1.0
 10
8.00000000000001
 20
-0.0000000000000249
 30
0.0
 10
8.00000000000001
 20
-0.0000000000000239
 30
0.0
 10
8.000000000000002
 20
-0.0183949765760492
 30
0.0
 10
8.0
 20
-0.0864508981268538
 30
0.0
 10
8.000000000000007
 20
-0.1347814830530009
 30
0.0
 10
8.000000000000004
 20
-0.3183340726112642
 30
0.0
 10
8.000000000000021
 20
-0.4903119364504073
 30
0.0
 10
8.000000000000025
 20
-0.7821778630537045
 30
0.0
 10
7.999999999999998
 20
-0.8859716470405802
 30
0.0
 10
7.999999999999995
 20
-1.047296196494633
 30
0.0
 10
8.000000000000005
 20
-1.10173528665246
 30
0.0
 10
8.000000000000005
 20
-1.212008822962537
 30
0.0
 10
8.000000000000014
 20
-1.267894674477248
 30
0.0
 10
8.000000000000014
 20
-1.545271281140265
 30
0.0
 10
8.000000000000007
 20
-1.765129645500748
 30
0.0
 10
8.000000000000007
 20
-2.418006598768257
 30
0.0
 10
8.000000000000007
 20
-2.842447309166687
 30
0.0
 10
8.000000000000007
 20
-3.655299837336297
 30
0.0
 10
8.000000000000007
 20
-4.046613080015438
 30
0.0
 10
8.000000000000007
 20
-4.420909771978184
 30
0.0
  0
ELLIPSE
  5
7A
330
1F
100
AcDbEntity
  8
1
  6
Continuous
370
    15
100
AcDbEllipse
 10
30.05
 20
0.0
 30
0.0
 11
1.534620511230973
 21
4.99888238349429
 31
0.0
210
0.0
220
0.0
230
1.0
 40
0.0688844404
 41
4.446048519972415
 42
4.459864138307305
  0
LINE
  5
7B
330
1F
100
AcDbEntity
  8
1
  6
Continuous
370
    15
100
AcDbLine
 10
8.0
 20
0.0
 30
0.0
 11
8.0
 21
0.9171157466
 31
0.0
  0
LINE
  5
7C
330
1F
100
AcDbEntity
  8
1
  6
Continuous
370
    15
100
AcDbLine
 10
30.0
 20
1.1976051608
 30
0.0
 11
30.0
 21
1.3513271604
 31
0.0
  0
SPLINE
  5
7D
330
1F
100
AcDbEntity
  8
1
  6
Continuous
370
    15
100
AcDbSpline
210
0.0
220
0.0
230
1.0
 70
     8
 71
     3
 72
    15
 73
    11
 74
     0
 42
0.00000001
 43
0.00000001
 40
0.0
 40
0.0
 40
0.0
 40
0.0
 40
0.116425209022875
 40
0.232850387016724
 40
0.3516616871587391
 40
0.4704672942441012
 40
0.6077388087895493
 40
0.74501700848272
 40
0.886308560056898
 40
1.0
 40
1.0
 40
1.0
 40
1.0
 10
29.70262055360182
 20
2.240231160001023
 30
0.0
 10
29.37819384121434
 20
2.429384066986884
 30
0.0
 10
28.72934050290386
 20
2.807689830546581
 30
0.0
 10
27.75182074364387
 20
3.324796218545772
 30
0.0
 10
26.75624479465344
 20
3.779073415337943
 30
0.0
 10
25.70930937531853
 20
4.198813601432557
 30
0.0
 10
24.61235568194317
 20
4.555478725573267
 30
0.0
 10
23.44381858009194
 20
4.819226031748913
 30
0.0
 10
22.35503314484271
 20
4.977163196386013
 30
0.0
 10
21.64210279168557
 20
4.986189634375541
 30
0.0
 10
21.32422245799246
 20
4.990214329224717
 30
0.0
  0
ELLIPSE
  5
7E
330
1F
100
AcDbEntity
  8
1
  6
Continuous
370
    15
100
AcDbEllipse
 10
30.05
 20
0.0
 30
0.0
 11
-1.534620511230983
 21
4.998882383494304
 31
0.0
210
0.0
220
0.0
230
1.0
 40
0.0688844404
 41
4.964913822462098
 42
5.155823851732084
  0
LINE
  5
7F
330
1F
100
AcDbEntity
  8
1
  6
Continuous
370
    15
100
AcDbLine
 10
30.0
 20
-4.8544558788
 30
0.0
 11
30.0
 21
-4.8139292585
 31
0.0
  0
ELLIPSE
  5
80
330
1F
100
AcDbEntity
  8
1
  6
Continuous
370
    15
100
AcDbEllipse
 10
30.05
 20
0.0
 30
0.0
 11
-0.4150660931816503
 21
4.998412833058021
 31
0.0
210
0.0
220
0.0
230
0.9999999999999999
 40
0.303500618
 41
2.651816682432778
 42
2.842726711700702
  0
SPLINE
  5
81
330
1F
100
AcDbEntity
  8
1
  6
Continuous
370
    15
100
AcDbSpline
210
0.0
220
0.0
230
1.0
 70
     8
 71
     3
 72
    11
 73
     7
 74
     0
 42
0.00000001
 43
0.00000001
 40
0.0
 40
0.0
 40
0.0
 40
0.0
 40
0.0927165653859381
 40
0.4403172270164627
 40
0.7194864346476284
 40
1.0
 40
1.0
 40
1.0
 40
1.0
 10
26.5817213708984
 20
3.839371403237175
 30
0.0
 10
26.68737256422872
 20
3.886484373424695
 30
0.0
 10
27.18911721238885
 20
4.110227048782943
 30
0.0
 10
28.00904805102259
 20
4.387571505981566
 30
0.0
 10
29.04265976812349
 20
4.681774576768969
 30
0.0
 10
29.68037599136551
 20
4.796803345079787
 30
0.0
 10
30.00000000000002
 20
4.854455878755159
 30
0.0
  0
LINE
  5
82
330
1F
100
AcDbEntity
  8
1
  6
Continuous
370
    15
100
AcDbLine
 10
30.0
 20
4.8544558788
 30
0.0
 11
30.0
 21
3.8838747233
 31
0.0
  0
SPLINE
  5
83
330
1F
100
AcDbEntity
  8
1
  6
Continuous
370
    15
100
AcDbSpline
210
0.0
220
0.0
230
1.0
 70
     8
 71
     3
 72
    12
 73
     8
 74
     0
 42
0.00000001
 43
0.00000001
 40
0.0
 40
0.0
 40
0.0
 40
0.0
 40
0.2500000000000001
 40
0.2500000000000001
 40
0.5000000000000001
 40
0.5000000000000001
 40
1.0
 40
1.0
 40
1.0
 40
1.0
 10
30.00000000000001
 20
3.883874723300532
 30
0.0
 10
29.99942241917575
 20
3.819562977336963
 30
0.0
 10
29.99884407677342
 20
3.755012776181927
 30
0.0
 10
29.99769067858569
 20
3.626941154839849
 30
0.0
 10
29.99712138532722
 20
3.565265352141644
 30
0.0
 10
29.99543598172814
 20
3.386569573208875
 30
0.0
 10
29.99432084400003
 20
3.273951488216515
 30
0.0
 10
29.99334330137033
 20
3.177761828580997
 30
0.0
  0
SPLINE
  5
84
330
1F
100
AcDbEntity
  8
1
  6
Continuous
370
    15
100
AcDbSpline
210
0.0
220
0.0
230
1.0
 70
     8
 71
     3
 72
    10
 73
     6
 74
     0
 42
0.00000001
 43
0.00000001
 40
0.0
 40
0.0
 40
0.0
 40
0.0
 40
0.1261567162762451
 40
0.6284716756588937
 40
1.0
 40
1.0
 40
1.0
 40
1.0
 10
29.99334330137062
 20
3.17776182858108
 30
0.0
 10
29.96153711801686
 20
3.164548491618234
 30
0.0
 10
29.80308907070973
 20
3.098723949990964
 30
0.0
 10
29.54280943293945
 20
3.015429145482912
 30
0.0
 10
29.31143072492576
 20
2.961351667963037
 30
0.0
 10
29.21305639937139
 20
2.938359771152962
 30
0.0
  0
SPLINE
  5
85
330
1F
100
AcDbEntity
  8
1
  6
Continuous
370
    15
100
AcDbSpline
210
0.0
220
0.0
230
1.0
 70
     8
 71
     3
 72
    11
 73
     7
 74
     0
 42
0.00000001
 43
0.00000001
 40
0.0
 40
0.0
 40
0.0
 40
0.0
 40
0.105007551210634
 40
0.4066245361155135
 40
0.7082414378172188
 40
1.0
 40
1.0
 40
1.0
 40
1.0
 10
29.29288118006263
 20
2.907231746669507
 30
0.0
 10
29.29992805539752
 20
2.908909246210434
 30
0.0
 10
29.32721592547048
 20
2.915405088317019
 30
0.0
 10
29.41093278057377
 20
2.806160610213161
 30
0.0
 10
29.53856982461066
 20
2.591013349840305
 30
0.0
 10
29.64854602544459
 20
2.355856256690118
 30
0.0
 10
29.70262055360182
 20
2.240231160001023
 30
0.0
  0
LWPOLYLINE
  5
86
330
1F
100
AcDbEntity
  8
1
  6
Continuous
370
    15
100
AcDbPolyline
 90
        3
 70
   128
 43
0.0
 10
29.9777121578
 20
1.4179482816
 10
29.9814933136
 20
1.8436763846
 10
29.9933433014
 20
3.1777618286
  0
LINE
  5
87
330
1F
100
AcDbEntity
  8
1
  6
Continuous
370
    15
100
AcDbLine
 10
30.0
 20
3.8838747233
 30
0.0
 11
30.0
 21
3.8424242164
 31
0.0
  0
LWPOLYLINE
  5
88
330
1F
100
AcDbEntity
  8
1
  6
Continuous
370
    15
100
AcDbPolyline
 90
        4
 70
   128
 43
0.0
 10
30.0
 20
3.8424242164
 10
29.9914690368
 20
2.8843333089
 10
29.9827639104
 20
1.9038148844
 10
29.9784794914
 20
1.4156546263
  0
LINE
  5
89
330
1F
100
AcDbEntity
  8
1
  6
Continuous
370
    15
100
AcDbLine
 10
30.0
 20
-0.9568265954
 30
0.0
 11
30.0
 21
-1.1116546861
 31
0.0
  0
SPLINE
  5
8A
330
1F
100
AcDbEntity
  8
1
  6
Continuous
370
    15
100
AcDbSpline
210
0.0
220
0.0
230
1.0
 70
     8
 71
     3
 72
    14
 73
    10
 74
     0
 42
0.00000001
 43
0.00000001
 40
0.0
 40
0.0
 40
0.0
 40
0.0
 40
0.5
 40
0.5
 40
0.75
 40
0.75
 40
0.875
 40
0.875
 40
1.0
 40
1.0
 40
1.0
 40
1.0
 10
30.0
 20
-3.842424216416195
 30
0.0
 10
29.9941979619735
 20
-3.191288953780178
 30
0.0
 10
29.98839610174635
 20
-2.540153810851544
 30
0.0
 10
29.97975170897121
 20
-1.563490413926117
 30
0.0
 10
29.97687155308745
 20
-1.237936829176802
 30
0.0
 10
29.97266099782844
 20
-0.74968029560156
 30
0.0
 10
29.97126529848961
 20
-0.5869333821142496
 30
0.0
 10
29.96870698848716
 20
-0.2615964873049773
 30
0.0
 10
29.9673845672143
 20
-0.0988928604521612
 30
0.0
 10
29.96738456721429
 20
0.0629081832229382
 30
0.0
  0
LWPOLYLINE
  5
8B
330
1F
100
AcDbEntity
  8
1
  6
Continuous
370
    15
100
AcDbPolyline
 90
        4
 70
   128
 43
0.0
 10
29.9673845672
 20
0.0629081832
 10
29.9692556029
 20
0.1029156054
 10
29.9814933136
 20
0.3644042377
 10
29.9933433014
 20
0.6175835381
  0
LINE
  5
8C
330
1F
100
AcDbEntity
  8
1
  6
Continuous
370
    15
100
AcDbLine
 10
29.1064956488
 20
0.7184389477
 30
0.0
 11
29.9673845672
 21
0.0629081832
 31
0.0
  0
LINE
  5
8D
330
1F
100
AcDbEntity
  8
1
  6
Continuous
370
    15
100
AcDbLine
 10
30.0
 20
-4.8139292585
 30
0.0
 11
30.0
 21
-3.8424242164
 31
0.0
  0
LINE
  5
8E
330
1F
100
AcDbEntity
  8
1
  6
Continuous
370
    15
100
AcDbLine
 10
8.0
 20
-5.0
 30
0.0
 11
8.0
 21
-4.9151702623
 31
0.0
  0
LINE
  5
8F
330
1F
100
AcDbEntity
  8
1
  6
Continuous
370
    15
100
AcDbLine
 10
30.0
 20
-1.3513271604
 30
0.0
 11
30.0
 21
-1.1116546861
 31
0.0
  0
SPLINE
  5
90
330
1F
100
AcDbEntity
  8
1
  6
Continuous
370
    15
100
AcDbSpline
210
0.0
220
0.0
230
1.0
 70
     8
 71
     3
 72
     8
 73
     4
 74
     0
 42
0.00000001
 43
0.00000001
 40
0.0
 40
0.0
 40
0.0
 40
0.0
 40
0.0178981299771063
 40
0.0178981299771063
 40
0.0178981299771063
 40
0.0178981299771063
 10
8.000000000000009
 20
-0.0000000000000249
 30
0.0
 10
7.737505297388493
 20
0.1319057730886789
 30
0.0
 10
7.47499776113688
 20
0.291212951792868
 30
0.0
 10
7.212488416756829
 20
0.4766979687024693
 30
0.0
  0
SPLINE
  5
91
330
1F
100
AcDbEntity
  8
1
  6
Continuous
370
    15
100
AcDbSpline
210
0.0
220
0.0
230
1.0
 70
    24
 71
     3
 72
    14
 73
    10
 74
     0
 42
0.00000001
 43
0.00000001
 40
0.0
 40
0.0
 40
0.0
 40
0.0
 40
0.2500000000000002
 40
0.2500000000000002
 40
0.5000000000000004
 40
0.5000000000000004
 40
0.7500000000000002
 40
0.7500000000000002
 40
1.0
 40
1.0
 40
1.0
 40
1.0
 10
7.346546847053634
 20
-0.9915418432443902
 30
0.0
 10
7.423557039659655
 20
-0.8746875163796726
 30
0.0
 10
7.506641405253292
 20
-0.7486163135183027
 30
0.0
 10
7.667517585946155
 20
-0.5045047593555139
 30
0.0
 10
7.744810670252993
 20
-0.3872211760747749
 30
0.0
 10
7.872405335126504
 20
-0.1936105880373976
 30
0.0
 10
7.922275237510047
 20
-0.1179386064900768
 30
0.0
 10
7.985964650401021
 20
-0.0212970682737192
 30
0.0
 10
8.000000000000012
 20
-0.0000000000000237
 30
0.0
 10
8.000000000000009
 20
-0.0000000000000249
 30
0.0
  0
SPLINE
  5
92
330
1F
100
AcDbEntity
  8
1
  6
Continuous
370
    15
100
AcDbSpline
210
0.0
220
0.0
230
1.0
 70
     8
 71
     3
 72
    10
 73
     6
 74
     0
 42
0.00000001
 43
0.00000001
 40
0.0
 40
0.0
 40
0.0
 40
0.0
 40
0.03125
 40
0.03125
 40
0.0424293906730597
 40
0.0424293906730597
 40
0.0424293906730597
 40
0.0424293906730597
 10
7.346546847053634
 20
-0.9915418432443887
 30
0.0
 10
6.888222540144252
 20
-0.8329665197582169
 30
0.0
 10
6.429880180386792
 20
-0.5854277097821157
 30
0.0
 10
5.807582450515488
 20
-0.135889077377516
 30
0.0
 10
5.643618053977284
 20
-0.006753127976518
 30
0.0
 10
5.479653657439059
 20
0.13257910130783
 30
0.0
  0
SPLINE
  5
93
330
1F
100
AcDbEntity
  8
1
  6
Continuous
370
    15
100
AcDbSpline
210
0.0
220
0.0
230
1.0
 70
     8
 71
     3
 72
    14
 73
    10
 74
     0
 42
0.00000001
 43
0.00000001
 40
0.0
 40
0.0
 40
0.0
 40
0.0
 40
0.25
 40
0.25
 40
0.5
 40
0.5
 40
0.75
 40
0.75
 40
1.0
 40
1.0
 40
1.0
 40
1.0
 10
7.212488416756833
 20
0.4766979687024665
 30
0.0
 10
7.067993189817607
 20
0.5638242382892155
 30
0.0
 10
6.9139472035725
 20
0.6268903100594088
 30
0.0
 10
6.586193568855342
 20
0.7042640303047654
 30
0.0
 10
6.419317908961608
 20
0.7169834592303406
 30
0.0
 10
6.086315778266176
 20
0.6769258422398144
 30
0.0
 10
5.920263181042931
 20
0.6213552826364404
 30
0.0
 10
5.64649516412364
 20
0.4294291651761566
 30
0.0
 10
5.539897608899318
 20
0.2916718029214593
 30
0.0
 10
5.479653657438771
 20
0.1325791013080725
 30
0.0
  0
SPLINE
  5
94
330
1F
100
AcDbEntity
  8
1
  6
Continuous
370
    15
100
AcDbSpline
210
0.0
220
0.0
230
1.0
 70
     8
 71
     3
 72
    11
 73
     7
 74
     0
 42
0.00000001
 43
0.00000001
 40
0.0
 40
0.0
 40
0.0
 40
0.0
 40
0.0004603173848409
 40
0.0004603173848409
 40
0.0004603173848409
 40
0.0009209682350428
 40
0.0009209682350428
 40
0.0009209682350428
 40
0.0009209682350428
 10
8.000000000000007
 20
-0.0000000000000158
 30
0.0
 10
7.868793384392435
 20
0.0795511791755541
 30
0.0
 10
7.737590184320589
 20
0.159134765081294
 30
0.0
 10
7.606393851123891
 20
0.2385957955033278
 30
0.0
 10
7.475102490557658
 20
0.3181143806795055
 30
0.0
 10
7.343794155087697
 20
0.3975244961901817
 30
0.0
 10
7.212488416756835
 20
0.4766979687024629
 30
0.0
  0
SPLINE
  5
95
330
1F
100
AcDbEntity
  8
1
  6
Continuous
370
    15
100
AcDbSpline
210
0.0
220
0.0
230
1.0
 70
     8
 71
     3
 72
    20
 73
    16
 74
     0
 42
0.00000001
 43
0.00000001
 40
0.0
 40
0.0
 40
0.0
 40
0.0
 40
0.2499999999999999
 40
0.2499999999999999
 40
0.3749999999999999
 40
0.3749999999999999
 40
0.5
 40
0.5
 40
0.6250000000000001
 40
0.6250000000000001
 40
0.75
 40
0.75
 40
0.875
 40
0.875
 40
1.0
 40
1.0
 40
1.0
 40
1.0
 10
5.479653657439073
 20
0.1325791013078203
 30
0.0
 10
5.341384149467348
 20
-0.2325641046189992
 30
0.0
 10
5.246090279077658
 20
-0.6041714904934571
 30
0.0
 10
5.157486303599235
 20
-1.167647468361098
 30
0.0
 10
5.137592436609273
 20
-1.35439561796246
 30
0.0
 10
5.115560468049334
 20
-1.717112959795157
 30
0.0
 10
5.113217325111875
 20
-1.894391317715677
 30
0.0
 10
5.124391889562572
 20
-2.240551694922647
 30
0.0
 10
5.138071781638241
 20
-2.409328542010917
 30
0.0
 10
5.179075577397784
 20
-2.727980291023704
 30
0.0
 10
5.206418331807204
 20
-2.879312246511444
 30
0.0
 10
5.27365237429989
 20
-3.166465604623367
 30
0.0
 10
5.313806354183506
 20
-3.302808407504597
 30
0.0
 10
5.404429440297709
 20
-3.554654440769456
 30
0.0
 10
5.454982710756621
 20
-3.670800938355821
 30
0.0
 10
5.510535788412888
 20
-3.777482627359164
 30
0.0
  0
SPLINE
  5
96
330
1F
100
AcDbEntity
  8
1
  6
Continuous
370
    15
100
AcDbSpline
210
0.0
220
0.0
230
1.0
 70
     8
 71
     3
 72
     8
 73
     4
 74
     0
 42
0.00000001
 43
0.00000001
 40
0.0
 40
0.0
 40
0.0
 40
0.0
 40
1.0
 40
1.0
 40
1.0
 40
1.0
 10
8.000000000000007
 20
-4.42090977197818
 30
0.0
 10
7.166791589799087
 20
-4.282543942012871
 30
0.0
 10
6.3491698789817
 20
-4.058028334122646
 30
0.0
 10
5.510535788412888
 20
-3.777482627359163
 30
0.0
  0
LINE
  5
97
330
1F
100
AcDbEntity
  8
1
  6
Continuous
370
    15
100
AcDbLine
 10
8.0
 20
-4.6
 30
0.0
 11
8.0
 21
-4.420909772
 31
0.0
  0
SPLINE
  5
98
330
1F
100
AcDbEntity
  8
1
  6
Continuous
370
    15
100
AcDbSpline
210
0.0
220
0.0
230
1.0
 70
     8
 71
     3
 72
    11
 73
     7
 74
     0
 42
0.00000001
 43
0.00000001
 40
0.0
 40
0.0
 40
0.0
 40
0.0
 40
0.0004603173848411
 40
0.0004603173848411
 40
0.0004603173848411
 40
0.0009209682350431
 40
0.0009209682350431
 40
0.0009209682350431
 40
0.0009209682350431
 10
8.000000000000007
 20
-4.6000000000003
 30
0.0
 10
7.868793384392387
 20
-4.600000000000313
 30
0.0
 10
7.7375901843208
 20
-4.597935103368232
 30
0.0
 10
7.606393851124051
 20
-4.593808011483315
 30
0.0
 10
7.475102490557762
 20
-4.589677930287065
 30
0.0
 10
7.343794155087749
 20
-4.583482383769852
 30
0.0
 10
7.212488416756835
 20
-4.575233223195831
 30
0.0
  0
SPLINE
  5
99
330
1F
100
AcDbEntity
  8
1
  6
Continuous
370
    15
100
AcDbSpline
210
0.0
220
0.0
230
1.0
 70
     8
 71
     3
 72
    14
 73
    10
 74
     0
 42
0.00000001
 43
0.00000001
 40
0.0
 40
0.0
 40
0.0
 40
0.0
 40
0.25
 40
0.25
 40
0.5
 40
0.5
 40
0.75
 40
0.75
 40
1.0
 40
1.0
 40
1.0
 40
1.0
 10
7.212488416756829
 20
-4.575233223195846
 30
0.0
 10
7.067993189817604
 20
-4.566155453013102
 30
0.0
 10
6.913947203572541
 20
-4.557251059108891
 30
0.0
 10
6.586193568855703
 20
-4.545936740894492
 30
0.0
 10
6.419317908961625
 20
-4.543824963346938
 30
0.0
 10
6.086315778266536
 20
-4.549965052882538
 30
0.0
 10
5.920263181043148
 20
-4.558864797462736
 30
0.0
 10
5.64649516412364
 20
-4.580930169834675
 30
0.0
 10
5.539897608899384
 20
-4.593501832972082
 30
0.0
 10
5.479653657438878
 20
-4.598089035881805
 30
0.0
  0
LINE
  5
9A
330
1F
100
AcDbEntity
  8
1
  6
Continuous
370
    15
100
AcDbLine
 10
5.4796536574
 20
-4.5980890359
 30
0.0
 11
5.4380291987
 21
-4.5933938551
 31
0.0
  0
SPLINE
  5
9B
330
1F
100
AcDbEntity
  8
1
  6
Continuous
370
    15
100
AcDbSpline
210
0.0
220
0.0
230
1.0
 70
     8
 71
     3
 72
    11
 73
     7
 74
     0
 42
0.00000001
 43
0.00000001
 40
0.0
 40
0.0
 40
0.0
 40
0.0
 40
0.000460317384841
 40
0.000460317384841
 40
0.000460317384841
 40
0.000920968235043
 40
0.000920968235043
 40
0.000920968235043
 40
0.000920968235043
 10
8.000000000000007
 20
4.600000000000398
 30
0.0
 10
7.868793384392408
 20
4.600000000000413
 30
0.0
 10
7.737590184320891
 20
4.597935103368234
 30
0.0
 10
7.606393851124158
 20
4.593808011483319
 30
0.0
 10
7.47510249055789
 20
4.589677930287071
 30
0.0
 10
7.343794155087898
 20
4.583482383769865
 30
0.0
 10
7.212488416757004
 20
4.575233223195847
 30
0.0
  0
SPLINE
  5
9C
330
1F
100
AcDbEntity
  8
1
  6
Continuous
370
    15
100
AcDbSpline
210
0.0
220
0.0
230
1.0
 70
     8
 71
     3
 72
    14
 73
    10
 74
     0
 42
0.00000001
 43
0.00000001
 40
0.0
 40
0.0
 40
0.0
 40
0.0
 40
0.25
 40
0.25
 40
0.5
 40
0.5
 40
0.75
 40
0.75
 40
1.0
 40
1.0
 40
1.0
 40
1.0
 10
7.212488416757
 20
4.575233223195857
 30
0.0
 10
7.067993189817771
 20
4.566155453013117
 30
0.0
 10
6.913947203572555
 20
4.557251059108896
 30
0.0
 10
6.586193568854915
 20
4.545936740894477
 30
0.0
 10
6.419317908961744
 20
4.543824963346934
 30
0.0
 10
6.086315778265756
 20
4.549965052882569
 30
0.0
 10
5.920263181042676
 20
4.558864797462783
 30
0.0
 10
5.646495164123844
 20
4.580930169834675
 30
0.0
 10
5.539897608899471
 20
4.593501832972095
 30
0.0
 10
5.479653657439059
 20
4.598089035881811
 30
0.0
  0
SPLINE
  5
9D
330
1F
100
AcDbEntity
  8
1
  6
Continuous
370
    15
100
AcDbSpline
210
0.0
220
0.0
230
1.0
 70
     8
 71
     3
 72
    14
 73
    10
 74
     0
 42
0.00000001
 43
0.00000001
 40
0.0
 40
0.0
 40
0.0
 40
0.0
 40
0.1067479567905652
 40
0.2484120702417097
 40
0.385987313529677
 40
0.5274948493877976
 40
0.666727815648012
 40
0.8094243060886857
 40
1.0
 40
1.0
 40
1.0
 40
1.0
 10
5.43802919874395
 20
4.593393855082146
 30
0.0
 10
5.386730802391842
 20
4.59175693371584
 30
0.0
 10
5.267354832855403
 20
4.587947670872289
 30
0.0
 10
5.16387260975882
 20
4.486532343680695
 30
0.0
 10
5.109544302360558
 20
4.299937783557829
 30
0.0
 10
5.117937117685444
 20
4.031055731366298
 30
0.0
 10
5.1810759654822
 20
3.683824301581199
 30
0.0
 10
5.301854843907144
 20
3.227095029389421
 30
0.0
 10
5.434617726213044
 20
2.844041982964265
 30
0.0
 10
5.51053578841289
 20
2.624999999999924
 30
0.0
  0
SPLINE
  5
9E
330
1F
100
AcDbEntity
  8
1
  6
Continuous
370
    15
100
AcDbSpline
210
0.0
220
0.0
230
1.0
 70
     8
 71
     3
 72
     8
 73
     4
 74
     0
 42
0.00000001
 43
0.00000001
 40
0.0
 40
0.0
 40
0.0
 40
0.0
 40
1.0
 40
1.0
 40
1.0
 40
1.0
 10
8.000000000000007
 20
1.271045549150466
 30
0.0
 10
7.166791589797477
 20
1.752305131237836
 30
0.0
 10
6.349169878984649
 20
2.221283225343728
 30
0.0
 10
5.510535788412888
 20
2.624999999999922
 30
0.0
  0
LINE
  5
9F
330
1F
100
AcDbEntity
  8
1
  6
Continuous
370
    15
100
AcDbLine
 10
0.0
 20
4.6
 30
0.0
 11
0.0
 21
-4.6
 31
0.0
  0
LINE
  5
A0
330
1F
100
AcDbEntity
  8
1
  6
Continuous
370
    15
100
AcDbLine
 10
5.5105357884
 20
-3.7774826274
 30
0.0
 11
7.3465468471
 21
-0.9915418432
 31
0.0
  0
LINE
  5
A1
330
1F
100
AcDbEntity
  8
1
  6
Continuous
370
    15
100
AcDbLine
 10
5.5105357884
 20
2.625
 30
0.0
 11
7.3465468471
 21
2.625
 31
0.0
  0
SPLINE
  5
A2
330
1F
100
AcDbEntity
  8
1
  6
Continuous
370
    15
100
AcDbSpline
210
0.0
220
0.0
230
1.0
 70
     8
 71
     3
 72
    14
 73
    10
 74
     0
 42
0.00000001
 43
0.00000001
 40
0.0
 40
0.0
 40
0.0
 40
0.0
 40
0.2500000000000002
 40
0.2500000000000002
 40
0.5000000000000004
 40
0.5000000000000004
 40
0.7500000000000002
 40
0.7500000000000002
 40
1.0
 40
1.0
 40
1.0
 40
1.0
 10
7.346546847053634
 20
2.62499999999998
 30
0.0
 10
7.423557039659655
 20
2.624999999999984
 30
0.0
 10
7.506641405253292
 20
2.650506002341011
 30
0.0
 10
7.667517585946155
 20
2.766246782635695
 30
0.0
 10
7.744810670252993
 20
2.85687379822731
 30
0.0
 10
7.872405335126504
 20
3.088747596454632
 30
0.0
 10
7.922275237510047
 20
3.229209903814419
 30
0.0
 10
7.985964650401021
 20
3.521565160976142
 30
0.0
 10
8.000000000000012
 20
3.67255178289017
 30
0.0
 10
8.000000000000009
 20
3.812500000000008
 30
0.0
  0
SPLINE
  5
A3
330
1F
100
AcDbEntity
  8
1
  6
Continuous
370
    15
100
AcDbSpline
210
0.0
220
0.0
230
1.0
 70
    24
 71
     3
 72
    26
 73
    22
 74
     0
 42
0.00000001
 43
0.00000001
 40
0.0
 40
0.0
 40
0.0
 40
0.0
 40
0.2500000000000003
 40
0.2500000000000003
 40
0.5000000000000006
 40
0.5000000000000006
 40
0.6250000000000007
 40
0.6250000000000007
 40
0.6562500000000008
 40
0.6562500000000008
 40
0.6875000000000008
 40
0.6875000000000008
 40
0.7500000000000006
 40
0.7500000000000006
 40
0.8125000000000004
 40
0.8125000000000004
 40
0.8750000000000003
 40
0.8750000000000003
 40
0.9375000000000001
 40
0.9375000000000001
 40
1.0
 40
1.0
 40
1.0
 40
1.0
 10
8.000000000000007
 20
1.271045549138341
 30
0.0
 10
8.000000000000007
 20
1.520004056468285
 30
0.0
 10
8.000000000000007
 20
1.740327878821287
 30
0.0
 10
8.000000000000004
 20
2.110765873627406
 30
0.0
 10
8.000000000000014
 20
2.26205039073373
 30
0.0
 10
8.000000000000012
 20
2.431274749512507
 30
0.0
 10
8.00000000000001
 20
2.478275812265523
 30
0.0
 10
8.000000000000012
 20
2.525145260917298
 30
0.0
 10
8.000000000000007
 20
2.532810733756036
 30
0.0
 10
8.000000000000009
 20
2.555721375909803
 30
0.0
 10
8.0
 20
2.570229610069983
 30
0.0
 10
8.000000000000002
 20
2.622248587921713
 30
0.0
 10
8.00000000000001
 20
2.668742560596789
 30
0.0
 10
8.000000000000009
 20
2.781563976487389
 30
0.0
 10
8.0
 20
2.847453126442248
 30
0.0
 10
8.000000000000002
 20
3.000961675459735
 30
0.0
 10
7.999999999998606
 20
3.087452526596909
 30
0.0
 10
7.999999999998613
 20
3.274215554249998
 30
0.0
 10
8.000000000000044
 20
3.377220876051165
 30
0.0
 10
8.000000000000044
 20
3.59004251024456
 30
0.0
 10
8.000000000000009
 20
3.699565187653105
 30
0.0
 10
8.00000000000001
 20
3.812886681609714
 30
0.0
  0
SPLINE
  5
A4
330
1F
100
AcDbEntity
  8
1
  6
Continuous
370
    15
100
AcDbSpline
210
0.0
220
0.0
230
1.0
 70
    24
 71
     3
 72
    24
 73
    20
 74
     0
 42
0.00000001
 43
0.00000001
 40
0.0
 40
0.0
 40
0.0
 40
0.0
 40
0.0624999999999999
 40
0.0624999999999999
 40
0.1249999999999999
 40
0.1249999999999999
 40
0.2499999999999999
 40
0.2499999999999999
 40
0.3125
 40
0.3125
 40
0.34375
 40
0.34375
 40
0.375
 40
0.375
 40
0.5000000000000001
 40
0.5000000000000001
 40
0.75
 40
0.75
 40
1.0
 40
1.0
 40
1.0
 40
1.0
 10
8.00000000000001
 20
-0.0000000000000249
 30
0.0
 10
8.00000000000001
 20
-0.0000000000000239
 30
0.0
 10
8.000000000000004
 20
-0.0183949765760477
 30
0.0
 10
8.000000000000004
 20
-0.0864508981268546
 30
0.0
 10
8.000000000000004
 20
-0.1347814830530008
 30
0.0
 10
8.000000000000005
 20
-0.3183340726112638
 30
0.0
 10
8.000000000000014
 20
-0.4903119364504051
 30
0.0
 10
8.00000000000001
 20
-0.7821778630537014
 30
0.0
 10
8.000000000000005
 20
-0.8859716470405784
 30
0.0
 10
8.000000000000007
 20
-1.047296196494631
 30
0.0
 10
8.0
 20
-1.101735286652456
 30
0.0
 10
8.000000000000002
 20
-1.212008822962533
 30
0.0
 10
8.000000000000007
 20
-1.267894674477245
 30
0.0
 10
8.000000000000007
 20
-1.545271281140261
 30
0.0
 10
8.000000000000005
 20
-1.765129645500745
 30
0.0
 10
8.000000000000005
 20
-2.418006598768253
 30
0.0
 10
8.000000000000007
 20
-2.842447309166683
 30
0.0
 10
8.000000000000009
 20
-3.655299837336293
 30
0.0
 10
8.000000000000007
 20
-4.046613080015433
 30
0.0
 10
8.000000000000007
 20
-4.420909771978178
 30
0.0
  0
SPLINE
  5
A5
330
1F
100
AcDbEntity
  8
1
  6
Continuous
370
    15
100
AcDbSpline
210
0.0
220
0.0
230
1.0
 70
     8
 71
     3
 72
    10
 73
     6
 74
     0
 42
0.00000001
 43
0.00000001
 40
0.0
 40
0.0
 40
0.0
 40
0.0
 40
0.03125
 40
0.03125
 40
0.0424293906730663
 40
0.0424293906730663
 40
0.0424293906730663
 40
0.0424293906730663
 10
7.346546847053634
 20
2.62499999999998
 30
0.0
 10
6.888222540144396
 20
3.143223001845628
 30
0.0
 10
6.429880180386792
 20
3.647015235234699
 30
0.0
 10
5.807582450515393
 20
4.279982238954924
 30
0.0
 10
5.643618053977093
 20
4.44193660038059
 30
0.0
 10
5.479653657438771
 20
4.598089035881804
 30
0.0
  0
SPLINE
  5
A6
330
1F
100
AcDbEntity
  8
1
  6
Continuous
370
    15
100
AcDbSpline
210
0.0
220
0.0
230
1.0
 70
     8
 71
     3
 72
     8
 73
     4
 74
     0
 42
0.00000001
 43
0.00000001
 40
0.0
 40
0.0
 40
0.0
 40
0.0
 40
0.0178981299771035
 40
0.0178981299771035
 40
0.0178981299771035
 40
0.0178981299771035
 10
8.000000000000009
 20
3.812500000000008
 30
0.0
 10
7.737505297388616
 20
4.074994703847583
 30
0.0
 10
7.474997761137033
 20
4.330623931453435
 30
0.0
 10
7.212488416756996
 20
4.575233223195859
 30
0.0
  0
LINE
  5
A7
330
1F
100
AcDbEntity
  8
1
  6
Continuous
370
    15
100
AcDbLine
 10
8.0
 20
3.8125
 30
0.0
 11
8.0
 21
4.6
 31
0.0
  0
LINE
  5
A8
330
1F
100
AcDbEntity
  8
1
  6
Continuous
370
    15
100
AcDbLine
 10
29.9650934015
 20
0.0
 30
0.0
 11
29.9650934015
 21
0.0001
 31
0.0
  0
LINE
  5
A9
330
1F
100
AcDbEntity
  8
1
  6
Continuous
370
    15
100
AcDbLine
 10
29.9650934015
 20
-0.0001
 30
0.0
 11
29.9650934015
 21
0.0
 31
0.0
  0
LINE
  5
AA
330
1F
100
AcDbEntity
  8
SK4
100
AcDbLine
 10
0.0
 20
0.0
 30
0.0
 11
-40.0
 21
0.0
 31
0.0
  0
LINE
  5
AB
330
1F
100
AcDbEntity
  8
4
100
AcDbLine
 10
0.0
 20
0.0
 30
0.0
 11
30.0
 21
0.0
 31
0.0
  0
LINE
  5
AC
330
1F
100
AcDbEntity
  8
INFTOTAL
100
AcDbLine
 10
-50.0
 20
-55.0
 30
0.0
 11
250.0
 21
-55.0
 31
0.0
  0
LINE
  5
AD
330
1F
100
AcDbEntity
  8
INFTOTAL
100
AcDbLine
 10
250.0
 20
-55.0
 30
0.0
 11
250.0
 21
145.0
 31
0.0
  0
LINE
  5
AE
330
1F
100
AcDbEntity
  8
INFTOTAL
100
AcDbLine
 10
250.0
 20
145.0
 30
0.0
 11
-50.0
 21
145.0
 31
0.0
  0
LINE
  5
AF
330
1F
100
AcDbEntity
  8
INFTOTAL
100
AcDbLine
 10
-50.0
 20
145.0
 30
0.0
 11
-50.0
 21
-55.0
 31
0.0
  0
LINE
  5
B0
330
1F
100
AcDbEntity
  8
NOCUT
100
AcDbLine
 10
29.9650934015
 20
0.0
 30
0.0
 11
29.9650934015
 21
0.0001
 31
0.0
  0
LINE
  5
B1
330
1F
100
AcDbEntity
  8
NOCUT
100
AcDbLine
 10
29.9650934015
 20
0.0001
 30
0.0
 11
27.8869096983
 21
0.0001
 31
0.0
  0
LINE
  5
B2
330
1F
100
AcDbEntity
  8
NOCUT
100
AcDbLine
 10
27.8869096983
 20
0.0001
 30
0.0
 11
27.8869096983
 21
2.5
 31
0.0
  0
LINE
  5
B3
330
1F
100
AcDbEntity
  8
NOCUT
100
AcDbLine
 10
27.8869096983
 20
2.5
 30
0.0
 11
8.0
 21
2.5
 31
0.0
  0
LINE
  5
B4
330
1F
100
AcDbEntity
  8
NOCUT
100
AcDbLine
 10
8.0
 20
2.5
 30
0.0
 11
8.0
 21
4.6
 31
0.0
  0
LINE
  5
B5
330
1F
100
AcDbEntity
  8
NOCUT
100
AcDbLine
 10
8.0
 20
4.6
 30
0.0
 11
-2.0
 21
4.6
 31
0.0
  0
LINE
  5
B6
330
1F
100
AcDbEntity
  8
NOCUT
100
AcDbLine
 10
-2.0
 20
4.6
 30
0.0
 11
-2.0
 21
5.0
 31
0.0
  0
LINE
  5
B7
330
1F
100
AcDbEntity
  8
NOCUT
100
AcDbLine
 10
-2.0
 20
5.0
 30
0.0
 11
-40.0
 21
5.0
 31
0.0
  0
LINE
  5
B8
330
1F
100
AcDbEntity
  8
NOCUT
100
AcDbLine
 10
-40.0
 20
5.0
 30
0.0
 11
-40.0
 21
0.0
 31
0.0
  0
LINE
  5
B9
330
1F
100
AcDbEntity
  8
NOCUT
100
AcDbLine
 10
-40.0
 20
0.0
 30
0.0
 11
29.9650934015
 21
0.0
 31
0.0
  0
LINE
  5
BA
330
1F
100
AcDbEntity
  8
CUT
100
AcDbLine
 10
29.9650934015
 20
5.0
 30
0.0
 11
8.0
 21
5.0
 31
0.0
  0
LINE
  5
BB
330
1F
100
AcDbEntity
  8
CUT
100
AcDbLine
 10
29.9650934015
 20
0.0001
 30
0.0
 11
29.9650934015
 21
5.0
 31
0.0
  0
LINE
  5
BC
330
1F
100
AcDbEntity
  8
CUT
100
AcDbLine
 10
27.8869096983
 20
0.0001
 30
0.0
 11
29.9650934015
 21
0.0001
 31
0.0
  0
LINE
  5
BD
330
1F
100
AcDbEntity
  8
CUT
100
AcDbLine
 10
27.8869096983
 20
2.5
 30
0.0
 11
27.8869096983
 21
0.0001
 31
0.0
  0
LINE
  5
BE
330
1F
100
AcDbEntity
  8
CUT
100
AcDbLine
 10
8.0
 20
2.5
 30
0.0
 11
27.8869096983
 21
2.5
 31
0.0
  0
LINE
  5
BF
330
1F
100
AcDbEntity
  8
CUT
100
AcDbLine
 10
8.0
 20
5.0
 30
0.0
 11
8.0
 21
2.5
 31
0.0
  0
DIMENSION
  5
C0
330
1F
100
AcDbEntity
  8
2
100
AcDbDimension
  2
*D1
 10
118.9632346948
 20
5.0
 30
0.0
 11
118.9632346948
 21
12.4503443827
 31
0.0
 70
   160
  1
%%c<>
 71
     2
 42
-1.0
  3
SLDDIMSTYLE0
100
AcDbAlignedDimension
 13
30.0
 23
-5.0
 33
0.0
 14
29.9650934015
 24
5.0
 34
0.0
 50
90.0
100
AcDbRotatedDimension
  0
DIMENSION
  5
EF
330
1F
100
AcDbEntity
  8
SK2
100
AcDbDimension
  2
*D2
 10
-44.2657186151
 20
-5.0
 30
0.0
 11
-44.2657186151
 21
12.6846589578
 31
0.0
 70
   160
  1
%%c<>
 71
     2
 42
-1.0
  3
SLDDIMSTYLE1
100
AcDbAlignedDimension
 13
-40.0
 23
5.0
 33
0.0
 14
-40.0
 24
-5.0
 34
0.0
 50
90.0
100
AcDbRotatedDimension
  0
DIMENSION
  5
FC
330
1F
100
AcDbEntity
  8
SK2
100
AcDbDimension
  2
*D3
 10
-40.0
 20
48.7509423314
 30
0.0
 11
-20.9930090576
 21
48.7509423314
 31
0.0
 70
   160
 71
     2
 42
-1.0
  3
SLDDIMSTYLE2
100
AcDbAlignedDimension
 13
0.0
 23
0.0
 33
0.0
 14
-40.0
 24
0.0
 34
0.0
100
AcDbRotatedDimension
  0
DIMENSION
  5
107
330
1F
100
AcDbEntity
  8
SK2
100
AcDbDimension
  2
*D4
 10
30.0
 20
57.8509423314
 30
0.0
 11
13.1531847017
 21
57.8509423314
 31
0.0
 70
   160
 71
     2
 42
-1.0
  3
SLDDIMSTYLE2
100
AcDbAlignedDimension
 13
-2.0
 23
4.6
 33
0.0
 14
30.0
 24
5.0
 34
0.0
100
AcDbRotatedDimension
  0
DIMENSION
  5
111
330
1F
100
AcDbEntity
  8
SK2
100
AcDbDimension
  2
*D5
 10
-40.0
 20
93.3258208239
 30
0.0
 11
-6.5065457283
 21
93.3258208239
 31
0.0
 70
   160
 71
     2
 42
-1.0
  3
SLDDIMSTYLE2
100
AcDbAlignedDimension
 13
30.0
 23
0.0
 33
0.0
 14
-40.0
 24
0.0
 34
0.0
 50
0.0
100
AcDbRotatedDimension
  0
DIMENSION
  5
11B
330
1F
100
AcDbEntity
  8
SK2
100
AcDbDimension
  2
*D6
 10
8.0
 20
45.7509423314
 30
0.0
 11
18.7251999256
 21
45.7509423314
 31
0.0
 70
   160
 71
     2
 42
-1.0
  3
SLDDIMSTYLE2
100
AcDbAlignedDimension
 13
30.0
 23
5.0
 33
0.0
 14
8.0
 24
2.5
 34
0.0
 50
0.0
100
AcDbRotatedDimension
  0
DIMENSION
  5
125
330
1F
100
AcDbEntity
  8
SK2
100
AcDbDimension
  2
*D7
 10
17.0485279454
 20
-4.6
 30
0.0
 11
17.0485279454
 21
28.3635811527
 31
0.0
 70
   160
  1
%%c<>
 71
     2
 42
-1.0
  3
SLDDIMSTYLE2
100
AcDbAlignedDimension
 13
8.0
 23
4.6
 33
0.0
 14
8.0
 24
-4.6
 34
0.0
 50
90.0
100
AcDbRotatedDimension
  0
DIMENSION
  5
131
330
1F
100
AcDbEntity
  8
2
100
AcDbDimension
  2
*D8
 10
30.0
 20
75.9999940533
 30
0.0
 11
14.7039896204
 21
75.9999940533
 31
0.0
 70
   160
 71
     2
 42
-1.0
  3
SLDDIMSTYLE2
100
AcDbAlignedDimension
 13
0.0
 23
2.5
 33
0.0
 14
30.0
 24
5.0
 34
0.0
100
AcDbRotatedDimension
  0
INSERT
  5
143
330
1F
100
AcDbEntity
  8
INFTEXT63
100
AcDbBlockReference
  2
SW_NOTE_0
 10
-39.8847508068
 20
-33.794739665
 30
0.0
  0
INSERT
  5
14A
330
1F
100
AcDbEntity
  8
INFTEXT63
100
AcDbBlockReference
  2
SW_NOTE_1
 10
-39.8847508068
 20
-70.1731114039
 30
0.0
  0
ENDSEC
  0
SECTION
  2
OBJECTS
  0
DICTIONARY
  5
C
330
0
100
AcDbDictionary
281
     1
  3
ACAD_GROUP
350
D
  3
ACAD_LAYOUT
350
1A
  3
ACAD_MLINESTYLE
350
17
  3
ACAD_PLOTSETTINGS
350
19
  3
ACAD_PLOTSTYLENAME
350
E
  3
ACAD_SCALELIST
350
C1
  3
AcDbVariableDictionary
350
14B
  0
DICTIONARY
  5
D
102
{ACAD_REACTORS
330
C
102
}
330
C
100
AcDbDictionary
281
     1
  0
DICTIONARY
  5
1A
102
{ACAD_REACTORS
330
C
102
}
330
C
100
AcDbDictionary
281
     1
  3
Layout1
350
1E
  3
Layout2
350
26
  3
Model
350
22
  0
DICTIONARY
  5
17
102
{ACAD_REACTORS
330
C
102
}
330
C
100
AcDbDictionary
281
     1
  3
Standard
350
18
  0
DICTIONARY
  5
19
102
{ACAD_REACTORS
330
C
102
}
330
C
100
AcDbDictionary
281
     1
  0
ACDBDICTIONARYWDFLT
  5
E
102
{ACAD_REACTORS
330
C
102
}
330
C
100
AcDbDictionary
281
     1
  3
Normal
350
F
100
AcDbDictionaryWithDefault
340
F
  0
DICTIONARY
  5
C1
102
{ACAD_REACTORS
330
C
102
}
330
C
100
AcDbDictionary
281
     1
  3
A0
350
C2
  3
A1
350
C3
  3
A2
350
C4
  3
A3
350
C5
  3
A4
350
C6
  3
A5
350
C7
  3
A6
350
C8
  3
A7
350
C9
  3
A8
350
CA
  3
A9
350
CB
  3
B0
350
CC
  3
B1
350
CD
  3
B2
350
CE
  3
B3
350
CF
  3
B4
350
D0
  3
B5
350
D1
  3
B6
350
D2
  3
B7
350
D3
  3
B8
350
D4
  3
B9
350
D5
  3
C0
350
D6
  3
C1
350
D7
  3
C2
350
D8
  3
C3
350
D9
  3
C4
350
DA
  3
C5
350
DB
  3
C6
350
DC
  3
C7
350
DD
  3
C8
350
DE
  3
C9
350
DF
  3
D0
350
E0
  3
D1
350
E1
  3
D2
350
E2
  0
DICTIONARY
  5
14B
102
{ACAD_REACTORS
330
C
102
}
330
C
100
AcDbDictionary
281
     1
  3
CANNOSCALE
350
14C
  0
LAYOUT
  5
1E
102
{ACAD_REACTORS
330
1A
102
}
330
1A
100
AcDbPlotSettings
  1

  2
none_device
  4

  6

 40
0.0
 41
0.0
 42
0.0
 43
0.0
 44
0.0
 45
0.0
 46
0.0
 47
0.0
 48
0.0
 49
0.0
140
0.0
141
0.0
142
1.0
143
1.0
 70
   688
 72
     0
 73
     0
 74
     5
  7

 75
    16
147
1.0
148
0.0
149
0.0
100
AcDbLayout
  1
Layout1
 70
     1
 71
     1
 10
0.0
 20
0.0
 11
420.0
 21
297.0
 12
0.0
 22
0.0
 32
0.0
 14
1.0000000000E+20
 24
1.0000000000E+20
 34
1.0000000000E+20
 15
-1.0000000000E+20
 25
-1.0000000000E+20
 35
-1.0000000000E+20
146
0.0
 13
0.0
 23
0.0
 33
0.0
 16
1.0
 26
0.0
 36
0.0
 17
0.0
 27
1.0
 37
0.0
 76
     0
330
1B
  0
LAYOUT
  5
26
102
{ACAD_REACTORS
330
1A
102
}
330
1A
100
AcDbPlotSettings
  1

  2
none_device
  4

  6

 40
0.0
 41
0.0
 42
0.0
 43
0.0
 44
0.0
 45
0.0
 46
0.0
 47
0.0
 48
0.0
 49
0.0
140
0.0
141
0.0
142
1.0
143
1.0
 70
   688
 72
     0
 73
     0
 74
     5
  7

 75
    16
147
1.0
148
0.0
149
0.0
100
AcDbLayout
  1
Layout2
 70
     1
 71
     2
 10
0.0
 20
0.0
 11
0.0
 21
0.0
 12
0.0
 22
0.0
 32
0.0
 14
0.0
 24
0.0
 34
0.0
 15
0.0
 25
0.0
 35
0.0
146
0.0
 13
0.0
 23
0.0
 33
0.0
 16
1.0
 26
0.0
 36
0.0
 17
0.0
 27
1.0
 37
0.0
 76
     0
330
23
  0
LAYOUT
  5
22
102
{ACAD_REACTORS
330
1A
102
}
330
1A
100
AcDbPlotSettings
  1

  2
none_device
  4

  6

 40
0.0
 41
0.0
 42
0.0
 43
0.0
 44
0.0
 45
0.0
 46
0.0
 47
0.0
 48
0.0
 49
0.0
140
0.0
141
0.0
142
1.0
143
1.0
 70
  1712
 72
     0
 73
     0
 74
     0
  7

 75
     0
147
1.0
148
0.0
149
0.0
100
AcDbLayout
  1
Model
 70
     1
 71
     0
 10
0.0
 20
0.0
 11
420.0
 21
297.0
 12
0.0
 22
0.0
 32
0.0
 14
0.0
 24
0.0
 34
0.0
 15
420.0
 25
297.0
 35
0.0
146
0.0
 13
0.0
 23
0.0
 33
0.0
 16
1.0
 26
0.0
 36
0.0
 17
0.0
 27
1.0
 37
0.0
 76
     0
330
1F
331
29
  0
MLINESTYLE
  5
18
102
{ACAD_REACTORS
330
17
102
}
330
17
100
AcDbMlineStyle
  2
Standard
 70
     0
  3

 62
   256
 51
90.0
 52
90.0
 71
     2
 49
0.5
 62
   256
  6
BYLAYER
 49
-0.5
 62
   256
  6
BYLAYER
  0
ACDBPLACEHOLDER
  5
F
102
{ACAD_REACTORS
330
E
102
}
330
E
  0
SCALE
  5
C2
102
{ACAD_REACTORS
330
C1
102
}
330
C1
100
AcDbScale
 70
     0
300
1:1
140
1.0
141
1.0
290
     1
  0
SCALE
  5
C3
102
{ACAD_REACTORS
330
C1
102
}
330
C1
100
AcDbScale
 70
     0
300
1:2
140
1.0
141
2.0
290
     0
  0
SCALE
  5
C4
102
{ACAD_REACTORS
330
C1
102
}
330
C1
100
AcDbScale
 70
     0
300
1:4
140
1.0
141
4.0
290
     0
  0
SCALE
  5
C5
102
{ACAD_REACTORS
330
C1
102
}
330
C1
100
AcDbScale
 70
     0
300
1:5
140
1.0
141
5.0
290
     0
  0
SCALE
  5
C6
102
{ACAD_REACTORS
330
C1
102
}
330
C1
100
AcDbScale
 70
     0
300
1:8
140
1.0
141
8.0
290
     0
  0
SCALE
  5
C7
102
{ACAD_REACTORS
330
C1
102
}
330
C1
100
AcDbScale
 70
     0
300
1:10
140
1.0
141
10.0
290
     0
  0
SCALE
  5
C8
102
{ACAD_REACTORS
330
C1
102
}
330
C1
100
AcDbScale
 70
     0
300
1:16
140
1.0
141
16.0
290
     0
  0
SCALE
  5
C9
102
{ACAD_REACTORS
330
C1
102
}
330
C1
100
AcDbScale
 70
     0
300
1:20
140
1.0
141
20.0
290
     0
  0
SCALE
  5
CA
102
{ACAD_REACTORS
330
C1
102
}
330
C1
100
AcDbScale
 70
     0
300
1:30
140
1.0
141
30.0
290
     0
  0
SCALE
  5
CB
102
{ACAD_REACTORS
330
C1
102
}
330
C1
100
AcDbScale
 70
     0
300
1:40
140
1.0
141
40.0
290
     0
  0
SCALE
  5
CC
102
{ACAD_REACTORS
330
C1
102
}
330
C1
100
AcDbScale
 70
     0
300
1:50
140
1.0
141
50.0
290
     0
  0
SCALE
  5
CD
102
{ACAD_REACTORS
330
C1
102
}
330
C1
100
AcDbScale
 70
     0
300
1:100
140
1.0
141
100.0
290
     0
  0
SCALE
  5
CE
102
{ACAD_REACTORS
330
C1
102
}
330
C1
100
AcDbScale
 70
     0
300
2:1
140
2.0
141
1.0
290
     0
  0
SCALE
  5
CF
102
{ACAD_REACTORS
330
C1
102
}
330
C1
100
AcDbScale
 70
     0
300
4:1
140
4.0
141
1.0
290
     0
  0
SCALE
  5
D0
102
{ACAD_REACTORS
330
C1
102
}
330
C1
100
AcDbScale
 70
     0
300
8:1
140
8.0
141
1.0
290
     0
  0
SCALE
  5
D1
102
{ACAD_REACTORS
330
C1
102
}
330
C1
100
AcDbScale
 70
     0
300
10:1
140
10.0
141
1.0
290
     0
  0
SCALE
  5
D2
102
{ACAD_REACTORS
330
C1
102
}
330
C1
100
AcDbScale
 70
     0
300
100:1
140
100.0
141
1.0
290
     0
  0
SCALE
  5
D3
102
{ACAD_REACTORS
330
C1
102
}
330
C1
100
AcDbScale
 70
     0
300
1/128" = 1'-0"
140
0.0078125
141
12.0
290
     0
  0
SCALE
  5
D4
102
{ACAD_REACTORS
330
C1
102
}
330
C1
100
AcDbScale
 70
     0
300
1/64" = 1'-0"
140
0.015625
141
12.0
290
     0
  0
SCALE
  5
D5
102
{ACAD_REACTORS
330
C1
102
}
330
C1
100
AcDbScale
 70
     0
300
1/32" = 1'-0"
140
0.03125
141
12.0
290
     0
  0
SCALE
  5
D6
102
{ACAD_REACTORS
330
C1
102
}
330
C1
100
AcDbScale
 70
     0
300
1/16" = 1'-0"
140
0.0625
141
12.0
290
     0
  0
SCALE
  5
D7
102
{ACAD_REACTORS
330
C1
102
}
330
C1
100
AcDbScale
 70
     0
300
3/32" = 1'-0"
140
0.09375
141
12.0
290
     0
  0
SCALE
  5
D8
102
{ACAD_REACTORS
330
C1
102
}
330
C1
100
AcDbScale
 70
     0
300
1/8" = 1'-0"
140
0.125
141
12.0
290
     0
  0
SCALE
  5
D9
102
{ACAD_REACTORS
330
C1
102
}
330
C1
100
AcDbScale
 70
     0
300
3/16" = 1'-0"
140
0.1875
141
12.0
290
     0
  0
SCALE
  5
DA
102
{ACAD_REACTORS
330
C1
102
}
330
C1
100
AcDbScale
 70
     0
300
1/4" = 1'-0"
140
0.25
141
12.0
290
     0
  0
SCALE
  5
DB
102
{ACAD_REACTORS
330
C1
102
}
330
C1
100
AcDbScale
 70
     0
300
3/8" = 1'-0"
140
0.375
141
12.0
290
     0
  0
SCALE
  5
DC
102
{ACAD_REACTORS
330
C1
102
}
330
C1
100
AcDbScale
 70
     0
300
1/2" = 1'-0"
140
0.5
141
12.0
290
     0
  0
SCALE
  5
DD
102
{ACAD_REACTORS
330
C1
102
}
330
C1
100
AcDbScale
 70
     0
300
3/4" = 1'-0"
140
0.75
141
12.0
290
     0
  0
SCALE
  5
DE
102
{ACAD_REACTORS
330
C1
102
}
330
C1
100
AcDbScale
 70
     0
300
1" = 1'-0"
140
1.0
141
12.0
290
     0
  0
SCALE
  5
DF
102
{ACAD_REACTORS
330
C1
102
}
330
C1
100
AcDbScale
 70
     0
300
1-1/2" = 1'-0"
140
1.5
141
12.0
290
     0
  0
SCALE
  5
E0
102
{ACAD_REACTORS
330
C1
102
}
330
C1
100
AcDbScale
 70
     0
300
3" = 1'-0"
140
3.0
141
12.0
290
     0
  0
SCALE
  5
E1
102
{ACAD_REACTORS
330
C1
102
}
330
C1
100
AcDbScale
 70
     0
300
6" = 1'-0"
140
6.0
141
12.0
290
     0
  0
SCALE
  5
E2
102
{ACAD_REACTORS
330
C1
102
}
330
C1
100
AcDbScale
 70
     0
300
1'-0" = 1'-0"
140
12.0
141
12.0
290
     0
  0
DICTIONARYVAR
  5
14C
102
{ACAD_REACTORS
330
14B
102
}
330
14B
100
DictionaryVariables
280
     0
  1
1:1
  0
ENDSEC
  0
EOF
