  0
SECTION
  2
HEADER
  9
$ACADVER
  1
AC1015
  9
$ACADMAINTVER
 70
     6
  9
$DWGCODEPAGE
  3
ANSI_1252
  9
$INSBASE
 10
0.0
 20
0.0
 30
0.0
  9
$EXTMIN
 10
0.0
 20
0.0
 30
0.0
  9
$EXTMAX
 10
420.0
 20
297.0
 30
0.0
  9
$LIMMIN
 10
0.0
 20
0.0
  9
$LIMMAX
 10
420.0
 20
297.0
  9
$ORTHOMODE
 70
     0
  9
$REGENMODE
 70
     1
  9
$FILLMODE
 70
     1
  9
$QTEXTMODE
 70
     0
  9
$MIRRTEXT
 70
     1
  9
$LTSCALE
 40
1.0
  9
$ATTMODE
 70
     1
  9
$TEXTSIZE
 40
3.5
  9
$TRACEWID
 40
1.0
  9
$TEXTSTYLE
  7
STANDARD
  9
$CLAYER
  8
0
  9
$CELTYPE
  6
ByLayer
  9
$CECOLOR
 62
   256
  9
$CELTSCALE
 40
1.0
  9
$DISPSILH
 70
     0
  9
$DIMSCALE
 40
1.0
  9
$DIMASZ
 40
3.302
  9
$DIMEXO
 40
1.0
  9
$DIMDLI
 40
3.75
  9
$DIMRND
 40
0.0
  9
$DIMDLE
 40
0.0
  9
$DIMEXE
 40
1.0
  9
$DIMTP
 40
0.0
  9
$DIMTM
 40
0.0
  9
$DIMTXT
 40
3.5
  9
$DIMCEN
 40
2.5
  9
$DIMTSZ
 40
0.0
  9
$DIMTOL
 70
     0
  9
$DIMLIM
 70
     0
  9
$DIMTIH
 70
     1
  9
$DIMTOH
 70
     1
  9
$DIMSE1
 70
     0
  9
$DIMSE2
 70
     0
  9
$DIMTAD
 70
     1
  9
$DIMZIN
 70
     0
  9
$DIMBLK
  1

  9
$DIMASO
 70
     1
  9
$DIMSHO
 70
     1
  9
$DIMPOST
  1

  9
$DIMAPOST
  1

  9
$DIMALT
 70
     0
  9
$DIMALTD
 70
     3
  9
$DIMALTF
 40
0.0393700787
  9
$DIMLFAC
 40
1.0
  9
$DIMTOFL
 70
     1
  9
$DIMTVP
 40
0.0
  9
$DIMTIX
 70
     0
  9
$DIMSOXD
 70
     0
  9
$DIMSAH
 70
     0
  9
$DIMBLK1
  1

  9
$DIMBLK2
  1

  9
$DIMSTYLE
  2
ISO-25
  9
$DIMCLRD
 70
     0
  9
$DIMCLRE
 70
     0
  9
$DIMCLRT
 70
     0
  9
$DIMTFAC
 40
1.0
  9
$DIMGAP
 40
1.524
  9
$DIMJUST
 70
     0
  9
$DIMSD1
 70
     0
  9
$DIMSD2
 70
     0
  9
$DIMTOLJ
 70
     0
  9
$DIMTZIN
 70
     0
  9
$DIMALTZ
 70
     0
  9
$DIMALTTZ
 70
     0
  9
$DIMUPT
 70
     0
  9
$DIMDEC
 70
     1
  9
$DIMTDEC
 70
     1
  9
$DIMALTU
 70
     2
  9
$DIMALTTD
 70
     3
  9
$DIMTXSTY
  7
STANDARD
  9
$DIMAUNIT
 70
     0
  9
$DIMADEC
 70
     1
  9
$DIMALTRND
 40
0.0
  9
$DIMAZIN
 70
     0
  9
$DIMDSEP
 70
    44
  9
$DIMATFIT
 70
     3
  9
$DIMFRAC
 70
     0
  9
$DIMLDRBLK
  1

  9
$DIMLUNIT
 70
     2
  9
$DIMLWD
 70
    -2
  9
$DIMLWE
 70
    -2
  9
$DIMTMOVE
 70
     0
  9
$LUNITS
 70
     2
  9
$LUPREC
 70
     2
  9
$SKETCHINC
 40
1.0
  9
$FILLETRAD
 40
10.0
  9
$AUNITS
 70
     0
  9
$AUPREC
 70
     2
  9
$MENU
  1
.
  9
$ELEVATION
 40
0.0
  9
$PELEVATION
 40
0.0
  9
$THICKNESS
 40
0.0
  9
$LIMCHECK
 70
     0
  9
$CHAMFERA
 40
10.0
  9
$CHAMFERB
 40
10.0
  9
$CHAMFERC
 40
20.0
  9
$CHAMFERD
 40
0.0
  9
$SKPOLY
 70
     0
  9
$TDCREATE
 40
2455898.705765139
  9
$TDUCREATE
 40
2455898.664098472
  9
$TDUPDATE
 40
2455898.70576515
  9
$TDUUPDATE
 40
2455898.664098484
  9
$TDINDWG
 40
0.0000000116
  9
$TDUSRTIMER
 40
0.0000000116
  9
$USRTIMER
 70
     1
  9
$ANGBASE
 50
0.0
  9
$ANGDIR
 70
     0
  9
$PDMODE
 70
     0
  9
$PDSIZE
 40
-1.0
  9
$PLINEWID
 40
0.0
  9
$SPLFRAME
 70
     0
  9
$SPLINETYPE
 70
     6
  9
$SPLINESEGS
 70
     8
  9
$HANDSEED
  5
13B
  9
$SURFTAB1
 70
     6
  9
$SURFTAB2
 70
     6
  9
$SURFTYPE
 70
     6
  9
$SURFU
 70
     6
  9
$SURFV
 70
     6
  9
$UCSBASE
  2

  9
$UCSNAME
  2

  9
$UCSORG
 10
0.0
 20
0.0
 30
0.0
  9
$UCSXDIR
 10
1.0
 20
0.0
 30
0.0
  9
$UCSYDIR
 10
0.0
 20
1.0
 30
0.0
  9
$UCSORTHOREF
  2

  9
$UCSORTHOVIEW
 70
     0
  9
$UCSORGTOP
 10
0.0
 20
0.0
 30
0.0
  9
$UCSORGBOTTOM
 10
0.0
 20
0.0
 30
0.0
  9
$UCSORGLEFT
 10
0.0
 20
0.0
 30
0.0
  9
$UCSORGRIGHT
 10
0.0
 20
0.0
 30
0.0
  9
$UCSORGFRONT
 10
0.0
 20
0.0
 30
0.0
  9
$UCSORGBACK
 10
0.0
 20
0.0
 30
0.0
  9
$PUCSBASE
  2

  9
$PUCSNAME
  2

  9
$PUCSORG
 10
0.0
 20
0.0
 30
0.0
  9
$PUCSXDIR
 10
1.0
 20
0.0
 30
0.0
  9
$PUCSYDIR
 10
0.0
 20
1.0
 30
0.0
  9
$PUCSORTHOREF
  2

  9
$PUCSORTHOVIEW
 70
     0
  9
$PUCSORGTOP
 10
0.0
 20
0.0
 30
0.0
  9
$PUCSORGBOTTOM
 10
0.0
 20
0.0
 30
0.0
  9
$PUCSORGLEFT
 10
0.0
 20
0.0
 30
0.0
  9
$PUCSORGRIGHT
 10
0.0
 20
0.0
 30
0.0
  9
$PUCSORGFRONT
 10
0.0
 20
0.0
 30
0.0
  9
$PUCSORGBACK
 10
0.0
 20
0.0
 30
0.0
  9
$USERI1
 70
     0
  9
$USERI2
 70
     0
  9
$USERI3
 70
     0
  9
$USERI4
 70
     0
  9
$USERI5
 70
     0
  9
$USERR1
 40
0.0
  9
$USERR2
 40
0.0
  9
$USERR3
 40
0.0
  9
$USERR4
 40
0.0
  9
$USERR5
 40
0.0
  9
$WORLDVIEW
 70
     1
  9
$SHADEDGE
 70
     3
  9
$SHADEDIF
 70
    70
  9
$TILEMODE
 70
     1
  9
$MAXACTVP
 70
    64
  9
$PINSBASE
 10
0.0
 20
0.0
 30
0.0
  9
$PLIMCHECK
 70
     0
  9
$PEXTMIN
 10
1.0000000000E+20
 20
1.0000000000E+20
 30
1.0000000000E+20
  9
$PEXTMAX
 10
-1.0000000000E+20
 20
-1.0000000000E+20
 30
-1.0000000000E+20
  9
$PLIMMIN
 10
0.0
 20
0.0
  9
$PLIMMAX
 10
420.0
 20
297.0
  9
$UNITMODE
 70
     0
  9
$VISRETAIN
 70
     1
  9
$PLINEGEN
 70
     0
  9
$PSLTSCALE
 70
     1
  9
$TREEDEPTH
 70
  3020
  9
$CMLSTYLE
  2
Standard
  9
$CMLJUST
 70
     0
  9
$CMLSCALE
 40
20.0
  9
$PROXYGRAPHICS
 70
     1
  9
$MEASUREMENT
 70
     1
  9
$CELWEIGHT
370
    -1
  9
$ENDCAPS
280
     0
  9
$JOINSTYLE
280
     0
  9
$LWDISPLAY
290
     1
  9
$INSUNITS
 70
     4
  9
$HYPERLINKBASE
  1

  9
$STYLESHEET
  1

  9
$XEDIT
290
     1
  9
$CEPSNTYPE
380
     0
  9
$PSTYLEMODE
290
     1
  9
$FINGERPRINTGUID
  2
{8C7D91E6-CA3F-4802-944C-0BCD779FBB90}
  9
$VERSIONGUID
  2
{FAEB1C32-E019-11D5-929B-00C0DF256EC4}
  9
$EXTNAMES
290
     1
  9
$PSVPSCALE
 40
0.0
  9
$OLESTARTUP
290
     0
  0
ENDSEC
  0
SECTION
  2
CLASSES
  0
CLASS
  1
ACDBDICTIONARYWDFLT
  2
AcDbDictionaryWithDefault
  3
ObjectDBX Classes
 90
        0
280
     0
281
     0
  0
CLASS
  1
VISUALSTYLE
  2
AcDbVisualStyle
  3
ObjectDBX Classes
 90
     4095
280
     0
281
     0
  0
CLASS
  1
MATERIAL
  2
AcDbMaterial
  3
ObjectDBX Classes
 90
     1153
280
     0
281
     0
  0
CLASS
  1
SCALE
  2
AcDbScale
  3
ObjectDBX Classes
 90
     1153
280
     0
281
     0
  0
CLASS
  1
DICTIONARYVAR
  2
AcDbDictionaryVar
  3
ObjectDBX Classes
 90
        0
280
     0
281
     0
  0
CLASS
  1
ACDBPLACEHOLDER
  2
AcDbPlaceHolder
  3
ObjectDBX Classes
 90
        0
280
     0
281
     0
  0
CLASS
  1
LAYOUT
  2
AcDbLayout
  3
ObjectDBX Classes
 90
        0
280
     0
281
     0
  0
ENDSEC
  0
SECTION
  2
TABLES
  0
TABLE
  2
VPORT
  5
8
330
0
100
AcDbSymbolTable
 70
     1
  0
VPORT
  5
29
330
8
100
AcDbSymbolTableRecord
100
AcDbViewportTableRecord
  2
*Active
 70
     0
 10
0.0
 20
0.0
 11
1.0
 21
1.0
 12
210.0
 22
148.5
 13
0.0
 23
0.0
 14
10.0
 24
10.0
 15
10.0
 25
10.0
 16
0.0
 26
0.0
 36
1.0
 17
0.0
 27
0.0
 37
0.0
 40
297.0
 41
1.4141414141
 42
50.0
 43
0.0
 44
0.0
 50
0.0
 51
0.0
 71
     0
 72
  2000
 73
     1
 74
     3
 75
     0
 76
     0
 77
     0
 78
     0
281
     0
 65
     1
110
0.0
120
0.0
130
0.0
111
1.0
121
0.0
131
0.0
112
0.0
122
1.0
132
0.0
 79
     0
146
0.0
  0
ENDTAB
  0
TABLE
  2
LTYPE
  5
5
330
0
100
AcDbSymbolTable
 70
     6
  0
LTYPE
  5
14
330
5
100
AcDbSymbolTableRecord
100
AcDbLinetypeTableRecord
  2
ByBlock
 70
     0
  3

 72
    65
 73
     0
 40
0.0
  0
LTYPE
  5
15
330
5
100
AcDbSymbolTableRecord
100
AcDbLinetypeTableRecord
  2
ByLayer
 70
     0
  3

 72
    65
 73
     0
 40
0.0
  0
LTYPE
  5
16
330
5
100
AcDbSymbolTableRecord
100
AcDbLinetypeTableRecord
  2
Continuous
 70
     0
  3
Solid line
 72
    65
 73
     0
 40
0.0
  0
LTYPE
  5
3F
330
5
100
AcDbSymbolTableRecord
100
AcDbLinetypeTableRecord
  2
HIDDEN
 70
     0
  3
Hidden __ __ __ __ __ __ __ __ __ __ __ __ __ __
 72
    65
 73
     2
 40
1.905
 49
1.27
 74
     0
 49
-0.635
 74
     0
  0
LTYPE
  5
40
330
5
100
AcDbSymbolTableRecord
100
AcDbLinetypeTableRecord
  2
PHANTOM
 70
     0
  3
Phantom ______  __  __  ______  __  __  ______
 72
    65
 73
     6
 40
12.7
 49
6.35
 74
     0
 49
-1.27
 74
     0
 49
1.27
 74
     0
 49
-1.27
 74
     0
 49
1.27
 74
     0
 49
-1.27
 74
     0
  0
LTYPE
  5
41
330
5
100
AcDbSymbolTableRecord
100
AcDbLinetypeTableRecord
  2
CENTER
 70
     0
  3
Center ____ _ ____ _ ____ _ ____ _ ____ _ ____
 72
    65
 73
     4
 40
10.16
 49
6.35
 74
     0
 49
-1.27
 74
     0
 49
1.27
 74
     0
 49
-1.27
 74
     0
  0
LTYPE
  5
42
330
5
100
AcDbSymbolTableRecord
100
AcDbLinetypeTableRecord
  2
CENTERX2
 70
     0
  3
Center (2x) ________  __  ________  __  _____
 72
    65
 73
     4
 40
20.32
 49
12.7
 74
     0
 49
-2.54
 74
     0
 49
2.54
 74
     0
 49
-2.54
 74
     0
  0
LTYPE
  5
43
330
5
100
AcDbSymbolTableRecord
100
AcDbLinetypeTableRecord
  2
DOT2
 70
     0
  3
Dot (.5x) ........................................
 72
    65
 73
     2
 40
0.635
 49
0.0
 74
     0
 49
-0.635
 74
     0
  0
ENDTAB
  0
TABLE
  2
LAYER
  5
2
330
0
100
AcDbSymbolTable
 70
    20
  0
LAYER
  5
10
330
2
100
AcDbSymbolTableRecord
100
AcDbLayerTableRecord
  2
0
 70
     0
 62
     7
  6
Continuous
370
    -3
390
F
  0
LAYER
  5
44
330
2
100
AcDbSymbolTableRecord
100
AcDbLayerTableRecord
  2
SLD-DEFPOINTS
 70
     0
 62
     7
  6
Continuous
370
    -1
390
F
  0
LAYER
  5
45
330
2
100
AcDbSymbolTableRecord
100
AcDbLayerTableRecord
  2
1
 70
     0
 62
     4
  6
Continuous
370
    15
390
F
  0
LAYER
  5
46
330
2
100
AcDbSymbolTableRecord
100
AcDbLayerTableRecord
  2
2
 70
     0
 62
     7
  6
Continuous
370
    -3
390
F
  0
LAYER
  5
47
330
2
100
AcDbSymbolTableRecord
100
AcDbLayerTableRecord
  2
3
 70
     0
 62
     1
  6
HIDDEN
370
    -3
390
F
  0
LAYER
  5
48
330
2
100
AcDbSymbolTableRecord
100
AcDbLayerTableRecord
  2
4
 70
     0
 62
     2
  6
CENTERX2
370
    -3
390
F
  0
LAYER
  5
49
330
2
100
AcDbSymbolTableRecord
100
AcDbLayerTableRecord
  2
6
 70
     0
 62
     5
  6
Continuous
370
    -3
390
F
  0
LAYER
  5
4A
330
2
100
AcDbSymbolTableRecord
100
AcDbLayerTableRecord
  2
7
 70
     0
 62
     5
  6
Continuous
370
    -3
390
F
  0
LAYER
  5
4B
330
2
100
AcDbSymbolTableRecord
100
AcDbLayerTableRecord
  2
CUT
 70
     0
 62
     1
  6
Continuous
370
    -3
390
F
  0
LAYER
  5
4C
330
2
100
AcDbSymbolTableRecord
100
AcDbLayerTableRecord
  2
NOCUT
 70
     0
 62
     7
  6
Continuous
370
    -3
390
F
  0
LAYER
  5
4D
330
2
100
AcDbSymbolTableRecord
100
AcDbLayerTableRecord
  2
SK1
 70
     0
 62
     4
  6
Continuous
370
    15
390
F
  0
LAYER
  5
4E
330
2
100
AcDbSymbolTableRecord
100
AcDbLayerTableRecord
  2
SK2
 70
     0
 62
     7
  6
Continuous
370
    -3
390
F
  0
LAYER
  5
4F
330
2
100
AcDbSymbolTableRecord
100
AcDbLayerTableRecord
  2
SK3
 70
     0
 62
     1
  6
HIDDEN
370
    -3
390
F
  0
LAYER
  5
50
330
2
100
AcDbSymbolTableRecord
100
AcDbLayerTableRecord
  2
SK4
 70
     0
 62
     2
  6
CENTERX2
370
    -3
390
F
  0
LAYER
  5
51
330
2
100
AcDbSymbolTableRecord
100
AcDbLayerTableRecord
  2
SK6
 70
     0
 62
     5
  6
Continuous
370
    -3
390
F
  0
LAYER
  5
52
330
2
100
AcDbSymbolTableRecord
100
AcDbLayerTableRecord
  2
SK7
 70
     0
 62
     5
  6
Continuous
370
    -3
390
F
  0
LAYER
  5
53
330
2
100
AcDbSymbolTableRecord
100
AcDbLayerTableRecord
  2
SLD-0
 70
     0
 62
     7
  6
Continuous
370
    -1
390
F
  0
LAYER
  5
54
330
2
100
AcDbSymbolTableRecord
100
AcDbLayerTableRecord
  2
SLD-DEFPOINTS_0
 70
     0
 62
     7
  6
Continuous
370
    -1
390
F
  0
LAYER
  5
55
330
2
100
AcDbSymbolTableRecord
100
AcDbLayerTableRecord
  2
INFTOTAL
 70
     0
 62
     9
  6
Continuous
370
    -3
390
F
  0
LAYER
  5
56
330
2
100
AcDbSymbolTableRecord
100
AcDbLayerTableRecord
  2
INFTEXT63
 70
     0
 62
     5
  6
Continuous
370
    -3
390
F
  0
ENDTAB
  0
TABLE
  2
STYLE
  5
3
330
0
100
AcDbSymbolTable
 70
     2
  0
STYLE
  5
11
330
3
100
AcDbSymbolTableRecord
100
AcDbTextStyleTableRecord
  2
STANDARD
 70
     0
 40
0.0
 41
1.0
 50
0.0
 71
     0
 42
2.5
  3
GOTHIC.TTF
  4

1001
ACAD
1000
CENTURY GOTHIC
1071
       34
  0
STYLE
  5
57
330
3
100
AcDbSymbolTableRecord
100
AcDbTextStyleTableRecord
  2
SLDTEXTSTYLE0
 70
     0
 40
0.0
 41
1.0
 50
0.0
 71
     0
 42
0.2
  3
Monospac821 BT
  4

1001
ACAD
1000
Monospac821 BT
1071
      305
  0
ENDTAB
  0
TABLE
  2
VIEW
  5
6
330
0
100
AcDbSymbolTable
 70
     0
  0
ENDTAB
  0
TABLE
  2
UCS
  5
7
330
0
100
AcDbSymbolTable
 70
     0
  0
ENDTAB
  0
TABLE
  2
APPID
  5
9
330
0
100
AcDbSymbolTable
 70
     1
  0
APPID
  5
12
330
9
100
AcDbSymbolTableRecord
100
AcDbRegAppTableRecord
  2
ACAD
 70
     0
  0
ENDTAB
  0
TABLE
  2
DIMSTYLE
  5
A
330
0
100
AcDbSymbolTable
 70
     3
100
AcDbDimStyleTable
  0
DIMSTYLE
105
27
330
A
100
AcDbSymbolTableRecord
100
AcDbDimStyleTableRecord
  2
ISO-25
 70
     0
 41
2.5
 42
0.625
 43
3.75
 44
1.25
 73
     0
 74
     0
 77
     1
 78
     8
140
2.5
141
2.5
143
0.0393700787
147
0.625
171
     3
172
     1
271
     2
272
     2
274
     3
278
    44
283
     0
284
     8
340
57
  0
DIMSTYLE
105
CB
102
{ACAD_REACTORS
330
A8
330
D5
330
DF
102
}
330
A
100
AcDbSymbolTableRecord
100
AcDbDimStyleTableRecord
  2
SLDDIMSTYLE0
 70
     0
 41
3.302
 44
0.0
 45
0.000000001
 73
     0
 77
     1
 78
    12
140
3.5
147
0.875
173
     1
271
     2
272
     2
276
     2
284
    12
340
57
  0
DIMSTYLE
105
EA
102
{ACAD_REACTORS
330
E9
330
F6
330
102
330
10F
330
11C
102
}
330
A
100
AcDbSymbolTableRecord
100
AcDbDimStyleTableRecord
  2
SLDDIMSTYLE1
 70
     0
 41
3.302
 44
0.0
 45
0.000000001
 73
     0
 77
     1
 78
    12
140
3.5
147
0.875
173
     1
271
     2
272
     2
276
     2
284
    12
340
57
  0
ENDTAB
  0
TABLE
  2
BLOCK_RECORD
  5
1
330
0
100
AcDbSymbolTable
 70
    11
  0
BLOCK_RECORD
  5
1F
330
1
100
AcDbSymbolTableRecord
100
AcDbBlockTableRecord
  2
*Model_Space
340
22
  0
BLOCK_RECORD
  5
1B
330
1
100
AcDbSymbolTableRecord
100
AcDbBlockTableRecord
  2
*Paper_Space
340
1E
  0
BLOCK_RECORD
  5
23
330
1
100
AcDbSymbolTableRecord
100
AcDbBlockTableRecord
  2
*Paper_Space0
340
26
  0
BLOCK_RECORD
  5
CC
330
1
100
AcDbSymbolTableRecord
100
AcDbBlockTableRecord
  2
*D1
340
0
  0
BLOCK_RECORD
  5
D6
330
1
100
AcDbSymbolTableRecord
100
AcDbBlockTableRecord
  2
*D2
340
0
  0
BLOCK_RECORD
  5
E0
330
1
100
AcDbSymbolTableRecord
100
AcDbBlockTableRecord
  2
*D3
340
0
  0
BLOCK_RECORD
  5
EB
330
1
100
AcDbSymbolTableRecord
100
AcDbBlockTableRecord
  2
*D4
340
0
  0
BLOCK_RECORD
  5
F7
330
1
100
AcDbSymbolTableRecord
100
AcDbBlockTableRecord
  2
*D5
340
0
  0
BLOCK_RECORD
  5
103
330
1
100
AcDbSymbolTableRecord
100
AcDbBlockTableRecord
  2
*D6
340
0
  0
BLOCK_RECORD
  5
110
330
1
100
AcDbSymbolTableRecord
100
AcDbBlockTableRecord
  2
*D7
340
0
  0
BLOCK_RECORD
  5
11D
330
1
100
AcDbSymbolTableRecord
100
AcDbBlockTableRecord
  2
*D8
340
0
  0
BLOCK_RECORD
  5
129
330
1
100
AcDbSymbolTableRecord
100
AcDbBlockTableRecord
  2
SW_NOTE_0
340
0
102
{BLKREFS
331
131
102
}
  0
BLOCK_RECORD
  5
132
330
1
100
AcDbSymbolTableRecord
100
AcDbBlockTableRecord
  2
SW_NOTE_1
340
0
102
{BLKREFS
331
138
102
}
  0
ENDTAB
  0
ENDSEC
  0
SECTION
  2
BLOCKS
  0
BLOCK
  5
20
330
1F
100
AcDbEntity
  8
0
100
AcDbBlockBegin
  2
*Model_Space
 70
     0
 10
0.0
 20
0.0
 30
0.0
  3
*Model_Space
  1

  0
ENDBLK
  5
21
330
1F
100
AcDbEntity
  8
0
100
AcDbBlockEnd
  0
BLOCK
  5
1C
330
1B
100
AcDbEntity
 67
     1
  8
0
100
AcDbBlockBegin
  2
*Paper_Space
 70
     0
 10
0.0
 20
0.0
 30
0.0
  3
*Paper_Space
  1

  0
ENDBLK
  5
1D
330
1B
100
AcDbEntity
 67
     1
  8
0
100
AcDbBlockEnd
  0
BLOCK
  5
24
330
23
100
AcDbEntity
  8
0
100
AcDbBlockBegin
  2
*Paper_Space0
 70
     0
 10
0.0
 20
0.0
 30
0.0
  3
*Paper_Space0
  1

  0
ENDBLK
  5
25
330
23
100
AcDbEntity
  8
0
100
AcDbBlockEnd
  0
BLOCK
  5
CD
330
CC
100
AcDbEntity
  8
0
100
AcDbBlockBegin
  2
*D1
 70
     1
 10
0.0
 20
0.0
 30
0.0
  3
*D1
  1

  0
SOLID
  5
CF
330
CC
100
AcDbEntity
  8
2
100
AcDbTrace
 10
21.9995907099
 20
74.8568741447
 30
0.0
 11
18.6975907099
 21
75.3648741447
 31
0.0
 12
18.6975907099
 22
74.3488741447
 32
0.0
 13
18.6975907099
 23
74.3488741447
 33
0.0
  0
SOLID
  5
D0
330
CC
100
AcDbEntity
  8
2
100
AcDbTrace
 10
0.0
 20
74.8568741447
 30
0.0
 11
3.302
 21
74.3488741447
 31
0.0
 12
3.302
 22
75.3648741447
 32
0.0
 13
3.302
 23
75.3648741447
 33
0.0
  0
LINE
  5
D1
330
CC
100
AcDbEntity
  8
2
100
AcDbLine
 10
21.9995907099
 20
1.0
 30
0.0
 11
21.9995907099
 21
75.8568741447
 31
0.0
  0
LINE
  5
D2
330
CC
100
AcDbEntity
  8
2
100
AcDbLine
 10
0.0
 20
1.0
 30
0.0
 11
0.0
 21
75.8568741447
 31
0.0
  0
LINE
  5
D3
330
CC
100
AcDbEntity
  8
2
100
AcDbLine
 10
21.9995907099
 20
74.8568741447
 30
0.0
 11
0.0
 21
74.8568741447
 31
0.0
  0
MTEXT
  5
D4
330
CC
100
AcDbEntity
  8
2
100
AcDbMText
 10
7.2767774807
 20
79.4635576001
 30
0.0
 40
3.5
 41
0.0
 71
     1
 72
     1
  1
22
  7
SLDTEXTSTYLE0
 73
     1
 44
1.0
  0
ENDBLK
  5
CE
330
CC
100
AcDbEntity
  8
0
100
AcDbBlockEnd
  0
BLOCK
  5
D7
330
D6
100
AcDbEntity
  8
0
100
AcDbBlockBegin
  2
*D2
 70
     1
 10
0.0
 20
0.0
 30
0.0
  3
*D2
  1

  0
SOLID
  5
D9
330
D6
100
AcDbEntity
  8
SK2
100
AcDbTrace
 10
0.0
 20
66.0
 30
0.0
 11
-3.302
 21
66.508
 31
0.0
 12
-3.302
 22
65.492
 32
0.0
 13
-3.302
 23
65.492
 33
0.0
  0
SOLID
  5
DA
330
D6
100
AcDbEntity
  8
SK2
100
AcDbTrace
 10
-28.0
 20
66.0
 30
0.0
 11
-24.698
 21
65.492
 31
0.0
 12
-24.698
 22
66.508
 32
0.0
 13
-24.698
 23
66.508
 33
0.0
  0
LINE
  5
DB
330
D6
100
AcDbEntity
  8
SK2
100
AcDbLine
 10
0.0
 20
1.0
 30
0.0
 11
0.0
 21
67.0
 31
0.0
  0
LINE
  5
DC
330
D6
100
AcDbEntity
  8
SK2
100
AcDbLine
 10
-28.0
 20
1.0
 30
0.0
 11
-28.0
 21
67.0
 31
0.0
  0
LINE
  5
DD
330
D6
100
AcDbEntity
  8
SK2
100
AcDbLine
 10
0.0
 20
66.0
 30
0.0
 11
-28.0
 21
66.0
 31
0.0
  0
MTEXT
  5
DE
330
D6
100
AcDbEntity
  8
SK2
100
AcDbMText
 10
-17.4857047039
 20
70.6066834554
 30
0.0
 40
3.5
 41
0.0
 71
     1
 72
     1
  1
28
  7
SLDTEXTSTYLE0
 73
     1
 44
1.0
  0
ENDBLK
  5
D8
330
D6
100
AcDbEntity
  8
0
100
AcDbBlockEnd
  0
BLOCK
  5
E1
330
E0
100
AcDbEntity
  8
0
100
AcDbBlockBegin
  2
*D3
 70
     1
 10
0.0
 20
0.0
 30
0.0
  3
*D3
  1

  0
SOLID
  5
E3
330
E0
100
AcDbEntity
  8
SK2
100
AcDbTrace
 10
21.9995907099
 20
84.0
 30
0.0
 11
18.6975907099
 21
84.508
 31
0.0
 12
18.6975907099
 22
83.492
 32
0.0
 13
18.6975907099
 23
83.492
 33
0.0
  0
SOLID
  5
E4
330
E0
100
AcDbEntity
  8
SK2
100
AcDbTrace
 10
-28.0
 20
84.0
 30
0.0
 11
-24.698
 21
83.492
 31
0.0
 12
-24.698
 22
84.508
 32
0.0
 13
-24.698
 23
84.508
 33
0.0
  0
LINE
  5
E5
330
E0
100
AcDbEntity
  8
SK2
100
AcDbLine
 10
21.9995907099
 20
1.0
 30
0.0
 11
21.9995907099
 21
85.0
 31
0.0
  0
LINE
  5
E6
330
E0
100
AcDbEntity
  8
SK2
100
AcDbLine
 10
-28.0
 20
1.0
 30
0.0
 11
-28.0
 21
85.0
 31
0.0
  0
LINE
  5
E7
330
E0
100
AcDbEntity
  8
SK2
100
AcDbLine
 10
21.9995907099
 20
84.0
 30
0.0
 11
-28.0
 21
84.0
 31
0.0
  0
MTEXT
  5
E8
330
E0
100
AcDbEntity
  8
SK2
100
AcDbMText
 10
-3.5625528144
 20
88.6066834554
 30
0.0
 40
3.5
 41
0.0
 71
     1
 72
     1
  1
50
  7
SLDTEXTSTYLE0
 73
     1
 44
1.0
  0
ENDBLK
  5
E2
330
E0
100
AcDbEntity
  8
0
100
AcDbBlockEnd
  0
BLOCK
  5
EC
330
EB
100
AcDbEntity
  8
0
100
AcDbBlockBegin
  2
*D4
 70
     1
 10
0.0
 20
0.0
 30
0.0
  3
*D4
  1

  0
SOLID
  5
EE
330
EB
100
AcDbEntity
  8
SK2
100
AcDbTrace
 10
21.9995907099
 20
66.0
 30
0.0
 11
25.3015907099
 21
65.492
 31
0.0
 12
25.3015907099
 22
66.508
 32
0.0
 13
25.3015907099
 23
66.508
 33
0.0
  0
SOLID
  5
EF
330
EB
100
AcDbEntity
  8
SK2
100
AcDbTrace
 10
21.8
 20
66.0
 30
0.0
 11
18.498
 21
66.508
 31
0.0
 12
18.498
 22
65.492
 32
0.0
 13
18.498
 23
65.492
 33
0.0
  0
LINE
  5
F0
330
EB
100
AcDbEntity
  8
SK2
100
AcDbLine
 10
21.9995907099
 20
1.0
 30
0.0
 11
21.9995907099
 21
67.0
 31
0.0
  0
LINE
  5
F1
330
EB
100
AcDbEntity
  8
SK2
100
AcDbLine
 10
21.8
 20
1.0445410771
 30
0.0
 11
21.8
 21
67.0
 31
0.0
  0
LINE
  5
F2
330
EB
100
AcDbEntity
  8
SK2
100
AcDbLine
 10
21.9995907099
 20
66.0
 30
0.0
 11
37.7649504814
 21
66.0
 31
0.0
  0
LINE
  5
F3
330
EB
100
AcDbEntity
  8
SK2
100
AcDbLine
 10
21.9995907099
 20
66.0
 30
0.0
 11
21.8
 21
66.0
 31
0.0
  0
LINE
  5
F4
330
EB
100
AcDbEntity
  8
SK2
100
AcDbLine
 10
21.8
 20
66.0
 30
0.0
 11
15.45
 21
66.0
 31
0.0
  0
MTEXT
  5
F5
330
EB
100
AcDbEntity
  8
SK2
100
AcDbMText
 10
27.8506146408
 20
70.6066834554
 30
0.0
 40
3.5
 41
0.0
 71
     1
 72
     1
  1
0,2
  7
SLDTEXTSTYLE0
 73
     1
 44
1.0
  0
ENDBLK
  5
ED
330
EB
100
AcDbEntity
  8
0
100
AcDbBlockEnd
  0
BLOCK
  5
F8
330
F7
100
AcDbEntity
  8
0
100
AcDbBlockBegin
  2
*D5
 70
     1
 10
0.0
 20
0.0
 30
0.0
  3
*D5
  1

  0
SOLID
  5
FA
330
F7
100
AcDbEntity
  8
SK2
100
AcDbTrace
 10
21.9995907099
 20
54.0
 30
0.0
 11
25.3015907099
 21
53.492
 31
0.0
 12
25.3015907099
 22
54.508
 32
0.0
 13
25.3015907099
 23
54.508
 33
0.0
  0
SOLID
  5
FB
330
F7
100
AcDbEntity
  8
SK2
100
AcDbTrace
 10
21.5
 20
54.0
 30
0.0
 11
18.198
 21
54.508
 31
0.0
 12
18.198
 22
53.492
 32
0.0
 13
18.198
 23
53.492
 33
0.0
  0
LINE
  5
FC
330
F7
100
AcDbEntity
  8
SK2
100
AcDbLine
 10
21.9995907099
 20
1.0
 30
0.0
 11
21.9995907099
 21
55.0
 31
0.0
  0
LINE
  5
FD
330
F7
100
AcDbEntity
  8
SK2
100
AcDbLine
 10
21.5
 20
1.045
 30
0.0
 11
21.5
 21
55.0
 31
0.0
  0
LINE
  5
FE
330
F7
100
AcDbEntity
  8
SK2
100
AcDbLine
 10
21.9995907099
 20
54.0
 30
0.0
 11
28.3495907099
 21
54.0
 31
0.0
  0
LINE
  5
FF
330
F7
100
AcDbEntity
  8
SK2
100
AcDbLine
 10
21.9995907099
 20
54.0
 30
0.0
 11
21.5
 21
54.0
 31
0.0
  0
LINE
  5
100
330
F7
100
AcDbEntity
  8
SK2
100
AcDbLine
 10
21.5
 20
54.0
 30
0.0
 11
4.3008366463
 21
54.0
 31
0.0
  0
MTEXT
  5
101
330
F7
100
AcDbEntity
  8
SK2
100
AcDbMText
 10
5.8883366463
 20
58.6066834554
 30
0.0
 40
3.5
 41
0.0
 71
     1
 72
     1
  1
0,5
  7
SLDTEXTSTYLE0
 73
     1
 44
1.0
  0
ENDBLK
  5
F9
330
F7
100
AcDbEntity
  8
0
100
AcDbBlockEnd
  0
BLOCK
  5
104
330
103
100
AcDbEntity
  8
0
100
AcDbBlockBegin
  2
*D6
 70
     1
 10
0.0
 20
0.0
 30
0.0
  3
*D6
  1

  0
SOLID
  5
106
330
103
100
AcDbEntity
  8
2
100
AcDbTrace
 10
44.0140325611
 20
0.05
 30
0.0
 11
44.5220325611
 21
3.352
 31
0.0
 12
43.5060325611
 22
3.352
 32
0.0
 13
43.5060325611
 23
3.352
 33
0.0
  0
SOLID
  5
107
330
103
100
AcDbEntity
  8
2
100
AcDbTrace
 10
44.0140325611
 20
-0.05
 30
0.0
 11
43.5060325611
 21
-3.352
 31
0.0
 12
44.5220325611
 22
-3.352
 32
0.0
 13
44.5220325611
 23
-3.352
 33
0.0
  0
LINE
  5
108
330
103
100
AcDbEntity
  8
2
100
AcDbLine
 10
22.9995907099
 20
0.05
 30
0.0
 11
45.0140325611
 21
0.05
 31
0.0
  0
LINE
  5
109
330
103
100
AcDbEntity
  8
2
100
AcDbLine
 10
22.9995907099
 20
-0.05
 30
0.0
 11
45.0140325611
 21
-0.05
 31
0.0
  0
LINE
  5
10A
330
103
100
AcDbEntity
  8
2
100
AcDbLine
 10
44.0140325611
 20
0.05
 30
0.0
 11
44.0140325611
 21
22.6323529485
 31
0.0
  0
LINE
  5
10B
330
103
100
AcDbEntity
  8
2
100
AcDbLine
 10
44.0140325611
 20
0.05
 30
0.0
 11
44.0140325611
 21
-0.05
 31
0.0
  0
LINE
  5
10C
330
103
100
AcDbEntity
  8
2
100
AcDbLine
 10
44.0140325611
 20
-0.05
 30
0.0
 11
44.0140325611
 21
-6.4
 31
0.0
  0
MTEXT
  5
10D
330
103
100
AcDbEntity
  8
2
100
AcDbMText
 10
39.4073488729
 20
7.4689870126
 30
0.0
 40
3.5
 41
0.0
 71
     1
 72
     1
  1
%%c
  7
SLDTEXTSTYLE0
 11
-7.044195017643634E-15
 21
1.0
 31
0.0
 73
     1
 44
1.0
  0
MTEXT
  5
10E
330
103
100
AcDbEntity
  8
2
100
AcDbMText
 10
39.4073491057
 20
12.7180171079
 30
0.0
 40
3.5
 41
0.0
 71
     1
 72
     1
  1
0,1
  7
SLDTEXTSTYLE0
 11
-7.044195017643634E-15
 21
1.0
 31
0.0
 73
     1
 44
1.0
  0
ENDBLK
  5
105
330
103
100
AcDbEntity
  8
0
100
AcDbBlockEnd
  0
BLOCK
  5
111
330
110
100
AcDbEntity
  8
0
100
AcDbBlockBegin
  2
*D7
 70
     1
 10
0.0
 20
0.0
 30
0.0
  3
*D7
  1

  0
SOLID
  5
113
330
110
100
AcDbEntity
  8
SK2
100
AcDbTrace
 10
-38.0
 20
2.0
 30
0.0
 11
-37.492
 21
5.302
 31
0.0
 12
-38.508
 22
5.302
 32
0.0
 13
-38.508
 23
5.302
 33
0.0
  0
SOLID
  5
114
330
110
100
AcDbEntity
  8
SK2
100
AcDbTrace
 10
-38.0
 20
-2.0
 30
0.0
 11
-38.508
 21
-5.302
 31
0.0
 12
-37.492
 22
-5.302
 32
0.0
 13
-37.492
 23
-5.302
 33
0.0
  0
LINE
  5
115
330
110
100
AcDbEntity
  8
SK2
100
AcDbLine
 10
-29.0
 20
2.0
 30
0.0
 11
-39.0
 21
2.0
 31
0.0
  0
LINE
  5
116
330
110
100
AcDbEntity
  8
SK2
100
AcDbLine
 10
-29.0
 20
-2.0
 30
0.0
 11
-39.0
 21
-2.0
 31
0.0
  0
LINE
  5
117
330
110
100
AcDbEntity
  8
SK2
100
AcDbLine
 10
-38.0
 20
2.0
 30
0.0
 11
-38.0
 21
19.8564235712
 31
0.0
  0
LINE
  5
118
330
110
100
AcDbEntity
  8
SK2
100
AcDbLine
 10
-38.0
 20
2.0
 30
0.0
 11
-38.0
 21
-2.0
 31
0.0
  0
LINE
  5
119
330
110
100
AcDbEntity
  8
SK2
100
AcDbLine
 10
-38.0
 20
-2.0
 30
0.0
 11
-38.0
 21
-8.35
 31
0.0
  0
MTEXT
  5
11A
330
110
100
AcDbEntity
  8
SK2
100
AcDbMText
 10
-42.6066836882
 20
10.2449163899
 30
0.0
 40
3.5
 41
0.0
 71
     1
 72
     1
  1
%%c
  7
SLDTEXTSTYLE0
 11
-7.044195017643634E-15
 21
1.0
 31
0.0
 73
     1
 44
1.0
  0
MTEXT
  5
11B
330
110
100
AcDbEntity
  8
SK2
100
AcDbMText
 10
-42.6066834554
 20
15.4939464852
 30
0.0
 40
3.5
 41
0.0
 71
     1
 72
     1
  1
4
  7
SLDTEXTSTYLE0
 11
-7.044195017643634E-15
 21
1.0
 31
0.0
 73
     1
 44
1.0
  0
ENDBLK
  5
112
330
110
100
AcDbEntity
  8
0
100
AcDbBlockEnd
  0
BLOCK
  5
11E
330
11D
100
AcDbEntity
  8
0
100
AcDbBlockBegin
  2
*D8
 70
     1
 10
0.0
 20
0.0
 30
0.0
  3
*D8
  1

  0
SOLID
  5
120
330
11D
100
AcDbEntity
  8
SK2
100
AcDbTrace
 10
16.6906212435
 20
0.045
 30
0.0
 11
17.1986212435
 21
3.347
 31
0.0
 12
16.1826212435
 22
3.347
 32
0.0
 13
16.1826212435
 23
3.347
 33
0.0
  0
SOLID
  5
121
330
11D
100
AcDbEntity
  8
SK2
100
AcDbTrace
 10
16.6906212435
 20
-0.045
 30
0.0
 11
16.1826212435
 21
-3.347
 31
0.0
 12
17.1986212435
 22
-3.347
 32
0.0
 13
17.1986212435
 23
-3.347
 33
0.0
  0
LINE
  5
122
330
11D
100
AcDbEntity
  8
SK2
100
AcDbLine
 10
20.5
 20
0.045
 30
0.0
 11
15.6906212435
 21
0.045
 31
0.0
  0
LINE
  5
123
330
11D
100
AcDbEntity
  8
SK2
100
AcDbLine
 10
20.5
 20
-0.045
 30
0.0
 11
15.6906212435
 21
-0.045
 31
0.0
  0
LINE
  5
124
330
11D
100
AcDbEntity
  8
SK2
100
AcDbLine
 10
16.6906212435
 20
0.045
 30
0.0
 11
16.6906212435
 21
22.6323529485
 31
0.0
  0
LINE
  5
125
330
11D
100
AcDbEntity
  8
SK2
100
AcDbLine
 10
16.6906212435
 20
0.045
 30
0.0
 11
16.6906212435
 21
-0.045
 31
0.0
  0
LINE
  5
126
330
11D
100
AcDbEntity
  8
SK2
100
AcDbLine
 10
16.6906212435
 20
-0.045
 30
0.0
 11
16.6906212435
 21
-6.395
 31
0.0
  0
MTEXT
  5
127
330
11D
100
AcDbEntity
  8
SK2
100
AcDbMText
 10
12.0839375553
 20
7.4689870126
 30
0.0
 40
3.5
 41
0.0
 71
     1
 72
     1
  1
%%c
  7
SLDTEXTSTYLE0
 11
-7.044195017643634E-15
 21
1.0
 31
0.0
 73
     1
 44
1.0
  0
MTEXT
  5
128
330
11D
100
AcDbEntity
  8
SK2
100
AcDbMText
 10
12.0839377881
 20
12.7180171079
 30
0.0
 40
3.5
 41
0.0
 71
     1
 72
     1
  1
0,1
  7
SLDTEXTSTYLE0
 11
-7.044195017643634E-15
 21
1.0
 31
0.0
 73
     1
 44
1.0
  0
ENDBLK
  5
11F
330
11D
100
AcDbEntity
  8
0
100
AcDbBlockEnd
  0
BLOCK
  5
12A
330
129
100
AcDbEntity
  8
0
100
AcDbBlockBegin
  2
SW_NOTE_0
 70
     0
 10
0.0
 20
0.0
 30
0.0
  3
SW_NOTE_0
  1

  0
MTEXT
  5
12C
330
129
100
AcDbEntity
  8
INFTEXT63
 62
     0
100
AcDbMText
 10
0.0
 20
4.6066838046
 30
0.0
 40
3.5
 41
0.0
 71
     1
 72
     1
  1
Katalogware 2570020001
  7
SLDTEXTSTYLE0
 73
     1
 44
1.0
  0
MTEXT
  5
12D
330
129
100
AcDbEntity
  8
INFTEXT63
 62
     0
100
AcDbMText
 10
0.0
 20
0.0177948465
 30
0.0
 40
3.5
 41
0.0
 71
     1
 72
     1
  1
H. Sartorius Nachf. GmbH & Co. KG
  7
SLDTEXTSTYLE0
 73
     1
 44
1.0
  0
MTEXT
  5
12E
330
129
100
AcDbEntity
  8
INFTEXT63
 62
     0
100
AcDbMText
 10
0.0
 20
-4.5710941116
 30
0.0
 40
3.5
 41
0.0
 71
     1
 72
     1
  1
Harkortstrasse 54 
  7
SLDTEXTSTYLE0
 73
     1
 44
1.0
  0
MTEXT
  5
12F
330
129
100
AcDbEntity
  8
INFTEXT63
 62
     0
100
AcDbMText
 10
0.0
 20
-9.1599830697
 30
0.0
 40
3.5
 41
0.0
 71
     1
 72
     1
  1
40880 Ratingen
  7
SLDTEXTSTYLE0
 73
     1
 44
1.0
  0
MTEXT
  5
130
330
129
100
AcDbEntity
  8
INFTEXT63
 62
     0
100
AcDbMText
 10
0.0
 20
-13.7488720278
 30
0.0
 40
3.5
 41
0.0
 71
     1
 72
     1
  1
Deutschland
  7
SLDTEXTSTYLE0
 73
     1
 44
1.0
  0
ENDBLK
  5
12B
330
129
100
AcDbEntity
  8
0
100
AcDbBlockEnd
  0
BLOCK
  5
133
330
132
100
AcDbEntity
  8
0
100
AcDbBlockBegin
  2
SW_NOTE_1
 70
     0
 10
0.0
 20
0.0
 30
0.0
  3
SW_NOTE_1
  1

  0
MTEXT
  5
135
330
132
100
AcDbEntity
  8
INFTEXT63
 62
     0
100
AcDbMText
 10
0.0
 20
4.6066838046
 30
0.0
 40
3.5
 41
0.0
 71
     1
 72
     1
  1
Copyright
  7
SLDTEXTSTYLE0
 73
     1
 44
1.0
  0
MTEXT
  5
136
330
132
100
AcDbEntity
  8
INFTEXT63
 62
     0
100
AcDbMText
 10
0.0
 20
-4.5710941116
 30
0.0
 40
3.5
 41
0.0
 71
     1
 72
     1
  1
Zeichnung nach DIN SPEC 69874 konvertiert mit SolidBMG Version 1.2
  7
SLDTEXTSTYLE0
 73
     1
 44
1.0
  0
MTEXT
  5
137
330
132
100
AcDbEntity
  8
INFTEXT63
 62
     0
100
AcDbMText
 10
0.0
 20
-9.1599830697
 30
0.0
 40
3.5
 41
0.0
 71
     1
 72
     1
  1
Geprüft mit DWPTools V1.0.6-BMG Werkzeug / Schneidwerkzeug
  7
SLDTEXTSTYLE0
 73
     1
 44
1.0
  0
ENDBLK
  5
134
330
132
100
AcDbEntity
  8
0
100
AcDbBlockEnd
  0
ENDSEC
  0
SECTION
  2
ENTITIES
  0
LINE
  5
58
330
1F
100
AcDbEntity
  8
SK1
  6
Continuous
370
    15
100
AcDbLine
 10
-28.0
 20
-2.0
 30
0.0
 11
0.0
 21
-2.0
 31
0.0
  0
LINE
  5
59
330
1F
100
AcDbEntity
  8
SK1
  6
Continuous
370
    15
100
AcDbLine
 10
0.0
 20
2.0
 30
0.0
 11
-28.0
 21
2.0
 31
0.0
  0
LINE
  5
5A
330
1F
100
AcDbEntity
  8
1
  6
Continuous
370
    15
100
AcDbLine
 10
21.9191762665
 20
-0.05
 30
0.0
 11
21.9822631352
 21
-0.05
 31
0.0
  0
LINE
  5
5B
330
1F
100
AcDbEntity
  8
1
  6
Continuous
370
    15
100
AcDbLine
 10
21.9822631352
 20
0.05
 30
0.0
 11
21.9191762665
 21
0.05
 31
0.0
  0
LINE
  5
5C
330
1F
100
AcDbEntity
  8
1
  6
Continuous
370
    15
100
AcDbLine
 10
0.0
 20
-2.0
 30
0.0
 11
14.2038406712
 21
-2.0
 31
0.0
  0
LINE
  5
5D
330
1F
100
AcDbEntity
  8
1
  6
Continuous
370
    15
100
AcDbLine
 10
14.2038406712
 20
2.0
 30
0.0
 11
0.0
 21
2.0
 31
0.0
  0
LINE
  5
5E
330
1F
100
AcDbEntity
  8
1
  6
Continuous
370
    15
100
AcDbLine
 10
14.2038406712
 20
-2.0
 30
0.0
 11
21.5
 21
-0.045
 31
0.0
  0
LINE
  5
5F
330
1F
100
AcDbEntity
  8
1
  6
Continuous
370
    15
100
AcDbLine
 10
21.5
 20
0.045
 30
0.0
 11
14.2038406712
 21
2.0
 31
0.0
  0
LINE
  5
60
330
1F
100
AcDbEntity
  8
1
  6
Continuous
370
    15
100
AcDbLine
 10
21.5
 20
-0.045
 30
0.0
 11
21.7890970131
 21
-0.045
 31
0.0
  0
LINE
  5
61
330
1F
100
AcDbEntity
  8
1
  6
Continuous
370
    15
100
AcDbLine
 10
21.7890970131
 20
0.045
 30
0.0
 11
21.5
 21
0.045
 31
0.0
  0
LINE
  5
62
330
1F
100
AcDbEntity
  8
1
  6
Continuous
370
    15
100
AcDbLine
 10
21.9646771059
 20
-0.0001
 30
0.0
 11
21.9995907099
 21
-0.0001
 31
0.0
  0
LINE
  5
63
330
1F
100
AcDbEntity
  8
1
  6
Continuous
370
    15
100
AcDbLine
 10
21.9995907099
 20
0.0001
 30
0.0
 11
21.9646771059
 21
0.0001
 31
0.0
  0
LINE
  5
64
330
1F
100
AcDbEntity
  8
SK1
  6
Continuous
370
    15
100
AcDbLine
 10
0.0
 20
2.0
 30
0.0
 11
0.0
 21
-2.0
 31
0.0
  0
LINE
  5
65
330
1F
100
AcDbEntity
  8
SK1
  6
Continuous
370
    15
100
AcDbLine
 10
-28.0
 20
0.0
 30
0.0
 11
-28.0
 21
2.0
 31
0.0
  0
LINE
  5
66
330
1F
100
AcDbEntity
  8
SK1
  6
Continuous
370
    15
100
AcDbLine
 10
-28.0
 20
-2.0
 30
0.0
 11
-28.0
 21
0.0
 31
0.0
  0
SPLINE
  5
67
330
1F
100
AcDbEntity
  8
1
  6
Continuous
370
    15
100
AcDbSpline
210
0.0
220
0.0
230
1.0
 70
     8
 71
     3
 72
    14
 73
    10
 74
     0
 42
0.00000001
 43
0.00000001
 40
0.0
 40
0.0
 40
0.0
 40
0.0
 40
0.1758196174344213
 40
0.3558052501709199
 40
0.5492872301807226
 40
0.7483551241500892
 40
0.844968207362472
 40
0.9422593805173614
 40
0.9999999999999999
 40
0.9999999999999999
 40
0.9999999999999999
 40
0.9999999999999999
 10
21.8
 20
0.0000000000000009
 30
0.0
 10
21.80698474060103
 20
-0.0046032641504866
 30
0.0
 10
21.82111972401866
 20
-0.0139188659960995
 30
0.0
 10
21.84294400455989
 20
-0.0271972580847784
 30
0.0
 10
21.86569175920161
 20
-0.0386843700241856
 30
0.0
 10
21.88513910413103
 20
-0.0455034127014482
 30
0.0
 10
21.9007381895612
 20
-0.0486873902059903
 30
0.0
 10
21.91072876049326
 20
-0.0499140975321782
 30
0.0
 10
21.91688384419994
 20
-0.0498773872743098
 30
0.0
 10
21.91917626654858
 20
-0.0498637147688538
 30
0.0
  0
SPLINE
  5
68
330
1F
100
AcDbEntity
  8
1
  6
Continuous
370
    15
100
AcDbSpline
210
0.0
220
0.0
230
1.0
 70
     8
 71
     3
 72
    23
 73
    19
 74
     0
 42
0.00000001
 43
0.00000001
 40
0.000024956682289
 40
0.000024956682289
 40
0.000024956682289
 40
0.000024956682289
 40
0.0000506000768627
 40
0.0000506000768627
 40
0.0000506000768627
 40
0.0000778416067434
 40
0.0000778416067434
 40
0.0000778416067434
 40
0.0001049906940555
 40
0.0001049906940555
 40
0.0001049906940555
 40
0.0001321401506524
 40
0.0001321401506524
 40
0.0001321401506524
 40
0.0001874411795802
 40
0.0001874411795802
 40
0.0001874411795802
 40
0.0002382479588821
 40
0.0002382479588821
 40
0.0002382479588821
 40
0.0002382479588821
 10
21.97906560592083
 20
-0.0421226743723619
 30
0.0
 10
21.97189043483031
 20
-0.0395954559742806
 30
0.0
 10
21.96477743344727
 20
-0.0364111669062403
 30
0.0
 10
21.95761094778051
 20
-0.0328662059411903
 30
0.0
 10
21.94995637194336
 20
-0.0290798071666041
 30
0.0
 10
21.94225425693806
 20
-0.0248073493433957
 30
0.0
 10
21.93463683708066
 20
-0.020158019295641
 30
0.0
 10
21.92704502780366
 20
-0.0155243207928499
 30
0.0
 10
21.91932716071617
 20
-0.0107106442857316
 30
0.0
 10
21.91172350201741
 20
-0.0056978893928668
 30
0.0
 10
21.90411990886791
 20
-0.0006851777137196
 30
0.0
 10
21.89649768015803
 20
0.0044425458104129
 30
0.0
 10
21.88884343887176
 20
0.0093238078676695
 30
0.0
 10
21.87341355601541
 20
0.0191637513601321
 30
0.0
 10
21.85787858165998
 20
0.0286935230947994
 30
0.0
 10
21.84256007190439
 20
0.0358031248748897
 30
0.0
 10
21.82845674693591
 20
0.0423487370722253
 30
0.0
 10
21.81423638798198
 20
0.0469846227091375
 30
0.0
 10
21.8
 20
0.0488991100143362
 30
0.0
  0
ELLIPSE
  5
69
330
1F
100
AcDbEntity
  8
1
  6
Continuous
370
    15
100
AcDbEllipse
 10
22.005
 20
0.0
 30
0.0
 11
0.02386702970998656
 21
0.04975625307869562
 31
0.0
210
0.0
220
0.0
230
1.0
 40
0.2066052057
 41
2.671398963366475
 42
4.112074116996075
  0
LINE
  5
6A
330
1F
100
AcDbEntity
  8
1
  6
Continuous
370
    15
100
AcDbLine
 10
21.8
 20
0.0
 30
0.0
 11
21.8
 21
0.04889911
 31
0.0
  0
SPLINE
  5
6B
330
1F
100
AcDbEntity
  8
1
  6
Continuous
370
    15
100
AcDbSpline
210
0.0
220
0.0
230
1.0
 70
     8
 71
     3
 72
    17
 73
    13
 74
     0
 42
0.00000001
 43
0.00000001
 40
0.0
 40
0.0
 40
0.0
 40
0.0
 40
0.096040791813022
 40
0.255432636554787
 40
0.3327898499775671
 40
0.4106900038247454
 40
0.4876150968006769
 40
0.5650740603422383
 40
0.7193246847515568
 40
0.8779889224725491
 40
0.9388625949633267
 40
1.0
 40
1.0
 40
1.0
 40
1.0
 10
21.85117358620589
 20
0.0308752211660631
 30
0.0
 10
21.85593940711439
 20
0.0333593182127092
 30
0.0
 10
21.8686147107747
 20
0.0399660885870945
 30
0.0
 10
21.88513916148742
 20
0.0454480094741797
 30
0.0
 10
21.90073820652082
 20
0.048724945549875
 30
0.0
 10
21.91225049742732
 20
0.0499818462342268
 30
0.0
 10
21.9237688839368
 20
0.0500995671189838
 30
0.0
 10
21.93906938456623
 20
0.0487273977298555
 30
0.0
 10
21.95844750445004
 20
0.0441455137121215
 30
0.0
 10
21.97700613610462
 20
0.0364335180292486
 30
0.0
 10
21.9909197569372
 20
0.0293469616244592
 30
0.0
 10
21.99696889381671
 20
0.0259258037971382
 30
0.0
 10
22.00000000000001
 20
0.024211527388619
 30
0.0
  0
LINE
  5
6C
330
1F
100
AcDbEntity
  8
1
  6
Continuous
370
    15
100
AcDbLine
 10
22.0
 20
0.0242115274
 30
0.0
 11
21.9999918315
 21
0.0223055859
 31
0.0
  0
SPLINE
  5
6D
330
1F
100
AcDbEntity
  8
1
  6
Continuous
370
    15
100
AcDbSpline
210
0.0
220
0.0
230
1.0
 70
     8
 71
     3
 72
     8
 73
     4
 74
     0
 42
0.00000001
 43
0.00000001
 40
0.0000009344022518
 40
0.0000009344022518
 40
0.0000009344022518
 40
0.0000009344022518
 40
0.0000178038966777
 40
0.0000178038966777
 40
0.0000178038966777
 40
0.0000178038966777
 10
21.99999183154485
 20
0.0223055858728504
 30
0.0
 10
21.99994268582458
 20
0.0195981112278154
 30
0.0
 10
21.99989343394326
 20
0.0171682953070067
 30
0.0
 10
21.99984439323081
 20
0.014124629772056
 30
0.0
  0
SPLINE
  5
6E
330
1F
100
AcDbEntity
  8
1
  6
Continuous
370
    15
100
AcDbSpline
210
0.0
220
0.0
230
1.0
 70
     8
 71
     3
 72
    17
 73
    13
 74
     0
 42
0.00000001
 43
0.00000001
 40
0.0000213772951697
 40
0.0000213772951697
 40
0.0000213772951697
 40
0.0000213772951697
 40
0.0000217626016049
 40
0.0000217626016049
 40
0.0000217626016049
 40
0.0000242022853977
 40
0.0000242022853977
 40
0.0000242022853977
 40
0.0000275019828441
 40
0.0000275019828441
 40
0.0000275019828441
 40
0.0000311202707786
 40
0.0000311202707786
 40
0.0000311202707786
 40
0.0000311202707786
 10
21.99984439323079
 20
0.0141246297720617
 30
0.0
 10
21.99982133478703
 20
0.0140628239326341
 30
0.0
 10
21.99979424712147
 20
0.0140013395436251
 30
0.0
 10
21.99976324258657
 20
0.0139403540367702
 30
0.0
 10
21.99956926216609
 20
0.0135587971354878
 30
0.0
 10
21.99921203907866
 20
0.013192215919187
 30
0.0
 10
21.99875644348283
 20
0.0128670413010726
 30
0.0
 10
21.99814047576469
 20
0.0124274034526155
 30
0.0
 10
21.99733599601015
 20
0.0120467289168241
 30
0.0
 10
21.99646982781011
 20
0.0117206472140385
 30
0.0
 10
21.99552136427918
 20
0.0113635842288319
 30
0.0
 10
21.99448021544343
 20
0.0110625506381584
 30
0.0
 10
21.99340898568116
 20
0.0107991975630719
 30
0.0
  0
SPLINE
  5
6F
330
1F
100
AcDbEntity
  8
1
  6
Continuous
370
    15
100
AcDbSpline
210
0.0
220
0.0
230
1.0
 70
     8
 71
     3
 72
    11
 73
     7
 74
     0
 42
0.00000001
 43
0.00000001
 40
0.0000326371244005
 40
0.0000326371244005
 40
0.0000326371244005
 40
0.0000326371244005
 40
0.0000441783138036
 40
0.0000441783138036
 40
0.0000441783138036
 40
0.0000491519702669
 40
0.0000491519702669
 40
0.0000491519702669
 40
0.0000491519702669
 10
21.99340898567954
 20
0.0107991975642584
 30
0.0
 10
21.99491976647026
 20
0.0075443443278178
 30
0.0
 10
21.99632357559178
 20
0.0040402295617838
 30
0.0
 10
21.99758272757851
 20
0.0004337314119525
 30
0.0
 10
21.99813602104089
 20
-0.0011510271155156
 30
0.0
 10
21.9986627698141
 20
-0.0027651543042971
 30
0.0
 10
21.99914670556177
 20
-0.0044002046624995
 30
0.0
  0
SPLINE
  5
70
330
1F
100
AcDbEntity
  8
1
  6
Continuous
370
    15
100
AcDbSpline
210
0.0
220
0.0
230
1.0
 70
     8
 71
     3
 72
    14
 73
    10
 74
     0
 42
0.00000001
 43
0.00000001
 40
0.0000430697729435
 40
0.0000430697729435
 40
0.0000430697729435
 40
0.0000430697729435
 40
0.0000464559602378
 40
0.0000464559602378
 40
0.0000464559602378
 40
0.0000724129552159
 40
0.0000724129552159
 40
0.0000724129552159
 40
0.0000874390436473
 40
0.0000874390436473
 40
0.0000874390436473
 40
0.0000874390436473
 10
21.99914670556168
 20
-0.0044002046626851
 30
0.0
 10
21.99869260615669
 20
-0.0054365141601399
 30
0.0
 10
21.99821405716804
 20
-0.0064739553257003
 30
0.0
 10
21.99772069671362
 20
-0.0074858721315107
 30
0.0
 10
21.99395240223668
 20
-0.0152149077206279
 30
0.0
 10
21.98981252057776
 20
-0.0219677943608269
 30
0.0
 10
21.98587545160233
 20
-0.0292923140138228
 30
0.0
 10
21.9835965656505
 20
-0.0335319514307138
 30
0.0
 10
21.98132537240327
 20
-0.0378102635535148
 30
0.0
 10
21.9790656059216
 20
-0.0421226743723708
 30
0.0
  0
SPLINE
  5
71
330
1F
100
AcDbEntity
  8
1
  6
Continuous
370
    15
100
AcDbSpline
210
0.0
220
0.0
230
1.0
 70
     8
 71
     3
 72
     8
 73
     4
 74
     0
 42
0.00000001
 43
0.00000001
 40
0.0000009344022498
 40
0.0000009344022498
 40
0.0000009344022498
 40
0.0000009344022498
 40
0.0000178038966771
 40
0.0000178038966771
 40
0.0000178038966771
 40
0.0000178038966771
 10
21.99999183154487
 20
-0.0223055858735544
 30
0.0
 10
21.9999426858246
 20
-0.0195981112282953
 30
0.0
 10
21.99989343394328
 20
-0.017168295307279
 30
0.0
 10
21.99984439323083
 20
-0.0141246297720937
 30
0.0
  0
SPLINE
  5
72
330
1F
100
AcDbEntity
  8
1
  6
Continuous
370
    15
100
AcDbSpline
210
0.0
220
0.0
230
1.0
 70
     8
 71
     3
 72
    10
 73
     6
 74
     0
 42
0.00000001
 43
0.00000001
 40
0.0
 40
0.0
 40
0.0
 40
0.0
 40
0.2574386474052335
 40
0.6242739203898748
 40
0.9999999999999999
 40
0.9999999999999999
 40
0.9999999999999999
 40
0.9999999999999999
 10
21.85734947816876
 20
-0.0280738512522967
 30
0.0
 10
21.85241997544254
 20
-0.0307548042778819
 30
0.0
 10
21.84046621471744
 20
-0.0372559612429766
 30
0.0
 10
21.82130949298166
 20
-0.0447160933789522
 30
0.0
 10
21.80715963716117
 20
-0.0474936856161937
 30
0.0
 10
21.8
 20
-0.048899110014336
 30
0.0
  0
SPLINE
  5
73
330
1F
100
AcDbEntity
  8
1
  6
Continuous
370
    15
100
AcDbSpline
210
0.0
220
0.0
230
1.0
 70
    24
 71
     3
 72
    23
 73
    19
 74
     0
 42
0.00000001
 43
0.00000001
 40
0.000002423136802
 40
0.000002423136802
 40
0.000002423136802
 40
0.000002423136802
 40
0.000024220402302
 40
0.000024220402302
 40
0.000024220402302
 40
0.0000360961315845
 40
0.0000360961315845
 40
0.0000360961315845
 40
0.0000481035953664
 40
0.0000481035953664
 40
0.0000481035953664
 40
0.0000590387990586
 40
0.0000590387990586
 40
0.0000590387990586
 40
0.0000655311545843
 40
0.0000655311545843
 40
0.0000655311545843
 40
0.000068362203965
 40
0.000068362203965
 40
0.000068362203965
 40
0.000068362203965
 10
21.79999999999999
 20
-0.0488991100143368
 30
0.0
 10
21.79999999999999
 20
-0.043763623060524
 30
0.0
 10
21.80000000000001
 20
-0.0378261886792142
 30
0.0
 10
21.80000000000001
 20
-0.031416979958119
 30
0.0
 10
21.80000000000001
 20
-0.0278905737781704
 30
0.0
 10
21.79999999999998
 20
-0.0241858106364326
 30
0.0
 10
21.79999999999998
 20
-0.0203822650134546
 30
0.0
 10
21.79999999999998
 20
-0.016557421236741
 30
0.0
 10
21.79999999999989
 20
-0.0126368387135401
 30
0.0
 10
21.79999999999989
 20
-0.0095245440117674
 30
0.0
 10
21.79999999999989
 20
-0.0066647408822539
 30
0.0
 10
21.79999999999999
 20
-0.0041899456706786
 30
0.0
 10
21.79999999999999
 20
-0.0024576684021244
 30
0.0
 10
21.79999999999999
 20
-0.0014193334071066
 30
0.0
 10
21.80000000000001
 20
-0.0006317947454345
 30
0.0
 10
21.80000000000001
 20
-0.0002539832096055
 30
0.0
 10
21.80000000000001
 20
-0.0000884305109742
 30
0.0
 10
21.8
 20
0.0000000000000001
 30
0.0
 10
21.8
 20
0.0000000000000001
 30
0.0
  0
LINE
  5
74
330
1F
100
AcDbEntity
  8
1
  6
Continuous
370
    15
100
AcDbLine
 10
22.0
 20
0.0242115274
 30
0.0
 11
22.0
 21
0.0321763189
 31
0.0
  0
ELLIPSE
  5
75
330
1F
100
AcDbEntity
  8
1
  6
Continuous
370
    15
100
AcDbEllipse
 10
22.005
 20
0.0
 30
0.0
 11
-0.023867029709983
 21
0.04975625307869562
 31
0.0
210
0.0
220
0.0
230
1.0
 40
0.2066052057
 41
5.312703843773773
 42
6.184403685196731
  0
LINE
  5
76
330
1F
100
AcDbEntity
  8
1
  6
Continuous
370
    15
100
AcDbLine
 10
22.0
 20
0.0227588315
 30
0.0
 11
22.0
 21
0.0242115274
 31
0.0
  0
LINE
  5
77
330
1F
100
AcDbEntity
  8
1
  6
Continuous
370
    15
100
AcDbLine
 10
21.9999918315
 20
0.0223055859
 30
0.0
 11
22.0
 21
0.0227588315
 31
0.0
  0
LINE
  5
78
330
1F
100
AcDbEntity
  8
1
  6
Continuous
370
    15
100
AcDbLine
 10
21.9997000442
 20
-0.0061150885
 30
0.0
 11
21.9998443932
 21
-0.0141246298
 31
0.0
  0
LINE
  5
79
330
1F
100
AcDbEntity
  8
1
  6
Continuous
370
    15
100
AcDbLine
 10
21.9999918315
 20
-0.0223055859
 30
0.0
 11
22.0
 21
-0.0227588315
 31
0.0
  0
LINE
  5
7A
330
1F
100
AcDbEntity
  8
1
  6
Continuous
370
    15
100
AcDbLine
 10
22.0
 20
-0.0227588315
 30
0.0
 11
22.0
 21
-0.0306941471
 31
0.0
  0
SPLINE
  5
7B
330
1F
100
AcDbEntity
  8
1
  6
Continuous
370
    15
100
AcDbSpline
210
0.0
220
0.0
230
1.0
 70
     8
 71
     3
 72
    11
 73
     7
 74
     0
 42
0.00000001
 43
0.00000001
 40
0.0000023470006205
 40
0.0000023470006205
 40
0.0000023470006205
 40
0.0000023470006205
 40
0.000048189862271
 40
0.000048189862271
 40
0.000048189862271
 40
0.0000585248009475
 40
0.0000585248009475
 40
0.0000585248009475
 40
0.0000585248009475
 10
22.0
 20
-0.0306941470759148
 30
0.0
 10
21.99986993783409
 20
-0.0235148552969554
 30
0.0
 10
21.99968133390395
 20
-0.0164341496882991
 30
0.0
 10
21.99967919080498
 20
-0.0090382544103201
 30
0.0
 10
21.99967870762724
 20
-0.0073707943526053
 30
0.0
 10
21.99969431882475
 20
-0.0056762382880869
 30
0.0
 10
21.9997153273017
 20
-0.0039727441877066
 30
0.0
  0
SPLINE
  5
7C
330
1F
100
AcDbEntity
  8
1
  6
Continuous
370
    15
100
AcDbSpline
210
0.0
220
0.0
230
1.0
 70
     8
 71
     3
 72
    11
 73
     7
 74
     0
 42
0.00000001
 43
0.00000001
 40
0.0000303147838733
 40
0.0000303147838733
 40
0.0000303147838733
 40
0.0000303147838733
 40
0.0000403171159826
 40
0.0000403171159826
 40
0.0000403171159826
 40
0.0000404828474251
 40
0.0000404828474251
 40
0.0000404828474251
 40
0.0000404828474251
 10
21.99971532730373
 20
-0.0039727441843149
 30
0.0
 10
21.99969499578773
 20
-0.0010368387280458
 30
0.0
 10
21.99967965383667
 20
0.001894659667923
 30
0.0
 10
21.99967919058722
 20
0.0048123090202539
 30
0.0
 10
21.99967918291091
 20
0.0048606561819321
 30
0.0
 10
21.99967917907201
 20
0.0049089997710704
 30
0.0
 10
21.99967917907201
 20
0.0049573397830192
 30
0.0
  0
LINE
  5
7D
330
1F
100
AcDbEntity
  8
1
  6
Continuous
370
    15
100
AcDbLine
 10
21.9996791791
 20
0.0049573398
 30
0.0
 11
21.9998443932
 21
0.0141246298
 31
0.0
  0
LINE
  5
7E
330
1F
100
AcDbEntity
  8
1
  6
Continuous
370
    15
100
AcDbLine
 10
21.9997000442
 20
0.0061150885
 30
0.0
 11
21.9997153273
 21
0.0039727442
 31
0.0
  0
LINE
  5
7F
330
1F
100
AcDbEntity
  8
1
  6
Continuous
370
    15
100
AcDbLine
 10
21.9997153273
 20
0.0039727442
 30
0.0
 11
21.9996976605
 21
-0.000321522
 31
0.0
  0
LINE
  5
80
330
1F
100
AcDbEntity
  8
1
  6
Continuous
370
    15
100
AcDbLine
 10
22.0
 20
-0.0321763189
 30
0.0
 11
22.0
 21
-0.0306941471
 31
0.0
  0
LINE
  5
81
330
1F
100
AcDbEntity
  8
1
  6
Continuous
370
    15
100
AcDbLine
 10
21.9997153273
 20
-0.0039727442
 30
0.0
 11
21.9991467056
 21
-0.0044002047
 31
0.0
  0
LINE
  5
82
330
1F
100
AcDbEntity
  8
1
  6
Continuous
370
    15
100
AcDbLine
 10
21.9934089857
 20
0.0107991976
 30
0.0
 11
21.9996791791
 21
0.0049573398
 31
0.0
  0
LINE
  5
83
330
1F
100
AcDbEntity
  8
1
  6
Continuous
370
    15
100
AcDbLine
 10
14.2038406712
 20
0.0
 30
0.0
 11
14.2038406712
 21
2.0
 31
0.0
  0
LINE
  5
84
330
1F
100
AcDbEntity
  8
1
  6
Continuous
370
    15
100
AcDbLine
 10
14.2038406712
 20
-2.0
 30
0.0
 11
14.2038406712
 21
0.0
 31
0.0
  0
LINE
  5
85
330
1F
100
AcDbEntity
  8
1
  6
Continuous
370
    15
100
AcDbLine
 10
0.0
 20
2.0
 30
0.0
 11
0.0
 21
-2.0
 31
0.0
  0
LINE
  5
86
330
1F
100
AcDbEntity
  8
1
  6
Continuous
370
    15
100
AcDbLine
 10
21.5
 20
0.0
 30
0.0
 11
21.5
 21
0.045
 31
0.0
  0
LINE
  5
87
330
1F
100
AcDbEntity
  8
1
  6
Continuous
370
    15
100
AcDbLine
 10
21.5
 20
-0.045
 30
0.0
 11
21.5
 21
0.0
 31
0.0
  0
SPLINE
  5
88
330
1F
100
AcDbEntity
  8
1
  6
Continuous
370
    15
100
AcDbSpline
210
0.0
220
0.0
230
1.0
 70
     8
 71
     3
 72
     8
 73
     4
 74
     0
 42
0.00000001
 43
0.00000001
 40
0.0
 40
0.0
 40
0.0
 40
0.0
 40
0.0368781609714878
 40
0.0368781609714878
 40
0.0368781609714878
 40
0.0368781609714878
 10
21.8
 20
-0.0000000000000001
 30
0.0
 10
21.79508334973774
 20
0.0019603252759027
 30
0.0
 10
21.79016618274783
 20
0.0048936787473719
 30
0.0
 10
21.78524895637342
 20
0.0087028349413806
 30
0.0
  0
SPLINE
  5
89
330
1F
100
AcDbEntity
  8
1
  6
Continuous
370
    15
100
AcDbSpline
210
0.0
220
0.0
230
1.0
 70
     8
 71
     3
 72
    11
 73
     7
 74
     0
 42
0.00000001
 43
0.00000001
 40
0.0
 40
0.0
 40
0.0
 40
0.0
 40
0.000008566091527
 40
0.000008566091527
 40
0.000008566091527
 40
0.0000171533092985
 40
0.0000171533092985
 40
0.0000171533092985
 40
0.0000171533092985
 10
21.8
 20
0.0
 30
0.0
 10
21.79754411968295
 20
0.0014566243649189
 30
0.0
 10
21.79508920724285
 20
0.0029166017965194
 30
0.0
 10
21.79263444824477
 20
0.0043682270682112
 30
0.0
 10
21.79017363783779
 20
0.0058234308492724
 30
0.0
 10
21.78771144154401
 20
0.0072710988761126
 30
0.0
 10
21.78524895637342
 20
0.0087028349413749
 30
0.0
  0
SPLINE
  5
8A
330
1F
100
AcDbEntity
  8
1
  6
Continuous
370
    15
100
AcDbSpline
210
0.0
220
0.0
230
1.0
 70
    24
 71
     3
 72
     8
 73
     4
 74
     0
 42
0.00000001
 43
0.00000001
 40
0.0
 40
0.0
 40
0.0
 40
0.0
 40
1.0
 40
1.0
 40
1.0
 40
1.0
 10
21.78913204229837
 20
-0.0164909064455403
 30
0.0
 10
21.79425524669069
 20
-0.0087170185951706
 30
0.0
 10
21.8
 20
0.0
 30
0.0
 10
21.8
 20
-0.0000000000000001
 30
0.0
  0
SPLINE
  5
8B
330
1F
100
AcDbEntity
  8
1
  6
Continuous
370
    15
100
AcDbSpline
210
0.0
220
0.0
230
1.0
 70
     8
 71
     3
 72
    10
 73
     6
 74
     0
 42
0.00000001
 43
0.00000001
 40
0.0
 40
0.0
 40
0.0
 40
0.0
 40
0.0625
 40
0.0625
 40
0.078432079404148
 40
0.078432079404148
 40
0.078432079404148
 40
0.078432079404148
 10
21.78913204229837
 20
-0.0164909064455403
 30
0.0
 10
21.78079756812923
 20
-0.0153374506689854
 30
0.0
 10
21.77246537563174
 20
-0.0110886030183683
 30
0.0
 10
21.76200776504447
 20
-0.0023392188818005
 30
0.0
 10
21.7598834877906
 20
-0.0003854387012606
 30
0.0
 10
21.75775921053675
 20
0.0017292900356055
 30
0.0
  0
SPLINE
  5
8C
330
1F
100
AcDbEntity
  8
1
  6
Continuous
370
    15
100
AcDbSpline
210
0.0
220
0.0
230
1.0
 70
     8
 71
     3
 72
    23
 73
    19
 74
     0
 42
0.00000001
 43
0.00000001
 40
0.0
 40
0.0
 40
0.0
 40
0.0
 40
0.000008934810494
 40
0.000008934810494
 40
0.000008934810494
 40
0.0000161069825495
 40
0.0000161069825495
 40
0.0000161069825495
 40
0.0000212211012589
 40
0.0000212211012589
 40
0.0000212211012589
 40
0.0000254087547748
 40
0.0000254087547748
 40
0.0000254087547748
 40
0.0000296161996798
 40
0.0000296161996798
 40
0.0000296161996798
 40
0.0000330429862471
 40
0.0000330429862471
 40
0.0000330429862471
 40
0.0000330429862471
 10
21.78524895637342
 20
0.0087028349413779
 30
0.0
 10
21.78268678040941
 20
0.0101925069087395
 30
0.0
 10
21.77982935642056
 20
0.0112620684128797
 30
0.0
 10
21.77690807107846
 20
0.0118215185732001
 30
0.0
 10
21.77455642350895
 20
0.012271878416801
 30
0.0
 10
21.77210021908848
 20
0.0124064274388055
 30
0.0
 10
21.76972193443164
 20
0.0121145215083096
 30
0.0
 10
21.76802087219682
 20
0.0119057365115002
 30
0.0
 10
21.7663226145376
 20
0.011468825674338
 30
0.0
 10
21.76477306131678
 20
0.0107556112231056
 30
0.0
 10
21.7635032363355
 20
0.0101711475757632
 30
0.0
 10
21.76230725659982
 20
0.0093826042384698
 30
0.0
 10
21.76130197543739
 20
0.008418021382433
 30
0.0
 10
21.76029351166418
 20
0.0074503847620264
 30
0.0
 10
21.75945374411922
 20
0.0062778844677506
 30
0.0
 10
21.75884554643704
 20
0.0050140453048257
 30
0.0
 10
21.75834672993618
 20
0.0039775010242999
 30
0.0
 10
21.75798870041365
 20
0.0028616269408451
 30
0.0
 10
21.7577592105368
 20
0.0017292900355479
 30
0.0
  0
SPLINE
  5
8D
330
1F
100
AcDbEntity
  8
1
  6
Continuous
370
    15
100
AcDbSpline
210
0.0
220
0.0
230
1.0
 70
     8
 71
     3
 72
    20
 73
    16
 74
     0
 42
0.00000001
 43
0.00000001
 40
0.0
 40
0.0
 40
0.0
 40
0.0
 40
0.0000125901960927
 40
0.0000125901960927
 40
0.0000125901960927
 40
0.0000251360459117
 40
0.0000251360459117
 40
0.0000251360459117
 40
0.0000381948891264
 40
0.0000381948891264
 40
0.0000381948891264
 40
0.0000526339304202
 40
0.0000526339304202
 40
0.0000526339304202
 40
0.0000640584190627
 40
0.0000640584190627
 40
0.0000640584190627
 40
0.0000640584190627
 10
21.7577592105368
 20
0.001729290035548
 30
0.0
 10
21.75692620118301
 20
-0.0023809009965536
 30
0.0
 10
21.75656515687744
 20
-0.0066688723145706
 30
0.0
 10
21.75660956997706
 20
-0.0107440052605311
 30
0.0
 10
21.75665389410843
 20
-0.0148109749062887
 30
0.0
 10
21.75709602191763
 20
-0.0187765059050103
 30
0.0
 10
21.75782957077783
 20
-0.0223552620885063
 30
0.0
 10
21.75859362274353
 20
-0.0260828334134429
 30
0.0
 10
21.75969062911061
 20
-0.0294850034898777
 30
0.0
 10
21.76100866108527
 20
-0.0323735130150041
 30
0.0
 10
21.76246508158849
 20
-0.0355653054578497
 30
0.0
 10
21.76422584389198
 20
-0.0382077719167289
 30
0.0
 10
21.76616703159508
 20
-0.0401922028488431
 30
0.0
 10
21.76771045849274
 20
-0.0417700121829426
 30
0.0
 10
21.76939069674516
 20
-0.042960668695995
 30
0.0
 10
21.77115655165094
 20
-0.043755236534123
 30
0.0
  0
SPLINE
  5
8E
330
1F
100
AcDbEntity
  8
1
  6
Continuous
370
    15
100
AcDbSpline
210
0.0
220
0.0
230
1.0
 70
     8
 71
     3
 72
     8
 73
     4
 74
     0
 42
0.00000001
 43
0.00000001
 40
0.0
 40
0.0
 40
0.0
 40
0.0
 40
0.0000334392206939
 40
0.0000334392206939
 40
0.0000334392206939
 40
0.0000334392206939
 10
21.8
 20
-0.0445410770841251
 30
0.0
 10
21.79035843670475
 20
-0.0453378237254335
 30
0.0
 10
21.78081298815568
 20
-0.0450592646672969
 30
0.0
 10
21.77116237761417
 20
-0.0437578564374509
 30
0.0
  0
SPLINE
  5
8F
330
1F
100
AcDbEntity
  8
1
  6
Continuous
370
    15
100
AcDbSpline
210
0.0
220
0.0
230
1.0
 70
     8
 71
     3
 72
     9
 73
     5
 74
     0
 42
0.00000001
 43
0.00000001
 40
0.0
 40
0.0
 40
0.0
 40
0.0
 40
0.6576354463558814
 40
1.0
 40
1.0
 40
1.0
 40
1.0
 10
21.8
 20
0.0445410770841255
 30
0.0
 10
21.79760415956558
 20
0.0447193065027797
 30
0.0
 10
21.79396104627585
 20
0.0449903220321917
 30
0.0
 10
21.79033756474816
 20
0.0449598877922371
 30
0.0
 10
21.78909701311229
 20
0.0449494681872595
 30
0.0
  0
LINE
  5
90
330
1F
100
AcDbEntity
  8
1
  6
Continuous
370
    15
100
AcDbLine
 10
21.7711623776
 20
-0.0437578564
 30
0.0
 11
21.7891320423
 21
-0.0164909064
 31
0.0
  0
SPLINE
  5
91
330
1F
100
AcDbEntity
  8
1
  6
Continuous
370
    15
100
AcDbSpline
210
0.0
220
0.0
230
1.0
 70
    24
 71
     3
 72
    26
 73
    22
 74
     0
 42
0.00000001
 43
0.00000001
 40
0.000020294957113
 40
0.000020294957113
 40
0.000020294957113
 40
0.000020294957113
 40
0.0000254348184215
 40
0.0000254348184215
 40
0.0000254348184215
 40
0.0000341597856192
 40
0.0000341597856192
 40
0.0000341597856192
 40
0.00004279373799
 40
0.00004279373799
 40
0.00004279373799
 40
0.0000524522954
 40
0.0000524522954
 40
0.0000524522954
 40
0.0000628753646037
 40
0.0000628753646037
 40
0.0000628753646037
 40
0.0000732929902391
 40
0.0000732929902391
 40
0.0000732929902391
 40
0.0000806850792776
 40
0.0000806850792776
 40
0.0000806850792776
 40
0.0000806850792776
 10
21.8
 20
0.0000000000000001
 30
0.0
 10
21.8
 20
0.0000000000000001
 30
0.0
 10
21.80000000000001
 20
-0.000280631889336
 30
0.0
 10
21.80000000000001
 20
-0.0007714894841311
 30
0.0
 10
21.80000000000001
 20
-0.0016079266356207
 30
0.0
 10
21.8
 20
-0.0030656708152904
 30
0.0
 10
21.8
 20
-0.0048437610735108
 30
0.0
 10
21.8
 20
-0.0066090198722997
 30
0.0
 10
21.80000000000001
 20
-0.008741859607743
 30
0.0
 10
21.80000000000001
 20
-0.0111187134807273
 30
0.0
 10
21.80000000000001
 20
-0.0137579700718301
 30
0.0
 10
21.79999999999999
 20
-0.0168946502184699
 30
0.0
 10
21.79999999999999
 20
-0.0199694788461087
 30
0.0
 10
21.79999999999999
 20
-0.023297358218257
 30
0.0
 10
21.8
 20
-0.0265506665977733
 30
0.0
 10
21.8
 20
-0.0296748805728178
 30
0.0
 10
21.8
 20
-0.0327981471814065
 30
0.0
 10
21.8
 20
-0.035810251427803
 30
0.0
 10
21.8
 20
-0.0386715593719918
 30
0.0
 10
21.8
 20
-0.0407003986212466
 30
0.0
 10
21.80000000000001
 20
-0.0426601595884372
 30
0.0
 10
21.80000000000001
 20
-0.0445410770841254
 30
0.0
  0
LINE
  5
92
330
1F
100
AcDbEntity
  8
1
  6
Continuous
370
    15
100
AcDbLine
 10
21.9646771059
 20
0.0
 30
0.0
 11
21.9646771059
 21
0.01
 31
0.0
  0
LINE
  5
93
330
1F
100
AcDbEntity
  8
1
  6
Continuous
370
    15
100
AcDbLine
 10
21.9646771059
 20
-0.01
 30
0.0
 11
21.9646771059
 21
0.0
 31
0.0
  0
LINE
  5
94
330
1F
100
AcDbEntity
  8
SK4
100
AcDbLine
 10
0.0
 20
0.0
 30
0.0
 11
-28.0
 21
0.0
 31
0.0
  0
LINE
  5
95
330
1F
100
AcDbEntity
  8
4
100
AcDbLine
 10
0.0
 20
0.0
 30
0.0
 11
21.9995907099
 21
0.0
 31
0.0
  0
LINE
  5
96
330
1F
100
AcDbEntity
  8
INFTOTAL
100
AcDbLine
 10
-58.0
 20
-50.0
 30
0.0
 11
242.0
 21
-50.0
 31
0.0
  0
LINE
  5
97
330
1F
100
AcDbEntity
  8
INFTOTAL
100
AcDbLine
 10
242.0
 20
-50.0
 30
0.0
 11
242.0
 21
150.0
 31
0.0
  0
LINE
  5
98
330
1F
100
AcDbEntity
  8
INFTOTAL
100
AcDbLine
 10
242.0
 20
150.0
 30
0.0
 11
-58.0
 21
150.0
 31
0.0
  0
LINE
  5
99
330
1F
100
AcDbEntity
  8
INFTOTAL
100
AcDbLine
 10
-58.0
 20
150.0
 30
0.0
 11
-58.0
 21
-50.0
 31
0.0
  0
LINE
  5
9A
330
1F
100
AcDbEntity
  8
CUT
100
AcDbLine
 10
21.8
 20
0.05
 30
0.0
 11
21.8
 21
0.01
 31
0.0
  0
LINE
  5
9B
330
1F
100
AcDbEntity
  8
CUT
100
AcDbLine
 10
21.9995907099
 20
0.05
 30
0.0
 11
21.8
 21
0.05
 31
0.0
  0
LINE
  5
9C
330
1F
100
AcDbEntity
  8
CUT
100
AcDbLine
 10
21.9995907099
 20
0.0
 30
0.0
 11
21.9995907099
 21
0.05
 31
0.0
  0
LINE
  5
9D
330
1F
100
AcDbEntity
  8
CUT
100
AcDbLine
 10
21.9646771059
 20
0.0
 30
0.0
 11
21.9995907099
 21
0.0
 31
0.0
  0
LINE
  5
9E
330
1F
100
AcDbEntity
  8
CUT
100
AcDbLine
 10
21.9646771059
 20
0.01
 30
0.0
 11
21.9646771059
 21
0.0
 31
0.0
  0
LINE
  5
9F
330
1F
100
AcDbEntity
  8
CUT
100
AcDbLine
 10
21.8
 20
0.01
 30
0.0
 11
21.9646771059
 21
0.01
 31
0.0
  0
LINE
  5
A0
330
1F
100
AcDbEntity
  8
NOCUT
100
AcDbLine
 10
21.9646771059
 20
0.01
 30
0.0
 11
21.8
 21
0.01
 31
0.0
  0
LINE
  5
A1
330
1F
100
AcDbEntity
  8
NOCUT
100
AcDbLine
 10
21.9646771059
 20
0.0
 30
0.0
 11
21.9646771059
 21
0.01
 31
0.0
  0
LINE
  5
A2
330
1F
100
AcDbEntity
  8
NOCUT
100
AcDbLine
 10
-28.0
 20
0.0
 30
0.0
 11
21.9646771059
 21
0.0
 31
0.0
  0
LINE
  5
A3
330
1F
100
AcDbEntity
  8
NOCUT
100
AcDbLine
 10
-28.0
 20
2.0
 30
0.0
 11
-28.0
 21
0.0
 31
0.0
  0
LINE
  5
A4
330
1F
100
AcDbEntity
  8
NOCUT
100
AcDbLine
 10
14.2038406712
 20
2.0
 30
0.0
 11
-28.0
 21
2.0
 31
0.0
  0
LINE
  5
A5
330
1F
100
AcDbEntity
  8
NOCUT
100
AcDbLine
 10
21.5
 20
0.045
 30
0.0
 11
14.2038406712
 21
2.0
 31
0.0
  0
LINE
  5
A6
330
1F
100
AcDbEntity
  8
NOCUT
100
AcDbLine
 10
21.8
 20
0.0445410771
 30
0.0
 11
21.5
 21
0.045
 31
0.0
  0
LINE
  5
A7
330
1F
100
AcDbEntity
  8
NOCUT
100
AcDbLine
 10
21.8
 20
0.01
 30
0.0
 11
21.8
 21
0.0445410771
 31
0.0
  0
DIMENSION
  5
A8
330
1F
100
AcDbEntity
  8
2
100
AcDbDimension
  2
*D1
 10
0.0
 20
74.8568741447
 30
0.0
 11
10.0517545666
 21
74.8568741447
 31
0.0
 70
   160
 71
     2
 42
-1.0
  3
SLDDIMSTYLE0
100
AcDbAlignedDimension
 13
21.9995907099
 23
0.0
 33
0.0
 14
0.0
 24
0.0
 34
0.0
100
AcDbRotatedDimension
  0
DIMENSION
  5
D5
330
1F
100
AcDbEntity
  8
SK2
100
AcDbDimension
  2
*D2
 10
-28.0
 20
66.0
 30
0.0
 11
-14.7107276179
 21
66.0
 31
0.0
 70
   160
 71
     2
 42
-1.0
  3
SLDDIMSTYLE0
100
AcDbAlignedDimension
 13
0.0
 23
0.0
 33
0.0
 14
-28.0
 24
0.0
 34
0.0
100
AcDbRotatedDimension
  0
DIMENSION
  5
DF
330
1F
100
AcDbEntity
  8
SK2
100
AcDbDimension
  2
*D3
 10
-28.0
 20
84.0
 30
0.0
 11
-0.7875757285
 21
84.0
 31
0.0
 70
   160
 71
     2
 42
-1.0
  3
SLDDIMSTYLE0
100
AcDbAlignedDimension
 13
21.9995907099
 23
0.0
 33
0.0
 14
-28.0
 24
0.0
 34
0.0
100
AcDbRotatedDimension
  0
DIMENSION
  5
E9
330
1F
100
AcDbEntity
  8
SK2
100
AcDbDimension
  2
*D4
 10
21.8
 20
66.0
 30
0.0
 11
32.0140325611
 21
66.0
 31
0.0
 70
   160
 71
     2
 42
-1.0
  3
SLDDIMSTYLE1
100
AcDbAlignedDimension
 13
21.9995907099
 23
0.0
 33
0.0
 14
21.8
 24
0.0445410771
 34
0.0
100
AcDbRotatedDimension
  0
DIMENSION
  5
F6
330
1F
100
AcDbEntity
  8
SK2
100
AcDbDimension
  2
*D5
 10
21.5
 20
54.0
 30
0.0
 11
10.0517545666
 21
54.0
 31
0.0
 70
   160
 71
     2
 42
-1.0
  3
SLDDIMSTYLE1
100
AcDbAlignedDimension
 13
21.9995907099
 23
0.0
 33
0.0
 14
21.5
 24
0.045
 34
0.0
100
AcDbRotatedDimension
  0
DIMENSION
  5
102
330
1F
100
AcDbEntity
  8
2
100
AcDbDimension
  2
*D6
 10
44.0140325611
 20
-0.05
 30
0.0
 11
44.0140325611
 21
14.2569199805
 31
0.0
 70
   160
  1
%%c<>
 71
     2
 42
-1.0
  3
SLDDIMSTYLE1
100
AcDbAlignedDimension
 13
21.9995907099
 23
0.05
 33
0.0
 14
21.9995907099
 24
-0.05
 34
0.0
 50
90.0
100
AcDbRotatedDimension
  0
DIMENSION
  5
10F
330
1F
100
AcDbEntity
  8
SK2
100
AcDbDimension
  2
*D7
 10
-38.0
 20
-2.0
 30
0.0
 11
-38.0
 21
14.2569199805
 31
0.0
 70
   160
  1
%%c<>
 71
     2
 42
-1.0
  3
SLDDIMSTYLE1
100
AcDbAlignedDimension
 13
-28.0
 23
2.0
 33
0.0
 14
-28.0
 24
-2.0
 34
0.0
 50
90.0
100
AcDbRotatedDimension
  0
DIMENSION
  5
11C
330
1F
100
AcDbEntity
  8
SK2
100
AcDbDimension
  2
*D8
 10
16.6906212435
 20
-0.045
 30
0.0
 11
16.6906212435
 21
14.2569199805
 31
0.0
 70
   160
  1
%%c<>
 71
     2
 42
-1.0
  3
SLDDIMSTYLE1
100
AcDbAlignedDimension
 13
21.5
 23
0.045
 33
0.0
 14
21.5
 24
-0.045
 34
0.0
 50
90.0
100
AcDbRotatedDimension
  0
INSERT
  5
131
330
1F
100
AcDbEntity
  8
INFTEXT63
100
AcDbBlockReference
  2
SW_NOTE_0
 10
-27.6605127789
 20
-26.5713262848
 30
0.0
  0
INSERT
  5
138
330
1F
100
AcDbEntity
  8
INFTEXT63
100
AcDbBlockReference
  2
SW_NOTE_1
 10
-27.6605127789
 20
-67.0244440331
 30
0.0
  0
ENDSEC
  0
SECTION
  2
OBJECTS
  0
DICTIONARY
  5
C
330
0
100
AcDbDictionary
281
     1
  3
ACAD_GROUP
350
D
  3
ACAD_LAYOUT
350
1A
  3
ACAD_MLINESTYLE
350
17
  3
ACAD_PLOTSETTINGS
350
19
  3
ACAD_PLOTSTYLENAME
350
E
  3
ACAD_SCALELIST
350
A9
  3
AcDbVariableDictionary
350
139
  0
DICTIONARY
  5
D
102
{ACAD_REACTORS
330
C
102
}
330
C
100
AcDbDictionary
281
     1
  0
DICTIONARY
  5
1A
102
{ACAD_REACTORS
330
C
102
}
330
C
100
AcDbDictionary
281
     1
  3
Layout1
350
1E
  3
Layout2
350
26
  3
Model
350
22
  0
DICTIONARY
  5
17
102
{ACAD_REACTORS
330
C
102
}
330
C
100
AcDbDictionary
281
     1
  3
Standard
350
18
  0
DICTIONARY
  5
19
102
{ACAD_REACTORS
330
C
102
}
330
C
100
AcDbDictionary
281
     1
  0
ACDBDICTIONARYWDFLT
  5
E
102
{ACAD_REACTORS
330
C
102
}
330
C
100
AcDbDictionary
281
     1
  3
Normal
350
F
100
AcDbDictionaryWithDefault
340
F
  0
DICTIONARY
  5
A9
102
{ACAD_REACTORS
330
C
102
}
330
C
100
AcDbDictionary
281
     1
  3
A0
350
AA
  3
A1
350
AB
  3
A2
350
AC
  3
A3
350
AD
  3
A4
350
AE
  3
A5
350
AF
  3
A6
350
B0
  3
A7
350
B1
  3
A8
350
B2
  3
A9
350
B3
  3
B0
350
B4
  3
B1
350
B5
  3
B2
350
B6
  3
B3
350
B7
  3
B4
350
B8
  3
B5
350
B9
  3
B6
350
BA
  3
B7
350
BB
  3
B8
350
BC
  3
B9
350
BD
  3
C0
350
BE
  3
C1
350
BF
  3
C2
350
C0
  3
C3
350
C1
  3
C4
350
C2
  3
C5
350
C3
  3
C6
350
C4
  3
C7
350
C5
  3
C8
350
C6
  3
C9
350
C7
  3
D0
350
C8
  3
D1
350
C9
  3
D2
350
CA
  0
DICTIONARY
  5
139
102
{ACAD_REACTORS
330
C
102
}
330
C
100
AcDbDictionary
281
     1
  3
CANNOSCALE
350
13A
  0
LAYOUT
  5
1E
102
{ACAD_REACTORS
330
1A
102
}
330
1A
100
AcDbPlotSettings
  1

  2
none_device
  4

  6

 40
0.0
 41
0.0
 42
0.0
 43
0.0
 44
0.0
 45
0.0
 46
0.0
 47
0.0
 48
0.0
 49
0.0
140
0.0
141
0.0
142
1.0
143
1.0
 70
   688
 72
     0
 73
     0
 74
     5
  7

 75
    16
147
1.0
148
0.0
149
0.0
100
AcDbLayout
  1
Layout1
 70
     1
 71
     1
 10
0.0
 20
0.0
 11
420.0
 21
297.0
 12
0.0
 22
0.0
 32
0.0
 14
1.0000000000E+20
 24
1.0000000000E+20
 34
1.0000000000E+20
 15
-1.0000000000E+20
 25
-1.0000000000E+20
 35
-1.0000000000E+20
146
0.0
 13
0.0
 23
0.0
 33
0.0
 16
1.0
 26
0.0
 36
0.0
 17
0.0
 27
1.0
 37
0.0
 76
     0
330
1B
  0
LAYOUT
  5
26
102
{ACAD_REACTORS
330
1A
102
}
330
1A
100
AcDbPlotSettings
  1

  2
none_device
  4

  6

 40
0.0
 41
0.0
 42
0.0
 43
0.0
 44
0.0
 45
0.0
 46
0.0
 47
0.0
 48
0.0
 49
0.0
140
0.0
141
0.0
142
1.0
143
1.0
 70
   688
 72
     0
 73
     0
 74
     5
  7

 75
    16
147
1.0
148
0.0
149
0.0
100
AcDbLayout
  1
Layout2
 70
     1
 71
     2
 10
0.0
 20
0.0
 11
0.0
 21
0.0
 12
0.0
 22
0.0
 32
0.0
 14
0.0
 24
0.0
 34
0.0
 15
0.0
 25
0.0
 35
0.0
146
0.0
 13
0.0
 23
0.0
 33
0.0
 16
1.0
 26
0.0
 36
0.0
 17
0.0
 27
1.0
 37
0.0
 76
     0
330
23
  0
LAYOUT
  5
22
102
{ACAD_REACTORS
330
1A
102
}
330
1A
100
AcDbPlotSettings
  1

  2
none_device
  4

  6

 40
0.0
 41
0.0
 42
0.0
 43
0.0
 44
0.0
 45
0.0
 46
0.0
 47
0.0
 48
0.0
 49
0.0
140
0.0
141
0.0
142
1.0
143
1.0
 70
  1712
 72
     0
 73
     0
 74
     0
  7

 75
     0
147
1.0
148
0.0
149
0.0
100
AcDbLayout
  1
Model
 70
     1
 71
     0
 10
0.0
 20
0.0
 11
420.0
 21
297.0
 12
0.0
 22
0.0
 32
0.0
 14
0.0
 24
0.0
 34
0.0
 15
420.0
 25
297.0
 35
0.0
146
0.0
 13
0.0
 23
0.0
 33
0.0
 16
1.0
 26
0.0
 36
0.0
 17
0.0
 27
1.0
 37
0.0
 76
     0
330
1F
331
29
  0
MLINESTYLE
  5
18
102
{ACAD_REACTORS
330
17
102
}
330
17
100
AcDbMlineStyle
  2
Standard
 70
     0
  3

 62
   256
 51
90.0
 52
90.0
 71
     2
 49
0.5
 62
   256
  6
BYLAYER
 49
-0.5
 62
   256
  6
BYLAYER
  0
ACDBPLACEHOLDER
  5
F
102
{ACAD_REACTORS
330
E
102
}
330
E
  0
SCALE
  5
AA
102
{ACAD_REACTORS
330
A9
102
}
330
A9
100
AcDbScale
 70
     0
300
1:1
140
1.0
141
1.0
290
     1
  0
SCALE
  5
AB
102
{ACAD_REACTORS
330
A9
102
}
330
A9
100
AcDbScale
 70
     0
300
1:2
140
1.0
141
2.0
290
     0
  0
SCALE
  5
AC
102
{ACAD_REACTORS
330
A9
102
}
330
A9
100
AcDbScale
 70
     0
300
1:4
140
1.0
141
4.0
290
     0
  0
SCALE
  5
AD
102
{ACAD_REACTORS
330
A9
102
}
330
A9
100
AcDbScale
 70
     0
300
1:5
140
1.0
141
5.0
290
     0
  0
SCALE
  5
AE
102
{ACAD_REACTORS
330
A9
102
}
330
A9
100
AcDbScale
 70
     0
300
1:8
140
1.0
141
8.0
290
     0
  0
SCALE
  5
AF
102
{ACAD_REACTORS
330
A9
102
}
330
A9
100
AcDbScale
 70
     0
300
1:10
140
1.0
141
10.0
290
     0
  0
SCALE
  5
B0
102
{ACAD_REACTORS
330
A9
102
}
330
A9
100
AcDbScale
 70
     0
300
1:16
140
1.0
141
16.0
290
     0
  0
SCALE
  5
B1
102
{ACAD_REACTORS
330
A9
102
}
330
A9
100
AcDbScale
 70
     0
300
1:20
140
1.0
141
20.0
290
     0
  0
SCALE
  5
B2
102
{ACAD_REACTORS
330
A9
102
}
330
A9
100
AcDbScale
 70
     0
300
1:30
140
1.0
141
30.0
290
     0
  0
SCALE
  5
B3
102
{ACAD_REACTORS
330
A9
102
}
330
A9
100
AcDbScale
 70
     0
300
1:40
140
1.0
141
40.0
290
     0
  0
SCALE
  5
B4
102
{ACAD_REACTORS
330
A9
102
}
330
A9
100
AcDbScale
 70
     0
300
1:50
140
1.0
141
50.0
290
     0
  0
SCALE
  5
B5
102
{ACAD_REACTORS
330
A9
102
}
330
A9
100
AcDbScale
 70
     0
300
1:100
140
1.0
141
100.0
290
     0
  0
SCALE
  5
B6
102
{ACAD_REACTORS
330
A9
102
}
330
A9
100
AcDbScale
 70
     0
300
2:1
140
2.0
141
1.0
290
     0
  0
SCALE
  5
B7
102
{ACAD_REACTORS
330
A9
102
}
330
A9
100
AcDbScale
 70
     0
300
4:1
140
4.0
141
1.0
290
     0
  0
SCALE
  5
B8
102
{ACAD_REACTORS
330
A9
102
}
330
A9
100
AcDbScale
 70
     0
300
8:1
140
8.0
141
1.0
290
     0
  0
SCALE
  5
B9
102
{ACAD_REACTORS
330
A9
102
}
330
A9
100
AcDbScale
 70
     0
300
10:1
140
10.0
141
1.0
290
     0
  0
SCALE
  5
BA
102
{ACAD_REACTORS
330
A9
102
}
330
A9
100
AcDbScale
 70
     0
300
100:1
140
100.0
141
1.0
290
     0
  0
SCALE
  5
BB
102
{ACAD_REACTORS
330
A9
102
}
330
A9
100
AcDbScale
 70
     0
300
1/128" = 1'-0"
140
0.0078125
141
12.0
290
     0
  0
SCALE
  5
BC
102
{ACAD_REACTORS
330
A9
102
}
330
A9
100
AcDbScale
 70
     0
300
1/64" = 1'-0"
140
0.015625
141
12.0
290
     0
  0
SCALE
  5
BD
102
{ACAD_REACTORS
330
A9
102
}
330
A9
100
AcDbScale
 70
     0
300
1/32" = 1'-0"
140
0.03125
141
12.0
290
     0
  0
SCALE
  5
BE
102
{ACAD_REACTORS
330
A9
102
}
330
A9
100
AcDbScale
 70
     0
300
1/16" = 1'-0"
140
0.0625
141
12.0
290
     0
  0
SCALE
  5
BF
102
{ACAD_REACTORS
330
A9
102
}
330
A9
100
AcDbScale
 70
     0
300
3/32" = 1'-0"
140
0.09375
141
12.0
290
     0
  0
SCALE
  5
C0
102
{ACAD_REACTORS
330
A9
102
}
330
A9
100
AcDbScale
 70
     0
300
1/8" = 1'-0"
140
0.125
141
12.0
290
     0
  0
SCALE
  5
C1
102
{ACAD_REACTORS
330
A9
102
}
330
A9
100
AcDbScale
 70
     0
300
3/16" = 1'-0"
140
0.1875
141
12.0
290
     0
  0
SCALE
  5
C2
102
{ACAD_REACTORS
330
A9
102
}
330
A9
100
AcDbScale
 70
     0
300
1/4" = 1'-0"
140
0.25
141
12.0
290
     0
  0
SCALE
  5
C3
102
{ACAD_REACTORS
330
A9
102
}
330
A9
100
AcDbScale
 70
     0
300
3/8" = 1'-0"
140
0.375
141
12.0
290
     0
  0
SCALE
  5
C4
102
{ACAD_REACTORS
330
A9
102
}
330
A9
100
AcDbScale
 70
     0
300
1/2" = 1'-0"
140
0.5
141
12.0
290
     0
  0
SCALE
  5
C5
102
{ACAD_REACTORS
330
A9
102
}
330
A9
100
AcDbScale
 70
     0
300
3/4" = 1'-0"
140
0.75
141
12.0
290
     0
  0
SCALE
  5
C6
102
{ACAD_REACTORS
330
A9
102
}
330
A9
100
AcDbScale
 70
     0
300
1" = 1'-0"
140
1.0
141
12.0
290
     0
  0
SCALE
  5
C7
102
{ACAD_REACTORS
330
A9
102
}
330
A9
100
AcDbScale
 70
     0
300
1-1/2" = 1'-0"
140
1.5
141
12.0
290
     0
  0
SCALE
  5
C8
102
{ACAD_REACTORS
330
A9
102
}
330
A9
100
AcDbScale
 70
     0
300
3" = 1'-0"
140
3.0
141
12.0
290
     0
  0
SCALE
  5
C9
102
{ACAD_REACTORS
330
A9
102
}
330
A9
100
AcDbScale
 70
     0
300
6" = 1'-0"
140
6.0
141
12.0
290
     0
  0
SCALE
  5
CA
102
{ACAD_REACTORS
330
A9
102
}
330
A9
100
AcDbScale
 70
     0
300
1'-0" = 1'-0"
140
12.0
141
12.0
290
     0
  0
DICTIONARYVAR
  5
13A
102
{ACAD_REACTORS
330
139
102
}
330
139
100
DictionaryVariables
280
     0
  1
1:1
  0
ENDSEC
  0
EOF
