  0
SECTION
  2
HEADER
  9
$ACADVER
  1
AC1015
  9
$DWGCODEPAGE
  3
ansi_1252
  9
$HANDSEED
  5
106AB90
  0
ENDSEC
  0
SECTION
  2
TABLES
  0
TABLE
  2
VPORT
  5
2
  330
0
  100
AcDbSymbolTable
  70
    0
  0
ENDTAB
  0
TABLE
  2
LTYPE
  5
3
  330
0
  100
AcDbSymbolTable
  70
    4
  0
LTYPE
  5
4
  330
3
  100
AcDbSymbolTableRecord
  100
AcDbLinetypeTableRecord
  2
ByBlock
  70
    0
  3

  72
65
  73
    0
  40
0
  0
LTYPE
  5
5
  330
3
  100
AcDbSymbolTableRecord
  100
AcDbLinetypeTableRecord
  2
ByLayer
  70
    0
  3

  72
65
  73
    0
  40
0
  0
LTYPE
  5
6
  330
3
  100
AcDbSymbolTableRecord
  100
AcDbLinetypeTableRecord
  2
CONTINUOUS
  70
    0
  3
Solid Line
  72
65
  73
    0
  40
0
  0
LTYPE
  5
7
  330
3
  100
AcDbSymbolTableRecord
  100
AcDbLinetypeTableRecord
  2
DASH
  70
    0
  3
Hidden
  72
65
  73
2
  40
2.5
  49
1.5
  74
0
  49
-1
  74
0
  0
LTYPE
  5
8
  330
3
  100
AcDbSymbolTableRecord
  100
AcDbLinetypeTableRecord
  2
LONGDASHDASH
  70
    0
  3
__ . __
  72
65
  73
    4
  40
7
  49
4
  74
    0
  49
-1
  74
    0
  49
1
  74
    0
  49
-1
  74
    0
  0
ENDTAB
  0
TABLE
  2
LAYER
  5
9
  330
0
  100
AcDbSymbolTable
  70
    40
  0
LAYER
  5
a
  330
9
  100
AcDbSymbolTableRecord
  100
AcDbLayerTableRecord
  2
0
  70
    0
  62
    0
  6
CONTINUOUS
  390
0
  0
LAYER
  5
c
  330
9
  100
AcDbSymbolTableRecord
  100
AcDbLayerTableRecord
  2
1
  70
    0
  62
    4
  6
CONTINUOUS
  370
50
  390
0
  0
LAYER
  5
d
  330
9
  100
AcDbSymbolTableRecord
  100
AcDbLayerTableRecord
  2
2
  70
    0
  62
    7
  6
CONTINUOUS
  370
25
  390
0
  0
LAYER
  5
f
  330
9
  100
AcDbSymbolTableRecord
  100
AcDbLayerTableRecord
  2
4
  70
    0
  62
    2
  6
LONGDASHDASH
  370
25
  390
0
  0
LAYER
  5
13
  330
9
  100
AcDbSymbolTableRecord
  100
AcDbLayerTableRecord
  2
SK1
  70
    0
  62
    4
  6
CONTINUOUS
  370
50
  390
0
  0
LAYER
  5
14
  330
9
  100
AcDbSymbolTableRecord
  100
AcDbLayerTableRecord
  2
SK2
  70
    0
  62
    7
  6
CONTINUOUS
  370
25
  390
0
  0
LAYER
  5
22
  330
9
  100
AcDbSymbolTableRecord
  100
AcDbLayerTableRecord
  2
CUT
  70
    0
  62
    1
  6
CONTINUOUS
  370
25
  390
0
  0
LAYER
  5
26
  330
9
  100
AcDbSymbolTableRecord
  100
AcDbLayerTableRecord
  2
INFTOTAL
  70
    0
  62
    9
  6
CONTINUOUS
  370
18
  390
0
  0
ENDTAB
  0
TABLE
  2
STYLE
  5
27
  330
0
  100
AcDbSymbolTable
  70
    1
  0
STYLE
  5
28
  330
27
  100
AcDbSymbolTableRecord
  100
AcDbTextStyleTableRecord
  2
Monospac821 BT
  70
    0
  40
    3.5
  41
1
  50
0
  71
0
  42
3
  3

  4

  1001
ACAD
  1000
Monospac821 BT
  1071
256
  0
ENDTAB
  0
TABLE
  2
VIEW
  5
29
  330
0
  100
AcDbSymbolTable
  70
    0
  0
ENDTAB
  0
TABLE
  2
UCS
  5
2a
  330
0
  100
AcDbSymbolTable
  70
    0
  0
ENDTAB
  0
TABLE
  2
APPID
  5
2b
  330
0
  100
AcDbSymbolTable
  70
    1
  0
APPID
  5
2c
  330
2b
  100
AcDbSymbolTableRecord
  100
AcDbRegAppTableRecord
  2
ACAD
  70
    0
  0
ENDTAB
  0
TABLE
  2
DIMSTYLE
  5
2d
  330
0
  100
AcDbSymbolTable
  70
    1
  100
AcDbDimStyleTable
  0
DIMSTYLE
  105
2e
  330
2d
  100
AcDbSymbolTableRecord
  100
AcDbDimStyleTableRecord
  2
ISBEtdSketcher
  70
    0
  41
    3
  42
0.5
  44
1
  73
0
  77
1
  78
1
  140
3.5
  141
2.5
  143
0.03937
  147
0.8
  172
1
  174
1
  178
0
  179
1
  271
2
  279
1
  284
1
  340
28
  0
ENDTAB
  0
TABLE
  2
BLOCK_RECORD
  5
2f
  330
0
  100
AcDbSymbolTable
  70
    2
  0
BLOCK_RECORD
  5
30
  330
2f
  100
AcDbSymbolTableRecord
  100
AcDbBlockTableRecord
  2
*Model_Space
  0
BLOCK_RECORD
  5
31
  330
2f
  100
AcDbSymbolTableRecord
  100
AcDbBlockTableRecord
  2
*Paper_Space
  0
BLOCK_RECORD
  5
3a2
  330
2f
  100
AcDbSymbolTableRecord
  100
AcDbBlockTableRecord
  2
*D3a1
  340
0
  0
BLOCK_RECORD
  5
3b0
  330
2f
  100
AcDbSymbolTableRecord
  100
AcDbBlockTableRecord
  2
*D3af
  340
0
  0
BLOCK_RECORD
  5
3be
  330
2f
  100
AcDbSymbolTableRecord
  100
AcDbBlockTableRecord
  2
*D3bd
  340
0
  0
BLOCK_RECORD
  5
3cc
  330
2f
  100
AcDbSymbolTableRecord
  100
AcDbBlockTableRecord
  2
*D3cb
  340
0
  0
ENDTAB
  0
ENDSEC
  0
SECTION
  2
BLOCKS
  0
BLOCK
  5
32
  330
30
  100
AcDbEntity
  8
0
  100
AcDbBlockBegin
  2
*Model_Space
  70
    0
  10
0
  20
0
  30
0
  3
*Model_Space
  1

  0
ENDBLK
  5
33
  330
30
  100
AcDbEntity
  8
0
  100
AcDbBlockEnd
  0
BLOCK
  5
34
  330
31
  100
AcDbEntity
  8
0
  100
AcDbBlockBegin
  2
*Paper_Space
  70
    0
  10
0
  20
0
  30
0
  3
*Paper_Space
  1

  0
ENDBLK
  5
35
  330
31
  100
AcDbEntity
  8
0
  100
AcDbBlockEnd
  0
BLOCK
  5
3a0
  330
3a2
  100
AcDbEntity
  8
SK2
  100
AcDbBlockBegin
  2
*D3a1
  70
1
  10
0
  20
0
  30
0
  3
*D3a1
  1

  0
LINE
  5
3a3
  330
3a2
  100
AcDbEntity
  8
SK2
  100
AcDbLine
  10
-26
  20
-29.5
  30
0
  11
-26
  21
1
  31
0
  0
LINE
  5
3a4
  330
3a2
  100
AcDbEntity
  8
SK2
  100
AcDbLine
  10
12
  20
-29.5
  30
0
  11
12
  21
1.5
  31
0
  0
LINE
  5
3a5
  330
3a2
  100
AcDbEntity
  8
SK2
  100
AcDbLine
  10
-26
  20
-27.5
  30
0
  11
12
  21
-27.5
  31
0
  0
SOLID
  5
3a6
  330
3a2
  100
AcDbEntity
  8
SK2
  100
AcDbTrace
  10
-26
  20
-27.5
  30
0
  11
-23.521388
  21
-27.173685
  31
0
  12
-23.521388
  22
-27.826315
  32
0
  13
-23.521388
  23
-27.826315
  33
0
  0
SOLID
  5
3a7
  330
3a2
  100
AcDbEntity
  8
SK2
  100
AcDbTrace
  10
12
  20
-27.5
  30
0
  11
9.521388
  21
-27.826315
  31
0
  12
9.521388
  22
-27.173685
  32
0
  13
9.521388
  23
-27.173685
  33
0
  0
MTEXT
  5
3a8
  330
3a2
  100
AcDbEntity
  8
SK2
  100
AcDbMText
  10
-7.633562
  20
-27.5
  30
0
  11
1
  21
0
  31
0
  40
2
  41
0
  71
8
  72
1
  1
38
  0
POINT
  5
3a9
  330
3a2
  100
AcDbEntity
  8
SK2
  62
0
  100
AcDbPoint
  10
-26
  20
1
  30
0
  0
POINT
  5
3aa
  330
3a2
  100
AcDbEntity
  8
SK2
  62
0
  100
AcDbPoint
  10
12
  20
1.5
  30
0
  0
POINT
  5
3ab
  330
3a2
  100
AcDbEntity
  8
SK2
  62
0
  100
AcDbPoint
  10
12
  20
-27.5
  30
0
  0
ENDBLK
  5
3ac
  330
3a2
  100
AcDbEntity
  8
SK2
  100
AcDbBlockEnd
  0
BLOCK
  5
3ae
  330
3b0
  100
AcDbEntity
  8
SK2
  100
AcDbBlockBegin
  2
*D3af
  70
1
  10
0
  20
0
  30
0
  3
*D3af
  1

  0
LINE
  5
3b1
  330
3b0
  100
AcDbEntity
  8
SK2
  100
AcDbLine
  10
-25.5
  20
-1.5
  30
0
  11
-32
  21
-1.5
  31
0
  0
LINE
  5
3b2
  330
3b0
  100
AcDbEntity
  8
SK2
  100
AcDbLine
  10
-25.5
  20
1.5
  30
0
  11
-32
  21
1.5
  31
0
  0
LINE
  5
3b3
  330
3b0
  100
AcDbEntity
  8
SK2
  100
AcDbLine
  10
-30
  20
-2.394958
  30
0
  11
-30
  21
4.159664
  31
0
  0
SOLID
  5
3b4
  330
3b0
  100
AcDbEntity
  8
SK2
  100
AcDbTrace
  10
-30
  20
-1.5
  30
0
  11
-30.326315
  21
0.978612
  31
0
  12
-29.673685
  22
0.978612
  32
0
  13
-29.673685
  23
0.978612
  33
0
  0
SOLID
  5
3b5
  330
3b0
  100
AcDbEntity
  8
SK2
  100
AcDbTrace
  10
-30
  20
1.5
  30
0
  11
-29.673685
  21
-0.978612
  31
0
  12
-30.326315
  22
-0.978612
  32
0
  13
-30.326315
  23
-0.978612
  33
0
  0
MTEXT
  5
3b6
  330
3b0
  100
AcDbEntity
  8
SK2
  100
AcDbMText
  10
-30
  20
3.952055
  30
0
  11
0
  21
1
  31
0
  40
2
  41
0
  71
8
  72
1
  1
Ø3h6
  0
POINT
  5
3b7
  330
3b0
  100
AcDbEntity
  8
SK2
  62
0
  100
AcDbPoint
  10
-25.5
  20
-1.5
  30
0
  0
POINT
  5
3b8
  330
3b0
  100
AcDbEntity
  8
SK2
  62
0
  100
AcDbPoint
  10
-25.5
  20
1.5
  30
0
  0
POINT
  5
3b9
  330
3b0
  100
AcDbEntity
  8
SK2
  62
0
  100
AcDbPoint
  10
-30
  20
4.159664
  30
0
  0
ENDBLK
  5
3ba
  330
3b0
  100
AcDbEntity
  8
SK2
  100
AcDbBlockEnd
  0
BLOCK
  5
3bc
  330
3be
  100
AcDbEntity
  8
2
  100
AcDbBlockBegin
  2
*D3bd
  70
1
  10
0
  20
0
  30
0
  3
*D3bd
  1

  0
LINE
  5
3bf
  330
3be
  100
AcDbEntity
  8
2
  100
AcDbLine
  10
12
  20
-1.5
  30
0
  11
24
  21
-1.5
  31
0
  0
LINE
  5
3c0
  330
3be
  100
AcDbEntity
  8
2
  100
AcDbLine
  10
12
  20
1.5
  30
0
  11
24
  21
1.5
  31
0
  0
LINE
  5
3c1
  330
3be
  100
AcDbEntity
  8
2
  100
AcDbLine
  10
22
  20
-3.151261
  30
0
  11
22
  21
3.907563
  31
0
  0
SOLID
  5
3c2
  330
3be
  100
AcDbEntity
  8
2
  100
AcDbTrace
  10
22
  20
-1.5
  30
0
  11
21.673685
  21
0.978612
  31
0
  12
22.326315
  22
0.978612
  32
0
  13
22.326315
  23
0.978612
  33
0
  0
SOLID
  5
3c3
  330
3be
  100
AcDbEntity
  8
2
  100
AcDbTrace
  10
22
  20
1.5
  30
0
  11
22.326315
  21
-0.978612
  31
0
  12
21.673685
  22
-0.978612
  32
0
  13
21.673685
  23
-0.978612
  33
0
  0
MTEXT
  5
3c4
  330
3be
  100
AcDbEntity
  8
2
  100
AcDbMText
  10
22
  20
3.746575
  30
0
  11
0
  21
1
  31
0
  40
2
  41
0
  71
8
  72
1
  1
Ø3 e8
  0
POINT
  5
3c5
  330
3be
  100
AcDbEntity
  8
2
  62
0
  100
AcDbPoint
  10
12
  20
-1.5
  30
0
  0
POINT
  5
3c6
  330
3be
  100
AcDbEntity
  8
2
  62
0
  100
AcDbPoint
  10
12
  20
1.5
  30
0
  0
POINT
  5
3c7
  330
3be
  100
AcDbEntity
  8
2
  62
0
  100
AcDbPoint
  10
22
  20
3.907563
  30
0
  0
ENDBLK
  5
3c8
  330
3be
  100
AcDbEntity
  8
2
  100
AcDbBlockEnd
  0
BLOCK
  5
3ca
  330
3cc
  100
AcDbEntity
  8
2
  100
AcDbBlockBegin
  2
*D3cb
  70
1
  10
0
  20
0
  30
0
  3
*D3cb
  1

  0
LINE
  5
3cd
  330
3cc
  100
AcDbEntity
  8
2
  100
AcDbLine
  10
12
  20
-17.69863
  30
0
  11
12
  21
-1.5
  31
0
  0
LINE
  5
3ce
  330
3cc
  100
AcDbEntity
  8
2
  100
AcDbLine
  10
0
  20
-17.69863
  30
0
  11
0
  21
-1.5
  31
0
  0
LINE
  5
3cf
  330
3cc
  100
AcDbEntity
  8
2
  100
AcDbLine
  10
12
  20
-15.69863
  30
0
  11
0
  21
-15.69863
  31
0
  0
SOLID
  5
3d0
  330
3cc
  100
AcDbEntity
  8
2
  100
AcDbTrace
  10
12
  20
-15.69863
  30
0
  11
14.478612
  21
-15.372315
  31
0
  12
14.478612
  22
-16.024946
  32
0
  13
14.478612
  23
-16.024946
  33
0
  0
SOLID
  5
3d1
  330
3cc
  100
AcDbEntity
  8
2
  100
AcDbTrace
  10
0
  20
-15.69863
  30
0
  11
-2.478612
  21
-16.024946
  31
0
  12
-2.478612
  22
-15.372315
  32
0
  13
-2.478612
  23
-15.372315
  33
0
  0
MTEXT
  5
3d2
  330
3cc
  100
AcDbEntity
  8
2
  100
AcDbMText
  10
6
  20
-15.69863
  30
0
  11
1
  21
-0
  31
0
  40
2
  41
0
  71
8
  72
1
  1
12
  0
POINT
  5
3d3
  330
3cc
  100
AcDbEntity
  8
2
  62
0
  100
AcDbPoint
  10
12
  20
-1.5
  30
0
  0
POINT
  5
3d4
  330
3cc
  100
AcDbEntity
  8
2
  62
0
  100
AcDbPoint
  10
0
  20
-1.5
  30
0
  0
POINT
  5
3d5
  330
3cc
  100
AcDbEntity
  8
2
  62
0
  100
AcDbPoint
  10
0
  20
-15.69863
  30
0
  0
ENDBLK
  5
3d6
  330
3cc
  100
AcDbEntity
  8
2
  100
AcDbBlockEnd
  0
ENDSEC
  0
SECTION
  2
ENTITIES
  0
DIMENSION
  5
3ad
  100
AcDbEntity
  8
SK2
  100
AcDbDimension
  2
*D3a1
  10
12
  20
-27.5
  30
0
  11
-7.633562
  21
-27.5
  31
0
  70
160
  1
<>
  71
5
  3
ISBEtdSketcher
  42
38
  100
AcDbAlignedDimension
  13
-26
  23
1
  33
0
  14
12
  24
1.5
  34
0
  50
0
  100
AcDbRotatedDimension
  0
DIMENSION
  5
3bb
  100
AcDbEntity
  8
SK2
  100
AcDbDimension
  2
*D3af
  10
-30
  20
4.159664
  30
0
  11
-30
  21
3.952055
  31
0
  70
160
  1
%%c<>h6
  71
5
  3
ISBEtdSketcher
  42
3
  100
AcDbAlignedDimension
  13
-25.5
  23
-1.5
  33
0
  14
-25.5
  24
1.5
  34
0
  50
-90
  100
AcDbRotatedDimension
  0
DIMENSION
  5
3c9
  100
AcDbEntity
  8
2
  100
AcDbDimension
  2
*D3bd
  10
22
  20
3.907563
  30
0
  11
22
  21
3.746575
  31
0
  70
160
  1
%%c<> e8
  71
5
  3
ISBEtdSketcher
  42
3
  100
AcDbAlignedDimension
  13
12
  23
-1.5
  33
0
  14
12
  24
1.5
  34
0
  50
-90
  100
AcDbRotatedDimension
  0
DIMENSION
  5
3d7
  100
AcDbEntity
  8
2
  100
AcDbDimension
  2
*D3cb
  10
0
  20
-15.69863
  30
0
  11
6
  21
-15.69863
  31
0
  70
160
  1
<>
  71
5
  3
ISBEtdSketcher
  42
12
  100
AcDbAlignedDimension
  13
12
  23
-1.5
  33
0
  14
0
  24
-1.5
  34
0
  50
0
  100
AcDbRotatedDimension
  0
LINE
  5
36
  100
AcDbEntity
  8
1
  100
AcDbLine
  10
13
  20
0
  30
0
  11
12.7
  21
0
  31
0
  0
LINE
  5
37
  100
AcDbEntity
  8
1
  100
AcDbLine
  10
12.5725
  20
0
  30
0
  11
12.4875
  21
0
  31
0
  0
LINE
  5
38
  100
AcDbEntity
  8
1
  100
AcDbLine
  10
12.275
  20
0
  30
0
  11
11.85
  21
0
  31
0
  0
LINE
  5
39
  100
AcDbEntity
  8
1
  100
AcDbLine
  10
11.7225
  20
0
  30
0
  11
11.6375
  21
0
  31
0
  0
LINE
  5
3a
  100
AcDbEntity
  8
1
  100
AcDbLine
  10
11.425
  20
0
  30
0
  11
11
  21
0
  31
0
  0
LINE
  5
3b
  100
AcDbEntity
  8
1
  100
AcDbLine
  10
8.735163
  20
1.5
  30
0
  11
8.8
  21
1.499533
  31
0
  0
LINE
  5
3c
  100
AcDbEntity
  8
1
  100
AcDbLine
  10
8.8
  20
1.499533
  30
0
  11
8.9
  21
1.496982
  31
0
  0
LINE
  5
3d
  100
AcDbEntity
  8
1
  100
AcDbLine
  10
8.9
  20
1.496982
  30
0
  11
9
  21
1.492213
  31
0
  0
LINE
  5
3e
  100
AcDbEntity
  8
1
  100
AcDbLine
  10
9
  20
1.492213
  30
0
  11
9.1
  21
1.485235
  31
0
  0
LINE
  5
3f
  100
AcDbEntity
  8
1
  100
AcDbLine
  10
9.1
  20
1.485235
  30
0
  11
9.2
  21
1.476056
  31
0
  0
LINE
  5
40
  100
AcDbEntity
  8
1
  100
AcDbLine
  10
9.2
  20
1.476056
  30
0
  11
9.3
  21
1.46469
  31
0
  0
LINE
  5
41
  100
AcDbEntity
  8
1
  100
AcDbLine
  10
9.3
  20
1.46469
  30
0
  11
9.4
  21
1.451155
  31
0
  0
LINE
  5
42
  100
AcDbEntity
  8
1
  100
AcDbLine
  10
9.4
  20
1.451155
  30
0
  11
9.5
  21
1.43547
  31
0
  0
LINE
  5
43
  100
AcDbEntity
  8
1
  100
AcDbLine
  10
9.5
  20
1.43547
  30
0
  11
9.6
  21
1.417659
  31
0
  0
LINE
  5
44
  100
AcDbEntity
  8
1
  100
AcDbLine
  10
9.6
  20
1.417659
  30
0
  11
9.7
  21
1.397748
  31
0
  0
LINE
  5
45
  100
AcDbEntity
  8
1
  100
AcDbLine
  10
9.7
  20
1.397748
  30
0
  11
9.8
  21
1.375767
  31
0
  0
LINE
  5
46
  100
AcDbEntity
  8
1
  100
AcDbLine
  10
9.8
  20
1.375767
  30
0
  11
9.9
  21
1.351748
  31
0
  0
LINE
  5
47
  100
AcDbEntity
  8
1
  100
AcDbLine
  10
9.9
  20
1.351748
  30
0
  11
10
  21
1.325726
  31
0
  0
LINE
  5
48
  100
AcDbEntity
  8
1
  100
AcDbLine
  10
10
  20
1.325726
  30
0
  11
10.1
  21
1.29774
  31
0
  0
LINE
  5
49
  100
AcDbEntity
  8
1
  100
AcDbLine
  10
10.1
  20
1.29774
  30
0
  11
10.2
  21
1.267832
  31
0
  0
LINE
  5
4a
  100
AcDbEntity
  8
1
  100
AcDbLine
  10
10.2
  20
1.267832
  30
0
  11
10.3
  21
1.236046
  31
0
  0
LINE
  5
4b
  100
AcDbEntity
  8
1
  100
AcDbLine
  10
10.3
  20
1.236046
  30
0
  11
10.4
  21
1.20243
  31
0
  0
LINE
  5
4c
  100
AcDbEntity
  8
1
  100
AcDbLine
  10
10.4
  20
1.20243
  30
0
  11
10.5
  21
1.167031
  31
0
  0
LINE
  5
4d
  100
AcDbEntity
  8
1
  100
AcDbLine
  10
10.5
  20
1.167031
  30
0
  11
10.6
  21
1.129905
  31
0
  0
LINE
  5
4e
  100
AcDbEntity
  8
1
  100
AcDbLine
  10
10.6
  20
1.129905
  30
0
  11
10.7
  21
1.091104
  31
0
  0
LINE
  5
4f
  100
AcDbEntity
  8
1
  100
AcDbLine
  10
10.7
  20
1.091104
  30
0
  11
10.8
  21
1.050687
  31
0
  0
LINE
  5
50
  100
AcDbEntity
  8
1
  100
AcDbLine
  10
10.8
  20
1.050687
  30
0
  11
10.9
  21
1.008714
  31
0
  0
LINE
  5
51
  100
AcDbEntity
  8
1
  100
AcDbLine
  10
10.9
  20
1.008714
  30
0
  11
11
  21
0.965247
  31
0
  0
LINE
  5
52
  100
AcDbEntity
  8
1
  100
AcDbLine
  10
11
  20
0.965247
  30
0
  11
11.1
  21
0.92035
  31
0
  0
LINE
  5
53
  100
AcDbEntity
  8
1
  100
AcDbLine
  10
11.1
  20
0.92035
  30
0
  11
11.2
  21
0.874089
  31
0
  0
LINE
  5
54
  100
AcDbEntity
  8
1
  100
AcDbLine
  10
11.2
  20
0.874089
  30
0
  11
11.3
  21
0.826534
  31
0
  0
LINE
  5
55
  100
AcDbEntity
  8
1
  100
AcDbLine
  10
11.3
  20
0.826534
  30
0
  11
11.4
  21
0.777755
  31
0
  0
LINE
  5
56
  100
AcDbEntity
  8
1
  100
AcDbLine
  10
11.4
  20
0.777755
  30
0
  11
11.5
  21
0.727823
  31
0
  0
LINE
  5
57
  100
AcDbEntity
  8
1
  100
AcDbLine
  10
11.5
  20
0.727823
  30
0
  11
11.6
  21
0.676813
  31
0
  0
LINE
  5
58
  100
AcDbEntity
  8
1
  100
AcDbLine
  10
11.6
  20
0.676813
  30
0
  11
11.7
  21
0.624801
  31
0
  0
LINE
  5
59
  100
AcDbEntity
  8
1
  100
AcDbLine
  10
11.7
  20
0.624801
  30
0
  11
11.8
  21
0.571863
  31
0
  0
LINE
  5
5a
  100
AcDbEntity
  8
1
  100
AcDbLine
  10
11.8
  20
0.571863
  30
0
  11
11.9
  21
0.518078
  31
0
  0
LINE
  5
5b
  100
AcDbEntity
  8
1
  100
AcDbLine
  10
11.9
  20
0.518078
  30
0
  11
12
  21
0.463525
  31
0
  0
LINE
  5
5c
  100
AcDbEntity
  8
1
  100
AcDbLine
  10
12
  20
1.5
  30
0
  11
12
  21
-1.5
  31
0
  0
LINE
  5
5d
  100
AcDbEntity
  8
1
  100
AcDbLine
  10
12
  20
-1.5
  30
0
  11
12
  21
0
  31
0
  0
LINE
  5
5e
  100
AcDbEntity
  8
1
  100
AcDbLine
  10
12
  20
0.147721
  30
0
  11
11.9
  21
0.20433
  31
0
  0
LINE
  5
5f
  100
AcDbEntity
  8
1
  100
AcDbLine
  10
11.9
  20
0.20433
  30
0
  11
11.8
  21
0.260637
  31
0
  0
LINE
  5
60
  100
AcDbEntity
  8
1
  100
AcDbLine
  10
11.8
  20
0.260637
  30
0
  11
11.7
  21
0.316557
  31
0
  0
LINE
  5
61
  100
AcDbEntity
  8
1
  100
AcDbLine
  10
11.7
  20
0.316557
  30
0
  11
11.6
  21
0.372008
  31
0
  0
LINE
  5
62
  100
AcDbEntity
  8
1
  100
AcDbLine
  10
11.6
  20
0.372008
  30
0
  11
11.5
  21
0.426909
  31
0
  0
LINE
  5
63
  100
AcDbEntity
  8
1
  100
AcDbLine
  10
11.5
  20
0.426909
  30
0
  11
11.4
  21
0.481177
  31
0
  0
LINE
  5
64
  100
AcDbEntity
  8
1
  100
AcDbLine
  10
11.4
  20
0.481177
  30
0
  11
11.3
  21
0.534732
  31
0
  0
LINE
  5
65
  100
AcDbEntity
  8
1
  100
AcDbLine
  10
11.3
  20
0.534732
  30
0
  11
11.2
  21
0.587495
  31
0
  0
LINE
  5
66
  100
AcDbEntity
  8
1
  100
AcDbLine
  10
11.2
  20
0.587495
  30
0
  11
11.1
  21
0.639388
  31
0
  0
LINE
  5
67
  100
AcDbEntity
  8
1
  100
AcDbLine
  10
11.1
  20
0.639388
  30
0
  11
11
  21
0.690333
  31
0
  0
LINE
  5
68
  100
AcDbEntity
  8
1
  100
AcDbLine
  10
11
  20
0.690333
  30
0
  11
10.9
  21
0.740256
  31
0
  0
LINE
  5
69
  100
AcDbEntity
  8
1
  100
AcDbLine
  10
10.9
  20
0.740256
  30
0
  11
10.8
  21
0.789083
  31
0
  0
LINE
  5
6a
  100
AcDbEntity
  8
1
  100
AcDbLine
  10
10.8
  20
0.789083
  30
0
  11
10.7
  21
0.836741
  31
0
  0
LINE
  5
6b
  100
AcDbEntity
  8
1
  100
AcDbLine
  10
10.7
  20
0.836741
  30
0
  11
10.6
  21
0.883159
  31
0
  0
LINE
  5
6c
  100
AcDbEntity
  8
1
  100
AcDbLine
  10
10.6
  20
0.883159
  30
0
  11
10.5
  21
0.928269
  31
0
  0
LINE
  5
6d
  100
AcDbEntity
  8
1
  100
AcDbLine
  10
10.5
  20
0.928269
  30
0
  11
10.4
  21
0.972004
  31
0
  0
LINE
  5
6e
  100
AcDbEntity
  8
1
  100
AcDbLine
  10
10.4
  20
0.972004
  30
0
  11
10.3
  21
1.014299
  31
0
  0
LINE
  5
6f
  100
AcDbEntity
  8
1
  100
AcDbLine
  10
10.3
  20
1.014299
  30
0
  11
10.2
  21
1.055092
  31
0
  0
LINE
  5
70
  100
AcDbEntity
  8
1
  100
AcDbLine
  10
10.2
  20
1.055092
  30
0
  11
10.1
  21
1.094322
  31
0
  0
LINE
  5
71
  100
AcDbEntity
  8
1
  100
AcDbLine
  10
10.1
  20
1.094322
  30
0
  11
10
  21
1.13193
  31
0
  0
LINE
  5
72
  100
AcDbEntity
  8
1
  100
AcDbLine
  10
10
  20
1.13193
  30
0
  11
9.9
  21
1.167862
  31
0
  0
LINE
  5
73
  100
AcDbEntity
  8
1
  100
AcDbLine
  10
9.9
  20
1.167862
  30
0
  11
9.8
  21
1.202064
  31
0
  0
LINE
  5
74
  100
AcDbEntity
  8
1
  100
AcDbLine
  10
9.8
  20
1.202064
  30
0
  11
9.7
  21
1.234486
  31
0
  0
LINE
  5
75
  100
AcDbEntity
  8
1
  100
AcDbLine
  10
9.7
  20
1.234486
  30
0
  11
9.6
  21
1.265079
  31
0
  0
LINE
  5
76
  100
AcDbEntity
  8
1
  100
AcDbLine
  10
9.6
  20
1.265079
  30
0
  11
9.5
  21
1.293798
  31
0
  0
LINE
  5
77
  100
AcDbEntity
  8
1
  100
AcDbLine
  10
9.5
  20
1.293798
  30
0
  11
9.4
  21
1.3206
  31
0
  0
LINE
  5
78
  100
AcDbEntity
  8
1
  100
AcDbLine
  10
9.4
  20
1.3206
  30
0
  11
9.3
  21
1.345446
  31
0
  0
LINE
  5
79
  100
AcDbEntity
  8
1
  100
AcDbLine
  10
9.3
  20
1.345446
  30
0
  11
9.2
  21
1.368299
  31
0
  0
LINE
  5
7a
  100
AcDbEntity
  8
1
  100
AcDbLine
  10
9.2
  20
1.368299
  30
0
  11
9.1
  21
1.389125
  31
0
  0
LINE
  5
7b
  100
AcDbEntity
  8
1
  100
AcDbLine
  10
9.1
  20
1.389125
  30
0
  11
9
  21
1.407894
  31
0
  0
LINE
  5
7c
  100
AcDbEntity
  8
1
  100
AcDbLine
  10
9
  20
1.407894
  30
0
  11
8.9
  21
1.424577
  31
0
  0
LINE
  5
7d
  100
AcDbEntity
  8
1
  100
AcDbLine
  10
8.9
  20
1.424577
  30
0
  11
8.8
  21
1.43915
  31
0
  0
LINE
  5
7e
  100
AcDbEntity
  8
1
  100
AcDbLine
  10
8.8
  20
1.43915
  30
0
  11
8.7
  21
1.451591
  31
0
  0
LINE
  5
7f
  100
AcDbEntity
  8
1
  100
AcDbLine
  10
8.7
  20
1.451591
  30
0
  11
8.6
  21
1.461882
  31
0
  0
LINE
  5
80
  100
AcDbEntity
  8
1
  100
AcDbLine
  10
8.6
  20
1.461882
  30
0
  11
8.5
  21
1.470007
  31
0
  0
LINE
  5
81
  100
AcDbEntity
  8
1
  100
AcDbLine
  10
8.5
  20
1.470007
  30
0
  11
8.4
  21
1.475955
  31
0
  0
LINE
  5
82
  100
AcDbEntity
  8
1
  100
AcDbLine
  10
8.4
  20
1.475955
  30
0
  11
8.3
  21
1.479716
  31
0
  0
LINE
  5
83
  100
AcDbEntity
  8
1
  100
AcDbLine
  10
8.3
  20
1.479716
  30
0
  11
8.2
  21
1.481286
  31
0
  0
LINE
  5
84
  100
AcDbEntity
  8
1
  100
AcDbLine
  10
8.2
  20
1.481286
  30
0
  11
8.178465
  21
1.5
  31
0
  0
LINE
  5
85
  100
AcDbEntity
  8
1
  100
AcDbLine
  10
7.918954
  20
1.5
  30
0
  11
8
  21
1.49927
  31
0
  0
LINE
  5
86
  100
AcDbEntity
  8
1
  100
AcDbLine
  10
8
  20
1.49927
  30
0
  11
8.1
  21
1.496359
  31
0
  0
LINE
  5
87
  100
AcDbEntity
  8
1
  100
AcDbLine
  10
8.1
  20
1.496359
  30
0
  11
8.2
  21
1.491232
  31
0
  0
LINE
  5
88
  100
AcDbEntity
  8
1
  100
AcDbLine
  10
8.2
  20
1.491232
  30
0
  11
8.3
  21
1.483896
  31
0
  0
LINE
  5
89
  100
AcDbEntity
  8
1
  100
AcDbLine
  10
8.3
  20
1.483896
  30
0
  11
8.4
  21
1.474361
  31
0
  0
LINE
  5
8a
  100
AcDbEntity
  8
1
  100
AcDbLine
  10
8.4
  20
1.474361
  30
0
  11
8.5
  21
1.462643
  31
0
  0
LINE
  5
8b
  100
AcDbEntity
  8
1
  100
AcDbLine
  10
8.5
  20
1.462643
  30
0
  11
8.6
  21
1.448758
  31
0
  0
LINE
  5
8c
  100
AcDbEntity
  8
1
  100
AcDbLine
  10
8.6
  20
1.448758
  30
0
  11
8.7
  21
1.432727
  31
0
  0
LINE
  5
8d
  100
AcDbEntity
  8
1
  100
AcDbLine
  10
8.7
  20
1.432727
  30
0
  11
8.8
  21
1.414574
  31
0
  0
LINE
  5
8e
  100
AcDbEntity
  8
1
  100
AcDbLine
  10
8.8
  20
1.414574
  30
0
  11
8.9
  21
1.394325
  31
0
  0
LINE
  5
8f
  100
AcDbEntity
  8
1
  100
AcDbLine
  10
8.9
  20
1.394325
  30
0
  11
9
  21
1.372011
  31
0
  0
LINE
  5
90
  100
AcDbEntity
  8
1
  100
AcDbLine
  10
9
  20
1.372011
  30
0
  11
9.1
  21
1.347664
  31
0
  0
LINE
  5
91
  100
AcDbEntity
  8
1
  100
AcDbLine
  10
9.1
  20
1.347664
  30
0
  11
9.2
  21
1.321322
  31
0
  0
LINE
  5
92
  100
AcDbEntity
  8
1
  100
AcDbLine
  10
9.2
  20
1.321322
  30
0
  11
9.3
  21
1.293022
  31
0
  0
LINE
  5
93
  100
AcDbEntity
  8
1
  100
AcDbLine
  10
9.3
  20
1.293022
  30
0
  11
9.4
  21
1.262806
  31
0
  0
LINE
  5
94
  100
AcDbEntity
  8
1
  100
AcDbLine
  10
9.4
  20
1.262806
  30
0
  11
9.5
  21
1.23072
  31
0
  0
LINE
  5
95
  100
AcDbEntity
  8
1
  100
AcDbLine
  10
9.5
  20
1.23072
  30
0
  11
9.6
  21
1.196811
  31
0
  0
LINE
  5
96
  100
AcDbEntity
  8
1
  100
AcDbLine
  10
9.6
  20
1.196811
  30
0
  11
9.7
  21
1.161129
  31
0
  0
LINE
  5
97
  100
AcDbEntity
  8
1
  100
AcDbLine
  10
9.7
  20
1.161129
  30
0
  11
9.8
  21
1.123727
  31
0
  0
LINE
  5
98
  100
AcDbEntity
  8
1
  100
AcDbLine
  10
9.8
  20
1.123727
  30
0
  11
9.9
  21
1.084661
  31
0
  0
LINE
  5
99
  100
AcDbEntity
  8
1
  100
AcDbLine
  10
9.9
  20
1.084661
  30
0
  11
10
  21
1.043988
  31
0
  0
LINE
  5
9a
  100
AcDbEntity
  8
1
  100
AcDbLine
  10
10
  20
1.043988
  30
0
  11
10.1
  21
1.001768
  31
0
  0
LINE
  5
9b
  100
AcDbEntity
  8
1
  100
AcDbLine
  10
10.1
  20
1.001768
  30
0
  11
10.2
  21
0.958065
  31
0
  0
LINE
  5
9c
  100
AcDbEntity
  8
1
  100
AcDbLine
  10
10.2
  20
0.958065
  30
0
  11
10.3
  21
0.912942
  31
0
  0
LINE
  5
9d
  100
AcDbEntity
  8
1
  100
AcDbLine
  10
10.3
  20
0.912942
  30
0
  11
10.4
  21
0.866467
  31
0
  0
LINE
  5
9e
  100
AcDbEntity
  8
1
  100
AcDbLine
  10
10.4
  20
0.866467
  30
0
  11
10.5
  21
0.818708
  31
0
  0
LINE
  5
9f
  100
AcDbEntity
  8
1
  100
AcDbLine
  10
10.5
  20
0.818708
  30
0
  11
10.6
  21
0.769737
  31
0
  0
LINE
  5
a0
  100
AcDbEntity
  8
1
  100
AcDbLine
  10
10.6
  20
0.769737
  30
0
  11
10.7
  21
0.719626
  31
0
  0
LINE
  5
a1
  100
AcDbEntity
  8
1
  100
AcDbLine
  10
10.7
  20
0.719626
  30
0
  11
10.8
  21
0.668448
  31
0
  0
LINE
  5
a2
  100
AcDbEntity
  8
1
  100
AcDbLine
  10
10.8
  20
0.668448
  30
0
  11
10.9
  21
0.61628
  31
0
  0
LINE
  5
a3
  100
AcDbEntity
  8
1
  100
AcDbLine
  10
10.9
  20
0.61628
  30
0
  11
11
  21
0.5632
  31
0
  0
LINE
  5
a4
  100
AcDbEntity
  8
1
  100
AcDbLine
  10
11
  20
0.5632
  30
0
  11
11.1
  21
0.509285
  31
0
  0
LINE
  5
a5
  100
AcDbEntity
  8
1
  100
AcDbLine
  10
11.1
  20
0.509285
  30
0
  11
11.2
  21
0.454616
  31
0
  0
LINE
  5
a6
  100
AcDbEntity
  8
1
  100
AcDbLine
  10
11.2
  20
0.454616
  30
0
  11
11.3
  21
0.399273
  31
0
  0
LINE
  5
a7
  100
AcDbEntity
  8
1
  100
AcDbLine
  10
11.3
  20
0.399273
  30
0
  11
11.4
  21
0.343339
  31
0
  0
LINE
  5
a8
  100
AcDbEntity
  8
1
  100
AcDbLine
  10
11.4
  20
0.343339
  30
0
  11
11.5
  21
0.286896
  31
0
  0
LINE
  5
a9
  100
AcDbEntity
  8
1
  100
AcDbLine
  10
11.5
  20
0.286896
  30
0
  11
11.6
  21
0.230029
  31
0
  0
LINE
  5
aa
  100
AcDbEntity
  8
1
  100
AcDbLine
  10
11.6
  20
0.230029
  30
0
  11
11.7
  21
0.17282
  31
0
  0
LINE
  5
ab
  100
AcDbEntity
  8
1
  100
AcDbLine
  10
11.7
  20
0.17282
  30
0
  11
11.8
  21
0.115356
  31
0
  0
LINE
  5
ac
  100
AcDbEntity
  8
1
  100
AcDbLine
  10
11.8
  20
0.115356
  30
0
  11
11.9
  21
0.057721
  31
0
  0
LINE
  5
ad
  100
AcDbEntity
  8
1
  100
AcDbLine
  10
11.9
  20
0.057721
  30
0
  11
12
  21
0
  31
0
  0
LINE
  5
ae
  100
AcDbEntity
  8
1
  100
AcDbLine
  10
12
  20
0
  30
0
  11
12
  21
1.5
  31
0
  0
LINE
  5
af
  100
AcDbEntity
  8
1
  100
AcDbLine
  10
12
  20
1.5
  30
0
  11
0
  21
1.5
  31
0
  0
LINE
  5
b0
  100
AcDbEntity
  8
1
  100
AcDbLine
  10
0
  20
1.5
  30
0
  11
0
  21
-1.5
  31
0
  0
LINE
  5
b1
  100
AcDbEntity
  8
1
  100
AcDbLine
  10
0
  20
-1.5
  30
0
  11
12
  21
-1.5
  31
0
  0
LINE
  5
b2
  100
AcDbEntity
  8
1
  100
AcDbLine
  10
12
  20
-1.5
  30
0
  11
11.9
  21
-1.498889
  31
0
  0
LINE
  5
b3
  100
AcDbEntity
  8
1
  100
AcDbLine
  10
11.9
  20
-1.498889
  30
0
  11
11.8
  21
-1.495558
  31
0
  0
LINE
  5
b4
  100
AcDbEntity
  8
1
  100
AcDbLine
  10
11.8
  20
-1.495558
  30
0
  11
11.7
  21
-1.490011
  31
0
  0
LINE
  5
b5
  100
AcDbEntity
  8
1
  100
AcDbLine
  10
11.7
  20
-1.490011
  30
0
  11
11.6
  21
-1.482257
  31
0
  0
LINE
  5
b6
  100
AcDbEntity
  8
1
  100
AcDbLine
  10
11.6
  20
-1.482257
  30
0
  11
11.5
  21
-1.472308
  31
0
  0
LINE
  5
b7
  100
AcDbEntity
  8
1
  100
AcDbLine
  10
11.5
  20
-1.472308
  30
0
  11
11.4
  21
-1.460177
  31
0
  0
LINE
  5
b8
  100
AcDbEntity
  8
1
  100
AcDbLine
  10
11.4
  20
-1.460177
  30
0
  11
11.3
  21
-1.445884
  31
0
  0
LINE
  5
b9
  100
AcDbEntity
  8
1
  100
AcDbLine
  10
11.3
  20
-1.445884
  30
0
  11
11.2
  21
-1.429449
  31
0
  0
LINE
  5
ba
  100
AcDbEntity
  8
1
  100
AcDbLine
  10
11.2
  20
-1.429449
  30
0
  11
11.1
  21
-1.410896
  31
0
  0
LINE
  5
bb
  100
AcDbEntity
  8
1
  100
AcDbLine
  10
11.1
  20
-1.410896
  30
0
  11
11
  21
-1.390254
  31
0
  0
LINE
  5
bc
  100
AcDbEntity
  8
1
  100
AcDbLine
  10
11
  20
-1.390254
  30
0
  11
10.9
  21
-1.367552
  31
0
  0
LINE
  5
bd
  100
AcDbEntity
  8
1
  100
AcDbLine
  10
10.9
  20
-1.367552
  30
0
  11
10.8
  21
-1.342824
  31
0
  0
LINE
  5
be
  100
AcDbEntity
  8
1
  100
AcDbLine
  10
10.8
  20
-1.342824
  30
0
  11
10.7
  21
-1.316108
  31
0
  0
LINE
  5
bf
  100
AcDbEntity
  8
1
  100
AcDbLine
  10
10.7
  20
-1.316108
  30
0
  11
10.6
  21
-1.287441
  31
0
  0
LINE
  5
c0
  100
AcDbEntity
  8
1
  100
AcDbLine
  10
10.6
  20
-1.287441
  30
0
  11
10.5
  21
-1.256868
  31
0
  0
LINE
  5
c1
  100
AcDbEntity
  8
1
  100
AcDbLine
  10
10.5
  20
-1.256868
  30
0
  11
10.4
  21
-1.224433
  31
0
  0
LINE
  5
c2
  100
AcDbEntity
  8
1
  100
AcDbLine
  10
10.4
  20
-1.224433
  30
0
  11
10.3
  21
-1.190184
  31
0
  0
LINE
  5
c3
  100
AcDbEntity
  8
1
  100
AcDbLine
  10
10.3
  20
-1.190184
  30
0
  11
10.2
  21
-1.154172
  31
0
  0
LINE
  5
c4
  100
AcDbEntity
  8
1
  100
AcDbLine
  10
10.2
  20
-1.154172
  30
0
  11
10.1
  21
-1.11645
  31
0
  0
LINE
  5
c5
  100
AcDbEntity
  8
1
  100
AcDbLine
  10
10.1
  20
-1.11645
  30
0
  11
10
  21
-1.077074
  31
0
  0
LINE
  5
c6
  100
AcDbEntity
  8
1
  100
AcDbLine
  10
10
  20
-1.077074
  30
0
  11
9.9
  21
-1.036104
  31
0
  0
LINE
  5
c7
  100
AcDbEntity
  8
1
  100
AcDbLine
  10
9.9
  20
-1.036104
  30
0
  11
9.8
  21
-0.993598
  31
0
  0
LINE
  5
c8
  100
AcDbEntity
  8
1
  100
AcDbLine
  10
9.8
  20
-0.993598
  30
0
  11
9.7
  21
-0.94962
  31
0
  0
LINE
  5
c9
  100
AcDbEntity
  8
1
  100
AcDbLine
  10
9.7
  20
-0.94962
  30
0
  11
9.6
  21
-0.904236
  31
0
  0
LINE
  5
ca
  100
AcDbEntity
  8
1
  100
AcDbLine
  10
9.6
  20
-0.904236
  30
0
  11
9.5
  21
-0.857512
  31
0
  0
LINE
  5
cb
  100
AcDbEntity
  8
1
  100
AcDbLine
  10
9.5
  20
-0.857512
  30
0
  11
9.4
  21
-0.809519
  31
0
  0
LINE
  5
cc
  100
AcDbEntity
  8
1
  100
AcDbLine
  10
9.4
  20
-0.809519
  30
0
  11
9.3
  21
-0.760326
  31
0
  0
LINE
  5
cd
  100
AcDbEntity
  8
1
  100
AcDbLine
  10
9.3
  20
-0.760326
  30
0
  11
9.2
  21
-0.710006
  31
0
  0
LINE
  5
ce
  100
AcDbEntity
  8
1
  100
AcDbLine
  10
9.2
  20
-0.710006
  30
0
  11
9.1
  21
-0.658635
  31
0
  0
LINE
  5
cf
  100
AcDbEntity
  8
1
  100
AcDbLine
  10
9.1
  20
-0.658635
  30
0
  11
9
  21
-0.606289
  31
0
  0
LINE
  5
d0
  100
AcDbEntity
  8
1
  100
AcDbLine
  10
9
  20
-0.606289
  30
0
  11
8.9
  21
-0.553044
  31
0
  0
LINE
  5
d1
  100
AcDbEntity
  8
1
  100
AcDbLine
  10
8.9
  20
-0.553044
  30
0
  11
8.8
  21
-0.49898
  31
0
  0
LINE
  5
d2
  100
AcDbEntity
  8
1
  100
AcDbLine
  10
8.8
  20
-0.49898
  30
0
  11
8.7
  21
-0.444177
  31
0
  0
LINE
  5
d3
  100
AcDbEntity
  8
1
  100
AcDbLine
  10
8.7
  20
-0.444177
  30
0
  11
8.6
  21
-0.388716
  31
0
  0
LINE
  5
d4
  100
AcDbEntity
  8
1
  100
AcDbLine
  10
8.6
  20
-0.388716
  30
0
  11
8.5
  21
-0.332679
  31
0
  0
LINE
  5
d5
  100
AcDbEntity
  8
1
  100
AcDbLine
  10
8.5
  20
-0.332679
  30
0
  11
8.4
  21
-0.276149
  31
0
  0
LINE
  5
d6
  100
AcDbEntity
  8
1
  100
AcDbLine
  10
8.4
  20
-0.276149
  30
0
  11
8.3
  21
-0.219211
  31
0
  0
LINE
  5
d7
  100
AcDbEntity
  8
1
  100
AcDbLine
  10
8.3
  20
-0.219211
  30
0
  11
8.2
  21
-0.161947
  31
0
  0
LINE
  5
d8
  100
AcDbEntity
  8
1
  100
AcDbLine
  10
8.2
  20
-0.161947
  30
0
  11
8.1
  21
-0.104444
  31
0
  0
LINE
  5
d9
  100
AcDbEntity
  8
1
  100
AcDbLine
  10
8.1
  20
-0.104444
  30
0
  11
8
  21
-0.046786
  31
0
  0
LINE
  5
da
  100
AcDbEntity
  8
1
  100
AcDbLine
  10
8
  20
-0.046786
  30
0
  11
7.9
  21
0.010942
  31
0
  0
LINE
  5
db
  100
AcDbEntity
  8
1
  100
AcDbLine
  10
7.9
  20
0.010942
  30
0
  11
7.8
  21
0.068653
  31
0
  0
LINE
  5
dc
  100
AcDbEntity
  8
1
  100
AcDbLine
  10
7.8
  20
0.068653
  30
0
  11
7.7
  21
0.126262
  31
0
  0
LINE
  5
dd
  100
AcDbEntity
  8
1
  100
AcDbLine
  10
7.7
  20
0.126262
  30
0
  11
7.6
  21
0.183684
  31
0
  0
LINE
  5
de
  100
AcDbEntity
  8
1
  100
AcDbLine
  10
7.6
  20
0.183684
  30
0
  11
7.5
  21
0.240835
  31
0
  0
LINE
  5
df
  100
AcDbEntity
  8
1
  100
AcDbLine
  10
7.5
  20
0.240835
  30
0
  11
7.4
  21
0.297628
  31
0
  0
LINE
  5
e0
  100
AcDbEntity
  8
1
  100
AcDbLine
  10
7.4
  20
0.297628
  30
0
  11
7.3
  21
0.353981
  31
0
  0
LINE
  5
e1
  100
AcDbEntity
  8
1
  100
AcDbLine
  10
7.3
  20
0.353981
  30
0
  11
7.2
  21
0.409809
  31
0
  0
LINE
  5
e2
  100
AcDbEntity
  8
1
  100
AcDbLine
  10
7.2
  20
0.409809
  30
0
  11
7.1
  21
0.465031
  31
0
  0
LINE
  5
e3
  100
AcDbEntity
  8
1
  100
AcDbLine
  10
7.1
  20
0.465031
  30
0
  11
7
  21
0.519563
  31
0
  0
LINE
  5
e4
  100
AcDbEntity
  8
1
  100
AcDbLine
  10
7
  20
0.519563
  30
0
  11
6.9
  21
0.573326
  31
0
  0
LINE
  5
e5
  100
AcDbEntity
  8
1
  100
AcDbLine
  10
6.9
  20
0.573326
  30
0
  11
6.8
  21
0.626239
  31
0
  0
LINE
  5
e6
  100
AcDbEntity
  8
1
  100
AcDbLine
  10
6.8
  20
0.626239
  30
0
  11
6.7
  21
0.678225
  31
0
  0
LINE
  5
e7
  100
AcDbEntity
  8
1
  100
AcDbLine
  10
6.7
  20
0.678225
  30
0
  11
6.6
  21
0.729207
  31
0
  0
LINE
  5
e8
  100
AcDbEntity
  8
1
  100
AcDbLine
  10
6.6
  20
0.729207
  30
0
  11
6.5
  21
0.779108
  31
0
  0
LINE
  5
e9
  100
AcDbEntity
  8
1
  100
AcDbLine
  10
6.5
  20
0.779108
  30
0
  11
6.4
  21
0.827855
  31
0
  0
LINE
  5
ea
  100
AcDbEntity
  8
1
  100
AcDbLine
  10
6.4
  20
0.827855
  30
0
  11
6.3
  21
0.875375
  31
0
  0
LINE
  5
eb
  100
AcDbEntity
  8
1
  100
AcDbLine
  10
6.3
  20
0.875375
  30
0
  11
6.2
  21
0.921599
  31
0
  0
LINE
  5
ec
  100
AcDbEntity
  8
1
  100
AcDbLine
  10
6.2
  20
0.921599
  30
0
  11
6.1
  21
0.966458
  31
0
  0
LINE
  5
ed
  100
AcDbEntity
  8
1
  100
AcDbLine
  10
6.1
  20
0.966458
  30
0
  11
6
  21
1.009885
  31
0
  0
LINE
  5
ee
  100
AcDbEntity
  8
1
  100
AcDbLine
  10
6
  20
1.009885
  30
0
  11
5.9
  21
1.051817
  31
0
  0
LINE
  5
ef
  100
AcDbEntity
  8
1
  100
AcDbLine
  10
5.9
  20
1.051817
  30
0
  11
5.8
  21
1.09219
  31
0
  0
LINE
  5
f0
  100
AcDbEntity
  8
1
  100
AcDbLine
  10
5.8
  20
1.09219
  30
0
  11
5.7
  21
1.130945
  31
0
  0
LINE
  5
f1
  100
AcDbEntity
  8
1
  100
AcDbLine
  10
5.7
  20
1.130945
  30
0
  11
5.6
  21
1.168025
  31
0
  0
LINE
  5
f2
  100
AcDbEntity
  8
1
  100
AcDbLine
  10
5.6
  20
1.168025
  30
0
  11
5.5
  21
1.203375
  31
0
  0
LINE
  5
f3
  100
AcDbEntity
  8
1
  100
AcDbLine
  10
5.5
  20
1.203375
  30
0
  11
5.4
  21
1.236943
  31
0
  0
LINE
  5
f4
  100
AcDbEntity
  8
1
  100
AcDbLine
  10
5.4
  20
1.236943
  30
0
  11
5.3
  21
1.268678
  31
0
  0
LINE
  5
f5
  100
AcDbEntity
  8
1
  100
AcDbLine
  10
5.3
  20
1.268678
  30
0
  11
5.2
  21
1.298533
  31
0
  0
LINE
  5
f6
  100
AcDbEntity
  8
1
  100
AcDbLine
  10
5.2
  20
1.298533
  30
0
  11
5.1
  21
1.326466
  31
0
  0
LINE
  5
f7
  100
AcDbEntity
  8
1
  100
AcDbLine
  10
5.1
  20
1.326466
  30
0
  11
5
  21
1.352433
  31
0
  0
LINE
  5
f8
  100
AcDbEntity
  8
1
  100
AcDbLine
  10
5
  20
1.352433
  30
0
  11
4.9
  21
1.376397
  31
0
  0
LINE
  5
f9
  100
AcDbEntity
  8
1
  100
AcDbLine
  10
4.9
  20
1.376397
  30
0
  11
4.8
  21
1.398322
  31
0
  0
LINE
  5
fa
  100
AcDbEntity
  8
1
  100
AcDbLine
  10
4.8
  20
1.398322
  30
0
  11
4.7
  21
1.418176
  31
0
  0
LINE
  5
fb
  100
AcDbEntity
  8
1
  100
AcDbLine
  10
4.7
  20
1.418176
  30
0
  11
4.6
  21
1.435929
  31
0
  0
LINE
  5
fc
  100
AcDbEntity
  8
1
  100
AcDbLine
  10
4.6
  20
1.435929
  30
0
  11
4.5
  21
1.451555
  31
0
  0
LINE
  5
fd
  100
AcDbEntity
  8
1
  100
AcDbLine
  10
4.5
  20
1.451555
  30
0
  11
4.4
  21
1.465031
  31
0
  0
LINE
  5
fe
  100
AcDbEntity
  8
1
  100
AcDbLine
  10
4.4
  20
1.465031
  30
0
  11
4.3
  21
1.476337
  31
0
  0
LINE
  5
ff
  100
AcDbEntity
  8
1
  100
AcDbLine
  10
4.3
  20
1.476337
  30
0
  11
4.2
  21
1.485455
  31
0
  0
LINE
  5
100
  100
AcDbEntity
  8
1
  100
AcDbLine
  10
4.2
  20
1.485455
  30
0
  11
4.1
  21
1.492374
  31
0
  0
LINE
  5
101
  100
AcDbEntity
  8
1
  100
AcDbLine
  10
4.1
  20
1.492374
  30
0
  11
4
  21
1.497081
  31
0
  0
LINE
  5
102
  100
AcDbEntity
  8
1
  100
AcDbLine
  10
4
  20
1.497081
  30
0
  11
3.9
  21
1.499572
  31
0
  0
LINE
  5
103
  100
AcDbEntity
  8
1
  100
AcDbLine
  10
3.9
  20
1.499572
  30
0
  11
3.837904
  21
1.5
  31
0
  0
LINE
  5
104
  100
AcDbEntity
  8
1
  100
AcDbLine
  10
4.097418
  20
1.5
  30
0
  11
4.1
  21
1.481336
  31
0
  0
LINE
  5
105
  100
AcDbEntity
  8
1
  100
AcDbLine
  10
4.1
  20
1.481336
  30
0
  11
4.2
  21
1.480182
  31
0
  0
LINE
  5
106
  100
AcDbEntity
  8
1
  100
AcDbLine
  10
4.2
  20
1.480182
  30
0
  11
4.3
  21
1.476836
  31
0
  0
LINE
  5
107
  100
AcDbEntity
  8
1
  100
AcDbLine
  10
4.3
  20
1.476836
  30
0
  11
4.4
  21
1.471302
  31
0
  0
LINE
  5
108
  100
AcDbEntity
  8
1
  100
AcDbLine
  10
4.4
  20
1.471302
  30
0
  11
4.5
  21
1.463588
  31
0
  0
LINE
  5
109
  100
AcDbEntity
  8
1
  100
AcDbLine
  10
4.5
  20
1.463588
  30
0
  11
4.6
  21
1.453707
  31
0
  0
LINE
  5
10a
  100
AcDbEntity
  8
1
  100
AcDbLine
  10
4.6
  20
1.453707
  30
0
  11
4.7
  21
1.441672
  31
0
  0
LINE
  5
10b
  100
AcDbEntity
  8
1
  100
AcDbLine
  10
4.7
  20
1.441672
  30
0
  11
4.8
  21
1.427502
  31
0
  0
LINE
  5
10c
  100
AcDbEntity
  8
1
  100
AcDbLine
  10
4.8
  20
1.427502
  30
0
  11
4.9
  21
1.411217
  31
0
  0
LINE
  5
10d
  100
AcDbEntity
  8
1
  100
AcDbLine
  10
4.9
  20
1.411217
  30
0
  11
5
  21
1.392841
  31
0
  0
LINE
  5
10e
  100
AcDbEntity
  8
1
  100
AcDbLine
  10
5
  20
1.392841
  30
0
  11
5.1
  21
1.372403
  31
0
  0
LINE
  5
10f
  100
AcDbEntity
  8
1
  100
AcDbLine
  10
5.1
  20
1.372403
  30
0
  11
5.2
  21
1.349931
  31
0
  0
LINE
  5
110
  100
AcDbEntity
  8
1
  100
AcDbLine
  10
5.2
  20
1.349931
  30
0
  11
5.3
  21
1.32546
  31
0
  0
LINE
  5
111
  100
AcDbEntity
  8
1
  100
AcDbLine
  10
5.3
  20
1.32546
  30
0
  11
5.4
  21
1.299025
  31
0
  0
LINE
  5
112
  100
AcDbEntity
  8
1
  100
AcDbLine
  10
5.4
  20
1.299025
  30
0
  11
5.5
  21
1.270667
  31
0
  0
LINE
  5
113
  100
AcDbEntity
  8
1
  100
AcDbLine
  10
5.5
  20
1.270667
  30
0
  11
5.6
  21
1.240425
  31
0
  0
LINE
  5
114
  100
AcDbEntity
  8
1
  100
AcDbLine
  10
5.6
  20
1.240425
  30
0
  11
5.7
  21
1.208347
  31
0
  0
LINE
  5
115
  100
AcDbEntity
  8
1
  100
AcDbLine
  10
5.7
  20
1.208347
  30
0
  11
5.8
  21
1.174479
  31
0
  0
LINE
  5
116
  100
AcDbEntity
  8
1
  100
AcDbLine
  10
5.8
  20
1.174479
  30
0
  11
5.9
  21
1.13887
  31
0
  0
LINE
  5
117
  100
AcDbEntity
  8
1
  100
AcDbLine
  10
5.9
  20
1.13887
  30
0
  11
6
  21
1.101575
  31
0
  0
LINE
  5
118
  100
AcDbEntity
  8
1
  100
AcDbLine
  10
6
  20
1.101575
  30
0
  11
6.1
  21
1.062648
  31
0
  0
LINE
  5
119
  100
AcDbEntity
  8
1
  100
AcDbLine
  10
6.1
  20
1.062648
  30
0
  11
6.2
  21
1.022147
  31
0
  0
LINE
  5
11a
  100
AcDbEntity
  8
1
  100
AcDbLine
  10
6.2
  20
1.022147
  30
0
  11
6.3
  21
0.980132
  31
0
  0
LINE
  5
11b
  100
AcDbEntity
  8
1
  100
AcDbLine
  10
6.3
  20
0.980132
  30
0
  11
6.4
  21
0.936665
  31
0
  0
LINE
  5
11c
  100
AcDbEntity
  8
1
  100
AcDbLine
  10
6.4
  20
0.936665
  30
0
  11
6.5
  21
0.891811
  31
0
  0
LINE
  5
11d
  100
AcDbEntity
  8
1
  100
AcDbLine
  10
6.5
  20
0.891811
  30
0
  11
6.6
  21
0.845635
  31
0
  0
LINE
  5
11e
  100
AcDbEntity
  8
1
  100
AcDbLine
  10
6.6
  20
0.845635
  30
0
  11
6.7
  21
0.798207
  31
0
  0
LINE
  5
11f
  100
AcDbEntity
  8
1
  100
AcDbLine
  10
6.7
  20
0.798207
  30
0
  11
6.8
  21
0.749596
  31
0
  0
LINE
  5
120
  100
AcDbEntity
  8
1
  100
AcDbLine
  10
6.8
  20
0.749596
  30
0
  11
6.9
  21
0.699875
  31
0
  0
LINE
  5
121
  100
AcDbEntity
  8
1
  100
AcDbLine
  10
6.9
  20
0.699875
  30
0
  11
7
  21
0.649118
  31
0
  0
LINE
  5
122
  100
AcDbEntity
  8
1
  100
AcDbLine
  10
7
  20
0.649118
  30
0
  11
7.1
  21
0.597398
  31
0
  0
LINE
  5
123
  100
AcDbEntity
  8
1
  100
AcDbLine
  10
7.1
  20
0.597398
  30
0
  11
7.2
  21
0.544794
  31
0
  0
LINE
  5
124
  100
AcDbEntity
  8
1
  100
AcDbLine
  10
7.2
  20
0.544794
  30
0
  11
7.3
  21
0.491383
  31
0
  0
LINE
  5
125
  100
AcDbEntity
  8
1
  100
AcDbLine
  10
7.3
  20
0.491383
  30
0
  11
7.4
  21
0.437244
  31
0
  0
LINE
  5
126
  100
AcDbEntity
  8
1
  100
AcDbLine
  10
7.4
  20
0.437244
  30
0
  11
7.5
  21
0.382457
  31
0
  0
LINE
  5
127
  100
AcDbEntity
  8
1
  100
AcDbLine
  10
7.5
  20
0.382457
  30
0
  11
7.6
  21
0.327104
  31
0
  0
LINE
  5
128
  100
AcDbEntity
  8
1
  100
AcDbLine
  10
7.6
  20
0.327104
  30
0
  11
7.7
  21
0.271266
  31
0
  0
LINE
  5
129
  100
AcDbEntity
  8
1
  100
AcDbLine
  10
7.7
  20
0.271266
  30
0
  11
7.8
  21
0.215027
  31
0
  0
LINE
  5
12a
  100
AcDbEntity
  8
1
  100
AcDbLine
  10
7.8
  20
0.215027
  30
0
  11
7.9
  21
0.158469
  31
0
  0
LINE
  5
12b
  100
AcDbEntity
  8
1
  100
AcDbLine
  10
7.9
  20
0.158469
  30
0
  11
8
  21
0.101676
  31
0
  0
LINE
  5
12c
  100
AcDbEntity
  8
1
  100
AcDbLine
  10
8
  20
0.101676
  30
0
  11
8.1
  21
0.044732
  31
0
  0
LINE
  5
12d
  100
AcDbEntity
  8
1
  100
AcDbLine
  10
8.1
  20
0.044732
  30
0
  11
8.2
  21
-0.012277
  31
0
  0
LINE
  5
12e
  100
AcDbEntity
  8
1
  100
AcDbLine
  10
8.2
  20
-0.012277
  30
0
  11
8.3
  21
-0.069269
  31
0
  0
LINE
  5
12f
  100
AcDbEntity
  8
1
  100
AcDbLine
  10
8.3
  20
-0.069269
  30
0
  11
8.4
  21
-0.126158
  31
0
  0
LINE
  5
130
  100
AcDbEntity
  8
1
  100
AcDbLine
  10
8.4
  20
-0.126158
  30
0
  11
8.5
  21
-0.18286
  31
0
  0
LINE
  5
131
  100
AcDbEntity
  8
1
  100
AcDbLine
  10
8.5
  20
-0.18286
  30
0
  11
8.6
  21
-0.239291
  31
0
  0
LINE
  5
132
  100
AcDbEntity
  8
1
  100
AcDbLine
  10
8.6
  20
-0.239291
  30
0
  11
8.7
  21
-0.295368
  31
0
  0
LINE
  5
133
  100
AcDbEntity
  8
1
  100
AcDbLine
  10
8.7
  20
-0.295368
  30
0
  11
8.8
  21
-0.351007
  31
0
  0
LINE
  5
134
  100
AcDbEntity
  8
1
  100
AcDbLine
  10
8.8
  20
-0.351007
  30
0
  11
8.9
  21
-0.406126
  31
0
  0
LINE
  5
135
  100
AcDbEntity
  8
1
  100
AcDbLine
  10
8.9
  20
-0.406126
  30
0
  11
9
  21
-0.460644
  31
0
  0
LINE
  5
136
  100
AcDbEntity
  8
1
  100
AcDbLine
  10
9
  20
-0.460644
  30
0
  11
9.1
  21
-0.514479
  31
0
  0
LINE
  5
137
  100
AcDbEntity
  8
1
  100
AcDbLine
  10
9.1
  20
-0.514479
  30
0
  11
9.2
  21
-0.567552
  31
0
  0
LINE
  5
138
  100
AcDbEntity
  8
1
  100
AcDbLine
  10
9.2
  20
-0.567552
  30
0
  11
9.3
  21
-0.619785
  31
0
  0
LINE
  5
139
  100
AcDbEntity
  8
1
  100
AcDbLine
  10
9.3
  20
-0.619785
  30
0
  11
9.4
  21
-0.671099
  31
0
  0
LINE
  5
13a
  100
AcDbEntity
  8
1
  100
AcDbLine
  10
9.4
  20
-0.671099
  30
0
  11
9.5
  21
-0.72142
  31
0
  0
LINE
  5
13b
  100
AcDbEntity
  8
1
  100
AcDbLine
  10
9.5
  20
-0.72142
  30
0
  11
9.6
  21
-0.770671
  31
0
  0
LINE
  5
13c
  100
AcDbEntity
  8
1
  100
AcDbLine
  10
9.6
  20
-0.770671
  30
0
  11
9.7
  21
-0.818781
  31
0
  0
LINE
  5
13d
  100
AcDbEntity
  8
1
  100
AcDbLine
  10
9.7
  20
-0.818781
  30
0
  11
9.8
  21
-0.865679
  31
0
  0
LINE
  5
13e
  100
AcDbEntity
  8
1
  100
AcDbLine
  10
9.8
  20
-0.865679
  30
0
  11
9.9
  21
-0.911294
  31
0
  0
LINE
  5
13f
  100
AcDbEntity
  8
1
  100
AcDbLine
  10
9.9
  20
-0.911294
  30
0
  11
10
  21
-0.955559
  31
0
  0
LINE
  5
140
  100
AcDbEntity
  8
1
  100
AcDbLine
  10
10
  20
-0.955559
  30
0
  11
10.1
  21
-0.998408
  31
0
  0
LINE
  5
141
  100
AcDbEntity
  8
1
  100
AcDbLine
  10
10.1
  20
-0.998408
  30
0
  11
10.2
  21
-1.039779
  31
0
  0
LINE
  5
142
  100
AcDbEntity
  8
1
  100
AcDbLine
  10
10.2
  20
-1.039779
  30
0
  11
10.3
  21
-1.079609
  31
0
  0
LINE
  5
143
  100
AcDbEntity
  8
1
  100
AcDbLine
  10
10.3
  20
-1.079609
  30
0
  11
10.4
  21
-1.11784
  31
0
  0
LINE
  5
144
  100
AcDbEntity
  8
1
  100
AcDbLine
  10
10.4
  20
-1.11784
  30
0
  11
10.5
  21
-1.154415
  31
0
  0
LINE
  5
145
  100
AcDbEntity
  8
1
  100
AcDbLine
  10
10.5
  20
-1.154415
  30
0
  11
10.6
  21
-1.189281
  31
0
  0
LINE
  5
146
  100
AcDbEntity
  8
1
  100
AcDbLine
  10
10.6
  20
-1.189281
  30
0
  11
10.7
  21
-1.222384
  31
0
  0
LINE
  5
147
  100
AcDbEntity
  8
1
  100
AcDbLine
  10
10.7
  20
-1.222384
  30
0
  11
10.8
  21
-1.253677
  31
0
  0
LINE
  5
148
  100
AcDbEntity
  8
1
  100
AcDbLine
  10
10.8
  20
-1.253677
  30
0
  11
10.9
  21
-1.283113
  31
0
  0
LINE
  5
149
  100
AcDbEntity
  8
1
  100
AcDbLine
  10
10.9
  20
-1.283113
  30
0
  11
11
  21
-1.310648
  31
0
  0
LINE
  5
14a
  100
AcDbEntity
  8
1
  100
AcDbLine
  10
11
  20
-1.310648
  30
0
  11
11.1
  21
-1.336242
  31
0
  0
LINE
  5
14b
  100
AcDbEntity
  8
1
  100
AcDbLine
  10
11.1
  20
-1.336242
  30
0
  11
11.2
  21
-1.359856
  31
0
  0
LINE
  5
14c
  100
AcDbEntity
  8
1
  100
AcDbLine
  10
11.2
  20
-1.359856
  30
0
  11
11.3
  21
-1.381456
  31
0
  0
LINE
  5
14d
  100
AcDbEntity
  8
1
  100
AcDbLine
  10
11.3
  20
-1.381456
  30
0
  11
11.4
  21
-1.401009
  31
0
  0
LINE
  5
14e
  100
AcDbEntity
  8
1
  100
AcDbLine
  10
11.4
  20
-1.401009
  30
0
  11
11.5
  21
-1.418488
  31
0
  0
LINE
  5
14f
  100
AcDbEntity
  8
1
  100
AcDbLine
  10
11.5
  20
-1.418488
  30
0
  11
11.6
  21
-1.433865
  31
0
  0
LINE
  5
150
  100
AcDbEntity
  8
1
  100
AcDbLine
  10
11.6
  20
-1.433865
  30
0
  11
11.7
  21
-1.447118
  31
0
  0
LINE
  5
151
  100
AcDbEntity
  8
1
  100
AcDbLine
  10
11.7
  20
-1.447118
  30
0
  11
11.8
  21
-1.458227
  31
0
  0
LINE
  5
152
  100
AcDbEntity
  8
1
  100
AcDbLine
  10
11.8
  20
-1.458227
  30
0
  11
11.9
  21
-1.467177
  31
0
  0
LINE
  5
153
  100
AcDbEntity
  8
1
  100
AcDbLine
  10
11.9
  20
-1.467177
  30
0
  11
12
  21
-1.473953
  31
0
  0
LINE
  5
154
  100
AcDbEntity
  8
1
  100
AcDbLine
  10
12
  20
-1.426585
  30
0
  11
11.9
  21
-1.407691
  31
0
  0
LINE
  5
155
  100
AcDbEntity
  8
1
  100
AcDbLine
  10
11.9
  20
-1.407691
  30
0
  11
11.8
  21
-1.386713
  31
0
  0
LINE
  5
156
  100
AcDbEntity
  8
1
  100
AcDbLine
  10
11.8
  20
-1.386713
  30
0
  11
11.7
  21
-1.36368
  31
0
  0
LINE
  5
157
  100
AcDbEntity
  8
1
  100
AcDbLine
  10
11.7
  20
-1.36368
  30
0
  11
11.6
  21
-1.338628
  31
0
  0
LINE
  5
158
  100
AcDbEntity
  8
1
  100
AcDbLine
  10
11.6
  20
-1.338628
  30
0
  11
11.5
  21
-1.311592
  31
0
  0
LINE
  5
159
  100
AcDbEntity
  8
1
  100
AcDbLine
  10
11.5
  20
-1.311592
  30
0
  11
11.4
  21
-1.282614
  31
0
  0
LINE
  5
15a
  100
AcDbEntity
  8
1
  100
AcDbLine
  10
11.4
  20
-1.282614
  30
0
  11
11.3
  21
-1.251735
  31
0
  0
LINE
  5
15b
  100
AcDbEntity
  8
1
  100
AcDbLine
  10
11.3
  20
-1.251735
  30
0
  11
11.2
  21
-1.219003
  31
0
  0
LINE
  5
15c
  100
AcDbEntity
  8
1
  100
AcDbLine
  10
11.2
  20
-1.219003
  30
0
  11
11.1
  21
-1.184464
  31
0
  0
LINE
  5
15d
  100
AcDbEntity
  8
1
  100
AcDbLine
  10
11.1
  20
-1.184464
  30
0
  11
11
  21
-1.148172
  31
0
  0
LINE
  5
15e
  100
AcDbEntity
  8
1
  100
AcDbLine
  10
11
  20
-1.148172
  30
0
  11
10.9
  21
-1.110178
  31
0
  0
LINE
  5
15f
  100
AcDbEntity
  8
1
  100
AcDbLine
  10
10.9
  20
-1.110178
  30
0
  11
10.8
  21
-1.07054
  31
0
  0
LINE
  5
160
  100
AcDbEntity
  8
1
  100
AcDbLine
  10
10.8
  20
-1.07054
  30
0
  11
10.7
  21
-1.029316
  31
0
  0
LINE
  5
161
  100
AcDbEntity
  8
1
  100
AcDbLine
  10
10.7
  20
-1.029316
  30
0
  11
10.6
  21
-0.986567
  31
0
  0
LINE
  5
162
  100
AcDbEntity
  8
1
  100
AcDbLine
  10
10.6
  20
-0.986567
  30
0
  11
10.5
  21
-0.942357
  31
0
  0
LINE
  5
163
  100
AcDbEntity
  8
1
  100
AcDbLine
  10
10.5
  20
-0.942357
  30
0
  11
10.4
  21
-0.896752
  31
0
  0
LINE
  5
164
  100
AcDbEntity
  8
1
  100
AcDbLine
  10
10.4
  20
-0.896752
  30
0
  11
10.3
  21
-0.849817
  31
0
  0
LINE
  5
165
  100
AcDbEntity
  8
1
  100
AcDbLine
  10
10.3
  20
-0.849817
  30
0
  11
10.2
  21
-0.801624
  31
0
  0
LINE
  5
166
  100
AcDbEntity
  8
1
  100
AcDbLine
  10
10.2
  20
-0.801624
  30
0
  11
10.1
  21
-0.752244
  31
0
  0
LINE
  5
167
  100
AcDbEntity
  8
1
  100
AcDbLine
  10
10.1
  20
-0.752244
  30
0
  11
10
  21
-0.701749
  31
0
  0
LINE
  5
168
  100
AcDbEntity
  8
1
  100
AcDbLine
  10
10
  20
-0.701749
  30
0
  11
9.9
  21
-0.650214
  31
0
  0
LINE
  5
169
  100
AcDbEntity
  8
1
  100
AcDbLine
  10
9.9
  20
-0.650214
  30
0
  11
9.8
  21
-0.597717
  31
0
  0
LINE
  5
16a
  100
AcDbEntity
  8
1
  100
AcDbLine
  10
9.8
  20
-0.597717
  30
0
  11
9.7
  21
-0.544334
  31
0
  0
LINE
  5
16b
  100
AcDbEntity
  8
1
  100
AcDbLine
  10
9.7
  20
-0.544334
  30
0
  11
9.6
  21
-0.490145
  31
0
  0
LINE
  5
16c
  100
AcDbEntity
  8
1
  100
AcDbLine
  10
9.6
  20
-0.490145
  30
0
  11
9.5
  21
-0.435229
  31
0
  0
LINE
  5
16d
  100
AcDbEntity
  8
1
  100
AcDbLine
  10
9.5
  20
-0.435229
  30
0
  11
9.4
  21
-0.379669
  31
0
  0
LINE
  5
16e
  100
AcDbEntity
  8
1
  100
AcDbLine
  10
9.4
  20
-0.379669
  30
0
  11
9.3
  21
-0.323547
  31
0
  0
LINE
  5
16f
  100
AcDbEntity
  8
1
  100
AcDbLine
  10
9.3
  20
-0.323547
  30
0
  11
9.2
  21
-0.266945
  31
0
  0
LINE
  5
170
  100
AcDbEntity
  8
1
  100
AcDbLine
  10
9.2
  20
-0.266945
  30
0
  11
9.1
  21
-0.209948
  31
0
  0
LINE
  5
171
  100
AcDbEntity
  8
1
  100
AcDbLine
  10
9.1
  20
-0.209948
  30
0
  11
9
  21
-0.15264
  31
0
  0
LINE
  5
172
  100
AcDbEntity
  8
1
  100
AcDbLine
  10
9
  20
-0.15264
  30
0
  11
8.9
  21
-0.095106
  31
0
  0
LINE
  5
173
  100
AcDbEntity
  8
1
  100
AcDbLine
  10
8.9
  20
-0.095106
  30
0
  11
8.8
  21
-0.037431
  31
0
  0
LINE
  5
174
  100
AcDbEntity
  8
1
  100
AcDbLine
  10
8.8
  20
-0.037431
  30
0
  11
8.7
  21
0.0203
  31
0
  0
LINE
  5
175
  100
AcDbEntity
  8
1
  100
AcDbLine
  10
8.7
  20
0.0203
  30
0
  11
8.6
  21
0.078
  31
0
  0
LINE
  5
176
  100
AcDbEntity
  8
1
  100
AcDbLine
  10
8.6
  20
0.078
  30
0
  11
8.5
  21
0.135585
  31
0
  0
LINE
  5
177
  100
AcDbEntity
  8
1
  100
AcDbLine
  10
8.5
  20
0.135585
  30
0
  11
8.4
  21
0.192969
  31
0
  0
LINE
  5
178
  100
AcDbEntity
  8
1
  100
AcDbLine
  10
8.4
  20
0.192969
  30
0
  11
8.3
  21
0.250067
  31
0
  0
LINE
  5
179
  100
AcDbEntity
  8
1
  100
AcDbLine
  10
8.3
  20
0.250067
  30
0
  11
8.2
  21
0.306795
  31
0
  0
LINE
  5
17a
  100
AcDbEntity
  8
1
  100
AcDbLine
  10
8.2
  20
0.306795
  30
0
  11
8.1
  21
0.363068
  31
0
  0
LINE
  5
17b
  100
AcDbEntity
  8
1
  100
AcDbLine
  10
8.1
  20
0.363068
  30
0
  11
8
  21
0.418804
  31
0
  0
LINE
  5
17c
  100
AcDbEntity
  8
1
  100
AcDbLine
  10
8
  20
0.418804
  30
0
  11
7.9
  21
0.473919
  31
0
  0
LINE
  5
17d
  100
AcDbEntity
  8
1
  100
AcDbLine
  10
7.9
  20
0.473919
  30
0
  11
7.8
  21
0.528332
  31
0
  0
LINE
  5
17e
  100
AcDbEntity
  8
1
  100
AcDbLine
  10
7.8
  20
0.528332
  30
0
  11
7.7
  21
0.581963
  31
0
  0
LINE
  5
17f
  100
AcDbEntity
  8
1
  100
AcDbLine
  10
7.7
  20
0.581963
  30
0
  11
7.6
  21
0.634731
  31
0
  0
LINE
  5
180
  100
AcDbEntity
  8
1
  100
AcDbLine
  10
7.6
  20
0.634731
  30
0
  11
7.5
  21
0.68656
  31
0
  0
LINE
  5
181
  100
AcDbEntity
  8
1
  100
AcDbLine
  10
7.5
  20
0.68656
  30
0
  11
7.4
  21
0.737371
  31
0
  0
LINE
  5
182
  100
AcDbEntity
  8
1
  100
AcDbLine
  10
7.4
  20
0.737371
  30
0
  11
7.3
  21
0.78709
  31
0
  0
LINE
  5
183
  100
AcDbEntity
  8
1
  100
AcDbLine
  10
7.3
  20
0.78709
  30
0
  11
7.2
  21
0.835643
  31
0
  0
LINE
  5
184
  100
AcDbEntity
  8
1
  100
AcDbLine
  10
7.2
  20
0.835643
  30
0
  11
7.1
  21
0.882958
  31
0
  0
LINE
  5
185
  100
AcDbEntity
  8
1
  100
AcDbLine
  10
7.1
  20
0.882958
  30
0
  11
7
  21
0.928965
  31
0
  0
LINE
  5
186
  100
AcDbEntity
  8
1
  100
AcDbLine
  10
7
  20
0.928965
  30
0
  11
6.9
  21
0.973597
  31
0
  0
LINE
  5
187
  100
AcDbEntity
  8
1
  100
AcDbLine
  10
6.9
  20
0.973597
  30
0
  11
6.8
  21
1.016786
  31
0
  0
LINE
  5
188
  100
AcDbEntity
  8
1
  100
AcDbLine
  10
6.8
  20
1.016786
  30
0
  11
6.7
  21
1.058468
  31
0
  0
LINE
  5
189
  100
AcDbEntity
  8
1
  100
AcDbLine
  10
6.7
  20
1.058468
  30
0
  11
6.6
  21
1.098583
  31
0
  0
LINE
  5
18a
  100
AcDbEntity
  8
1
  100
AcDbLine
  10
6.6
  20
1.098583
  30
0
  11
6.5
  21
1.137071
  31
0
  0
LINE
  5
18b
  100
AcDbEntity
  8
1
  100
AcDbLine
  10
6.5
  20
1.137071
  30
0
  11
6.4
  21
1.173874
  31
0
  0
LINE
  5
18c
  100
AcDbEntity
  8
1
  100
AcDbLine
  10
6.4
  20
1.173874
  30
0
  11
6.3
  21
1.208939
  31
0
  0
LINE
  5
18d
  100
AcDbEntity
  8
1
  100
AcDbLine
  10
6.3
  20
1.208939
  30
0
  11
6.2
  21
1.242212
  31
0
  0
LINE
  5
18e
  100
AcDbEntity
  8
1
  100
AcDbLine
  10
6.2
  20
1.242212
  30
0
  11
6.1
  21
1.273646
  31
0
  0
LINE
  5
18f
  100
AcDbEntity
  8
1
  100
AcDbLine
  10
6.1
  20
1.273646
  30
0
  11
6
  21
1.303193
  31
0
  0
LINE
  5
190
  100
AcDbEntity
  8
1
  100
AcDbLine
  10
6
  20
1.303193
  30
0
  11
5.9
  21
1.330809
  31
0
  0
LINE
  5
191
  100
AcDbEntity
  8
1
  100
AcDbLine
  10
5.9
  20
1.330809
  30
0
  11
5.8
  21
1.356454
  31
0
  0
LINE
  5
192
  100
AcDbEntity
  8
1
  100
AcDbLine
  10
5.8
  20
1.356454
  30
0
  11
5.7
  21
1.38009
  31
0
  0
LINE
  5
193
  100
AcDbEntity
  8
1
  100
AcDbLine
  10
5.7
  20
1.38009
  30
0
  11
5.6
  21
1.401682
  31
0
  0
LINE
  5
194
  100
AcDbEntity
  8
1
  100
AcDbLine
  10
5.6
  20
1.401682
  30
0
  11
5.5
  21
1.421197
  31
0
  0
LINE
  5
195
  100
AcDbEntity
  8
1
  100
AcDbLine
  10
5.5
  20
1.421197
  30
0
  11
5.4
  21
1.438607
  31
0
  0
LINE
  5
196
  100
AcDbEntity
  8
1
  100
AcDbLine
  10
5.4
  20
1.438607
  30
0
  11
5.3
  21
1.453886
  31
0
  0
LINE
  5
197
  100
AcDbEntity
  8
1
  100
AcDbLine
  10
5.3
  20
1.453886
  30
0
  11
5.2
  21
1.467011
  31
0
  0
LINE
  5
198
  100
AcDbEntity
  8
1
  100
AcDbLine
  10
5.2
  20
1.467011
  30
0
  11
5.1
  21
1.477964
  31
0
  0
LINE
  5
199
  100
AcDbEntity
  8
1
  100
AcDbLine
  10
5.1
  20
1.477964
  30
0
  11
5
  21
1.486726
  31
0
  0
LINE
  5
19a
  100
AcDbEntity
  8
1
  100
AcDbLine
  10
5
  20
1.486726
  30
0
  11
4.9
  21
1.493287
  31
0
  0
LINE
  5
19b
  100
AcDbEntity
  8
1
  100
AcDbLine
  10
4.9
  20
1.493287
  30
0
  11
4.8
  21
1.497636
  31
0
  0
LINE
  5
19c
  100
AcDbEntity
  8
1
  100
AcDbLine
  10
4.8
  20
1.497636
  30
0
  11
4.7
  21
1.499766
  31
0
  0
LINE
  5
19d
  100
AcDbEntity
  8
1
  100
AcDbLine
  10
4.7
  20
1.499766
  30
0
  11
4.654112
  21
1.5
  31
0
  0
LINE
  5
19e
  100
AcDbEntity
  8
1
  100
AcDbLine
  10
4.654112
  20
-1.5
  30
0
  11
4.6
  21
-1.499675
  31
0
  0
LINE
  5
19f
  100
AcDbEntity
  8
1
  100
AcDbLine
  10
4.6
  20
-1.499675
  30
0
  11
4.5
  21
-1.497362
  31
0
  0
LINE
  5
1a0
  100
AcDbEntity
  8
1
  100
AcDbLine
  10
4.5
  20
-1.497362
  30
0
  11
4.4
  21
-1.492831
  31
0
  0
LINE
  5
1a1
  100
AcDbEntity
  8
1
  100
AcDbLine
  10
4.4
  20
-1.492831
  30
0
  11
4.3
  21
-1.486089
  31
0
  0
LINE
  5
1a2
  100
AcDbEntity
  8
1
  100
AcDbLine
  10
4.3
  20
-1.486089
  30
0
  11
4.2
  21
-1.477145
  31
0
  0
LINE
  5
1a3
  100
AcDbEntity
  8
1
  100
AcDbLine
  10
4.2
  20
-1.477145
  30
0
  11
4.1
  21
-1.466013
  31
0
  0
LINE
  5
1a4
  100
AcDbEntity
  8
1
  100
AcDbLine
  10
4.1
  20
-1.466013
  30
0
  11
4
  21
-1.45271
  31
0
  0
LINE
  5
1a5
  100
AcDbEntity
  8
1
  100
AcDbLine
  10
4
  20
-1.45271
  30
0
  11
3.9
  21
-1.437255
  31
0
  0
LINE
  5
1a6
  100
AcDbEntity
  8
1
  100
AcDbLine
  10
3.9
  20
-1.437255
  30
0
  11
3.8
  21
-1.419671
  31
0
  0
LINE
  5
1a7
  100
AcDbEntity
  8
1
  100
AcDbLine
  10
3.8
  20
-1.419671
  30
0
  11
3.7
  21
-1.399984
  31
0
  0
LINE
  5
1a8
  100
AcDbEntity
  8
1
  100
AcDbLine
  10
3.7
  20
-1.399984
  30
0
  11
3.6
  21
-1.378223
  31
0
  0
LINE
  5
1a9
  100
AcDbEntity
  8
1
  100
AcDbLine
  10
3.6
  20
-1.378223
  30
0
  11
3.5
  21
-1.35442
  31
0
  0
LINE
  5
1aa
  100
AcDbEntity
  8
1
  100
AcDbLine
  10
3.5
  20
-1.35442
  30
0
  11
3.4
  21
-1.328612
  31
0
  0
LINE
  5
1ab
  100
AcDbEntity
  8
1
  100
AcDbLine
  10
3.4
  20
-1.328612
  30
0
  11
3.3
  21
-1.300835
  31
0
  0
LINE
  5
1ac
  100
AcDbEntity
  8
1
  100
AcDbLine
  10
3.3
  20
-1.300835
  30
0
  11
3.2
  21
-1.271131
  31
0
  0
LINE
  5
1ad
  100
AcDbEntity
  8
1
  100
AcDbLine
  10
3.2
  20
-1.271131
  30
0
  11
3.1
  21
-1.239544
  31
0
  0
LINE
  5
1ae
  100
AcDbEntity
  8
1
  100
AcDbLine
  10
3.1
  20
-1.239544
  30
0
  11
3
  21
-1.206122
  31
0
  0
LINE
  5
1af
  100
AcDbEntity
  8
1
  100
AcDbLine
  10
3
  20
-1.206122
  30
0
  11
2.9
  21
-1.170912
  31
0
  0
LINE
  5
1b0
  100
AcDbEntity
  8
1
  100
AcDbLine
  10
2.9
  20
-1.170912
  30
0
  11
2.8
  21
-1.133968
  31
0
  0
LINE
  5
1b1
  100
AcDbEntity
  8
1
  100
AcDbLine
  10
2.8
  20
-1.133968
  30
0
  11
2.7
  21
-1.095344
  31
0
  0
LINE
  5
1b2
  100
AcDbEntity
  8
1
  100
AcDbLine
  10
2.7
  20
-1.095344
  30
0
  11
2.6
  21
-1.055098
  31
0
  0
LINE
  5
1b3
  100
AcDbEntity
  8
1
  100
AcDbLine
  10
2.6
  20
-1.055098
  30
0
  11
2.5
  21
-1.013289
  31
0
  0
LINE
  5
1b4
  100
AcDbEntity
  8
1
  100
AcDbLine
  10
2.5
  20
-1.013289
  30
0
  11
2.4
  21
-0.969979
  31
0
  0
LINE
  5
1b5
  100
AcDbEntity
  8
1
  100
AcDbLine
  10
2.4
  20
-0.969979
  30
0
  11
2.3
  21
-0.925232
  31
0
  0
LINE
  5
1b6
  100
AcDbEntity
  8
1
  100
AcDbLine
  10
2.3
  20
-0.925232
  30
0
  11
2.2
  21
-0.879115
  31
0
  0
LINE
  5
1b7
  100
AcDbEntity
  8
1
  100
AcDbLine
  10
2.2
  20
-0.879115
  30
0
  11
2.1
  21
-0.831695
  31
0
  0
LINE
  5
1b8
  100
AcDbEntity
  8
1
  100
AcDbLine
  10
2.1
  20
-0.831695
  30
0
  11
2
  21
-0.783043
  31
0
  0
LINE
  5
1b9
  100
AcDbEntity
  8
1
  100
AcDbLine
  10
2
  20
-0.783043
  30
0
  11
1.9
  21
-0.733232
  31
0
  0
LINE
  5
1ba
  100
AcDbEntity
  8
1
  100
AcDbLine
  10
1.9
  20
-0.733232
  30
0
  11
1.8
  21
-0.682334
  31
0
  0
LINE
  5
1bb
  100
AcDbEntity
  8
1
  100
AcDbLine
  10
1.8
  20
-0.682334
  30
0
  11
1.7
  21
-0.630425
  31
0
  0
LINE
  5
1bc
  100
AcDbEntity
  8
1
  100
AcDbLine
  10
1.7
  20
-0.630425
  30
0
  11
1.6
  21
-0.577583
  31
0
  0
LINE
  5
1bd
  100
AcDbEntity
  8
1
  100
AcDbLine
  10
1.6
  20
-0.577583
  30
0
  11
1.5
  21
-0.523885
  31
0
  0
LINE
  5
1be
  100
AcDbEntity
  8
1
  100
AcDbLine
  10
1.5
  20
-0.523885
  30
0
  11
1.4
  21
-0.469411
  31
0
  0
LINE
  5
1bf
  100
AcDbEntity
  8
1
  100
AcDbLine
  10
1.4
  20
-0.469411
  30
0
  11
1.3
  21
-0.414242
  31
0
  0
LINE
  5
1c0
  100
AcDbEntity
  8
1
  100
AcDbLine
  10
1.3
  20
-0.414242
  30
0
  11
1.2
  21
-0.358459
  31
0
  0
LINE
  5
1c1
  100
AcDbEntity
  8
1
  100
AcDbLine
  10
1.2
  20
-0.358459
  30
0
  11
1.1
  21
-0.302145
  31
0
  0
LINE
  5
1c2
  100
AcDbEntity
  8
1
  100
AcDbLine
  10
1.1
  20
-0.302145
  30
0
  11
1
  21
-0.245384
  31
0
  0
LINE
  5
1c3
  100
AcDbEntity
  8
1
  100
AcDbLine
  10
1
  20
-0.245384
  30
0
  11
0.9
  21
-0.188259
  31
0
  0
LINE
  5
1c4
  100
AcDbEntity
  8
1
  100
AcDbLine
  10
0.9
  20
-0.188259
  30
0
  11
0.8
  21
-0.130855
  31
0
  0
LINE
  5
1c5
  100
AcDbEntity
  8
1
  100
AcDbLine
  10
0.8
  20
-0.130855
  30
0
  11
0.7
  21
-0.073257
  31
0
  0
LINE
  5
1c6
  100
AcDbEntity
  8
1
  100
AcDbLine
  10
0.7
  20
-0.073257
  30
0
  11
0.6
  21
-0.015551
  31
0
  0
LINE
  5
1c7
  100
AcDbEntity
  8
1
  100
AcDbLine
  10
0.6
  20
-0.015551
  30
0
  11
0.5
  21
0.042178
  31
0
  0
LINE
  5
1c8
  100
AcDbEntity
  8
1
  100
AcDbLine
  10
0.5
  20
0.042178
  30
0
  11
0.4
  21
0.099845
  31
0
  0
LINE
  5
1c9
  100
AcDbEntity
  8
1
  100
AcDbLine
  10
0.4
  20
0.099845
  30
0
  11
0.3
  21
0.157363
  31
0
  0
LINE
  5
1ca
  100
AcDbEntity
  8
1
  100
AcDbLine
  10
0.3
  20
0.157363
  30
0
  11
0.2
  21
0.214649
  31
0
  0
LINE
  5
1cb
  100
AcDbEntity
  8
1
  100
AcDbLine
  10
0.2
  20
0.214649
  30
0
  11
0.1
  21
0.271617
  31
0
  0
LINE
  5
1cc
  100
AcDbEntity
  8
1
  100
AcDbLine
  10
0.1
  20
0.271617
  30
0
  11
0
  21
0.328182
  31
0
  0
LINE
  5
1cd
  100
AcDbEntity
  8
1
  100
AcDbLine
  10
0
  20
0.009333
  30
0
  11
0.1
  21
-0.047675
  31
0
  0
LINE
  5
1ce
  100
AcDbEntity
  8
1
  100
AcDbLine
  10
0.1
  20
-0.047675
  30
0
  11
0.2
  21
-0.104613
  31
0
  0
LINE
  5
1cf
  100
AcDbEntity
  8
1
  100
AcDbLine
  10
0.2
  20
-0.104613
  30
0
  11
0.3
  21
-0.161395
  31
0
  0
LINE
  5
1d0
  100
AcDbEntity
  8
1
  100
AcDbLine
  10
0.3
  20
-0.161395
  30
0
  11
0.4
  21
-0.217939
  31
0
  0
LINE
  5
1d1
  100
AcDbEntity
  8
1
  100
AcDbLine
  10
0.4
  20
-0.217939
  30
0
  11
0.5
  21
-0.27416
  31
0
  0
LINE
  5
1d2
  100
AcDbEntity
  8
1
  100
AcDbLine
  10
0.5
  20
-0.27416
  30
0
  11
0.6
  21
-0.329975
  31
0
  0
LINE
  5
1d3
  100
AcDbEntity
  8
1
  100
AcDbLine
  10
0.6
  20
-0.329975
  30
0
  11
0.7
  21
-0.385301
  31
0
  0
LINE
  5
1d4
  100
AcDbEntity
  8
1
  100
AcDbLine
  10
0.7
  20
-0.385301
  30
0
  11
0.8
  21
-0.440056
  31
0
  0
LINE
  5
1d5
  100
AcDbEntity
  8
1
  100
AcDbLine
  10
0.8
  20
-0.440056
  30
0
  11
0.9
  21
-0.494159
  31
0
  0
LINE
  5
1d6
  100
AcDbEntity
  8
1
  100
AcDbLine
  10
0.9
  20
-0.494159
  30
0
  11
1
  21
-0.547531
  31
0
  0
LINE
  5
1d7
  100
AcDbEntity
  8
1
  100
AcDbLine
  10
1
  20
-0.547531
  30
0
  11
1.1
  21
-0.600091
  31
0
  0
LINE
  5
1d8
  100
AcDbEntity
  8
1
  100
AcDbLine
  10
1.1
  20
-0.600091
  30
0
  11
1.2
  21
-0.651763
  31
0
  0
LINE
  5
1d9
  100
AcDbEntity
  8
1
  100
AcDbLine
  10
1.2
  20
-0.651763
  30
0
  11
1.3
  21
-0.702469
  31
0
  0
LINE
  5
1da
  100
AcDbEntity
  8
1
  100
AcDbLine
  10
1.3
  20
-0.702469
  30
0
  11
1.4
  21
-0.752134
  31
0
  0
LINE
  5
1db
  100
AcDbEntity
  8
1
  100
AcDbLine
  10
1.4
  20
-0.752134
  30
0
  11
1.5
  21
-0.800685
  31
0
  0
LINE
  5
1dc
  100
AcDbEntity
  8
1
  100
AcDbLine
  10
1.5
  20
-0.800685
  30
0
  11
1.6
  21
-0.84805
  31
0
  0
LINE
  5
1dd
  100
AcDbEntity
  8
1
  100
AcDbLine
  10
1.6
  20
-0.84805
  30
0
  11
1.7
  21
-0.894159
  31
0
  0
LINE
  5
1de
  100
AcDbEntity
  8
1
  100
AcDbLine
  10
1.7
  20
-0.894159
  30
0
  11
1.8
  21
-0.938944
  31
0
  0
LINE
  5
1df
  100
AcDbEntity
  8
1
  100
AcDbLine
  10
1.8
  20
-0.938944
  30
0
  11
1.9
  21
-0.982338
  31
0
  0
LINE
  5
1e0
  100
AcDbEntity
  8
1
  100
AcDbLine
  10
1.9
  20
-0.982338
  30
0
  11
2
  21
-1.024276
  31
0
  0
LINE
  5
1e1
  100
AcDbEntity
  8
1
  100
AcDbLine
  10
2
  20
-1.024276
  30
0
  11
2.1
  21
-1.064697
  31
0
  0
LINE
  5
1e2
  100
AcDbEntity
  8
1
  100
AcDbLine
  10
2.1
  20
-1.064697
  30
0
  11
2.2
  21
-1.103541
  31
0
  0
LINE
  5
1e3
  100
AcDbEntity
  8
1
  100
AcDbLine
  10
2.2
  20
-1.103541
  30
0
  11
2.3
  21
-1.140751
  31
0
  0
LINE
  5
1e4
  100
AcDbEntity
  8
1
  100
AcDbLine
  10
2.3
  20
-1.140751
  30
0
  11
2.4
  21
-1.17627
  31
0
  0
LINE
  5
1e5
  100
AcDbEntity
  8
1
  100
AcDbLine
  10
2.4
  20
-1.17627
  30
0
  11
2.5
  21
-1.210048
  31
0
  0
LINE
  5
1e6
  100
AcDbEntity
  8
1
  100
AcDbLine
  10
2.5
  20
-1.210048
  30
0
  11
2.6
  21
-1.242032
  31
0
  0
LINE
  5
1e7
  100
AcDbEntity
  8
1
  100
AcDbLine
  10
2.6
  20
-1.242032
  30
0
  11
2.7
  21
-1.272177
  31
0
  0
LINE
  5
1e8
  100
AcDbEntity
  8
1
  100
AcDbLine
  10
2.7
  20
-1.272177
  30
0
  11
2.8
  21
-1.300438
  31
0
  0
LINE
  5
1e9
  100
AcDbEntity
  8
1
  100
AcDbLine
  10
2.8
  20
-1.300438
  30
0
  11
2.9
  21
-1.326772
  31
0
  0
LINE
  5
1ea
  100
AcDbEntity
  8
1
  100
AcDbLine
  10
2.9
  20
-1.326772
  30
0
  11
3
  21
-1.351141
  31
0
  0
LINE
  5
1eb
  100
AcDbEntity
  8
1
  100
AcDbLine
  10
3
  20
-1.351141
  30
0
  11
3.1
  21
-1.373508
  31
0
  0
LINE
  5
1ec
  100
AcDbEntity
  8
1
  100
AcDbLine
  10
3.1
  20
-1.373508
  30
0
  11
3.2
  21
-1.393841
  31
0
  0
LINE
  5
1ed
  100
AcDbEntity
  8
1
  100
AcDbLine
  10
3.2
  20
-1.393841
  30
0
  11
3.3
  21
-1.412109
  31
0
  0
LINE
  5
1ee
  100
AcDbEntity
  8
1
  100
AcDbLine
  10
3.3
  20
-1.412109
  30
0
  11
3.4
  21
-1.428285
  31
0
  0
LINE
  5
1ef
  100
AcDbEntity
  8
1
  100
AcDbLine
  10
3.4
  20
-1.428285
  30
0
  11
3.5
  21
-1.442346
  31
0
  0
LINE
  5
1f0
  100
AcDbEntity
  8
1
  100
AcDbLine
  10
3.5
  20
-1.442346
  30
0
  11
3.6
  21
-1.45427
  31
0
  0
LINE
  5
1f1
  100
AcDbEntity
  8
1
  100
AcDbLine
  10
3.6
  20
-1.45427
  30
0
  11
3.7
  21
-1.46404
  31
0
  0
LINE
  5
1f2
  100
AcDbEntity
  8
1
  100
AcDbLine
  10
3.7
  20
-1.46404
  30
0
  11
3.8
  21
-1.471641
  31
0
  0
LINE
  5
1f3
  100
AcDbEntity
  8
1
  100
AcDbLine
  10
3.8
  20
-1.471641
  30
0
  11
3.9
  21
-1.477062
  31
0
  0
LINE
  5
1f4
  100
AcDbEntity
  8
1
  100
AcDbLine
  10
3.9
  20
-1.477062
  30
0
  11
4
  21
-1.480295
  31
0
  0
LINE
  5
1f5
  100
AcDbEntity
  8
1
  100
AcDbLine
  10
4
  20
-1.480295
  30
0
  11
4.097418
  21
-1.5
  31
0
  0
LINE
  5
1f6
  100
AcDbEntity
  8
1
  100
AcDbLine
  10
3.837904
  20
-1.5
  30
0
  11
3.8
  21
-1.49984
  31
0
  0
LINE
  5
1f7
  100
AcDbEntity
  8
1
  100
AcDbLine
  10
3.8
  20
-1.49984
  30
0
  11
3.7
  21
-1.497887
  31
0
  0
LINE
  5
1f8
  100
AcDbEntity
  8
1
  100
AcDbLine
  10
3.7
  20
-1.497887
  30
0
  11
3.6
  21
-1.493716
  31
0
  0
LINE
  5
1f9
  100
AcDbEntity
  8
1
  100
AcDbLine
  10
3.6
  20
-1.493716
  30
0
  11
3.5
  21
-1.487331
  31
0
  0
LINE
  5
1fa
  100
AcDbEntity
  8
1
  100
AcDbLine
  10
3.5
  20
-1.487331
  30
0
  11
3.4
  21
-1.478744
  31
0
  0
LINE
  5
1fb
  100
AcDbEntity
  8
1
  100
AcDbLine
  10
3.4
  20
-1.478744
  30
0
  11
3.3
  21
-1.467966
  31
0
  0
LINE
  5
1fc
  100
AcDbEntity
  8
1
  100
AcDbLine
  10
3.3
  20
-1.467966
  30
0
  11
3.2
  21
-1.455013
  31
0
  0
LINE
  5
1fd
  100
AcDbEntity
  8
1
  100
AcDbLine
  10
3.2
  20
-1.455013
  30
0
  11
3.1
  21
-1.439906
  31
0
  0
LINE
  5
1fe
  100
AcDbEntity
  8
1
  100
AcDbLine
  10
3.1
  20
-1.439906
  30
0
  11
3
  21
-1.422665
  31
0
  0
LINE
  5
1ff
  100
AcDbEntity
  8
1
  100
AcDbLine
  10
3
  20
-1.422665
  30
0
  11
2.9
  21
-1.403317
  31
0
  0
LINE
  5
200
  100
AcDbEntity
  8
1
  100
AcDbLine
  10
2.9
  20
-1.403317
  30
0
  11
2.8
  21
-1.38189
  31
0
  0
LINE
  5
201
  100
AcDbEntity
  8
1
  100
AcDbLine
  10
2.8
  20
-1.38189
  30
0
  11
2.7
  21
-1.358416
  31
0
  0
LINE
  5
202
  100
AcDbEntity
  8
1
  100
AcDbLine
  10
2.7
  20
-1.358416
  30
0
  11
2.6
  21
-1.33293
  31
0
  0
LINE
  5
203
  100
AcDbEntity
  8
1
  100
AcDbLine
  10
2.6
  20
-1.33293
  30
0
  11
2.5
  21
-1.305469
  31
0
  0
LINE
  5
204
  100
AcDbEntity
  8
1
  100
AcDbLine
  10
2.5
  20
-1.305469
  30
0
  11
2.4
  21
-1.276075
  31
0
  0
LINE
  5
205
  100
AcDbEntity
  8
1
  100
AcDbLine
  10
2.4
  20
-1.276075
  30
0
  11
2.3
  21
-1.24479
  31
0
  0
LINE
  5
206
  100
AcDbEntity
  8
1
  100
AcDbLine
  10
2.3
  20
-1.24479
  30
0
  11
2.2
  21
-1.211662
  31
0
  0
LINE
  5
207
  100
AcDbEntity
  8
1
  100
AcDbLine
  10
2.2
  20
-1.211662
  30
0
  11
2.1
  21
-1.176739
  31
0
  0
LINE
  5
208
  100
AcDbEntity
  8
1
  100
AcDbLine
  10
2.1
  20
-1.176739
  30
0
  11
2
  21
-1.140072
  31
0
  0
LINE
  5
209
  100
AcDbEntity
  8
1
  100
AcDbLine
  10
2
  20
-1.140072
  30
0
  11
1.9
  21
-1.101717
  31
0
  0
LINE
  5
20a
  100
AcDbEntity
  8
1
  100
AcDbLine
  10
1.9
  20
-1.101717
  30
0
  11
1.8
  21
-1.06173
  31
0
  0
LINE
  5
20b
  100
AcDbEntity
  8
1
  100
AcDbLine
  10
1.8
  20
-1.06173
  30
0
  11
1.7
  21
-1.02017
  31
0
  0
LINE
  5
20c
  100
AcDbEntity
  8
1
  100
AcDbLine
  10
1.7
  20
-1.02017
  30
0
  11
1.6
  21
-0.977099
  31
0
  0
LINE
  5
20d
  100
AcDbEntity
  8
1
  100
AcDbLine
  10
1.6
  20
-0.977099
  30
0
  11
1.5
  21
-0.93258
  31
0
  0
LINE
  5
20e
  100
AcDbEntity
  8
1
  100
AcDbLine
  10
1.5
  20
-0.93258
  30
0
  11
1.4
  21
-0.88668
  31
0
  0
LINE
  5
20f
  100
AcDbEntity
  8
1
  100
AcDbLine
  10
1.4
  20
-0.88668
  30
0
  11
1.3
  21
-0.839467
  31
0
  0
LINE
  5
210
  100
AcDbEntity
  8
1
  100
AcDbLine
  10
1.3
  20
-0.839467
  30
0
  11
1.2
  21
-0.79101
  31
0
  0
LINE
  5
211
  100
AcDbEntity
  8
1
  100
AcDbLine
  10
1.2
  20
-0.79101
  30
0
  11
1.1
  21
-0.741382
  31
0
  0
LINE
  5
212
  100
AcDbEntity
  8
1
  100
AcDbLine
  10
1.1
  20
-0.741382
  30
0
  11
1
  21
-0.690655
  31
0
  0
LINE
  5
213
  100
AcDbEntity
  8
1
  100
AcDbLine
  10
1
  20
-0.690655
  30
0
  11
0.9
  21
-0.638905
  31
0
  0
LINE
  5
214
  100
AcDbEntity
  8
1
  100
AcDbLine
  10
0.9
  20
-0.638905
  30
0
  11
0.8
  21
-0.586209
  31
0
  0
LINE
  5
215
  100
AcDbEntity
  8
1
  100
AcDbLine
  10
0.8
  20
-0.586209
  30
0
  11
0.7
  21
-0.532644
  31
0
  0
LINE
  5
216
  100
AcDbEntity
  8
1
  100
AcDbLine
  10
0.7
  20
-0.532644
  30
0
  11
0.6
  21
-0.478291
  31
0
  0
LINE
  5
217
  100
AcDbEntity
  8
1
  100
AcDbLine
  10
0.6
  20
-0.478291
  30
0
  11
0.5
  21
-0.423229
  31
0
  0
LINE
  5
218
  100
AcDbEntity
  8
1
  100
AcDbLine
  10
0.5
  20
-0.423229
  30
0
  11
0.4
  21
-0.36754
  31
0
  0
LINE
  5
219
  100
AcDbEntity
  8
1
  100
AcDbLine
  10
0.4
  20
-0.36754
  30
0
  11
0.3
  21
-0.311306
  31
0
  0
LINE
  5
21a
  100
AcDbEntity
  8
1
  100
AcDbLine
  10
0.3
  20
-0.311306
  30
0
  11
0.2
  21
-0.254612
  31
0
  0
LINE
  5
21b
  100
AcDbEntity
  8
1
  100
AcDbLine
  10
0.2
  20
-0.254612
  30
0
  11
0.1
  21
-0.19754
  31
0
  0
LINE
  5
21c
  100
AcDbEntity
  8
1
  100
AcDbLine
  10
0.1
  20
-0.19754
  30
0
  11
0
  21
-0.140175
  31
0
  0
LINE
  5
21d
  100
AcDbEntity
  8
1
  100
AcDbLine
  10
0.573062
  20
-1.5
  30
0
  11
0.5
  21
-1.499407
  31
0
  0
LINE
  5
21e
  100
AcDbEntity
  8
1
  100
AcDbLine
  10
0.5
  20
-1.499407
  30
0
  11
0.4
  21
-1.496673
  31
0
  0
LINE
  5
21f
  100
AcDbEntity
  8
1
  100
AcDbLine
  10
0.4
  20
-1.496673
  30
0
  11
0.3
  21
-1.491723
  31
0
  0
LINE
  5
220
  100
AcDbEntity
  8
1
  100
AcDbLine
  10
0.3
  20
-1.491723
  30
0
  11
0.2
  21
-1.484562
  31
0
  0
LINE
  5
221
  100
AcDbEntity
  8
1
  100
AcDbLine
  10
0.2
  20
-1.484562
  30
0
  11
0.1
  21
-1.475203
  31
0
  0
LINE
  5
222
  100
AcDbEntity
  8
1
  100
AcDbLine
  10
0.1
  20
-1.475203
  30
0
  11
0
  21
-1.463659
  31
0
  0
LINE
  5
223
  100
AcDbEntity
  8
1
  100
AcDbLine
  10
0.016372
  20
-1.5
  30
0
  11
0
  21
-1.481307
  31
0
  0
LINE
  5
224
  100
AcDbEntity
  8
1
  100
AcDbLine
  10
0
  20
1.493436
  30
0
  11
0.1
  21
1.486936
  31
0
  0
LINE
  5
225
  100
AcDbEntity
  8
1
  100
AcDbLine
  10
0.1
  20
1.486936
  30
0
  11
0.2
  21
1.478233
  31
0
  0
LINE
  5
226
  100
AcDbEntity
  8
1
  100
AcDbLine
  10
0.2
  20
1.478233
  30
0
  11
0.3
  21
1.467341
  31
0
  0
LINE
  5
227
  100
AcDbEntity
  8
1
  100
AcDbLine
  10
0.3
  20
1.467341
  30
0
  11
0.4
  21
1.454275
  31
0
  0
LINE
  5
228
  100
AcDbEntity
  8
1
  100
AcDbLine
  10
0.4
  20
1.454275
  30
0
  11
0.5
  21
1.439054
  31
0
  0
LINE
  5
229
  100
AcDbEntity
  8
1
  100
AcDbLine
  10
0.5
  20
1.439054
  30
0
  11
0.6
  21
1.421703
  31
0
  0
LINE
  5
22a
  100
AcDbEntity
  8
1
  100
AcDbLine
  10
0.6
  20
1.421703
  30
0
  11
0.7
  21
1.402245
  31
0
  0
LINE
  5
22b
  100
AcDbEntity
  8
1
  100
AcDbLine
  10
0.7
  20
1.402245
  30
0
  11
0.8
  21
1.38071
  31
0
  0
LINE
  5
22c
  100
AcDbEntity
  8
1
  100
AcDbLine
  10
0.8
  20
1.38071
  30
0
  11
0.9
  21
1.357129
  31
0
  0
LINE
  5
22d
  100
AcDbEntity
  8
1
  100
AcDbLine
  10
0.9
  20
1.357129
  30
0
  11
1
  21
1.331539
  31
0
  0
LINE
  5
22e
  100
AcDbEntity
  8
1
  100
AcDbLine
  10
1
  20
1.331539
  30
0
  11
1.1
  21
1.303976
  31
0
  0
LINE
  5
22f
  100
AcDbEntity
  8
1
  100
AcDbLine
  10
1.1
  20
1.303976
  30
0
  11
1.2
  21
1.274481
  31
0
  0
LINE
  5
230
  100
AcDbEntity
  8
1
  100
AcDbLine
  10
1.2
  20
1.274481
  30
0
  11
1.3
  21
1.243099
  31
0
  0
LINE
  5
231
  100
AcDbEntity
  8
1
  100
AcDbLine
  10
1.3
  20
1.243099
  30
0
  11
1.4
  21
1.209875
  31
0
  0
LINE
  5
232
  100
AcDbEntity
  8
1
  100
AcDbLine
  10
1.4
  20
1.209875
  30
0
  11
1.5
  21
1.174859
  31
0
  0
LINE
  5
233
  100
AcDbEntity
  8
1
  100
AcDbLine
  10
1.5
  20
1.174859
  30
0
  11
1.6
  21
1.138103
  31
0
  0
LINE
  5
234
  100
AcDbEntity
  8
1
  100
AcDbLine
  10
1.6
  20
1.138103
  30
0
  11
1.7
  21
1.099661
  31
0
  0
LINE
  5
235
  100
AcDbEntity
  8
1
  100
AcDbLine
  10
1.7
  20
1.099661
  30
0
  11
1.8
  21
1.059589
  31
0
  0
LINE
  5
236
  100
AcDbEntity
  8
1
  100
AcDbLine
  10
1.8
  20
1.059589
  30
0
  11
1.9
  21
1.017949
  31
0
  0
LINE
  5
237
  100
AcDbEntity
  8
1
  100
AcDbLine
  10
1.9
  20
1.017949
  30
0
  11
2
  21
0.9748
  31
0
  0
LINE
  5
238
  100
AcDbEntity
  8
1
  100
AcDbLine
  10
2
  20
0.9748
  30
0
  11
2.1
  21
0.930208
  31
0
  0
LINE
  5
239
  100
AcDbEntity
  8
1
  100
AcDbLine
  10
2.1
  20
0.930208
  30
0
  11
2.2
  21
0.884237
  31
0
  0
LINE
  5
23a
  100
AcDbEntity
  8
1
  100
AcDbLine
  10
2.2
  20
0.884237
  30
0
  11
2.3
  21
0.836957
  31
0
  0
LINE
  5
23b
  100
AcDbEntity
  8
1
  100
AcDbLine
  10
2.3
  20
0.836957
  30
0
  11
2.4
  21
0.788437
  31
0
  0
LINE
  5
23c
  100
AcDbEntity
  8
1
  100
AcDbLine
  10
2.4
  20
0.788437
  30
0
  11
2.5
  21
0.738749
  31
0
  0
LINE
  5
23d
  100
AcDbEntity
  8
1
  100
AcDbLine
  10
2.5
  20
0.738749
  30
0
  11
2.6
  21
0.687967
  31
0
  0
LINE
  5
23e
  100
AcDbEntity
  8
1
  100
AcDbLine
  10
2.6
  20
0.687967
  30
0
  11
2.7
  21
0.636165
  31
0
  0
LINE
  5
23f
  100
AcDbEntity
  8
1
  100
AcDbLine
  10
2.7
  20
0.636165
  30
0
  11
2.8
  21
0.583421
  31
0
  0
LINE
  5
240
  100
AcDbEntity
  8
1
  100
AcDbLine
  10
2.8
  20
0.583421
  30
0
  11
2.9
  21
0.529813
  31
0
  0
LINE
  5
241
  100
AcDbEntity
  8
1
  100
AcDbLine
  10
2.9
  20
0.529813
  30
0
  11
3
  21
0.475421
  31
0
  0
LINE
  5
242
  100
AcDbEntity
  8
1
  100
AcDbLine
  10
3
  20
0.475421
  30
0
  11
3.1
  21
0.420324
  31
0
  0
LINE
  5
243
  100
AcDbEntity
  8
1
  100
AcDbLine
  10
3.1
  20
0.420324
  30
0
  11
3.2
  21
0.364604
  31
0
  0
LINE
  5
244
  100
AcDbEntity
  8
1
  100
AcDbLine
  10
3.2
  20
0.364604
  30
0
  11
3.3
  21
0.308344
  31
0
  0
LINE
  5
245
  100
AcDbEntity
  8
1
  100
AcDbLine
  10
3.3
  20
0.308344
  30
0
  11
3.4
  21
0.251628
  31
0
  0
LINE
  5
246
  100
AcDbEntity
  8
1
  100
AcDbLine
  10
3.4
  20
0.251628
  30
0
  11
3.5
  21
0.194539
  31
0
  0
LINE
  5
247
  100
AcDbEntity
  8
1
  100
AcDbLine
  10
3.5
  20
0.194539
  30
0
  11
3.6
  21
0.137161
  31
0
  0
LINE
  5
248
  100
AcDbEntity
  8
1
  100
AcDbLine
  10
3.6
  20
0.137161
  30
0
  11
3.7
  21
0.079581
  31
0
  0
LINE
  5
249
  100
AcDbEntity
  8
1
  100
AcDbLine
  10
3.7
  20
0.079581
  30
0
  11
3.8
  21
0.021882
  31
0
  0
LINE
  5
24a
  100
AcDbEntity
  8
1
  100
AcDbLine
  10
3.8
  20
0.021882
  30
0
  11
3.9
  21
-0.035848
  31
0
  0
LINE
  5
24b
  100
AcDbEntity
  8
1
  100
AcDbLine
  10
3.9
  20
-0.035848
  30
0
  11
4
  21
-0.093526
  31
0
  0
LINE
  5
24c
  100
AcDbEntity
  8
1
  100
AcDbLine
  10
4
  20
-0.093526
  30
0
  11
4.1
  21
-0.151065
  31
0
  0
LINE
  5
24d
  100
AcDbEntity
  8
1
  100
AcDbLine
  10
4.1
  20
-0.151065
  30
0
  11
4.2
  21
-0.208381
  31
0
  0
LINE
  5
24e
  100
AcDbEntity
  8
1
  100
AcDbLine
  10
4.2
  20
-0.208381
  30
0
  11
4.3
  21
-0.265387
  31
0
  0
LINE
  5
24f
  100
AcDbEntity
  8
1
  100
AcDbLine
  10
4.3
  20
-0.265387
  30
0
  11
4.4
  21
-0.322001
  31
0
  0
LINE
  5
250
  100
AcDbEntity
  8
1
  100
AcDbLine
  10
4.4
  20
-0.322001
  30
0
  11
4.5
  21
-0.378138
  31
0
  0
LINE
  5
251
  100
AcDbEntity
  8
1
  100
AcDbLine
  10
4.5
  20
-0.378138
  30
0
  11
4.6
  21
-0.433714
  31
0
  0
LINE
  5
252
  100
AcDbEntity
  8
1
  100
AcDbLine
  10
4.6
  20
-0.433714
  30
0
  11
4.7
  21
-0.488648
  31
0
  0
LINE
  5
253
  100
AcDbEntity
  8
1
  100
AcDbLine
  10
4.7
  20
-0.488648
  30
0
  11
4.8
  21
-0.542859
  31
0
  0
LINE
  5
254
  100
AcDbEntity
  8
1
  100
AcDbLine
  10
4.8
  20
-0.542859
  30
0
  11
4.9
  21
-0.596265
  31
0
  0
LINE
  5
255
  100
AcDbEntity
  8
1
  100
AcDbLine
  10
4.9
  20
-0.596265
  30
0
  11
5
  21
-0.648787
  31
0
  0
LINE
  5
256
  100
AcDbEntity
  8
1
  100
AcDbLine
  10
5
  20
-0.648787
  30
0
  11
5.1
  21
-0.700349
  31
0
  0
LINE
  5
257
  100
AcDbEntity
  8
1
  100
AcDbLine
  10
5.1
  20
-0.700349
  30
0
  11
5.2
  21
-0.750874
  31
0
  0
LINE
  5
258
  100
AcDbEntity
  8
1
  100
AcDbLine
  10
5.2
  20
-0.750874
  30
0
  11
5.3
  21
-0.800286
  31
0
  0
LINE
  5
259
  100
AcDbEntity
  8
1
  100
AcDbLine
  10
5.3
  20
-0.800286
  30
0
  11
5.4
  21
-0.848512
  31
0
  0
LINE
  5
25a
  100
AcDbEntity
  8
1
  100
AcDbLine
  10
5.4
  20
-0.848512
  30
0
  11
5.5
  21
-0.895482
  31
0
  0
LINE
  5
25b
  100
AcDbEntity
  8
1
  100
AcDbLine
  10
5.5
  20
-0.895482
  30
0
  11
5.6
  21
-0.941125
  31
0
  0
LINE
  5
25c
  100
AcDbEntity
  8
1
  100
AcDbLine
  10
5.6
  20
-0.941125
  30
0
  11
5.7
  21
-0.985375
  31
0
  0
LINE
  5
25d
  100
AcDbEntity
  8
1
  100
AcDbLine
  10
5.7
  20
-0.985375
  30
0
  11
5.8
  21
-1.028164
  31
0
  0
LINE
  5
25e
  100
AcDbEntity
  8
1
  100
AcDbLine
  10
5.8
  20
-1.028164
  30
0
  11
5.9
  21
-1.069431
  31
0
  0
LINE
  5
25f
  100
AcDbEntity
  8
1
  100
AcDbLine
  10
5.9
  20
-1.069431
  30
0
  11
6
  21
-1.109113
  31
0
  0
LINE
  5
260
  100
AcDbEntity
  8
1
  100
AcDbLine
  10
6
  20
-1.109113
  30
0
  11
6.1
  21
-1.147152
  31
0
  0
LINE
  5
261
  100
AcDbEntity
  8
1
  100
AcDbLine
  10
6.1
  20
-1.147152
  30
0
  11
6.2
  21
-1.183493
  31
0
  0
LINE
  5
262
  100
AcDbEntity
  8
1
  100
AcDbLine
  10
6.2
  20
-1.183493
  30
0
  11
6.3
  21
-1.21808
  31
0
  0
LINE
  5
263
  100
AcDbEntity
  8
1
  100
AcDbLine
  10
6.3
  20
-1.21808
  30
0
  11
6.4
  21
-1.250862
  31
0
  0
LINE
  5
264
  100
AcDbEntity
  8
1
  100
AcDbLine
  10
6.4
  20
-1.250862
  30
0
  11
6.5
  21
-1.281792
  31
0
  0
LINE
  5
265
  100
AcDbEntity
  8
1
  100
AcDbLine
  10
6.5
  20
-1.281792
  30
0
  11
6.6
  21
-1.310823
  31
0
  0
LINE
  5
266
  100
AcDbEntity
  8
1
  100
AcDbLine
  10
6.6
  20
-1.310823
  30
0
  11
6.7
  21
-1.337913
  31
0
  0
LINE
  5
267
  100
AcDbEntity
  8
1
  100
AcDbLine
  10
6.7
  20
-1.337913
  30
0
  11
6.8
  21
-1.36302
  31
0
  0
LINE
  5
268
  100
AcDbEntity
  8
1
  100
AcDbLine
  10
6.8
  20
-1.36302
  30
0
  11
6.9
  21
-1.386109
  31
0
  0
LINE
  5
269
  100
AcDbEntity
  8
1
  100
AcDbLine
  10
6.9
  20
-1.386109
  30
0
  11
7
  21
-1.407144
  31
0
  0
LINE
  5
26a
  100
AcDbEntity
  8
1
  100
AcDbLine
  10
7
  20
-1.407144
  30
0
  11
7.1
  21
-1.426095
  31
0
  0
LINE
  5
26b
  100
AcDbEntity
  8
1
  100
AcDbLine
  10
7.1
  20
-1.426095
  30
0
  11
7.2
  21
-1.442933
  31
0
  0
LINE
  5
26c
  100
AcDbEntity
  8
1
  100
AcDbLine
  10
7.2
  20
-1.442933
  30
0
  11
7.3
  21
-1.457634
  31
0
  0
LINE
  5
26d
  100
AcDbEntity
  8
1
  100
AcDbLine
  10
7.3
  20
-1.457634
  30
0
  11
7.4
  21
-1.470176
  31
0
  0
LINE
  5
26e
  100
AcDbEntity
  8
1
  100
AcDbLine
  10
7.4
  20
-1.470176
  30
0
  11
7.5
  21
-1.48054
  31
0
  0
LINE
  5
26f
  100
AcDbEntity
  8
1
  100
AcDbLine
  10
7.5
  20
-1.48054
  30
0
  11
7.6
  21
-1.488711
  31
0
  0
LINE
  5
270
  100
AcDbEntity
  8
1
  100
AcDbLine
  10
7.6
  20
-1.488711
  30
0
  11
7.7
  21
-1.494677
  31
0
  0
LINE
  5
271
  100
AcDbEntity
  8
1
  100
AcDbLine
  10
7.7
  20
-1.494677
  30
0
  11
7.8
  21
-1.498428
  31
0
  0
LINE
  5
272
  100
AcDbEntity
  8
1
  100
AcDbLine
  10
7.8
  20
-1.498428
  30
0
  11
7.9
  21
-1.49996
  31
0
  0
LINE
  5
273
  100
AcDbEntity
  8
1
  100
AcDbLine
  10
7.9
  20
-1.49996
  30
0
  11
7.918954
  21
-1.5
  31
0
  0
LINE
  5
274
  100
AcDbEntity
  8
1
  100
AcDbLine
  10
8.178465
  20
-1.5
  30
0
  11
8.1
  21
-1.480661
  31
0
  0
LINE
  5
275
  100
AcDbEntity
  8
1
  100
AcDbLine
  10
8.1
  20
-1.480661
  30
0
  11
8
  21
-1.477843
  31
0
  0
LINE
  5
276
  100
AcDbEntity
  8
1
  100
AcDbLine
  10
8
  20
-1.477843
  30
0
  11
7.9
  21
-1.472836
  31
0
  0
LINE
  5
277
  100
AcDbEntity
  8
1
  100
AcDbLine
  10
7.9
  20
-1.472836
  30
0
  11
7.8
  21
-1.465647
  31
0
  0
LINE
  5
278
  100
AcDbEntity
  8
1
  100
AcDbLine
  10
7.8
  20
-1.465647
  30
0
  11
7.7
  21
-1.456287
  31
0
  0
LINE
  5
279
  100
AcDbEntity
  8
1
  100
AcDbLine
  10
7.7
  20
-1.456287
  30
0
  11
7.6
  21
-1.44477
  31
0
  0
LINE
  5
27a
  100
AcDbEntity
  8
1
  100
AcDbLine
  10
7.6
  20
-1.44477
  30
0
  11
7.5
  21
-1.431113
  31
0
  0
LINE
  5
27b
  100
AcDbEntity
  8
1
  100
AcDbLine
  10
7.5
  20
-1.431113
  30
0
  11
7.4
  21
-1.415336
  31
0
  0
LINE
  5
27c
  100
AcDbEntity
  8
1
  100
AcDbLine
  10
7.4
  20
-1.415336
  30
0
  11
7.3
  21
-1.397462
  31
0
  0
LINE
  5
27d
  100
AcDbEntity
  8
1
  100
AcDbLine
  10
7.3
  20
-1.397462
  30
0
  11
7.2
  21
-1.377519
  31
0
  0
LINE
  5
27e
  100
AcDbEntity
  8
1
  100
AcDbLine
  10
7.2
  20
-1.377519
  30
0
  11
7.1
  21
-1.355534
  31
0
  0
LINE
  5
27f
  100
AcDbEntity
  8
1
  100
AcDbLine
  10
7.1
  20
-1.355534
  30
0
  11
7
  21
-1.331542
  31
0
  0
LINE
  5
280
  100
AcDbEntity
  8
1
  100
AcDbLine
  10
7
  20
-1.331542
  30
0
  11
6.9
  21
-1.305578
  31
0
  0
LINE
  5
281
  100
AcDbEntity
  8
1
  100
AcDbLine
  10
6.9
  20
-1.305578
  30
0
  11
6.8
  21
-1.277679
  31
0
  0
LINE
  5
282
  100
AcDbEntity
  8
1
  100
AcDbLine
  10
6.8
  20
-1.277679
  30
0
  11
6.7
  21
-1.247888
  31
0
  0
LINE
  5
283
  100
AcDbEntity
  8
1
  100
AcDbLine
  10
6.7
  20
-1.247888
  30
0
  11
6.6
  21
-1.216248
  31
0
  0
LINE
  5
284
  100
AcDbEntity
  8
1
  100
AcDbLine
  10
6.6
  20
-1.216248
  30
0
  11
6.5
  21
-1.182807
  31
0
  0
LINE
  5
285
  100
AcDbEntity
  8
1
  100
AcDbLine
  10
6.5
  20
-1.182807
  30
0
  11
6.4
  21
-1.147614
  31
0
  0
LINE
  5
286
  100
AcDbEntity
  8
1
  100
AcDbLine
  10
6.4
  20
-1.147614
  30
0
  11
6.3
  21
-1.11072
  31
0
  0
LINE
  5
287
  100
AcDbEntity
  8
1
  100
AcDbLine
  10
6.3
  20
-1.11072
  30
0
  11
6.2
  21
-1.072182
  31
0
  0
LINE
  5
288
  100
AcDbEntity
  8
1
  100
AcDbLine
  10
6.2
  20
-1.072182
  30
0
  11
6.1
  21
-1.032055
  31
0
  0
LINE
  5
289
  100
AcDbEntity
  8
1
  100
AcDbLine
  10
6.1
  20
-1.032055
  30
0
  11
6
  21
-0.990399
  31
0
  0
LINE
  5
28a
  100
AcDbEntity
  8
1
  100
AcDbLine
  10
6
  20
-0.990399
  30
0
  11
5.9
  21
-0.947276
  31
0
  0
LINE
  5
28b
  100
AcDbEntity
  8
1
  100
AcDbLine
  10
5.9
  20
-0.947276
  30
0
  11
5.8
  21
-0.90275
  31
0
  0
LINE
  5
28c
  100
AcDbEntity
  8
1
  100
AcDbLine
  10
5.8
  20
-0.90275
  30
0
  11
5.7
  21
-0.856887
  31
0
  0
LINE
  5
28d
  100
AcDbEntity
  8
1
  100
AcDbLine
  10
5.7
  20
-0.856887
  30
0
  11
5.6
  21
-0.809755
  31
0
  0
LINE
  5
28e
  100
AcDbEntity
  8
1
  100
AcDbLine
  10
5.6
  20
-0.809755
  30
0
  11
5.5
  21
-0.761423
  31
0
  0
LINE
  5
28f
  100
AcDbEntity
  8
1
  100
AcDbLine
  10
5.5
  20
-0.761423
  30
0
  11
5.4
  21
-0.711963
  31
0
  0
LINE
  5
290
  100
AcDbEntity
  8
1
  100
AcDbLine
  10
5.4
  20
-0.711963
  30
0
  11
5.3
  21
-0.661449
  31
0
  0
LINE
  5
291
  100
AcDbEntity
  8
1
  100
AcDbLine
  10
5.3
  20
-0.661449
  30
0
  11
5.2
  21
-0.609954
  31
0
  0
LINE
  5
292
  100
AcDbEntity
  8
1
  100
AcDbLine
  10
5.2
  20
-0.609954
  30
0
  11
5.1
  21
-0.557556
  31
0
  0
LINE
  5
293
  100
AcDbEntity
  8
1
  100
AcDbLine
  10
5.1
  20
-0.557556
  30
0
  11
5
  21
-0.504333
  31
0
  0
LINE
  5
294
  100
AcDbEntity
  8
1
  100
AcDbLine
  10
5
  20
-0.504333
  30
0
  11
4.9
  21
-0.450362
  31
0
  0
LINE
  5
295
  100
AcDbEntity
  8
1
  100
AcDbLine
  10
4.9
  20
-0.450362
  30
0
  11
4.8
  21
-0.395724
  31
0
  0
LINE
  5
296
  100
AcDbEntity
  8
1
  100
AcDbLine
  10
4.8
  20
-0.395724
  30
0
  11
4.7
  21
-0.3405
  31
0
  0
LINE
  5
297
  100
AcDbEntity
  8
1
  100
AcDbLine
  10
4.7
  20
-0.3405
  30
0
  11
4.6
  21
-0.284772
  31
0
  0
LINE
  5
298
  100
AcDbEntity
  8
1
  100
AcDbLine
  10
4.6
  20
-0.284772
  30
0
  11
4.5
  21
-0.228621
  31
0
  0
LINE
  5
299
  100
AcDbEntity
  8
1
  100
AcDbLine
  10
4.5
  20
-0.228621
  30
0
  11
4.4
  21
-0.172132
  31
0
  0
LINE
  5
29a
  100
AcDbEntity
  8
1
  100
AcDbLine
  10
4.4
  20
-0.172132
  30
0
  11
4.3
  21
-0.115388
  31
0
  0
LINE
  5
29b
  100
AcDbEntity
  8
1
  100
AcDbLine
  10
4.3
  20
-0.115388
  30
0
  11
4.2
  21
-0.058473
  31
0
  0
LINE
  5
29c
  100
AcDbEntity
  8
1
  100
AcDbLine
  10
4.2
  20
-0.058473
  30
0
  11
4.1
  21
-0.001472
  31
0
  0
LINE
  5
29d
  100
AcDbEntity
  8
1
  100
AcDbLine
  10
4.1
  20
-0.001472
  30
0
  11
4
  21
0.055532
  31
0
  0
LINE
  5
29e
  100
AcDbEntity
  8
1
  100
AcDbLine
  10
4
  20
0.055532
  30
0
  11
3.9
  21
0.112453
  31
0
  0
LINE
  5
29f
  100
AcDbEntity
  8
1
  100
AcDbLine
  10
3.9
  20
0.112453
  30
0
  11
3.8
  21
0.169208
  31
0
  0
LINE
  5
2a0
  100
AcDbEntity
  8
1
  100
AcDbLine
  10
3.8
  20
0.169208
  30
0
  11
3.7
  21
0.225712
  31
0
  0
LINE
  5
2a1
  100
AcDbEntity
  8
1
  100
AcDbLine
  10
3.7
  20
0.225712
  30
0
  11
3.6
  21
0.281882
  31
0
  0
LINE
  5
2a2
  100
AcDbEntity
  8
1
  100
AcDbLine
  10
3.6
  20
0.281882
  30
0
  11
3.5
  21
0.337634
  31
0
  0
LINE
  5
2a3
  100
AcDbEntity
  8
1
  100
AcDbLine
  10
3.5
  20
0.337634
  30
0
  11
3.4
  21
0.392886
  31
0
  0
LINE
  5
2a4
  100
AcDbEntity
  8
1
  100
AcDbLine
  10
3.4
  20
0.392886
  30
0
  11
3.3
  21
0.447556
  31
0
  0
LINE
  5
2a5
  100
AcDbEntity
  8
1
  100
AcDbLine
  10
3.3
  20
0.447556
  30
0
  11
3.2
  21
0.501564
  31
0
  0
LINE
  5
2a6
  100
AcDbEntity
  8
1
  100
AcDbLine
  10
3.2
  20
0.501564
  30
0
  11
3.1
  21
0.554828
  31
0
  0
LINE
  5
2a7
  100
AcDbEntity
  8
1
  100
AcDbLine
  10
3.1
  20
0.554828
  30
0
  11
3
  21
0.60727
  31
0
  0
LINE
  5
2a8
  100
AcDbEntity
  8
1
  100
AcDbLine
  10
3
  20
0.60727
  30
0
  11
2.9
  21
0.658813
  31
0
  0
LINE
  5
2a9
  100
AcDbEntity
  8
1
  100
AcDbLine
  10
2.9
  20
0.658813
  30
0
  11
2.8
  21
0.70938
  31
0
  0
LINE
  5
2aa
  100
AcDbEntity
  8
1
  100
AcDbLine
  10
2.8
  20
0.70938
  30
0
  11
2.7
  21
0.758896
  31
0
  0
LINE
  5
2ab
  100
AcDbEntity
  8
1
  100
AcDbLine
  10
2.7
  20
0.758896
  30
0
  11
2.6
  21
0.807288
  31
0
  0
LINE
  5
2ac
  100
AcDbEntity
  8
1
  100
AcDbLine
  10
2.6
  20
0.807288
  30
0
  11
2.5
  21
0.854484
  31
0
  0
LINE
  5
2ad
  100
AcDbEntity
  8
1
  100
AcDbLine
  10
2.5
  20
0.854484
  30
0
  11
2.4
  21
0.900415
  31
0
  0
LINE
  5
2ae
  100
AcDbEntity
  8
1
  100
AcDbLine
  10
2.4
  20
0.900415
  30
0
  11
2.3
  21
0.945011
  31
0
  0
LINE
  5
2af
  100
AcDbEntity
  8
1
  100
AcDbLine
  10
2.3
  20
0.945011
  30
0
  11
2.2
  21
0.988208
  31
0
  0
LINE
  5
2b0
  100
AcDbEntity
  8
1
  100
AcDbLine
  10
2.2
  20
0.988208
  30
0
  11
2.1
  21
1.029941
  31
0
  0
LINE
  5
2b1
  100
AcDbEntity
  8
1
  100
AcDbLine
  10
2.1
  20
1.029941
  30
0
  11
2
  21
1.070148
  31
0
  0
LINE
  5
2b2
  100
AcDbEntity
  8
1
  100
AcDbLine
  10
2
  20
1.070148
  30
0
  11
1.9
  21
1.10877
  31
0
  0
LINE
  5
2b3
  100
AcDbEntity
  8
1
  100
AcDbLine
  10
1.9
  20
1.10877
  30
0
  11
1.8
  21
1.14575
  31
0
  0
LINE
  5
2b4
  100
AcDbEntity
  8
1
  100
AcDbLine
  10
1.8
  20
1.14575
  30
0
  11
1.7
  21
1.181032
  31
0
  0
LINE
  5
2b5
  100
AcDbEntity
  8
1
  100
AcDbLine
  10
1.7
  20
1.181032
  30
0
  11
1.6
  21
1.214565
  31
0
  0
LINE
  5
2b6
  100
AcDbEntity
  8
1
  100
AcDbLine
  10
1.6
  20
1.214565
  30
0
  11
1.5
  21
1.246299
  31
0
  0
LINE
  5
2b7
  100
AcDbEntity
  8
1
  100
AcDbLine
  10
1.5
  20
1.246299
  30
0
  11
1.4
  21
1.276187
  31
0
  0
LINE
  5
2b8
  100
AcDbEntity
  8
1
  100
AcDbLine
  10
1.4
  20
1.276187
  30
0
  11
1.3
  21
1.304184
  31
0
  0
LINE
  5
2b9
  100
AcDbEntity
  8
1
  100
AcDbLine
  10
1.3
  20
1.304184
  30
0
  11
1.2
  21
1.33025
  31
0
  0
LINE
  5
2ba
  100
AcDbEntity
  8
1
  100
AcDbLine
  10
1.2
  20
1.33025
  30
0
  11
1.1
  21
1.354344
  31
0
  0
LINE
  5
2bb
  100
AcDbEntity
  8
1
  100
AcDbLine
  10
1.1
  20
1.354344
  30
0
  11
1
  21
1.376433
  31
0
  0
LINE
  5
2bc
  100
AcDbEntity
  8
1
  100
AcDbLine
  10
1
  20
1.376433
  30
0
  11
0.9
  21
1.396483
  31
0
  0
LINE
  5
2bd
  100
AcDbEntity
  8
1
  100
AcDbLine
  10
0.9
  20
1.396483
  30
0
  11
0.8
  21
1.414464
  31
0
  0
LINE
  5
2be
  100
AcDbEntity
  8
1
  100
AcDbLine
  10
0.8
  20
1.414464
  30
0
  11
0.7
  21
1.43035
  31
0
  0
LINE
  5
2bf
  100
AcDbEntity
  8
1
  100
AcDbLine
  10
0.7
  20
1.43035
  30
0
  11
0.6
  21
1.444117
  31
0
  0
LINE
  5
2c0
  100
AcDbEntity
  8
1
  100
AcDbLine
  10
0.6
  20
1.444117
  30
0
  11
0.5
  21
1.455745
  31
0
  0
LINE
  5
2c1
  100
AcDbEntity
  8
1
  100
AcDbLine
  10
0.5
  20
1.455745
  30
0
  11
0.4
  21
1.465217
  31
0
  0
LINE
  5
2c2
  100
AcDbEntity
  8
1
  100
AcDbLine
  10
0.4
  20
1.465217
  30
0
  11
0.3
  21
1.472518
  31
0
  0
LINE
  5
2c3
  100
AcDbEntity
  8
1
  100
AcDbLine
  10
0.3
  20
1.472518
  30
0
  11
0.2
  21
1.477638
  31
0
  0
LINE
  5
2c4
  100
AcDbEntity
  8
1
  100
AcDbLine
  10
0.2
  20
1.477638
  30
0
  11
0.1
  21
1.480569
  31
0
  0
LINE
  5
2c5
  100
AcDbEntity
  8
1
  100
AcDbLine
  10
0.1
  20
1.480569
  30
0
  11
0.016372
  21
1.5
  31
0
  0
LINE
  5
2c6
  100
AcDbEntity
  8
1
  100
AcDbLine
  10
8.735163
  20
-1.5
  30
0
  11
8.7
  21
-1.499863
  31
0
  0
LINE
  5
2c7
  100
AcDbEntity
  8
1
  100
AcDbLine
  10
8.7
  20
-1.499863
  30
0
  11
8.6
  21
-1.497971
  31
0
  0
LINE
  5
2c8
  100
AcDbEntity
  8
1
  100
AcDbLine
  10
8.6
  20
-1.497971
  30
0
  11
8.5
  21
-1.49386
  31
0
  0
LINE
  5
2c9
  100
AcDbEntity
  8
1
  100
AcDbLine
  10
8.5
  20
-1.49386
  30
0
  11
8.4
  21
-1.487536
  31
0
  0
LINE
  5
2ca
  100
AcDbEntity
  8
1
  100
AcDbLine
  10
8.4
  20
-1.487536
  30
0
  11
8.3
  21
-1.479009
  31
0
  0
LINE
  5
2cb
  100
AcDbEntity
  8
1
  100
AcDbLine
  10
8.3
  20
-1.479009
  30
0
  11
8.2
  21
-1.46829
  31
0
  0
LINE
  5
2cc
  100
AcDbEntity
  8
1
  100
AcDbLine
  10
8.2
  20
-1.46829
  30
0
  11
8.1
  21
-1.455397
  31
0
  0
LINE
  5
2cd
  100
AcDbEntity
  8
1
  100
AcDbLine
  10
8.1
  20
-1.455397
  30
0
  11
8
  21
-1.440348
  31
0
  0
LINE
  5
2ce
  100
AcDbEntity
  8
1
  100
AcDbLine
  10
8
  20
-1.440348
  30
0
  11
7.9
  21
-1.423166
  31
0
  0
LINE
  5
2cf
  100
AcDbEntity
  8
1
  100
AcDbLine
  10
7.9
  20
-1.423166
  30
0
  11
7.8
  21
-1.403875
  31
0
  0
LINE
  5
2d0
  100
AcDbEntity
  8
1
  100
AcDbLine
  10
7.8
  20
-1.403875
  30
0
  11
7.7
  21
-1.382505
  31
0
  0
LINE
  5
2d1
  100
AcDbEntity
  8
1
  100
AcDbLine
  10
7.7
  20
-1.382505
  30
0
  11
7.6
  21
-1.359087
  31
0
  0
LINE
  5
2d2
  100
AcDbEntity
  8
1
  100
AcDbLine
  10
7.6
  20
-1.359087
  30
0
  11
7.5
  21
-1.333655
  31
0
  0
LINE
  5
2d3
  100
AcDbEntity
  8
1
  100
AcDbLine
  10
7.5
  20
-1.333655
  30
0
  11
7.4
  21
-1.306248
  31
0
  0
LINE
  5
2d4
  100
AcDbEntity
  8
1
  100
AcDbLine
  10
7.4
  20
-1.306248
  30
0
  11
7.3
  21
-1.276906
  31
0
  0
LINE
  5
2d5
  100
AcDbEntity
  8
1
  100
AcDbLine
  10
7.3
  20
-1.276906
  30
0
  11
7.2
  21
-1.245673
  31
0
  0
LINE
  5
2d6
  100
AcDbEntity
  8
1
  100
AcDbLine
  10
7.2
  20
-1.245673
  30
0
  11
7.1
  21
-1.212594
  31
0
  0
LINE
  5
2d7
  100
AcDbEntity
  8
1
  100
AcDbLine
  10
7.1
  20
-1.212594
  30
0
  11
7
  21
-1.17772
  31
0
  0
LINE
  5
2d8
  100
AcDbEntity
  8
1
  100
AcDbLine
  10
7
  20
-1.17772
  30
0
  11
6.9
  21
-1.1411
  31
0
  0
LINE
  5
2d9
  100
AcDbEntity
  8
1
  100
AcDbLine
  10
6.9
  20
-1.1411
  30
0
  11
6.8
  21
-1.102791
  31
0
  0
LINE
  5
2da
  100
AcDbEntity
  8
1
  100
AcDbLine
  10
6.8
  20
-1.102791
  30
0
  11
6.7
  21
-1.062847
  31
0
  0
LINE
  5
2db
  100
AcDbEntity
  8
1
  100
AcDbLine
  10
6.7
  20
-1.062847
  30
0
  11
6.6
  21
-1.02133
  31
0
  0
LINE
  5
2dc
  100
AcDbEntity
  8
1
  100
AcDbLine
  10
6.6
  20
-1.02133
  30
0
  11
6.5
  21
-0.978299
  31
0
  0
LINE
  5
2dd
  100
AcDbEntity
  8
1
  100
AcDbLine
  10
6.5
  20
-0.978299
  30
0
  11
6.4
  21
-0.93382
  31
0
  0
LINE
  5
2de
  100
AcDbEntity
  8
1
  100
AcDbLine
  10
6.4
  20
-0.93382
  30
0
  11
6.3
  21
-0.887957
  31
0
  0
LINE
  5
2df
  100
AcDbEntity
  8
1
  100
AcDbLine
  10
6.3
  20
-0.887957
  30
0
  11
6.2
  21
-0.840778
  31
0
  0
LINE
  5
2e0
  100
AcDbEntity
  8
1
  100
AcDbLine
  10
6.2
  20
-0.840778
  30
0
  11
6.1
  21
-0.792355
  31
0
  0
LINE
  5
2e1
  100
AcDbEntity
  8
1
  100
AcDbLine
  10
6.1
  20
-0.792355
  30
0
  11
6
  21
-0.742757
  31
0
  0
LINE
  5
2e2
  100
AcDbEntity
  8
1
  100
AcDbLine
  10
6
  20
-0.742757
  30
0
  11
5.9
  21
-0.69206
  31
0
  0
LINE
  5
2e3
  100
AcDbEntity
  8
1
  100
AcDbLine
  10
5.9
  20
-0.69206
  30
0
  11
5.8
  21
-0.640337
  31
0
  0
LINE
  5
2e4
  100
AcDbEntity
  8
1
  100
AcDbLine
  10
5.8
  20
-0.640337
  30
0
  11
5.7
  21
-0.587666
  31
0
  0
LINE
  5
2e5
  100
AcDbEntity
  8
1
  100
AcDbLine
  10
5.7
  20
-0.587666
  30
0
  11
5.6
  21
-0.534124
  31
0
  0
LINE
  5
2e6
  100
AcDbEntity
  8
1
  100
AcDbLine
  10
5.6
  20
-0.534124
  30
0
  11
5.5
  21
-0.479791
  31
0
  0
LINE
  5
2e7
  100
AcDbEntity
  8
1
  100
AcDbLine
  10
5.5
  20
-0.479791
  30
0
  11
5.4
  21
-0.424747
  31
0
  0
LINE
  5
2e8
  100
AcDbEntity
  8
1
  100
AcDbLine
  10
5.4
  20
-0.424747
  30
0
  11
5.3
  21
-0.369074
  31
0
  0
LINE
  5
2e9
  100
AcDbEntity
  8
1
  100
AcDbLine
  10
5.3
  20
-0.369074
  30
0
  11
5.2
  21
-0.312854
  31
0
  0
LINE
  5
2ea
  100
AcDbEntity
  8
1
  100
AcDbLine
  10
5.2
  20
-0.312854
  30
0
  11
5.1
  21
-0.256171
  31
0
  0
LINE
  5
2eb
  100
AcDbEntity
  8
1
  100
AcDbLine
  10
5.1
  20
-0.256171
  30
0
  11
5
  21
-0.199109
  31
0
  0
LINE
  5
2ec
  100
AcDbEntity
  8
1
  100
AcDbLine
  10
5
  20
-0.199109
  30
0
  11
4.9
  21
-0.141751
  31
0
  0
LINE
  5
2ed
  100
AcDbEntity
  8
1
  100
AcDbLine
  10
4.9
  20
-0.141751
  30
0
  11
4.8
  21
-0.084184
  31
0
  0
LINE
  5
2ee
  100
AcDbEntity
  8
1
  100
AcDbLine
  10
4.8
  20
-0.084184
  30
0
  11
4.7
  21
-0.026492
  31
0
  0
LINE
  5
2ef
  100
AcDbEntity
  8
1
  100
AcDbLine
  10
4.7
  20
-0.026492
  30
0
  11
4.6
  21
0.03124
  31
0
  0
LINE
  5
2f0
  100
AcDbEntity
  8
1
  100
AcDbLine
  10
4.6
  20
0.03124
  30
0
  11
4.5
  21
0.088925
  31
0
  0
LINE
  5
2f1
  100
AcDbEntity
  8
1
  100
AcDbLine
  10
4.5
  20
0.088925
  30
0
  11
4.4
  21
0.146478
  31
0
  0
LINE
  5
2f2
  100
AcDbEntity
  8
1
  100
AcDbLine
  10
4.4
  20
0.146478
  30
0
  11
4.3
  21
0.203815
  31
0
  0
LINE
  5
2f3
  100
AcDbEntity
  8
1
  100
AcDbLine
  10
4.3
  20
0.203815
  30
0
  11
4.2
  21
0.260849
  31
0
  0
LINE
  5
2f4
  100
AcDbEntity
  8
1
  100
AcDbLine
  10
4.2
  20
0.260849
  30
0
  11
4.1
  21
0.317497
  31
0
  0
LINE
  5
2f5
  100
AcDbEntity
  8
1
  100
AcDbLine
  10
4.1
  20
0.317497
  30
0
  11
4
  21
0.373675
  31
0
  0
LINE
  5
2f6
  100
AcDbEntity
  8
1
  100
AcDbLine
  10
4
  20
0.373675
  30
0
  11
3.9
  21
0.429299
  31
0
  0
LINE
  5
2f7
  100
AcDbEntity
  8
1
  100
AcDbLine
  10
3.9
  20
0.429299
  30
0
  11
3.8
  21
0.484288
  31
0
  0
LINE
  5
2f8
  100
AcDbEntity
  8
1
  100
AcDbLine
  10
3.8
  20
0.484288
  30
0
  11
3.7
  21
0.538559
  31
0
  0
LINE
  5
2f9
  100
AcDbEntity
  8
1
  100
AcDbLine
  10
3.7
  20
0.538559
  30
0
  11
3.6
  21
0.592032
  31
0
  0
LINE
  5
2fa
  100
AcDbEntity
  8
1
  100
AcDbLine
  10
3.6
  20
0.592032
  30
0
  11
3.5
  21
0.644628
  31
0
  0
LINE
  5
2fb
  100
AcDbEntity
  8
1
  100
AcDbLine
  10
3.5
  20
0.644628
  30
0
  11
3.4
  21
0.696269
  31
0
  0
LINE
  5
2fc
  100
AcDbEntity
  8
1
  100
AcDbLine
  10
3.4
  20
0.696269
  30
0
  11
3.3
  21
0.746879
  31
0
  0
LINE
  5
2fd
  100
AcDbEntity
  8
1
  100
AcDbLine
  10
3.3
  20
0.746879
  30
0
  11
3.2
  21
0.796383
  31
0
  0
LINE
  5
2fe
  100
AcDbEntity
  8
1
  100
AcDbLine
  10
3.2
  20
0.796383
  30
0
  11
3.1
  21
0.844707
  31
0
  0
LINE
  5
2ff
  100
AcDbEntity
  8
1
  100
AcDbLine
  10
3.1
  20
0.844707
  30
0
  11
3
  21
0.89178
  31
0
  0
LINE
  5
300
  100
AcDbEntity
  8
1
  100
AcDbLine
  10
3
  20
0.89178
  30
0
  11
2.9
  21
0.937531
  31
0
  0
LINE
  5
301
  100
AcDbEntity
  8
1
  100
AcDbLine
  10
2.9
  20
0.937531
  30
0
  11
2.8
  21
0.981894
  31
0
  0
LINE
  5
302
  100
AcDbEntity
  8
1
  100
AcDbLine
  10
2.8
  20
0.981894
  30
0
  11
2.7
  21
1.024803
  31
0
  0
LINE
  5
303
  100
AcDbEntity
  8
1
  100
AcDbLine
  10
2.7
  20
1.024803
  30
0
  11
2.6
  21
1.066193
  31
0
  0
LINE
  5
304
  100
AcDbEntity
  8
1
  100
AcDbLine
  10
2.6
  20
1.066193
  30
0
  11
2.5
  21
1.106004
  31
0
  0
LINE
  5
305
  100
AcDbEntity
  8
1
  100
AcDbLine
  10
2.5
  20
1.106004
  30
0
  11
2.4
  21
1.144177
  31
0
  0
LINE
  5
306
  100
AcDbEntity
  8
1
  100
AcDbLine
  10
2.4
  20
1.144177
  30
0
  11
2.3
  21
1.180655
  31
0
  0
LINE
  5
307
  100
AcDbEntity
  8
1
  100
AcDbLine
  10
2.3
  20
1.180655
  30
0
  11
2.2
  21
1.215384
  31
0
  0
LINE
  5
308
  100
AcDbEntity
  8
1
  100
AcDbLine
  10
2.2
  20
1.215384
  30
0
  11
2.1
  21
1.248312
  31
0
  0
LINE
  5
309
  100
AcDbEntity
  8
1
  100
AcDbLine
  10
2.1
  20
1.248312
  30
0
  11
2
  21
1.279392
  31
0
  0
LINE
  5
30a
  100
AcDbEntity
  8
1
  100
AcDbLine
  10
2
  20
1.279392
  30
0
  11
1.9
  21
1.308576
  31
0
  0
LINE
  5
30b
  100
AcDbEntity
  8
1
  100
AcDbLine
  10
1.9
  20
1.308576
  30
0
  11
1.8
  21
1.335822
  31
0
  0
LINE
  5
30c
  100
AcDbEntity
  8
1
  100
AcDbLine
  10
1.8
  20
1.335822
  30
0
  11
1.7
  21
1.361089
  31
0
  0
LINE
  5
30d
  100
AcDbEntity
  8
1
  100
AcDbLine
  10
1.7
  20
1.361089
  30
0
  11
1.6
  21
1.38434
  31
0
  0
LINE
  5
30e
  100
AcDbEntity
  8
1
  100
AcDbLine
  10
1.6
  20
1.38434
  30
0
  11
1.5
  21
1.405541
  31
0
  0
LINE
  5
30f
  100
AcDbEntity
  8
1
  100
AcDbLine
  10
1.5
  20
1.405541
  30
0
  11
1.4
  21
1.424659
  31
0
  0
LINE
  5
310
  100
AcDbEntity
  8
1
  100
AcDbLine
  10
1.4
  20
1.424659
  30
0
  11
1.3
  21
1.441667
  31
0
  0
LINE
  5
311
  100
AcDbEntity
  8
1
  100
AcDbLine
  10
1.3
  20
1.441667
  30
0
  11
1.2
  21
1.456539
  31
0
  0
LINE
  5
312
  100
AcDbEntity
  8
1
  100
AcDbLine
  10
1.2
  20
1.456539
  30
0
  11
1.1
  21
1.469254
  31
0
  0
LINE
  5
313
  100
AcDbEntity
  8
1
  100
AcDbLine
  10
1.1
  20
1.469254
  30
0
  11
1
  21
1.479793
  31
0
  0
LINE
  5
314
  100
AcDbEntity
  8
1
  100
AcDbLine
  10
1
  20
1.479793
  30
0
  11
0.9
  21
1.488139
  31
0
  0
LINE
  5
315
  100
AcDbEntity
  8
1
  100
AcDbLine
  10
0.9
  20
1.488139
  30
0
  11
0.8
  21
1.494281
  31
0
  0
LINE
  5
316
  100
AcDbEntity
  8
1
  100
AcDbLine
  10
0.8
  20
1.494281
  30
0
  11
0.7
  21
1.49821
  31
0
  0
LINE
  5
317
  100
AcDbEntity
  8
1
  100
AcDbLine
  10
0.7
  20
1.49821
  30
0
  11
0.6
  21
1.499919
  31
0
  0
LINE
  5
318
  100
AcDbEntity
  8
1
  100
AcDbLine
  10
0.6
  20
1.499919
  30
0
  11
0.573062
  21
1.5
  31
0
  0
LINE
  5
319
  100
AcDbEntity
  8
1
  100
AcDbLine
  10
0
  20
1.5
  30
0
  11
0
  21
-1.5
  31
0
  0
LINE
  5
31a
  100
AcDbEntity
  8
1
  100
AcDbLine
  10
0
  20
-1.5
  30
0
  11
0
  21
1.5
  31
0
  0
LINE
  5
31b
  100
AcDbEntity
  8
SK1
  100
AcDbLine
  10
0
  20
1.5
  30
0
  11
-25.5
  21
1.5
  31
0
  0
LINE
  5
31c
  100
AcDbEntity
  8
SK1
  100
AcDbLine
  10
-25.5
  20
1.5
  30
0
  11
-26
  21
1
  31
0
  0
LINE
  5
31d
  100
AcDbEntity
  8
SK1
  100
AcDbLine
  10
-26
  20
1
  30
0
  11
-26
  21
-1
  31
0
  0
LINE
  5
31e
  100
AcDbEntity
  8
SK1
  100
AcDbLine
  10
-26
  20
-1
  30
0
  11
-25.5
  21
-1.5
  31
0
  0
LINE
  5
31f
  100
AcDbEntity
  8
SK1
  100
AcDbLine
  10
-25.5
  20
-1.5
  30
0
  11
0
  21
-1.5
  31
0
  0
LINE
  5
320
  100
AcDbEntity
  8
SK1
  100
AcDbLine
  10
0
  20
-1.5
  30
0
  11
0
  21
1.5
  31
0
  0
LINE
  5
321
  100
AcDbEntity
  8
SK1
  100
AcDbLine
  10
0
  20
1.493436
  30
0
  11
-0.1
  21
1.497724
  31
0
  0
LINE
  5
322
  100
AcDbEntity
  8
SK1
  100
AcDbLine
  10
-0.1
  20
1.497724
  30
0
  11
-0.2
  21
1.499793
  31
0
  0
LINE
  5
323
  100
AcDbEntity
  8
SK1
  100
AcDbLine
  10
-0.2
  20
1.499793
  30
0
  11
-0.243147
  21
1.5
  31
0
  0
LINE
  5
324
  100
AcDbEntity
  8
SK1
  100
AcDbLine
  10
-2.629856
  20
1.5
  30
0
  11
-2.6
  21
1.499065
  31
0
  0
LINE
  5
325
  100
AcDbEntity
  8
SK1
  100
AcDbLine
  10
-2.6
  20
1.499065
  30
0
  11
-2.5
  21
1.485392
  31
0
  0
LINE
  5
326
  100
AcDbEntity
  8
SK1
  100
AcDbLine
  10
-2.5
  20
1.485392
  30
0
  11
-2.4
  21
1.459776
  31
0
  0
LINE
  5
327
  100
AcDbEntity
  8
SK1
  100
AcDbLine
  10
-2.4
  20
1.459776
  30
0
  11
-2.3
  21
1.426475
  31
0
  0
LINE
  5
328
  100
AcDbEntity
  8
SK1
  100
AcDbLine
  10
-2.3
  20
1.426475
  30
0
  11
-2.2
  21
1.388426
  31
0
  0
LINE
  5
329
  100
AcDbEntity
  8
SK1
  100
AcDbLine
  10
-2.2
  20
1.388426
  30
0
  11
-2.1
  21
1.347585
  31
0
  0
LINE
  5
32a
  100
AcDbEntity
  8
SK1
  100
AcDbLine
  10
-2.1
  20
1.347585
  30
0
  11
-2
  21
1.305193
  31
0
  0
LINE
  5
32b
  100
AcDbEntity
  8
SK1
  100
AcDbLine
  10
-2
  20
1.305193
  30
0
  11
-1.9
  21
1.261988
  31
0
  0
LINE
  5
32c
  100
AcDbEntity
  8
SK1
  100
AcDbLine
  10
-1.9
  20
1.261988
  30
0
  11
-1.8
  21
1.218362
  31
0
  0
LINE
  5
32d
  100
AcDbEntity
  8
SK1
  100
AcDbLine
  10
-1.8
  20
1.218362
  30
0
  11
-1.7
  21
1.174479
  31
0
  0
LINE
  5
32e
  100
AcDbEntity
  8
SK1
  100
AcDbLine
  10
-1.7
  20
1.174479
  30
0
  11
-1.6
  21
1.130355
  31
0
  0
LINE
  5
32f
  100
AcDbEntity
  8
SK1
  100
AcDbLine
  10
-1.6
  20
1.130355
  30
0
  11
-1.5
  21
1.085921
  31
0
  0
LINE
  5
330
  100
AcDbEntity
  8
SK1
  100
AcDbLine
  10
-1.5
  20
1.085921
  30
0
  11
-1.4
  21
1.041065
  31
0
  0
LINE
  5
331
  100
AcDbEntity
  8
SK1
  100
AcDbLine
  10
-1.4
  20
1.041065
  30
0
  11
-1.3
  21
0.995659
  31
0
  0
LINE
  5
332
  100
AcDbEntity
  8
SK1
  100
AcDbLine
  10
-1.3
  20
0.995659
  30
0
  11
-1.2
  21
0.949578
  31
0
  0
LINE
  5
333
  100
AcDbEntity
  8
SK1
  100
AcDbLine
  10
-1.2
  20
0.949578
  30
0
  11
-1.1
  21
0.902714
  31
0
  0
LINE
  5
334
  100
AcDbEntity
  8
SK1
  100
AcDbLine
  10
-1.1
  20
0.902714
  30
0
  11
-1
  21
0.85498
  31
0
  0
LINE
  5
335
  100
AcDbEntity
  8
SK1
  100
AcDbLine
  10
-1
  20
0.85498
  30
0
  11
-0.9
  21
0.806318
  31
0
  0
LINE
  5
336
  100
AcDbEntity
  8
SK1
  100
AcDbLine
  10
-0.9
  20
0.806318
  30
0
  11
-0.8
  21
0.756694
  31
0
  0
LINE
  5
337
  100
AcDbEntity
  8
SK1
  100
AcDbLine
  10
-0.8
  20
0.756694
  30
0
  11
-0.7
  21
0.706101
  31
0
  0
LINE
  5
338
  100
AcDbEntity
  8
SK1
  100
AcDbLine
  10
-0.7
  20
0.706101
  30
0
  11
-0.6
  21
0.654555
  31
0
  0
LINE
  5
339
  100
AcDbEntity
  8
SK1
  100
AcDbLine
  10
-0.6
  20
0.654555
  30
0
  11
-0.5
  21
0.602091
  31
0
  0
LINE
  5
33a
  100
AcDbEntity
  8
SK1
  100
AcDbLine
  10
-0.5
  20
0.602091
  30
0
  11
-0.4
  21
0.548762
  31
0
  0
LINE
  5
33b
  100
AcDbEntity
  8
SK1
  100
AcDbLine
  10
-0.4
  20
0.548762
  30
0
  11
-0.3
  21
0.494631
  31
0
  0
LINE
  5
33c
  100
AcDbEntity
  8
SK1
  100
AcDbLine
  10
-0.3
  20
0.494631
  30
0
  11
-0.2
  21
0.439772
  31
0
  0
LINE
  5
33d
  100
AcDbEntity
  8
SK1
  100
AcDbLine
  10
-0.2
  20
0.439772
  30
0
  11
-0.1
  21
0.384262
  31
0
  0
LINE
  5
33e
  100
AcDbEntity
  8
SK1
  100
AcDbLine
  10
-0.1
  20
0.384262
  30
0
  11
0
  21
0.328182
  31
0
  0
LINE
  5
33f
  100
AcDbEntity
  8
SK1
  100
AcDbLine
  10
0
  20
-0.140175
  30
0
  11
-0.1
  21
-0.082603
  31
0
  0
LINE
  5
340
  100
AcDbEntity
  8
SK1
  100
AcDbLine
  10
-0.1
  20
-0.082603
  30
0
  11
-0.2
  21
-0.024909
  31
0
  0
LINE
  5
341
  100
AcDbEntity
  8
SK1
  100
AcDbLine
  10
-0.2
  20
-0.024909
  30
0
  11
-0.3
  21
0.032822
  31
0
  0
LINE
  5
342
  100
AcDbEntity
  8
SK1
  100
AcDbLine
  10
-0.3
  20
0.032822
  30
0
  11
-0.4
  21
0.090505
  31
0
  0
LINE
  5
343
  100
AcDbEntity
  8
SK1
  100
AcDbLine
  10
-0.4
  20
0.090505
  30
0
  11
-0.5
  21
0.148053
  31
0
  0
LINE
  5
344
  100
AcDbEntity
  8
SK1
  100
AcDbLine
  10
-0.5
  20
0.148053
  30
0
  11
-0.6
  21
0.205383
  31
0
  0
LINE
  5
345
  100
AcDbEntity
  8
SK1
  100
AcDbLine
  10
-0.6
  20
0.205383
  30
0
  11
-0.7
  21
0.262408
  31
0
  0
LINE
  5
346
  100
AcDbEntity
  8
SK1
  100
AcDbLine
  10
-0.7
  20
0.262408
  30
0
  11
-0.8
  21
0.319044
  31
0
  0
LINE
  5
347
  100
AcDbEntity
  8
SK1
  100
AcDbLine
  10
-0.8
  20
0.319044
  30
0
  11
-0.9
  21
0.375207
  31
0
  0
LINE
  5
348
  100
AcDbEntity
  8
SK1
  100
AcDbLine
  10
-0.9
  20
0.375207
  30
0
  11
-1
  21
0.430814
  31
0
  0
LINE
  5
349
  100
AcDbEntity
  8
SK1
  100
AcDbLine
  10
-1
  20
0.430814
  30
0
  11
-1.1
  21
0.485781
  31
0
  0
LINE
  5
34a
  100
AcDbEntity
  8
SK1
  100
AcDbLine
  10
-1.1
  20
0.485781
  30
0
  11
-1.2
  21
0.540024
  31
0
  0
LINE
  5
34b
  100
AcDbEntity
  8
SK1
  100
AcDbLine
  10
-1.2
  20
0.540024
  30
0
  11
-1.3
  21
0.593456
  31
0
  0
LINE
  5
34c
  100
AcDbEntity
  8
SK1
  100
AcDbLine
  10
-1.3
  20
0.593456
  30
0
  11
-1.4
  21
0.645986
  31
0
  0
LINE
  5
34d
  100
AcDbEntity
  8
SK1
  100
AcDbLine
  10
-1.4
  20
0.645986
  30
0
  11
-1.5
  21
0.697512
  31
0
  0
LINE
  5
34e
  100
AcDbEntity
  8
SK1
  100
AcDbLine
  10
-1.5
  20
0.697512
  30
0
  11
-1.6
  21
0.747914
  31
0
  0
LINE
  5
34f
  100
AcDbEntity
  8
SK1
  100
AcDbLine
  10
-1.6
  20
0.747914
  30
0
  11
-1.7
  21
0.797041
  31
0
  0
LINE
  5
350
  100
AcDbEntity
  8
SK1
  100
AcDbLine
  10
-1.7
  20
0.797041
  30
0
  11
-1.8
  21
0.844693
  31
0
  0
LINE
  5
351
  100
AcDbEntity
  8
SK1
  100
AcDbLine
  10
-1.8
  20
0.844693
  30
0
  11
-1.9
  21
0.89059
  31
0
  0
LINE
  5
352
  100
AcDbEntity
  8
SK1
  100
AcDbLine
  10
-1.9
  20
0.89059
  30
0
  11
-2
  21
0.934341
  31
0
  0
LINE
  5
353
  100
AcDbEntity
  8
SK1
  100
AcDbLine
  10
-2
  20
0.934341
  30
0
  11
-2.1
  21
0.975383
  31
0
  0
LINE
  5
354
  100
AcDbEntity
  8
SK1
  100
AcDbLine
  10
-2.1
  20
0.975383
  30
0
  11
-2.2
  21
1.012914
  31
0
  0
LINE
  5
355
  100
AcDbEntity
  8
SK1
  100
AcDbLine
  10
-2.2
  20
1.012914
  30
0
  11
-2.3
  21
1.045789
  31
0
  0
LINE
  5
356
  100
AcDbEntity
  8
SK1
  100
AcDbLine
  10
-2.3
  20
1.045789
  30
0
  11
-2.4
  21
1.072365
  31
0
  0
LINE
  5
357
  100
AcDbEntity
  8
SK1
  100
AcDbLine
  10
-2.4
  20
1.072365
  30
0
  11
-2.5
  21
1.090247
  31
0
  0
LINE
  5
358
  100
AcDbEntity
  8
SK1
  100
AcDbLine
  10
-2.5
  20
1.090247
  30
0
  11
-2.6
  21
1.095849
  31
0
  0
LINE
  5
359
  100
AcDbEntity
  8
SK1
  100
AcDbLine
  10
-2.6
  20
1.095849
  30
0
  11
-2.7
  21
1.08356
  31
0
  0
LINE
  5
35a
  100
AcDbEntity
  8
SK1
  100
AcDbLine
  10
-2.7
  20
1.08356
  30
0
  11
-2.8
  21
1.044186
  31
0
  0
LINE
  5
35b
  100
AcDbEntity
  8
SK1
  100
AcDbLine
  10
-2.8
  20
1.044186
  30
0
  11
-2.9
  21
0.962121
  31
0
  0
LINE
  5
35c
  100
AcDbEntity
  8
SK1
  100
AcDbLine
  10
-2.9
  20
0.962121
  30
0
  11
-3
  21
0.810742
  31
0
  0
LINE
  5
35d
  100
AcDbEntity
  8
SK1
  100
AcDbLine
  10
-3
  20
0.810742
  30
0
  11
-3
  21
0.778772
  31
0
  0
LINE
  5
35e
  100
AcDbEntity
  8
SK1
  100
AcDbLine
  10
-3
  20
0.778772
  30
0
  11
-2.9
  21
0.543738
  31
0
  0
LINE
  5
35f
  100
AcDbEntity
  8
SK1
  100
AcDbLine
  10
-2.9
  20
0.543738
  30
0
  11
-2.8
  21
0.323822
  31
0
  0
LINE
  5
360
  100
AcDbEntity
  8
SK1
  100
AcDbLine
  10
-2.8
  20
0.323822
  30
0
  11
-2.7
  21
0.124395
  31
0
  0
LINE
  5
361
  100
AcDbEntity
  8
SK1
  100
AcDbLine
  10
-2.7
  20
0.124395
  30
0
  11
-2.6
  21
-0.052949
  31
0
  0
LINE
  5
362
  100
AcDbEntity
  8
SK1
  100
AcDbLine
  10
-2.6
  20
-0.052949
  30
0
  11
-2.5
  21
-0.208832
  31
0
  0
LINE
  5
363
  100
AcDbEntity
  8
SK1
  100
AcDbLine
  10
-2.5
  20
-0.208832
  30
0
  11
-2.4
  21
-0.345041
  31
0
  0
LINE
  5
364
  100
AcDbEntity
  8
SK1
  100
AcDbLine
  10
-2.4
  20
-0.345041
  30
0
  11
-2.3
  21
-0.463864
  31
0
  0
LINE
  5
365
  100
AcDbEntity
  8
SK1
  100
AcDbLine
  10
-2.3
  20
-0.463864
  30
0
  11
-2.2
  21
-0.567691
  31
0
  0
LINE
  5
366
  100
AcDbEntity
  8
SK1
  100
AcDbLine
  10
-2.2
  20
-0.567691
  30
0
  11
-2.1
  21
-0.658798
  31
0
  0
LINE
  5
367
  100
AcDbEntity
  8
SK1
  100
AcDbLine
  10
-2.1
  20
-0.658798
  30
0
  11
-2
  21
-0.739238
  31
0
  0
LINE
  5
368
  100
AcDbEntity
  8
SK1
  100
AcDbLine
  10
-2
  20
-0.739238
  30
0
  11
-1.9
  21
-0.810794
  31
0
  0
LINE
  5
369
  100
AcDbEntity
  8
SK1
  100
AcDbLine
  10
-1.9
  20
-0.810794
  30
0
  11
-1.8
  21
-0.874982
  31
0
  0
LINE
  5
36a
  100
AcDbEntity
  8
SK1
  100
AcDbLine
  10
-1.8
  20
-0.874982
  30
0
  11
-1.7
  21
-0.933059
  31
0
  0
LINE
  5
36b
  100
AcDbEntity
  8
SK1
  100
AcDbLine
  10
-1.7
  20
-0.933059
  30
0
  11
-1.6
  21
-0.986052
  31
0
  0
LINE
  5
36c
  100
AcDbEntity
  8
SK1
  100
AcDbLine
  10
-1.6
  20
-0.986052
  30
0
  11
-1.5
  21
-1.034783
  31
0
  0
LINE
  5
36d
  100
AcDbEntity
  8
SK1
  100
AcDbLine
  10
-1.5
  20
-1.034783
  30
0
  11
-1.4
  21
-1.0799
  31
0
  0
LINE
  5
36e
  100
AcDbEntity
  8
SK1
  100
AcDbLine
  10
-1.4
  20
-1.0799
  30
0
  11
-1.3
  21
-1.121902
  31
0
  0
LINE
  5
36f
  100
AcDbEntity
  8
SK1
  100
AcDbLine
  10
-1.3
  20
-1.121902
  30
0
  11
-1.2
  21
-1.161164
  31
0
  0
LINE
  5
370
  100
AcDbEntity
  8
SK1
  100
AcDbLine
  10
-1.2
  20
-1.161164
  30
0
  11
-1.1
  21
-1.19796
  31
0
  0
LINE
  5
371
  100
AcDbEntity
  8
SK1
  100
AcDbLine
  10
-1.1
  20
-1.19796
  30
0
  11
-1
  21
-1.232481
  31
0
  0
LINE
  5
372
  100
AcDbEntity
  8
SK1
  100
AcDbLine
  10
-1
  20
-1.232481
  30
0
  11
-0.9
  21
-1.264853
  31
0
  0
LINE
  5
373
  100
AcDbEntity
  8
SK1
  100
AcDbLine
  10
-0.9
  20
-1.264853
  30
0
  11
-0.8
  21
-1.295151
  31
0
  0
LINE
  5
374
  100
AcDbEntity
  8
SK1
  100
AcDbLine
  10
-0.8
  20
-1.295151
  30
0
  11
-0.7
  21
-1.323413
  31
0
  0
LINE
  5
375
  100
AcDbEntity
  8
SK1
  100
AcDbLine
  10
-0.7
  20
-1.323413
  30
0
  11
-0.6
  21
-1.349651
  31
0
  0
LINE
  5
376
  100
AcDbEntity
  8
SK1
  100
AcDbLine
  10
-0.6
  20
-1.349651
  30
0
  11
-0.5
  21
-1.373858
  31
0
  0
LINE
  5
377
  100
AcDbEntity
  8
SK1
  100
AcDbLine
  10
-0.5
  20
-1.373858
  30
0
  11
-0.4
  21
-1.396016
  31
0
  0
LINE
  5
378
  100
AcDbEntity
  8
SK1
  100
AcDbLine
  10
-0.4
  20
-1.396016
  30
0
  11
-0.3
  21
-1.4161
  31
0
  0
LINE
  5
379
  100
AcDbEntity
  8
SK1
  100
AcDbLine
  10
-0.3
  20
-1.4161
  30
0
  11
-0.2
  21
-1.434085
  31
0
  0
LINE
  5
37a
  100
AcDbEntity
  8
SK1
  100
AcDbLine
  10
-0.2
  20
-1.434085
  30
0
  11
-0.1
  21
-1.449946
  31
0
  0
LINE
  5
37b
  100
AcDbEntity
  8
SK1
  100
AcDbLine
  10
-0.1
  20
-1.449946
  30
0
  11
0
  21
-1.463659
  31
0
  0
LINE
  5
37c
  100
AcDbEntity
  8
SK1
  100
AcDbLine
  10
0
  20
-1.5
  30
0
  11
0
  21
1.5
  31
0
  0
LINE
  5
37d
  100
AcDbEntity
  8
SK1
  100
AcDbLine
  10
0
  20
1.5
  30
0
  11
0
  21
-1.5
  31
0
  0
LINE
  5
37e
  100
AcDbEntity
  8
SK1
  100
AcDbLine
  10
-0.243147
  20
-1.5
  30
0
  11
-0.3
  21
-1.499641
  31
0
  0
LINE
  5
37f
  100
AcDbEntity
  8
SK1
  100
AcDbLine
  10
-0.3
  20
-1.499641
  30
0
  11
-0.4
  21
-1.497267
  31
0
  0
LINE
  5
380
  100
AcDbEntity
  8
SK1
  100
AcDbLine
  10
-0.4
  20
-1.497267
  30
0
  11
-0.5
  21
-1.492676
  31
0
  0
LINE
  5
381
  100
AcDbEntity
  8
SK1
  100
AcDbLine
  10
-0.5
  20
-1.492676
  30
0
  11
-0.6
  21
-1.485873
  31
0
  0
LINE
  5
382
  100
AcDbEntity
  8
SK1
  100
AcDbLine
  10
-0.6
  20
-1.485873
  30
0
  11
-0.7
  21
-1.476869
  31
0
  0
LINE
  5
383
  100
AcDbEntity
  8
SK1
  100
AcDbLine
  10
-0.7
  20
-1.476869
  30
0
  11
-0.8
  21
-1.465678
  31
0
  0
LINE
  5
384
  100
AcDbEntity
  8
SK1
  100
AcDbLine
  10
-0.8
  20
-1.465678
  30
0
  11
-0.9
  21
-1.452315
  31
0
  0
LINE
  5
385
  100
AcDbEntity
  8
SK1
  100
AcDbLine
  10
-0.9
  20
-1.452315
  30
0
  11
-1
  21
-1.436802
  31
0
  0
LINE
  5
386
  100
AcDbEntity
  8
SK1
  100
AcDbLine
  10
-1
  20
-1.436802
  30
0
  11
-1.1
  21
-1.41916
  31
0
  0
LINE
  5
387
  100
AcDbEntity
  8
SK1
  100
AcDbLine
  10
-1.1
  20
-1.41916
  30
0
  11
-1.2
  21
-1.399419
  31
0
  0
LINE
  5
388
  100
AcDbEntity
  8
SK1
  100
AcDbLine
  10
-1.2
  20
-1.399419
  30
0
  11
-1.3
  21
-1.37761
  31
0
  0
LINE
  5
389
  100
AcDbEntity
  8
SK1
  100
AcDbLine
  10
-1.3
  20
-1.37761
  30
0
  11
-1.4
  21
-1.353773
  31
0
  0
LINE
  5
38a
  100
AcDbEntity
  8
SK1
  100
AcDbLine
  10
-1.4
  20
-1.353773
  30
0
  11
-1.5
  21
-1.32796
  31
0
  0
LINE
  5
38b
  100
AcDbEntity
  8
SK1
  100
AcDbLine
  10
-1.5
  20
-1.32796
  30
0
  11
-1.6
  21
-1.30024
  31
0
  0
LINE
  5
38c
  100
AcDbEntity
  8
SK1
  100
AcDbLine
  10
-1.6
  20
-1.30024
  30
0
  11
-1.7
  21
-1.270718
  31
0
  0
LINE
  5
38d
  100
AcDbEntity
  8
SK1
  100
AcDbLine
  10
-1.7
  20
-1.270718
  30
0
  11
-1.8
  21
-1.239554
  31
0
  0
LINE
  5
38e
  100
AcDbEntity
  8
SK1
  100
AcDbLine
  10
-1.8
  20
-1.239554
  30
0
  11
-1.9
  21
-1.207
  31
0
  0
LINE
  5
38f
  100
AcDbEntity
  8
SK1
  100
AcDbLine
  10
-1.9
  20
-1.207
  30
0
  11
-2
  21
-1.17346
  31
0
  0
LINE
  5
390
  100
AcDbEntity
  8
SK1
  100
AcDbLine
  10
-2
  20
-1.17346
  30
0
  11
-2.1
  21
-1.139574
  31
0
  0
LINE
  5
391
  100
AcDbEntity
  8
SK1
  100
AcDbLine
  10
-2.1
  20
-1.139574
  30
0
  11
-2.2
  21
-1.106348
  31
0
  0
LINE
  5
392
  100
AcDbEntity
  8
SK1
  100
AcDbLine
  10
-2.2
  20
-1.106348
  30
0
  11
-2.3
  21
-1.075325
  31
0
  0
LINE
  5
393
  100
AcDbEntity
  8
SK1
  100
AcDbLine
  10
-2.3
  20
-1.075325
  30
0
  11
-2.4
  21
-1.048825
  31
0
  0
LINE
  5
394
  100
AcDbEntity
  8
SK1
  100
AcDbLine
  10
-2.4
  20
-1.048825
  30
0
  11
-2.5
  21
-1.030224
  31
0
  0
LINE
  5
395
  100
AcDbEntity
  8
SK1
  100
AcDbLine
  10
-2.5
  20
-1.030224
  30
0
  11
-2.6
  21
-1.024263
  31
0
  0
LINE
  5
396
  100
AcDbEntity
  8
SK1
  100
AcDbLine
  10
-2.6
  20
-1.024263
  30
0
  11
-2.7
  21
-1.037255
  31
0
  0
LINE
  5
397
  100
AcDbEntity
  8
SK1
  100
AcDbLine
  10
-2.7
  20
-1.037255
  30
0
  11
-2.8
  21
-1.076882
  31
0
  0
LINE
  5
398
  100
AcDbEntity
  8
SK1
  100
AcDbLine
  10
-2.8
  20
-1.076882
  30
0
  11
-2.9
  21
-1.150792
  31
0
  0
LINE
  5
399
  100
AcDbEntity
  8
SK1
  100
AcDbLine
  10
-2.9
  20
-1.150792
  30
0
  11
-3
  21
-1.262021
  31
0
  0
LINE
  5
39a
  100
AcDbEntity
  8
SK1
  100
AcDbLine
  10
-3
  20
-1.262021
  30
0
  11
-3
  21
-1.281996
  31
0
  0
LINE
  5
39b
  100
AcDbEntity
  8
SK1
  100
AcDbLine
  10
-3
  20
-1.281996
  30
0
  11
-2.9
  21
-1.39798
  31
0
  0
LINE
  5
39c
  100
AcDbEntity
  8
SK1
  100
AcDbLine
  10
-2.9
  20
-1.39798
  30
0
  11
-2.8
  21
-1.464629
  31
0
  0
LINE
  5
39d
  100
AcDbEntity
  8
SK1
  100
AcDbLine
  10
-2.8
  20
-1.464629
  30
0
  11
-2.7
  21
-1.494833
  31
0
  0
LINE
  5
39e
  100
AcDbEntity
  8
SK1
  100
AcDbLine
  10
-2.7
  20
-1.494833
  30
0
  11
-2.629856
  21
-1.5
  31
0
  0
LINE
  5
39f
  100
AcDbEntity
  8
SK1
  100
AcDbLine
  10
-25.5
  20
-1.5
  30
0
  11
-25.5
  21
1.5
  31
0
  0
LINE
  5
3d8
  100
AcDbEntity
  8
CUT
  100
AcDbLine
  10
12
  20
0
  30
0
  11
12
  21
1.5
  31
0
  0
LINE
  5
3d9
  100
AcDbEntity
  8
CUT
  100
AcDbLine
  10
12
  20
1.5
  30
0
  11
0
  21
1.5
  31
0
  0
LINE
  5
3da
  100
AcDbEntity
  8
CUT
  100
AcDbLine
  10
0
  20
1.5
  30
0
  11
0
  21
0
  31
0
  0
LINE
  5
3db
  100
AcDbEntity
  8
CUT
  100
AcDbLine
  10
0
  20
0
  30
0
  11
12
  21
0
  31
0
  0
LINE
  5
3dc
  100
AcDbEntity
  8
4
  100
AcDbLine
  10
0
  20
0
  30
0
  11
12
  21
0
  31
0
  0
LINE
  5
3dd
  100
AcDbEntity
  8
INFTOTAL
  100
AcDbLine
  10
-34.8
  20
6.959664
  30
0
  11
26.8
  21
6.959664
  31
0
  0
LINE
  5
3de
  100
AcDbEntity
  8
INFTOTAL
  100
AcDbLine
  10
26.8
  20
6.959664
  30
0
  11
26.8
  21
-32.3
  31
0
  0
LINE
  5
3df
  100
AcDbEntity
  8
INFTOTAL
  100
AcDbLine
  10
26.8
  20
-32.3
  30
0
  11
-34.8
  21
-32.3
  31
0
  0
LINE
  5
3e0
  100
AcDbEntity
  8
INFTOTAL
  100
AcDbLine
  10
-34.8
  20
-32.3
  30
0
  11
-34.8
  21
6.959664
  31
0
  0
ENDSEC
  0
SECTION
  2
OBJECTS
  0
DICTIONARY
  5
3e1
  330
0
100
AcDbDictionary
281
    1
  3
ACAD_GROUP
  350
3e2
  0
DICTIONARY
  5
3e2
102
{ACAD_REACTORS
  330
3e1
102
}
  330
3e1
100
AcDbDictionary
281
    1
  0
ENDSEC
  0
EOF
