  0
SECTION
  2
HEADER
  9
$ACADVER
  1
AC1015
  9
$DWGCODEPAGE
  3
ansi_1252
  9
$HANDSEED
  5
106AB90
  0
ENDSEC
  0
SECTION
  2
TABLES
  0
TABLE
  2
VPORT
  5
2
  330
0
  100
AcDbSymbolTable
  70
    0
  0
ENDTAB
  0
TABLE
  2
LTYPE
  5
3
  330
0
  100
AcDbSymbolTable
  70
    4
  0
LTYPE
  5
4
  330
3
  100
AcDbSymbolTableRecord
  100
AcDbLinetypeTableRecord
  2
ByBlock
  70
    0
  3

  72
65
  73
    0
  40
0
  0
LTYPE
  5
5
  330
3
  100
AcDbSymbolTableRecord
  100
AcDbLinetypeTableRecord
  2
ByLayer
  70
    0
  3

  72
65
  73
    0
  40
0
  0
LTYPE
  5
6
  330
3
  100
AcDbSymbolTableRecord
  100
AcDbLinetypeTableRecord
  2
CONTINUOUS
  70
    0
  3
Solid Line
  72
65
  73
    0
  40
0
  0
LTYPE
  5
7
  330
3
  100
AcDbSymbolTableRecord
  100
AcDbLinetypeTableRecord
  2
DASH
  70
    0
  3
Hidden
  72
65
  73
2
  40
2.5
  49
1.5
  74
0
  49
-1
  74
0
  0
LTYPE
  5
8
  330
3
  100
AcDbSymbolTableRecord
  100
AcDbLinetypeTableRecord
  2
LONGDASHDASH
  70
    0
  3
__ . __
  72
65
  73
    4
  40
7
  49
4
  74
    0
  49
-1
  74
    0
  49
1
  74
    0
  49
-1
  74
    0
  0
ENDTAB
  0
TABLE
  2
LAYER
  5
9
  330
0
  100
AcDbSymbolTable
  70
    40
  0
LAYER
  5
a
  330
9
  100
AcDbSymbolTableRecord
  100
AcDbLayerTableRecord
  2
0
  70
    0
  62
    0
  6
CONTINUOUS
  390
0
  0
LAYER
  5
c
  330
9
  100
AcDbSymbolTableRecord
  100
AcDbLayerTableRecord
  2
1
  70
    0
  62
    4
  6
CONTINUOUS
  370
50
  390
0
  0
LAYER
  5
d
  330
9
  100
AcDbSymbolTableRecord
  100
AcDbLayerTableRecord
  2
2
  70
    0
  62
    7
  6
CONTINUOUS
  370
25
  390
0
  0
LAYER
  5
f
  330
9
  100
AcDbSymbolTableRecord
  100
AcDbLayerTableRecord
  2
4
  70
    0
  62
    2
  6
LONGDASHDASH
  370
25
  390
0
  0
LAYER
  5
13
  330
9
  100
AcDbSymbolTableRecord
  100
AcDbLayerTableRecord
  2
SK1
  70
    0
  62
    4
  6
CONTINUOUS
  370
50
  390
0
  0
LAYER
  5
14
  330
9
  100
AcDbSymbolTableRecord
  100
AcDbLayerTableRecord
  2
SK2
  70
    0
  62
    7
  6
CONTINUOUS
  370
25
  390
0
  0
LAYER
  5
22
  330
9
  100
AcDbSymbolTableRecord
  100
AcDbLayerTableRecord
  2
CUT
  70
    0
  62
    1
  6
CONTINUOUS
  370
25
  390
0
  0
LAYER
  5
26
  330
9
  100
AcDbSymbolTableRecord
  100
AcDbLayerTableRecord
  2
INFTOTAL
  70
    0
  62
    9
  6
CONTINUOUS
  370
18
  390
0
  0
ENDTAB
  0
TABLE
  2
STYLE
  5
27
  330
0
  100
AcDbSymbolTable
  70
    1
  0
STYLE
  5
28
  330
27
  100
AcDbSymbolTableRecord
  100
AcDbTextStyleTableRecord
  2
Monospac821 BT
  70
    0
  40
    3.5
  41
1
  50
0
  71
0
  42
3
  3

  4

  1001
ACAD
  1000
Monospac821 BT
  1071
256
  0
ENDTAB
  0
TABLE
  2
VIEW
  5
29
  330
0
  100
AcDbSymbolTable
  70
    0
  0
ENDTAB
  0
TABLE
  2
UCS
  5
2a
  330
0
  100
AcDbSymbolTable
  70
    0
  0
ENDTAB
  0
TABLE
  2
APPID
  5
2b
  330
0
  100
AcDbSymbolTable
  70
    1
  0
APPID
  5
2c
  330
2b
  100
AcDbSymbolTableRecord
  100
AcDbRegAppTableRecord
  2
ACAD
  70
    0
  0
ENDTAB
  0
TABLE
  2
DIMSTYLE
  5
2d
  330
0
  100
AcDbSymbolTable
  70
    1
  100
AcDbDimStyleTable
  0
DIMSTYLE
  105
2e
  330
2d
  100
AcDbSymbolTableRecord
  100
AcDbDimStyleTableRecord
  2
ISBEtdSketcher
  70
    0
  41
    3
  42
0.5
  44
1
  73
0
  77
1
  78
1
  140
3.5
  141
2.5
  143
0.03937
  147
0.8
  172
1
  174
1
  178
0
  179
1
  271
2
  279
1
  284
1
  340
28
  0
ENDTAB
  0
TABLE
  2
BLOCK_RECORD
  5
2f
  330
0
  100
AcDbSymbolTable
  70
    2
  0
BLOCK_RECORD
  5
30
  330
2f
  100
AcDbSymbolTableRecord
  100
AcDbBlockTableRecord
  2
*Model_Space
  0
BLOCK_RECORD
  5
31
  330
2f
  100
AcDbSymbolTableRecord
  100
AcDbBlockTableRecord
  2
*Paper_Space
  0
BLOCK_RECORD
  5
2b2
  330
2f
  100
AcDbSymbolTableRecord
  100
AcDbBlockTableRecord
  2
*D2b1
  340
0
  0
BLOCK_RECORD
  5
2c0
  330
2f
  100
AcDbSymbolTableRecord
  100
AcDbBlockTableRecord
  2
*D2bf
  340
0
  0
BLOCK_RECORD
  5
2ce
  330
2f
  100
AcDbSymbolTableRecord
  100
AcDbBlockTableRecord
  2
*D2cd
  340
0
  0
BLOCK_RECORD
  5
2dc
  330
2f
  100
AcDbSymbolTableRecord
  100
AcDbBlockTableRecord
  2
*D2db
  340
0
  0
ENDTAB
  0
ENDSEC
  0
SECTION
  2
BLOCKS
  0
BLOCK
  5
32
  330
30
  100
AcDbEntity
  8
0
  100
AcDbBlockBegin
  2
*Model_Space
  70
    0
  10
0
  20
0
  30
0
  3
*Model_Space
  1

  0
ENDBLK
  5
33
  330
30
  100
AcDbEntity
  8
0
  100
AcDbBlockEnd
  0
BLOCK
  5
34
  330
31
  100
AcDbEntity
  8
0
  100
AcDbBlockBegin
  2
*Paper_Space
  70
    0
  10
0
  20
0
  30
0
  3
*Paper_Space
  1

  0
ENDBLK
  5
35
  330
31
  100
AcDbEntity
  8
0
  100
AcDbBlockEnd
  0
BLOCK
  5
2b0
  330
2b2
  100
AcDbEntity
  8
SK2
  100
AcDbBlockBegin
  2
*D2b1
  70
1
  10
0
  20
0
  30
0
  3
*D2b1
  1

  0
LINE
  5
2b3
  330
2b2
  100
AcDbEntity
  8
SK2
  100
AcDbLine
  10
-24
  20
-29.5
  30
0
  11
-24
  21
0.5
  31
0
  0
LINE
  5
2b4
  330
2b2
  100
AcDbEntity
  8
SK2
  100
AcDbLine
  10
8
  20
-29.5
  30
0
  11
8
  21
1
  31
0
  0
LINE
  5
2b5
  330
2b2
  100
AcDbEntity
  8
SK2
  100
AcDbLine
  10
-24
  20
-27.5
  30
0
  11
8
  21
-27.5
  31
0
  0
SOLID
  5
2b6
  330
2b2
  100
AcDbEntity
  8
SK2
  100
AcDbTrace
  10
-24
  20
-27.5
  30
0
  11
-21.521388
  21
-27.173685
  31
0
  12
-21.521388
  22
-27.826315
  32
0
  13
-21.521388
  23
-27.826315
  33
0
  0
SOLID
  5
2b7
  330
2b2
  100
AcDbEntity
  8
SK2
  100
AcDbTrace
  10
8
  20
-27.5
  30
0
  11
5.521388
  21
-27.826315
  31
0
  12
5.521388
  22
-27.173685
  32
0
  13
5.521388
  23
-27.173685
  33
0
  0
MTEXT
  5
2b8
  330
2b2
  100
AcDbEntity
  8
SK2
  100
AcDbMText
  10
-5.633562
  20
-27.5
  30
0
  11
1
  21
0
  31
0
  40
2
  41
0
  71
8
  72
1
  1
32
  0
POINT
  5
2b9
  330
2b2
  100
AcDbEntity
  8
SK2
  62
0
  100
AcDbPoint
  10
-24
  20
0.5
  30
0
  0
POINT
  5
2ba
  330
2b2
  100
AcDbEntity
  8
SK2
  62
0
  100
AcDbPoint
  10
8
  20
1
  30
0
  0
POINT
  5
2bb
  330
2b2
  100
AcDbEntity
  8
SK2
  62
0
  100
AcDbPoint
  10
8
  20
-27.5
  30
0
  0
ENDBLK
  5
2bc
  330
2b2
  100
AcDbEntity
  8
SK2
  100
AcDbBlockEnd
  0
BLOCK
  5
2be
  330
2c0
  100
AcDbEntity
  8
SK2
  100
AcDbBlockBegin
  2
*D2bf
  70
1
  10
0
  20
0
  30
0
  3
*D2bf
  1

  0
LINE
  5
2c1
  330
2c0
  100
AcDbEntity
  8
SK2
  100
AcDbLine
  10
8
  20
-1
  30
0
  11
20
  21
-1
  31
0
  0
LINE
  5
2c2
  330
2c0
  100
AcDbEntity
  8
SK2
  100
AcDbLine
  10
8
  20
1
  30
0
  11
20
  21
1
  31
0
  0
LINE
  5
2c3
  330
2c0
  100
AcDbEntity
  8
SK2
  100
AcDbLine
  10
18
  20
-2.647059
  30
0
  11
18
  21
4.411765
  31
0
  0
SOLID
  5
2c4
  330
2c0
  100
AcDbEntity
  8
SK2
  100
AcDbTrace
  10
18
  20
-1
  30
0
  11
17.673685
  21
1.478612
  31
0
  12
18.326315
  22
1.478612
  32
0
  13
18.326315
  23
1.478612
  33
0
  0
SOLID
  5
2c5
  330
2c0
  100
AcDbEntity
  8
SK2
  100
AcDbTrace
  10
18
  20
1
  30
0
  11
18.326315
  21
-1.478612
  31
0
  12
17.673685
  22
-1.478612
  32
0
  13
17.673685
  23
-1.478612
  33
0
  0
MTEXT
  5
2c6
  330
2c0
  100
AcDbEntity
  8
SK2
  100
AcDbMText
  10
18
  20
4.246575
  30
0
  11
0
  21
1
  31
0
  40
2
  41
0
  71
8
  72
1
  1
Ø2 e8
  0
POINT
  5
2c7
  330
2c0
  100
AcDbEntity
  8
SK2
  62
0
  100
AcDbPoint
  10
8
  20
-1
  30
0
  0
POINT
  5
2c8
  330
2c0
  100
AcDbEntity
  8
SK2
  62
0
  100
AcDbPoint
  10
8
  20
1
  30
0
  0
POINT
  5
2c9
  330
2c0
  100
AcDbEntity
  8
SK2
  62
0
  100
AcDbPoint
  10
18
  20
4.411765
  30
0
  0
ENDBLK
  5
2ca
  330
2c0
  100
AcDbEntity
  8
SK2
  100
AcDbBlockEnd
  0
BLOCK
  5
2cc
  330
2ce
  100
AcDbEntity
  8
SK2
  100
AcDbBlockBegin
  2
*D2cd
  70
1
  10
0
  20
0
  30
0
  3
*D2cd
  1

  0
LINE
  5
2cf
  330
2ce
  100
AcDbEntity
  8
SK2
  100
AcDbLine
  10
-23.5
  20
-1
  30
0
  11
-36
  21
-1
  31
0
  0
LINE
  5
2d0
  330
2ce
  100
AcDbEntity
  8
SK2
  100
AcDbLine
  10
-23.5
  20
1
  30
0
  11
-36
  21
1
  31
0
  0
LINE
  5
2d1
  330
2ce
  100
AcDbEntity
  8
SK2
  100
AcDbLine
  10
-34
  20
-1.890756
  30
0
  11
-34
  21
4.663866
  31
0
  0
SOLID
  5
2d2
  330
2ce
  100
AcDbEntity
  8
SK2
  100
AcDbTrace
  10
-34
  20
-1
  30
0
  11
-34.326315
  21
1.478612
  31
0
  12
-33.673685
  22
1.478612
  32
0
  13
-33.673685
  23
1.478612
  33
0
  0
SOLID
  5
2d3
  330
2ce
  100
AcDbEntity
  8
SK2
  100
AcDbTrace
  10
-34
  20
1
  30
0
  11
-33.673685
  21
-1.478612
  31
0
  12
-34.326315
  22
-1.478612
  32
0
  13
-34.326315
  23
-1.478612
  33
0
  0
MTEXT
  5
2d4
  330
2ce
  100
AcDbEntity
  8
SK2
  100
AcDbMText
  10
-34
  20
4.452055
  30
0
  11
0
  21
1
  31
0
  40
2
  41
0
  71
8
  72
1
  1
Ø2h6
  0
POINT
  5
2d5
  330
2ce
  100
AcDbEntity
  8
SK2
  62
0
  100
AcDbPoint
  10
-23.5
  20
-1
  30
0
  0
POINT
  5
2d6
  330
2ce
  100
AcDbEntity
  8
SK2
  62
0
  100
AcDbPoint
  10
-23.5
  20
1
  30
0
  0
POINT
  5
2d7
  330
2ce
  100
AcDbEntity
  8
SK2
  62
0
  100
AcDbPoint
  10
-34
  20
4.663866
  30
0
  0
ENDBLK
  5
2d8
  330
2ce
  100
AcDbEntity
  8
SK2
  100
AcDbBlockEnd
  0
BLOCK
  5
2da
  330
2dc
  100
AcDbEntity
  8
2
  100
AcDbBlockBegin
  2
*D2db
  70
1
  10
0
  20
0
  30
0
  3
*D2db
  1

  0
LINE
  5
2dd
  330
2dc
  100
AcDbEntity
  8
2
  100
AcDbLine
  10
8
  20
-17.69863
  30
0
  11
8
  21
-1
  31
0
  0
LINE
  5
2de
  330
2dc
  100
AcDbEntity
  8
2
  100
AcDbLine
  10
0
  20
-17.69863
  30
0
  11
0
  21
-1
  31
0
  0
LINE
  5
2df
  330
2dc
  100
AcDbEntity
  8
2
  100
AcDbLine
  10
8
  20
-15.69863
  30
0
  11
0
  21
-15.69863
  31
0
  0
SOLID
  5
2e0
  330
2dc
  100
AcDbEntity
  8
2
  100
AcDbTrace
  10
8
  20
-15.69863
  30
0
  11
10.478612
  21
-15.372315
  31
0
  12
10.478612
  22
-16.024946
  32
0
  13
10.478612
  23
-16.024946
  33
0
  0
SOLID
  5
2e1
  330
2dc
  100
AcDbEntity
  8
2
  100
AcDbTrace
  10
0
  20
-15.69863
  30
0
  11
-2.478612
  21
-16.024946
  31
0
  12
-2.478612
  22
-15.372315
  32
0
  13
-2.478612
  23
-15.372315
  33
0
  0
MTEXT
  5
2e2
  330
2dc
  100
AcDbEntity
  8
2
  100
AcDbMText
  10
4
  20
-15.69863
  30
0
  11
1
  21
-0
  31
0
  40
2
  41
0
  71
8
  72
1
  1
8
  0
POINT
  5
2e3
  330
2dc
  100
AcDbEntity
  8
2
  62
0
  100
AcDbPoint
  10
8
  20
-1
  30
0
  0
POINT
  5
2e4
  330
2dc
  100
AcDbEntity
  8
2
  62
0
  100
AcDbPoint
  10
0
  20
-1
  30
0
  0
POINT
  5
2e5
  330
2dc
  100
AcDbEntity
  8
2
  62
0
  100
AcDbPoint
  10
0
  20
-15.69863
  30
0
  0
ENDBLK
  5
2e6
  330
2dc
  100
AcDbEntity
  8
2
  100
AcDbBlockEnd
  0
ENDSEC
  0
SECTION
  2
ENTITIES
  0
DIMENSION
  5
2bd
  100
AcDbEntity
  8
SK2
  100
AcDbDimension
  2
*D2b1
  10
8
  20
-27.5
  30
0
  11
-5.633562
  21
-27.5
  31
0
  70
160
  1
<>
  71
5
  3
ISBEtdSketcher
  42
32
  100
AcDbAlignedDimension
  13
-24
  23
0.5
  33
0
  14
8
  24
1
  34
0
  50
0
  100
AcDbRotatedDimension
  0
DIMENSION
  5
2cb
  100
AcDbEntity
  8
SK2
  100
AcDbDimension
  2
*D2bf
  10
18
  20
4.411765
  30
0
  11
18
  21
4.246575
  31
0
  70
160
  1
%%c<> e8
  71
5
  3
ISBEtdSketcher
  42
2
  100
AcDbAlignedDimension
  13
8
  23
-1
  33
0
  14
8
  24
1
  34
0
  50
-90
  100
AcDbRotatedDimension
  0
DIMENSION
  5
2d9
  100
AcDbEntity
  8
SK2
  100
AcDbDimension
  2
*D2cd
  10
-34
  20
4.663866
  30
0
  11
-34
  21
4.452055
  31
0
  70
160
  1
%%c<>h6
  71
5
  3
ISBEtdSketcher
  42
2
  100
AcDbAlignedDimension
  13
-23.5
  23
-1
  33
0
  14
-23.5
  24
1
  34
0
  50
-90
  100
AcDbRotatedDimension
  0
DIMENSION
  5
2e7
  100
AcDbEntity
  8
2
  100
AcDbDimension
  2
*D2db
  10
0
  20
-15.69863
  30
0
  11
4
  21
-15.69863
  31
0
  70
160
  1
<>
  71
5
  3
ISBEtdSketcher
  42
8
  100
AcDbAlignedDimension
  13
8
  23
-1
  33
0
  14
0
  24
-1
  34
0
  50
0
  100
AcDbRotatedDimension
  0
LINE
  5
36
  100
AcDbEntity
  8
1
  100
AcDbLine
  10
9
  20
0
  30
0
  11
8.7
  21
0
  31
0
  0
LINE
  5
37
  100
AcDbEntity
  8
1
  100
AcDbLine
  10
8.5725
  20
0
  30
0
  11
8.4875
  21
0
  31
0
  0
LINE
  5
38
  100
AcDbEntity
  8
1
  100
AcDbLine
  10
8.275
  20
0
  30
0
  11
7.85
  21
0
  31
0
  0
LINE
  5
39
  100
AcDbEntity
  8
1
  100
AcDbLine
  10
7.7225
  20
0
  30
0
  11
7.6375
  21
0
  31
0
  0
LINE
  5
3a
  100
AcDbEntity
  8
1
  100
AcDbLine
  10
7.425
  20
0
  30
0
  11
7
  21
0
  31
0
  0
LINE
  5
3b
  100
AcDbEntity
  8
1
  100
AcDbLine
  10
5.823446
  20
1
  30
0
  11
5.9
  21
0.999023
  31
0
  0
LINE
  5
3c
  100
AcDbEntity
  8
1
  100
AcDbLine
  10
5.9
  20
0.999023
  30
0
  11
6
  21
0.994809
  31
0
  0
LINE
  5
3d
  100
AcDbEntity
  8
1
  100
AcDbLine
  10
6
  20
0.994809
  30
0
  11
6.1
  21
0.98728
  31
0
  0
LINE
  5
3e
  100
AcDbEntity
  8
1
  100
AcDbLine
  10
6.1
  20
0.98728
  30
0
  11
6.2
  21
0.97646
  31
0
  0
LINE
  5
3f
  100
AcDbEntity
  8
1
  100
AcDbLine
  10
6.2
  20
0.97646
  30
0
  11
6.3
  21
0.962387
  31
0
  0
LINE
  5
40
  100
AcDbEntity
  8
1
  100
AcDbLine
  10
6.3
  20
0.962387
  30
0
  11
6.4
  21
0.945106
  31
0
  0
LINE
  5
41
  100
AcDbEntity
  8
1
  100
AcDbLine
  10
6.4
  20
0.945106
  30
0
  11
6.5
  21
0.924676
  31
0
  0
LINE
  5
42
  100
AcDbEntity
  8
1
  100
AcDbLine
  10
6.5
  20
0.924676
  30
0
  11
6.6
  21
0.901165
  31
0
  0
LINE
  5
43
  100
AcDbEntity
  8
1
  100
AcDbLine
  10
6.6
  20
0.901165
  30
0
  11
6.7
  21
0.874651
  31
0
  0
LINE
  5
44
  100
AcDbEntity
  8
1
  100
AcDbLine
  10
6.7
  20
0.874651
  30
0
  11
6.8
  21
0.845222
  31
0
  0
LINE
  5
45
  100
AcDbEntity
  8
1
  100
AcDbLine
  10
6.8
  20
0.845222
  30
0
  11
6.9
  21
0.812976
  31
0
  0
LINE
  5
46
  100
AcDbEntity
  8
1
  100
AcDbLine
  10
6.9
  20
0.812976
  30
0
  11
7
  21
0.778021
  31
0
  0
LINE
  5
47
  100
AcDbEntity
  8
1
  100
AcDbLine
  10
7
  20
0.778021
  30
0
  11
7.1
  21
0.740473
  31
0
  0
LINE
  5
48
  100
AcDbEntity
  8
1
  100
AcDbLine
  10
7.1
  20
0.740473
  30
0
  11
7.2
  21
0.700458
  31
0
  0
LINE
  5
49
  100
AcDbEntity
  8
1
  100
AcDbLine
  10
7.2
  20
0.700458
  30
0
  11
7.3
  21
0.658109
  31
0
  0
LINE
  5
4a
  100
AcDbEntity
  8
1
  100
AcDbLine
  10
7.3
  20
0.658109
  30
0
  11
7.4
  21
0.613567
  31
0
  0
LINE
  5
4b
  100
AcDbEntity
  8
1
  100
AcDbLine
  10
7.4
  20
0.613567
  30
0
  11
7.5
  21
0.56698
  31
0
  0
LINE
  5
4c
  100
AcDbEntity
  8
1
  100
AcDbLine
  10
7.5
  20
0.56698
  30
0
  11
7.6
  21
0.518503
  31
0
  0
LINE
  5
4d
  100
AcDbEntity
  8
1
  100
AcDbLine
  10
7.6
  20
0.518503
  30
0
  11
7.7
  21
0.468299
  31
0
  0
LINE
  5
4e
  100
AcDbEntity
  8
1
  100
AcDbLine
  10
7.7
  20
0.468299
  30
0
  11
7.8
  21
0.416534
  31
0
  0
LINE
  5
4f
  100
AcDbEntity
  8
1
  100
AcDbLine
  10
7.8
  20
0.416534
  30
0
  11
7.9
  21
0.363381
  31
0
  0
LINE
  5
50
  100
AcDbEntity
  8
1
  100
AcDbLine
  10
7.9
  20
0.363381
  30
0
  11
8
  21
0.309017
  31
0
  0
LINE
  5
51
  100
AcDbEntity
  8
1
  100
AcDbLine
  10
8
  20
1
  30
0
  11
8
  21
-1
  31
0
  0
LINE
  5
52
  100
AcDbEntity
  8
1
  100
AcDbLine
  10
8
  20
-1
  30
0
  11
8
  21
0
  31
0
  0
LINE
  5
53
  100
AcDbEntity
  8
1
  100
AcDbLine
  10
8
  20
0.098481
  30
0
  11
7.9
  21
0.155018
  31
0
  0
LINE
  5
54
  100
AcDbEntity
  8
1
  100
AcDbLine
  10
7.9
  20
0.155018
  30
0
  11
7.8
  21
0.211038
  31
0
  0
LINE
  5
55
  100
AcDbEntity
  8
1
  100
AcDbLine
  10
7.8
  20
0.211038
  30
0
  11
7.7
  21
0.266355
  31
0
  0
LINE
  5
56
  100
AcDbEntity
  8
1
  100
AcDbLine
  10
7.7
  20
0.266355
  30
0
  11
7.6
  21
0.320784
  31
0
  0
LINE
  5
57
  100
AcDbEntity
  8
1
  100
AcDbLine
  10
7.6
  20
0.320784
  30
0
  11
7.5
  21
0.374145
  31
0
  0
LINE
  5
58
  100
AcDbEntity
  8
1
  100
AcDbLine
  10
7.5
  20
0.374145
  30
0
  11
7.4
  21
0.426258
  31
0
  0
LINE
  5
59
  100
AcDbEntity
  8
1
  100
AcDbLine
  10
7.4
  20
0.426258
  30
0
  11
7.3
  21
0.476952
  31
0
  0
LINE
  5
5a
  100
AcDbEntity
  8
1
  100
AcDbLine
  10
7.3
  20
0.476952
  30
0
  11
7.2
  21
0.526055
  31
0
  0
LINE
  5
5b
  100
AcDbEntity
  8
1
  100
AcDbLine
  10
7.2
  20
0.526055
  30
0
  11
7.1
  21
0.573406
  31
0
  0
LINE
  5
5c
  100
AcDbEntity
  8
1
  100
AcDbLine
  10
7.1
  20
0.573406
  30
0
  11
7
  21
0.618846
  31
0
  0
LINE
  5
5d
  100
AcDbEntity
  8
1
  100
AcDbLine
  10
7
  20
0.618846
  30
0
  11
6.9
  21
0.662224
  31
0
  0
LINE
  5
5e
  100
AcDbEntity
  8
1
  100
AcDbLine
  10
6.9
  20
0.662224
  30
0
  11
6.8
  21
0.703395
  31
0
  0
LINE
  5
5f
  100
AcDbEntity
  8
1
  100
AcDbLine
  10
6.8
  20
0.703395
  30
0
  11
6.7
  21
0.742221
  31
0
  0
LINE
  5
60
  100
AcDbEntity
  8
1
  100
AcDbLine
  10
6.7
  20
0.742221
  30
0
  11
6.6
  21
0.778575
  31
0
  0
LINE
  5
61
  100
AcDbEntity
  8
1
  100
AcDbLine
  10
6.6
  20
0.778575
  30
0
  11
6.5
  21
0.812334
  31
0
  0
LINE
  5
62
  100
AcDbEntity
  8
1
  100
AcDbLine
  10
6.5
  20
0.812334
  30
0
  11
6.4
  21
0.843386
  31
0
  0
LINE
  5
63
  100
AcDbEntity
  8
1
  100
AcDbLine
  10
6.4
  20
0.843386
  30
0
  11
6.3
  21
0.871627
  31
0
  0
LINE
  5
64
  100
AcDbEntity
  8
1
  100
AcDbLine
  10
6.3
  20
0.871627
  30
0
  11
6.2
  21
0.896964
  31
0
  0
LINE
  5
65
  100
AcDbEntity
  8
1
  100
AcDbLine
  10
6.2
  20
0.896964
  30
0
  11
6.1
  21
0.919312
  31
0
  0
LINE
  5
66
  100
AcDbEntity
  8
1
  100
AcDbLine
  10
6.1
  20
0.919312
  30
0
  11
6
  21
0.938596
  31
0
  0
LINE
  5
67
  100
AcDbEntity
  8
1
  100
AcDbLine
  10
6
  20
0.938596
  30
0
  11
5.9
  21
0.954752
  31
0
  0
LINE
  5
68
  100
AcDbEntity
  8
1
  100
AcDbLine
  10
5.9
  20
0.954752
  30
0
  11
5.8
  21
0.967727
  31
0
  0
LINE
  5
69
  100
AcDbEntity
  8
1
  100
AcDbLine
  10
5.8
  20
0.967727
  30
0
  11
5.7
  21
0.977477
  31
0
  0
LINE
  5
6a
  100
AcDbEntity
  8
1
  100
AcDbLine
  10
5.7
  20
0.977477
  30
0
  11
5.6
  21
0.98397
  31
0
  0
LINE
  5
6b
  100
AcDbEntity
  8
1
  100
AcDbLine
  10
5.6
  20
0.98397
  30
0
  11
5.5
  21
0.987183
  31
0
  0
LINE
  5
6c
  100
AcDbEntity
  8
1
  100
AcDbLine
  10
5.5
  20
0.987183
  30
0
  11
5.452311
  21
1
  31
0
  0
LINE
  5
6d
  100
AcDbEntity
  8
1
  100
AcDbLine
  10
5.279296
  20
1
  30
0
  11
5.3
  21
0.999929
  31
0
  0
LINE
  5
6e
  100
AcDbEntity
  8
1
  100
AcDbLine
  10
5.3
  20
0.999929
  30
0
  11
5.4
  21
0.997573
  31
0
  0
LINE
  5
6f
  100
AcDbEntity
  8
1
  100
AcDbLine
  10
5.4
  20
0.997573
  30
0
  11
5.5
  21
0.991893
  31
0
  0
LINE
  5
70
  100
AcDbEntity
  8
1
  100
AcDbLine
  10
5.5
  20
0.991893
  30
0
  11
5.6
  21
0.982908
  31
0
  0
LINE
  5
71
  100
AcDbEntity
  8
1
  100
AcDbLine
  10
5.6
  20
0.982908
  30
0
  11
5.7
  21
0.970647
  31
0
  0
LINE
  5
72
  100
AcDbEntity
  8
1
  100
AcDbLine
  10
5.7
  20
0.970647
  30
0
  11
5.8
  21
0.955151
  31
0
  0
LINE
  5
73
  100
AcDbEntity
  8
1
  100
AcDbLine
  10
5.8
  20
0.955151
  30
0
  11
5.9
  21
0.936473
  31
0
  0
LINE
  5
74
  100
AcDbEntity
  8
1
  100
AcDbLine
  10
5.9
  20
0.936473
  30
0
  11
6
  21
0.914674
  31
0
  0
LINE
  5
75
  100
AcDbEntity
  8
1
  100
AcDbLine
  10
6
  20
0.914674
  30
0
  11
6.1
  21
0.889827
  31
0
  0
LINE
  5
76
  100
AcDbEntity
  8
1
  100
AcDbLine
  10
6.1
  20
0.889827
  30
0
  11
6.2
  21
0.862014
  31
0
  0
LINE
  5
77
  100
AcDbEntity
  8
1
  100
AcDbLine
  10
6.2
  20
0.862014
  30
0
  11
6.3
  21
0.831329
  31
0
  0
LINE
  5
78
  100
AcDbEntity
  8
1
  100
AcDbLine
  10
6.3
  20
0.831329
  30
0
  11
6.4
  21
0.797874
  31
0
  0
LINE
  5
79
  100
AcDbEntity
  8
1
  100
AcDbLine
  10
6.4
  20
0.797874
  30
0
  11
6.5
  21
0.76176
  31
0
  0
LINE
  5
7a
  100
AcDbEntity
  8
1
  100
AcDbLine
  10
6.5
  20
0.76176
  30
0
  11
6.6
  21
0.723107
  31
0
  0
LINE
  5
7b
  100
AcDbEntity
  8
1
  100
AcDbLine
  10
6.6
  20
0.723107
  30
0
  11
6.7
  21
0.682045
  31
0
  0
LINE
  5
7c
  100
AcDbEntity
  8
1
  100
AcDbLine
  10
6.7
  20
0.682045
  30
0
  11
6.8
  21
0.63871
  31
0
  0
LINE
  5
7d
  100
AcDbEntity
  8
1
  100
AcDbLine
  10
6.8
  20
0.63871
  30
0
  11
6.9
  21
0.593246
  31
0
  0
LINE
  5
7e
  100
AcDbEntity
  8
1
  100
AcDbLine
  10
6.9
  20
0.593246
  30
0
  11
7
  21
0.545806
  31
0
  0
LINE
  5
7f
  100
AcDbEntity
  8
1
  100
AcDbLine
  10
7
  20
0.545806
  30
0
  11
7.1
  21
0.496546
  31
0
  0
LINE
  5
80
  100
AcDbEntity
  8
1
  100
AcDbLine
  10
7.1
  20
0.496546
  30
0
  11
7.2
  21
0.445632
  31
0
  0
LINE
  5
81
  100
AcDbEntity
  8
1
  100
AcDbLine
  10
7.2
  20
0.445632
  30
0
  11
7.3
  21
0.393233
  31
0
  0
LINE
  5
82
  100
AcDbEntity
  8
1
  100
AcDbLine
  10
7.3
  20
0.393233
  30
0
  11
7.4
  21
0.339523
  31
0
  0
LINE
  5
83
  100
AcDbEntity
  8
1
  100
AcDbLine
  10
7.4
  20
0.339523
  30
0
  11
7.5
  21
0.284682
  31
0
  0
LINE
  5
84
  100
AcDbEntity
  8
1
  100
AcDbLine
  10
7.5
  20
0.284682
  30
0
  11
7.6
  21
0.228893
  31
0
  0
LINE
  5
85
  100
AcDbEntity
  8
1
  100
AcDbLine
  10
7.6
  20
0.228893
  30
0
  11
7.7
  21
0.17234
  31
0
  0
LINE
  5
86
  100
AcDbEntity
  8
1
  100
AcDbLine
  10
7.7
  20
0.17234
  30
0
  11
7.8
  21
0.115214
  31
0
  0
LINE
  5
87
  100
AcDbEntity
  8
1
  100
AcDbLine
  10
7.8
  20
0.115214
  30
0
  11
7.9
  21
0.057703
  31
0
  0
LINE
  5
88
  100
AcDbEntity
  8
1
  100
AcDbLine
  10
7.9
  20
0.057703
  30
0
  11
8
  21
0
  31
0
  0
LINE
  5
89
  100
AcDbEntity
  8
1
  100
AcDbLine
  10
8
  20
0
  30
0
  11
8
  21
1
  31
0
  0
LINE
  5
8a
  100
AcDbEntity
  8
1
  100
AcDbLine
  10
8
  20
1
  30
0
  11
0
  21
1
  31
0
  0
LINE
  5
8b
  100
AcDbEntity
  8
1
  100
AcDbLine
  10
0
  20
1
  30
0
  11
0
  21
-1
  31
0
  0
LINE
  5
8c
  100
AcDbEntity
  8
1
  100
AcDbLine
  10
0
  20
-1
  30
0
  11
8
  21
-1
  31
0
  0
LINE
  5
8d
  100
AcDbEntity
  8
1
  100
AcDbLine
  10
8
  20
-1
  30
0
  11
7.9
  21
-0.998334
  31
0
  0
LINE
  5
8e
  100
AcDbEntity
  8
1
  100
AcDbLine
  10
7.9
  20
-0.998334
  30
0
  11
7.8
  21
-0.993341
  31
0
  0
LINE
  5
8f
  100
AcDbEntity
  8
1
  100
AcDbLine
  10
7.8
  20
-0.993341
  30
0
  11
7.7
  21
-0.985037
  31
0
  0
LINE
  5
90
  100
AcDbEntity
  8
1
  100
AcDbLine
  10
7.7
  20
-0.985037
  30
0
  11
7.6
  21
-0.973452
  31
0
  0
LINE
  5
91
  100
AcDbEntity
  8
1
  100
AcDbLine
  10
7.6
  20
-0.973452
  30
0
  11
7.5
  21
-0.958622
  31
0
  0
LINE
  5
92
  100
AcDbEntity
  8
1
  100
AcDbLine
  10
7.5
  20
-0.958622
  30
0
  11
7.4
  21
-0.940598
  31
0
  0
LINE
  5
93
  100
AcDbEntity
  8
1
  100
AcDbLine
  10
7.4
  20
-0.940598
  30
0
  11
7.3
  21
-0.919439
  31
0
  0
LINE
  5
94
  100
AcDbEntity
  8
1
  100
AcDbLine
  10
7.3
  20
-0.919439
  30
0
  11
7.2
  21
-0.895216
  31
0
  0
LINE
  5
95
  100
AcDbEntity
  8
1
  100
AcDbLine
  10
7.2
  20
-0.895216
  30
0
  11
7.1
  21
-0.86801
  31
0
  0
LINE
  5
96
  100
AcDbEntity
  8
1
  100
AcDbLine
  10
7.1
  20
-0.86801
  30
0
  11
7
  21
-0.837912
  31
0
  0
LINE
  5
97
  100
AcDbEntity
  8
1
  100
AcDbLine
  10
7
  20
-0.837912
  30
0
  11
6.9
  21
-0.805021
  31
0
  0
LINE
  5
98
  100
AcDbEntity
  8
1
  100
AcDbLine
  10
6.9
  20
-0.805021
  30
0
  11
6.8
  21
-0.769448
  31
0
  0
LINE
  5
99
  100
AcDbEntity
  8
1
  100
AcDbLine
  10
6.8
  20
-0.769448
  30
0
  11
6.7
  21
-0.73131
  31
0
  0
LINE
  5
9a
  100
AcDbEntity
  8
1
  100
AcDbLine
  10
6.7
  20
-0.73131
  30
0
  11
6.6
  21
-0.690736
  31
0
  0
LINE
  5
9b
  100
AcDbEntity
  8
1
  100
AcDbLine
  10
6.6
  20
-0.690736
  30
0
  11
6.5
  21
-0.647859
  31
0
  0
LINE
  5
9c
  100
AcDbEntity
  8
1
  100
AcDbLine
  10
6.5
  20
-0.647859
  30
0
  11
6.4
  21
-0.602824
  31
0
  0
LINE
  5
9d
  100
AcDbEntity
  8
1
  100
AcDbLine
  10
6.4
  20
-0.602824
  30
0
  11
6.3
  21
-0.55578
  31
0
  0
LINE
  5
9e
  100
AcDbEntity
  8
1
  100
AcDbLine
  10
6.3
  20
-0.55578
  30
0
  11
6.2
  21
-0.506884
  31
0
  0
LINE
  5
9f
  100
AcDbEntity
  8
1
  100
AcDbLine
  10
6.2
  20
-0.506884
  30
0
  11
6.1
  21
-0.456298
  31
0
  0
LINE
  5
a0
  100
AcDbEntity
  8
1
  100
AcDbLine
  10
6.1
  20
-0.456298
  30
0
  11
6
  21
-0.404192
  31
0
  0
LINE
  5
a1
  100
AcDbEntity
  8
1
  100
AcDbLine
  10
6
  20
-0.404192
  30
0
  11
5.9
  21
-0.35074
  31
0
  0
LINE
  5
a2
  100
AcDbEntity
  8
1
  100
AcDbLine
  10
5.9
  20
-0.35074
  30
0
  11
5.8
  21
-0.296118
  31
0
  0
LINE
  5
a3
  100
AcDbEntity
  8
1
  100
AcDbLine
  10
5.8
  20
-0.296118
  30
0
  11
5.7
  21
-0.240509
  31
0
  0
LINE
  5
a4
  100
AcDbEntity
  8
1
  100
AcDbLine
  10
5.7
  20
-0.240509
  30
0
  11
5.6
  21
-0.1841
  31
0
  0
LINE
  5
a5
  100
AcDbEntity
  8
1
  100
AcDbLine
  10
5.6
  20
-0.1841
  30
0
  11
5.5
  21
-0.127076
  31
0
  0
LINE
  5
a6
  100
AcDbEntity
  8
1
  100
AcDbLine
  10
5.5
  20
-0.127076
  30
0
  11
5.4
  21
-0.069629
  31
0
  0
LINE
  5
a7
  100
AcDbEntity
  8
1
  100
AcDbLine
  10
5.4
  20
-0.069629
  30
0
  11
5.3
  21
-0.01195
  31
0
  0
LINE
  5
a8
  100
AcDbEntity
  8
1
  100
AcDbLine
  10
5.3
  20
-0.01195
  30
0
  11
5.2
  21
0.045768
  31
0
  0
LINE
  5
a9
  100
AcDbEntity
  8
1
  100
AcDbLine
  10
5.2
  20
0.045768
  30
0
  11
5.1
  21
0.103335
  31
0
  0
LINE
  5
aa
  100
AcDbEntity
  8
1
  100
AcDbLine
  10
5.1
  20
0.103335
  30
0
  11
5
  21
0.160557
  31
0
  0
LINE
  5
ab
  100
AcDbEntity
  8
1
  100
AcDbLine
  10
5
  20
0.160557
  30
0
  11
4.9
  21
0.217243
  31
0
  0
LINE
  5
ac
  100
AcDbEntity
  8
1
  100
AcDbLine
  10
4.9
  20
0.217243
  30
0
  11
4.8
  21
0.273206
  31
0
  0
LINE
  5
ad
  100
AcDbEntity
  8
1
  100
AcDbLine
  10
4.8
  20
0.273206
  30
0
  11
4.7
  21
0.328259
  31
0
  0
LINE
  5
ae
  100
AcDbEntity
  8
1
  100
AcDbLine
  10
4.7
  20
0.328259
  30
0
  11
4.6
  21
0.382217
  31
0
  0
LINE
  5
af
  100
AcDbEntity
  8
1
  100
AcDbLine
  10
4.6
  20
0.382217
  30
0
  11
4.5
  21
0.434902
  31
0
  0
LINE
  5
b0
  100
AcDbEntity
  8
1
  100
AcDbLine
  10
4.5
  20
0.434902
  30
0
  11
4.4
  21
0.486138
  31
0
  0
LINE
  5
b1
  100
AcDbEntity
  8
1
  100
AcDbLine
  10
4.4
  20
0.486138
  30
0
  11
4.3
  21
0.535753
  31
0
  0
LINE
  5
b2
  100
AcDbEntity
  8
1
  100
AcDbLine
  10
4.3
  20
0.535753
  30
0
  11
4.2
  21
0.583584
  31
0
  0
LINE
  5
b3
  100
AcDbEntity
  8
1
  100
AcDbLine
  10
4.2
  20
0.583584
  30
0
  11
4.1
  21
0.629469
  31
0
  0
LINE
  5
b4
  100
AcDbEntity
  8
1
  100
AcDbLine
  10
4.1
  20
0.629469
  30
0
  11
4
  21
0.673257
  31
0
  0
LINE
  5
b5
  100
AcDbEntity
  8
1
  100
AcDbLine
  10
4
  20
0.673257
  30
0
  11
3.9
  21
0.714801
  31
0
  0
LINE
  5
b6
  100
AcDbEntity
  8
1
  100
AcDbLine
  10
3.9
  20
0.714801
  30
0
  11
3.8
  21
0.753963
  31
0
  0
LINE
  5
b7
  100
AcDbEntity
  8
1
  100
AcDbLine
  10
3.8
  20
0.753963
  30
0
  11
3.7
  21
0.790613
  31
0
  0
LINE
  5
b8
  100
AcDbEntity
  8
1
  100
AcDbLine
  10
3.7
  20
0.790613
  30
0
  11
3.6
  21
0.824628
  31
0
  0
LINE
  5
b9
  100
AcDbEntity
  8
1
  100
AcDbLine
  10
3.6
  20
0.824628
  30
0
  11
3.5
  21
0.855895
  31
0
  0
LINE
  5
ba
  100
AcDbEntity
  8
1
  100
AcDbLine
  10
3.5
  20
0.855895
  30
0
  11
3.4
  21
0.88431
  31
0
  0
LINE
  5
bb
  100
AcDbEntity
  8
1
  100
AcDbLine
  10
3.4
  20
0.88431
  30
0
  11
3.3
  21
0.909778
  31
0
  0
LINE
  5
bc
  100
AcDbEntity
  8
1
  100
AcDbLine
  10
3.3
  20
0.909778
  30
0
  11
3.2
  21
0.932215
  31
0
  0
LINE
  5
bd
  100
AcDbEntity
  8
1
  100
AcDbLine
  10
3.2
  20
0.932215
  30
0
  11
3.1
  21
0.951544
  31
0
  0
LINE
  5
be
  100
AcDbEntity
  8
1
  100
AcDbLine
  10
3.1
  20
0.951544
  30
0
  11
3
  21
0.967703
  31
0
  0
LINE
  5
bf
  100
AcDbEntity
  8
1
  100
AcDbLine
  10
3
  20
0.967703
  30
0
  11
2.9
  21
0.980637
  31
0
  0
LINE
  5
c0
  100
AcDbEntity
  8
1
  100
AcDbLine
  10
2.9
  20
0.980637
  30
0
  11
2.8
  21
0.990304
  31
0
  0
LINE
  5
c1
  100
AcDbEntity
  8
1
  100
AcDbLine
  10
2.8
  20
0.990304
  30
0
  11
2.7
  21
0.99667
  31
0
  0
LINE
  5
c2
  100
AcDbEntity
  8
1
  100
AcDbLine
  10
2.7
  20
0.99667
  30
0
  11
2.6
  21
0.999714
  31
0
  0
LINE
  5
c3
  100
AcDbEntity
  8
1
  100
AcDbLine
  10
2.6
  20
0.999714
  30
0
  11
2.5586
  21
1
  31
0
  0
LINE
  5
c4
  100
AcDbEntity
  8
1
  100
AcDbLine
  10
2.731617
  20
1
  30
0
  11
2.8
  21
0.986788
  31
0
  0
LINE
  5
c5
  100
AcDbEntity
  8
1
  100
AcDbLine
  10
2.8
  20
0.986788
  30
0
  11
2.9
  21
0.982895
  31
0
  0
LINE
  5
c6
  100
AcDbEntity
  8
1
  100
AcDbLine
  10
2.9
  20
0.982895
  30
0
  11
3
  21
0.975726
  31
0
  0
LINE
  5
c7
  100
AcDbEntity
  8
1
  100
AcDbLine
  10
3
  20
0.975726
  30
0
  11
3.1
  21
0.965305
  31
0
  0
LINE
  5
c8
  100
AcDbEntity
  8
1
  100
AcDbLine
  10
3.1
  20
0.965305
  30
0
  11
3.2
  21
0.951668
  31
0
  0
LINE
  5
c9
  100
AcDbEntity
  8
1
  100
AcDbLine
  10
3.2
  20
0.951668
  30
0
  11
3.3
  21
0.934859
  31
0
  0
LINE
  5
ca
  100
AcDbEntity
  8
1
  100
AcDbLine
  10
3.3
  20
0.934859
  30
0
  11
3.4
  21
0.914935
  31
0
  0
LINE
  5
cb
  100
AcDbEntity
  8
1
  100
AcDbLine
  10
3.4
  20
0.914935
  30
0
  11
3.5
  21
0.891962
  31
0
  0
LINE
  5
cc
  100
AcDbEntity
  8
1
  100
AcDbLine
  10
3.5
  20
0.891962
  30
0
  11
3.6
  21
0.866017
  31
0
  0
LINE
  5
cd
  100
AcDbEntity
  8
1
  100
AcDbLine
  10
3.6
  20
0.866017
  30
0
  11
3.7
  21
0.837186
  31
0
  0
LINE
  5
ce
  100
AcDbEntity
  8
1
  100
AcDbLine
  10
3.7
  20
0.837186
  30
0
  11
3.8
  21
0.805565
  31
0
  0
LINE
  5
cf
  100
AcDbEntity
  8
1
  100
AcDbLine
  10
3.8
  20
0.805565
  30
0
  11
3.9
  21
0.771259
  31
0
  0
LINE
  5
d0
  100
AcDbEntity
  8
1
  100
AcDbLine
  10
3.9
  20
0.771259
  30
0
  11
4
  21
0.734383
  31
0
  0
LINE
  5
d1
  100
AcDbEntity
  8
1
  100
AcDbLine
  10
4
  20
0.734383
  30
0
  11
4.1
  21
0.695061
  31
0
  0
LINE
  5
d2
  100
AcDbEntity
  8
1
  100
AcDbLine
  10
4.1
  20
0.695061
  30
0
  11
4.2
  21
0.653421
  31
0
  0
LINE
  5
d3
  100
AcDbEntity
  8
1
  100
AcDbLine
  10
4.2
  20
0.653421
  30
0
  11
4.3
  21
0.609605
  31
0
  0
LINE
  5
d4
  100
AcDbEntity
  8
1
  100
AcDbLine
  10
4.3
  20
0.609605
  30
0
  11
4.4
  21
0.563757
  31
0
  0
LINE
  5
d5
  100
AcDbEntity
  8
1
  100
AcDbLine
  10
4.4
  20
0.563757
  30
0
  11
4.5
  21
0.51603
  31
0
  0
LINE
  5
d6
  100
AcDbEntity
  8
1
  100
AcDbLine
  10
4.5
  20
0.51603
  30
0
  11
4.6
  21
0.466584
  31
0
  0
LINE
  5
d7
  100
AcDbEntity
  8
1
  100
AcDbLine
  10
4.6
  20
0.466584
  30
0
  11
4.7
  21
0.415582
  31
0
  0
LINE
  5
d8
  100
AcDbEntity
  8
1
  100
AcDbLine
  10
4.7
  20
0.415582
  30
0
  11
4.8
  21
0.363196
  31
0
  0
LINE
  5
d9
  100
AcDbEntity
  8
1
  100
AcDbLine
  10
4.8
  20
0.363196
  30
0
  11
4.9
  21
0.3096
  31
0
  0
LINE
  5
da
  100
AcDbEntity
  8
1
  100
AcDbLine
  10
4.9
  20
0.3096
  30
0
  11
5
  21
0.254972
  31
0
  0
LINE
  5
db
  100
AcDbEntity
  8
1
  100
AcDbLine
  10
5
  20
0.254972
  30
0
  11
5.1
  21
0.199494
  31
0
  0
LINE
  5
dc
  100
AcDbEntity
  8
1
  100
AcDbLine
  10
5.1
  20
0.199494
  30
0
  11
5.2
  21
0.143351
  31
0
  0
LINE
  5
dd
  100
AcDbEntity
  8
1
  100
AcDbLine
  10
5.2
  20
0.143351
  30
0
  11
5.3
  21
0.086731
  31
0
  0
LINE
  5
de
  100
AcDbEntity
  8
1
  100
AcDbLine
  10
5.3
  20
0.086731
  30
0
  11
5.4
  21
0.029822
  31
0
  0
LINE
  5
df
  100
AcDbEntity
  8
1
  100
AcDbLine
  10
5.4
  20
0.029822
  30
0
  11
5.5
  21
-0.027187
  31
0
  0
LINE
  5
e0
  100
AcDbEntity
  8
1
  100
AcDbLine
  10
5.5
  20
-0.027187
  30
0
  11
5.6
  21
-0.084105
  31
0
  0
LINE
  5
e1
  100
AcDbEntity
  8
1
  100
AcDbLine
  10
5.6
  20
-0.084105
  30
0
  11
5.7
  21
-0.140743
  31
0
  0
LINE
  5
e2
  100
AcDbEntity
  8
1
  100
AcDbLine
  10
5.7
  20
-0.140743
  30
0
  11
5.8
  21
-0.196912
  31
0
  0
LINE
  5
e3
  100
AcDbEntity
  8
1
  100
AcDbLine
  10
5.8
  20
-0.196912
  30
0
  11
5.9
  21
-0.252424
  31
0
  0
LINE
  5
e4
  100
AcDbEntity
  8
1
  100
AcDbLine
  10
5.9
  20
-0.252424
  30
0
  11
6
  21
-0.307096
  31
0
  0
LINE
  5
e5
  100
AcDbEntity
  8
1
  100
AcDbLine
  10
6
  20
-0.307096
  30
0
  11
6.1
  21
-0.360744
  31
0
  0
LINE
  5
e6
  100
AcDbEntity
  8
1
  100
AcDbLine
  10
6.1
  20
-0.360744
  30
0
  11
6.2
  21
-0.41319
  31
0
  0
LINE
  5
e7
  100
AcDbEntity
  8
1
  100
AcDbLine
  10
6.2
  20
-0.41319
  30
0
  11
6.3
  21
-0.464259
  31
0
  0
LINE
  5
e8
  100
AcDbEntity
  8
1
  100
AcDbLine
  10
6.3
  20
-0.464259
  30
0
  11
6.4
  21
-0.513781
  31
0
  0
LINE
  5
e9
  100
AcDbEntity
  8
1
  100
AcDbLine
  10
6.4
  20
-0.513781
  30
0
  11
6.5
  21
-0.561591
  31
0
  0
LINE
  5
ea
  100
AcDbEntity
  8
1
  100
AcDbLine
  10
6.5
  20
-0.561591
  30
0
  11
6.6
  21
-0.607529
  31
0
  0
LINE
  5
eb
  100
AcDbEntity
  8
1
  100
AcDbLine
  10
6.6
  20
-0.607529
  30
0
  11
6.7
  21
-0.651443
  31
0
  0
LINE
  5
ec
  100
AcDbEntity
  8
1
  100
AcDbLine
  10
6.7
  20
-0.651443
  30
0
  11
6.8
  21
-0.693186
  31
0
  0
LINE
  5
ed
  100
AcDbEntity
  8
1
  100
AcDbLine
  10
6.8
  20
-0.693186
  30
0
  11
6.9
  21
-0.732619
  31
0
  0
LINE
  5
ee
  100
AcDbEntity
  8
1
  100
AcDbLine
  10
6.9
  20
-0.732619
  30
0
  11
7
  21
-0.76961
  31
0
  0
LINE
  5
ef
  100
AcDbEntity
  8
1
  100
AcDbLine
  10
7
  20
-0.76961
  30
0
  11
7.1
  21
-0.804037
  31
0
  0
LINE
  5
f0
  100
AcDbEntity
  8
1
  100
AcDbLine
  10
7.1
  20
-0.804037
  30
0
  11
7.2
  21
-0.835785
  31
0
  0
LINE
  5
f1
  100
AcDbEntity
  8
1
  100
AcDbLine
  10
7.2
  20
-0.835785
  30
0
  11
7.3
  21
-0.864747
  31
0
  0
LINE
  5
f2
  100
AcDbEntity
  8
1
  100
AcDbLine
  10
7.3
  20
-0.864747
  30
0
  11
7.4
  21
-0.890828
  31
0
  0
LINE
  5
f3
  100
AcDbEntity
  8
1
  100
AcDbLine
  10
7.4
  20
-0.890828
  30
0
  11
7.5
  21
-0.91394
  31
0
  0
LINE
  5
f4
  100
AcDbEntity
  8
1
  100
AcDbLine
  10
7.5
  20
-0.91394
  30
0
  11
7.6
  21
-0.934006
  31
0
  0
LINE
  5
f5
  100
AcDbEntity
  8
1
  100
AcDbLine
  10
7.6
  20
-0.934006
  30
0
  11
7.7
  21
-0.95096
  31
0
  0
LINE
  5
f6
  100
AcDbEntity
  8
1
  100
AcDbLine
  10
7.7
  20
-0.95096
  30
0
  11
7.8
  21
-0.964745
  31
0
  0
LINE
  5
f7
  100
AcDbEntity
  8
1
  100
AcDbLine
  10
7.8
  20
-0.964745
  30
0
  11
7.9
  21
-0.975315
  31
0
  0
LINE
  5
f8
  100
AcDbEntity
  8
1
  100
AcDbLine
  10
7.9
  20
-0.975315
  30
0
  11
8
  21
-0.982635
  31
0
  0
LINE
  5
f9
  100
AcDbEntity
  8
1
  100
AcDbLine
  10
8
  20
-0.951057
  30
0
  11
7.9
  21
-0.931641
  31
0
  0
LINE
  5
fa
  100
AcDbEntity
  8
1
  100
AcDbLine
  10
7.9
  20
-0.931641
  30
0
  11
7.8
  21
-0.90912
  31
0
  0
LINE
  5
fb
  100
AcDbEntity
  8
1
  100
AcDbLine
  10
7.8
  20
-0.90912
  30
0
  11
7.7
  21
-0.88357
  31
0
  0
LINE
  5
fc
  100
AcDbEntity
  8
1
  100
AcDbLine
  10
7.7
  20
-0.88357
  30
0
  11
7.6
  21
-0.855076
  31
0
  0
LINE
  5
fd
  100
AcDbEntity
  8
1
  100
AcDbLine
  10
7.6
  20
-0.855076
  30
0
  11
7.5
  21
-0.823732
  31
0
  0
LINE
  5
fe
  100
AcDbEntity
  8
1
  100
AcDbLine
  10
7.5
  20
-0.823732
  30
0
  11
7.4
  21
-0.789643
  31
0
  0
LINE
  5
ff
  100
AcDbEntity
  8
1
  100
AcDbLine
  10
7.4
  20
-0.789643
  30
0
  11
7.3
  21
-0.752923
  31
0
  0
LINE
  5
100
  100
AcDbEntity
  8
1
  100
AcDbLine
  10
7.3
  20
-0.752923
  30
0
  11
7.2
  21
-0.713693
  31
0
  0
LINE
  5
101
  100
AcDbEntity
  8
1
  100
AcDbLine
  10
7.2
  20
-0.713693
  30
0
  11
7.1
  21
-0.672086
  31
0
  0
LINE
  5
102
  100
AcDbEntity
  8
1
  100
AcDbLine
  10
7.1
  20
-0.672086
  30
0
  11
7
  21
-0.628238
  31
0
  0
LINE
  5
103
  100
AcDbEntity
  8
1
  100
AcDbLine
  10
7
  20
-0.628238
  30
0
  11
6.9
  21
-0.582297
  31
0
  0
LINE
  5
104
  100
AcDbEntity
  8
1
  100
AcDbLine
  10
6.9
  20
-0.582297
  30
0
  11
6.8
  21
-0.534416
  31
0
  0
LINE
  5
105
  100
AcDbEntity
  8
1
  100
AcDbLine
  10
6.8
  20
-0.534416
  30
0
  11
6.7
  21
-0.484754
  31
0
  0
LINE
  5
106
  100
AcDbEntity
  8
1
  100
AcDbLine
  10
6.7
  20
-0.484754
  30
0
  11
6.6
  21
-0.433476
  31
0
  0
LINE
  5
107
  100
AcDbEntity
  8
1
  100
AcDbLine
  10
6.6
  20
-0.433476
  30
0
  11
6.5
  21
-0.380754
  31
0
  0
LINE
  5
108
  100
AcDbEntity
  8
1
  100
AcDbLine
  10
6.5
  20
-0.380754
  30
0
  11
6.4
  21
-0.326763
  31
0
  0
LINE
  5
109
  100
AcDbEntity
  8
1
  100
AcDbLine
  10
6.4
  20
-0.326763
  30
0
  11
6.3
  21
-0.271683
  31
0
  0
LINE
  5
10a
  100
AcDbEntity
  8
1
  100
AcDbLine
  10
6.3
  20
-0.271683
  30
0
  11
6.2
  21
-0.215698
  31
0
  0
LINE
  5
10b
  100
AcDbEntity
  8
1
  100
AcDbLine
  10
6.2
  20
-0.215698
  30
0
  11
6.1
  21
-0.158994
  31
0
  0
LINE
  5
10c
  100
AcDbEntity
  8
1
  100
AcDbLine
  10
6.1
  20
-0.158994
  30
0
  11
6
  21
-0.10176
  31
0
  0
LINE
  5
10d
  100
AcDbEntity
  8
1
  100
AcDbLine
  10
6
  20
-0.10176
  30
0
  11
5.9
  21
-0.044187
  31
0
  0
LINE
  5
10e
  100
AcDbEntity
  8
1
  100
AcDbLine
  10
5.9
  20
-0.044187
  30
0
  11
5.8
  21
0.013533
  31
0
  0
LINE
  5
10f
  100
AcDbEntity
  8
1
  100
AcDbLine
  10
5.8
  20
0.013533
  30
0
  11
5.7
  21
0.071208
  31
0
  0
LINE
  5
110
  100
AcDbEntity
  8
1
  100
AcDbLine
  10
5.7
  20
0.071208
  30
0
  11
5.6
  21
0.128646
  31
0
  0
LINE
  5
111
  100
AcDbEntity
  8
1
  100
AcDbLine
  10
5.6
  20
0.128646
  30
0
  11
5.5
  21
0.185655
  31
0
  0
LINE
  5
112
  100
AcDbEntity
  8
1
  100
AcDbLine
  10
5.5
  20
0.185655
  30
0
  11
5.4
  21
0.242046
  31
0
  0
LINE
  5
113
  100
AcDbEntity
  8
1
  100
AcDbLine
  10
5.4
  20
0.242046
  30
0
  11
5.3
  21
0.29763
  31
0
  0
LINE
  5
114
  100
AcDbEntity
  8
1
  100
AcDbLine
  10
5.3
  20
0.29763
  30
0
  11
5.2
  21
0.352222
  31
0
  0
LINE
  5
115
  100
AcDbEntity
  8
1
  100
AcDbLine
  10
5.2
  20
0.352222
  30
0
  11
5.1
  21
0.40564
  31
0
  0
LINE
  5
116
  100
AcDbEntity
  8
1
  100
AcDbLine
  10
5.1
  20
0.40564
  30
0
  11
5
  21
0.457706
  31
0
  0
LINE
  5
117
  100
AcDbEntity
  8
1
  100
AcDbLine
  10
5
  20
0.457706
  30
0
  11
4.9
  21
0.508248
  31
0
  0
LINE
  5
118
  100
AcDbEntity
  8
1
  100
AcDbLine
  10
4.9
  20
0.508248
  30
0
  11
4.8
  21
0.557095
  31
0
  0
LINE
  5
119
  100
AcDbEntity
  8
1
  100
AcDbLine
  10
4.8
  20
0.557095
  30
0
  11
4.7
  21
0.604086
  31
0
  0
LINE
  5
11a
  100
AcDbEntity
  8
1
  100
AcDbLine
  10
4.7
  20
0.604086
  30
0
  11
4.6
  21
0.649064
  31
0
  0
LINE
  5
11b
  100
AcDbEntity
  8
1
  100
AcDbLine
  10
4.6
  20
0.649064
  30
0
  11
4.5
  21
0.691879
  31
0
  0
LINE
  5
11c
  100
AcDbEntity
  8
1
  100
AcDbLine
  10
4.5
  20
0.691879
  30
0
  11
4.4
  21
0.732389
  31
0
  0
LINE
  5
11d
  100
AcDbEntity
  8
1
  100
AcDbLine
  10
4.4
  20
0.732389
  30
0
  11
4.3
  21
0.770458
  31
0
  0
LINE
  5
11e
  100
AcDbEntity
  8
1
  100
AcDbLine
  10
4.3
  20
0.770458
  30
0
  11
4.2
  21
0.805959
  31
0
  0
LINE
  5
11f
  100
AcDbEntity
  8
1
  100
AcDbLine
  10
4.2
  20
0.805959
  30
0
  11
4.1
  21
0.838775
  31
0
  0
LINE
  5
120
  100
AcDbEntity
  8
1
  100
AcDbLine
  10
4.1
  20
0.838775
  30
0
  11
4
  21
0.868795
  31
0
  0
LINE
  5
121
  100
AcDbEntity
  8
1
  100
AcDbLine
  10
4
  20
0.868795
  30
0
  11
3.9
  21
0.89592
  31
0
  0
LINE
  5
122
  100
AcDbEntity
  8
1
  100
AcDbLine
  10
3.9
  20
0.89592
  30
0
  11
3.8
  21
0.92006
  31
0
  0
LINE
  5
123
  100
AcDbEntity
  8
1
  100
AcDbLine
  10
3.8
  20
0.92006
  30
0
  11
3.7
  21
0.941134
  31
0
  0
LINE
  5
124
  100
AcDbEntity
  8
1
  100
AcDbLine
  10
3.7
  20
0.941134
  30
0
  11
3.6
  21
0.959071
  31
0
  0
LINE
  5
125
  100
AcDbEntity
  8
1
  100
AcDbLine
  10
3.6
  20
0.959071
  30
0
  11
3.5
  21
0.973813
  31
0
  0
LINE
  5
126
  100
AcDbEntity
  8
1
  100
AcDbLine
  10
3.5
  20
0.973813
  30
0
  11
3.4
  21
0.985309
  31
0
  0
LINE
  5
127
  100
AcDbEntity
  8
1
  100
AcDbLine
  10
3.4
  20
0.985309
  30
0
  11
3.3
  21
0.993522
  31
0
  0
LINE
  5
128
  100
AcDbEntity
  8
1
  100
AcDbLine
  10
3.3
  20
0.993522
  30
0
  11
3.2
  21
0.998424
  31
0
  0
LINE
  5
129
  100
AcDbEntity
  8
1
  100
AcDbLine
  10
3.2
  20
0.998424
  30
0
  11
3.102743
  21
1
  31
0
  0
LINE
  5
12a
  100
AcDbEntity
  8
1
  100
AcDbLine
  10
3.102743
  20
-1
  30
0
  11
3.1
  21
-0.999999
  31
0
  0
LINE
  5
12b
  100
AcDbEntity
  8
1
  100
AcDbLine
  10
3.1
  20
-0.999999
  30
0
  11
3
  21
-0.998241
  31
0
  0
LINE
  5
12c
  100
AcDbEntity
  8
1
  100
AcDbLine
  10
3
  20
-0.998241
  30
0
  11
2.9
  21
-0.993157
  31
0
  0
LINE
  5
12d
  100
AcDbEntity
  8
1
  100
AcDbLine
  10
2.9
  20
-0.993157
  30
0
  11
2.8
  21
-0.984763
  31
0
  0
LINE
  5
12e
  100
AcDbEntity
  8
1
  100
AcDbLine
  10
2.8
  20
-0.984763
  30
0
  11
2.7
  21
-0.973088
  31
0
  0
LINE
  5
12f
  100
AcDbEntity
  8
1
  100
AcDbLine
  10
2.7
  20
-0.973088
  30
0
  11
2.6
  21
-0.95817
  31
0
  0
LINE
  5
130
  100
AcDbEntity
  8
1
  100
AcDbLine
  10
2.6
  20
-0.95817
  30
0
  11
2.5
  21
-0.940059
  31
0
  0
LINE
  5
131
  100
AcDbEntity
  8
1
  100
AcDbLine
  10
2.5
  20
-0.940059
  30
0
  11
2.4
  21
-0.918815
  31
0
  0
LINE
  5
132
  100
AcDbEntity
  8
1
  100
AcDbLine
  10
2.4
  20
-0.918815
  30
0
  11
2.3
  21
-0.89451
  31
0
  0
LINE
  5
133
  100
AcDbEntity
  8
1
  100
AcDbLine
  10
2.3
  20
-0.89451
  30
0
  11
2.2
  21
-0.867223
  31
0
  0
LINE
  5
134
  100
AcDbEntity
  8
1
  100
AcDbLine
  10
2.2
  20
-0.867223
  30
0
  11
2.1
  21
-0.837047
  31
0
  0
LINE
  5
135
  100
AcDbEntity
  8
1
  100
AcDbLine
  10
2.1
  20
-0.837047
  30
0
  11
2
  21
-0.804081
  31
0
  0
LINE
  5
136
  100
AcDbEntity
  8
1
  100
AcDbLine
  10
2
  20
-0.804081
  30
0
  11
1.9
  21
-0.768436
  31
0
  0
LINE
  5
137
  100
AcDbEntity
  8
1
  100
AcDbLine
  10
1.9
  20
-0.768436
  30
0
  11
1.8
  21
-0.73023
  31
0
  0
LINE
  5
138
  100
AcDbEntity
  8
1
  100
AcDbLine
  10
1.8
  20
-0.73023
  30
0
  11
1.7
  21
-0.68959
  31
0
  0
LINE
  5
139
  100
AcDbEntity
  8
1
  100
AcDbLine
  10
1.7
  20
-0.68959
  30
0
  11
1.6
  21
-0.646653
  31
0
  0
LINE
  5
13a
  100
AcDbEntity
  8
1
  100
AcDbLine
  10
1.6
  20
-0.646653
  30
0
  11
1.5
  21
-0.60156
  31
0
  0
LINE
  5
13b
  100
AcDbEntity
  8
1
  100
AcDbLine
  10
1.5
  20
-0.60156
  30
0
  11
1.4
  21
-0.554463
  31
0
  0
LINE
  5
13c
  100
AcDbEntity
  8
1
  100
AcDbLine
  10
1.4
  20
-0.554463
  30
0
  11
1.3
  21
-0.505519
  31
0
  0
LINE
  5
13d
  100
AcDbEntity
  8
1
  100
AcDbLine
  10
1.3
  20
-0.505519
  30
0
  11
1.2
  21
-0.454889
  31
0
  0
LINE
  5
13e
  100
AcDbEntity
  8
1
  100
AcDbLine
  10
1.2
  20
-0.454889
  30
0
  11
1.1
  21
-0.402744
  31
0
  0
LINE
  5
13f
  100
AcDbEntity
  8
1
  100
AcDbLine
  10
1.1
  20
-0.402744
  30
0
  11
1
  21
-0.349257
  31
0
  0
LINE
  5
140
  100
AcDbEntity
  8
1
  100
AcDbLine
  10
1
  20
-0.349257
  30
0
  11
0.9
  21
-0.294606
  31
0
  0
LINE
  5
141
  100
AcDbEntity
  8
1
  100
AcDbLine
  10
0.9
  20
-0.294606
  30
0
  11
0.8
  21
-0.238973
  31
0
  0
LINE
  5
142
  100
AcDbEntity
  8
1
  100
AcDbLine
  10
0.8
  20
-0.238973
  30
0
  11
0.7
  21
-0.182543
  31
0
  0
LINE
  5
143
  100
AcDbEntity
  8
1
  100
AcDbLine
  10
0.7
  20
-0.182543
  30
0
  11
0.6
  21
-0.125506
  31
0
  0
LINE
  5
144
  100
AcDbEntity
  8
1
  100
AcDbLine
  10
0.6
  20
-0.125506
  30
0
  11
0.5
  21
-0.06805
  31
0
  0
LINE
  5
145
  100
AcDbEntity
  8
1
  100
AcDbLine
  10
0.5
  20
-0.06805
  30
0
  11
0.4
  21
-0.010367
  31
0
  0
LINE
  5
146
  100
AcDbEntity
  8
1
  100
AcDbLine
  10
0.4
  20
-0.010367
  30
0
  11
0.3
  21
0.04735
  31
0
  0
LINE
  5
147
  100
AcDbEntity
  8
1
  100
AcDbLine
  10
0.3
  20
0.04735
  30
0
  11
0.2
  21
0.104909
  31
0
  0
LINE
  5
148
  100
AcDbEntity
  8
1
  100
AcDbLine
  10
0.2
  20
0.104909
  30
0
  11
0.1
  21
0.162119
  31
0
  0
LINE
  5
149
  100
AcDbEntity
  8
1
  100
AcDbLine
  10
0.1
  20
0.162119
  30
0
  11
0
  21
0.218788
  31
0
  0
LINE
  5
14a
  100
AcDbEntity
  8
1
  100
AcDbLine
  10
0
  20
0.006222
  30
0
  11
0.1
  21
-0.050772
  31
0
  0
LINE
  5
14b
  100
AcDbEntity
  8
1
  100
AcDbLine
  10
0.1
  20
-0.050772
  30
0
  11
0.2
  21
-0.107597
  31
0
  0
LINE
  5
14c
  100
AcDbEntity
  8
1
  100
AcDbLine
  10
0.2
  20
-0.107597
  30
0
  11
0.3
  21
-0.164063
  31
0
  0
LINE
  5
14d
  100
AcDbEntity
  8
1
  100
AcDbLine
  10
0.3
  20
-0.164063
  30
0
  11
0.4
  21
-0.219983
  31
0
  0
LINE
  5
14e
  100
AcDbEntity
  8
1
  100
AcDbLine
  10
0.4
  20
-0.219983
  30
0
  11
0.5
  21
-0.27517
  31
0
  0
LINE
  5
14f
  100
AcDbEntity
  8
1
  100
AcDbLine
  10
0.5
  20
-0.27517
  30
0
  11
0.6
  21
-0.32944
  31
0
  0
LINE
  5
150
  100
AcDbEntity
  8
1
  100
AcDbLine
  10
0.6
  20
-0.32944
  30
0
  11
0.7
  21
-0.382612
  31
0
  0
LINE
  5
151
  100
AcDbEntity
  8
1
  100
AcDbLine
  10
0.7
  20
-0.382612
  30
0
  11
0.8
  21
-0.434508
  31
0
  0
LINE
  5
152
  100
AcDbEntity
  8
1
  100
AcDbLine
  10
0.8
  20
-0.434508
  30
0
  11
0.9
  21
-0.484957
  31
0
  0
LINE
  5
153
  100
AcDbEntity
  8
1
  100
AcDbLine
  10
0.9
  20
-0.484957
  30
0
  11
1
  21
-0.53379
  31
0
  0
LINE
  5
154
  100
AcDbEntity
  8
1
  100
AcDbLine
  10
1
  20
-0.53379
  30
0
  11
1.1
  21
-0.580844
  31
0
  0
LINE
  5
155
  100
AcDbEntity
  8
1
  100
AcDbLine
  10
1.1
  20
-0.580844
  30
0
  11
1.2
  21
-0.625963
  31
0
  0
LINE
  5
156
  100
AcDbEntity
  8
1
  100
AcDbLine
  10
1.2
  20
-0.625963
  30
0
  11
1.3
  21
-0.668995
  31
0
  0
LINE
  5
157
  100
AcDbEntity
  8
1
  100
AcDbLine
  10
1.3
  20
-0.668995
  30
0
  11
1.4
  21
-0.709798
  31
0
  0
LINE
  5
158
  100
AcDbEntity
  8
1
  100
AcDbLine
  10
1.4
  20
-0.709798
  30
0
  11
1.5
  21
-0.748236
  31
0
  0
LINE
  5
159
  100
AcDbEntity
  8
1
  100
AcDbLine
  10
1.5
  20
-0.748236
  30
0
  11
1.6
  21
-0.78418
  31
0
  0
LINE
  5
15a
  100
AcDbEntity
  8
1
  100
AcDbLine
  10
1.6
  20
-0.78418
  30
0
  11
1.7
  21
-0.817511
  31
0
  0
LINE
  5
15b
  100
AcDbEntity
  8
1
  100
AcDbLine
  10
1.7
  20
-0.817511
  30
0
  11
1.8
  21
-0.848118
  31
0
  0
LINE
  5
15c
  100
AcDbEntity
  8
1
  100
AcDbLine
  10
1.8
  20
-0.848118
  30
0
  11
1.9
  21
-0.875899
  31
0
  0
LINE
  5
15d
  100
AcDbEntity
  8
1
  100
AcDbLine
  10
1.9
  20
-0.875899
  30
0
  11
2
  21
-0.90076
  31
0
  0
LINE
  5
15e
  100
AcDbEntity
  8
1
  100
AcDbLine
  10
2
  20
-0.90076
  30
0
  11
2.1
  21
-0.92262
  31
0
  0
LINE
  5
15f
  100
AcDbEntity
  8
1
  100
AcDbLine
  10
2.1
  20
-0.92262
  30
0
  11
2.2
  21
-0.941406
  31
0
  0
LINE
  5
160
  100
AcDbEntity
  8
1
  100
AcDbLine
  10
2.2
  20
-0.941406
  30
0
  11
2.3
  21
-0.957054
  31
0
  0
LINE
  5
161
  100
AcDbEntity
  8
1
  100
AcDbLine
  10
2.3
  20
-0.957054
  30
0
  11
2.4
  21
-0.969513
  31
0
  0
LINE
  5
162
  100
AcDbEntity
  8
1
  100
AcDbLine
  10
2.4
  20
-0.969513
  30
0
  11
2.5
  21
-0.978741
  31
0
  0
LINE
  5
163
  100
AcDbEntity
  8
1
  100
AcDbLine
  10
2.5
  20
-0.978741
  30
0
  11
2.6
  21
-0.984708
  31
0
  0
LINE
  5
164
  100
AcDbEntity
  8
1
  100
AcDbLine
  10
2.6
  20
-0.984708
  30
0
  11
2.7
  21
-0.987393
  31
0
  0
LINE
  5
165
  100
AcDbEntity
  8
1
  100
AcDbLine
  10
2.7
  20
-0.987393
  30
0
  11
2.731617
  21
-1
  31
0
  0
LINE
  5
166
  100
AcDbEntity
  8
1
  100
AcDbLine
  10
2.5586
  20
-1
  30
0
  11
2.5
  21
-0.999428
  31
0
  0
LINE
  5
167
  100
AcDbEntity
  8
1
  100
AcDbLine
  10
2.5
  20
-0.999428
  30
0
  11
2.4
  21
-0.995811
  31
0
  0
LINE
  5
168
  100
AcDbEntity
  8
1
  100
AcDbLine
  10
2.4
  20
-0.995811
  30
0
  11
2.3
  21
-0.988875
  31
0
  0
LINE
  5
169
  100
AcDbEntity
  8
1
  100
AcDbLine
  10
2.3
  20
-0.988875
  30
0
  11
2.2
  21
-0.978644
  31
0
  0
LINE
  5
16a
  100
AcDbEntity
  8
1
  100
AcDbLine
  10
2.2
  20
-0.978644
  30
0
  11
2.1
  21
-0.965152
  31
0
  0
LINE
  5
16b
  100
AcDbEntity
  8
1
  100
AcDbLine
  10
2.1
  20
-0.965152
  30
0
  11
2
  21
-0.948443
  31
0
  0
LINE
  5
16c
  100
AcDbEntity
  8
1
  100
AcDbLine
  10
2
  20
-0.948443
  30
0
  11
1.9
  21
-0.928574
  31
0
  0
LINE
  5
16d
  100
AcDbEntity
  8
1
  100
AcDbLine
  10
1.9
  20
-0.928574
  30
0
  11
1.8
  21
-0.905611
  31
0
  0
LINE
  5
16e
  100
AcDbEntity
  8
1
  100
AcDbLine
  10
1.8
  20
-0.905611
  30
0
  11
1.7
  21
-0.879629
  31
0
  0
LINE
  5
16f
  100
AcDbEntity
  8
1
  100
AcDbLine
  10
1.7
  20
-0.879629
  30
0
  11
1.6
  21
-0.850717
  31
0
  0
LINE
  5
170
  100
AcDbEntity
  8
1
  100
AcDbLine
  10
1.6
  20
-0.850717
  30
0
  11
1.5
  21
-0.818969
  31
0
  0
LINE
  5
171
  100
AcDbEntity
  8
1
  100
AcDbLine
  10
1.5
  20
-0.818969
  30
0
  11
1.4
  21
-0.784492
  31
0
  0
LINE
  5
172
  100
AcDbEntity
  8
1
  100
AcDbLine
  10
1.4
  20
-0.784492
  30
0
  11
1.3
  21
-0.747401
  31
0
  0
LINE
  5
173
  100
AcDbEntity
  8
1
  100
AcDbLine
  10
1.3
  20
-0.747401
  30
0
  11
1.2
  21
-0.70782
  31
0
  0
LINE
  5
174
  100
AcDbEntity
  8
1
  100
AcDbLine
  10
1.2
  20
-0.70782
  30
0
  11
1.1
  21
-0.66588
  31
0
  0
LINE
  5
175
  100
AcDbEntity
  8
1
  100
AcDbLine
  10
1.1
  20
-0.66588
  30
0
  11
1
  21
-0.62172
  31
0
  0
LINE
  5
176
  100
AcDbEntity
  8
1
  100
AcDbLine
  10
1
  20
-0.62172
  30
0
  11
0.9
  21
-0.575489
  31
0
  0
LINE
  5
177
  100
AcDbEntity
  8
1
  100
AcDbLine
  10
0.9
  20
-0.575489
  30
0
  11
0.8
  21
-0.52734
  31
0
  0
LINE
  5
178
  100
AcDbEntity
  8
1
  100
AcDbLine
  10
0.8
  20
-0.52734
  30
0
  11
0.7
  21
-0.477434
  31
0
  0
LINE
  5
179
  100
AcDbEntity
  8
1
  100
AcDbLine
  10
0.7
  20
-0.477434
  30
0
  11
0.6
  21
-0.425937
  31
0
  0
LINE
  5
17a
  100
AcDbEntity
  8
1
  100
AcDbLine
  10
0.6
  20
-0.425937
  30
0
  11
0.5
  21
-0.37302
  31
0
  0
LINE
  5
17b
  100
AcDbEntity
  8
1
  100
AcDbLine
  10
0.5
  20
-0.37302
  30
0
  11
0.4
  21
-0.31886
  31
0
  0
LINE
  5
17c
  100
AcDbEntity
  8
1
  100
AcDbLine
  10
0.4
  20
-0.31886
  30
0
  11
0.3
  21
-0.263638
  31
0
  0
LINE
  5
17d
  100
AcDbEntity
  8
1
  100
AcDbLine
  10
0.3
  20
-0.263638
  30
0
  11
0.2
  21
-0.207537
  31
0
  0
LINE
  5
17e
  100
AcDbEntity
  8
1
  100
AcDbLine
  10
0.2
  20
-0.207537
  30
0
  11
0.1
  21
-0.150745
  31
0
  0
LINE
  5
17f
  100
AcDbEntity
  8
1
  100
AcDbLine
  10
0.1
  20
-0.150745
  30
0
  11
0
  21
-0.09345
  31
0
  0
LINE
  5
180
  100
AcDbEntity
  8
1
  100
AcDbLine
  10
0.382037
  20
-1
  30
0
  11
0.3
  21
-0.998878
  31
0
  0
LINE
  5
181
  100
AcDbEntity
  8
1
  100
AcDbLine
  10
0.3
  20
-0.998878
  30
0
  11
0.2
  21
-0.994482
  31
0
  0
LINE
  5
182
  100
AcDbEntity
  8
1
  100
AcDbLine
  10
0.2
  20
-0.994482
  30
0
  11
0.1
  21
-0.986771
  31
0
  0
LINE
  5
183
  100
AcDbEntity
  8
1
  100
AcDbLine
  10
0.1
  20
-0.986771
  30
0
  11
0
  21
-0.975772
  31
0
  0
LINE
  5
184
  100
AcDbEntity
  8
1
  100
AcDbLine
  10
0.010917
  20
-1
  30
0
  11
0
  21
-0.987538
  31
0
  0
LINE
  5
185
  100
AcDbEntity
  8
1
  100
AcDbLine
  10
0
  20
0.995624
  30
0
  11
0.1
  21
0.988573
  31
0
  0
LINE
  5
186
  100
AcDbEntity
  8
1
  100
AcDbLine
  10
0.1
  20
0.988573
  30
0
  11
0.2
  21
0.978227
  31
0
  0
LINE
  5
187
  100
AcDbEntity
  8
1
  100
AcDbLine
  10
0.2
  20
0.978227
  30
0
  11
0.3
  21
0.964622
  31
0
  0
LINE
  5
188
  100
AcDbEntity
  8
1
  100
AcDbLine
  10
0.3
  20
0.964622
  30
0
  11
0.4
  21
0.947802
  31
0
  0
LINE
  5
189
  100
AcDbEntity
  8
1
  100
AcDbLine
  10
0.4
  20
0.947802
  30
0
  11
0.5
  21
0.927823
  31
0
  0
LINE
  5
18a
  100
AcDbEntity
  8
1
  100
AcDbLine
  10
0.5
  20
0.927823
  30
0
  11
0.6
  21
0.904753
  31
0
  0
LINE
  5
18b
  100
AcDbEntity
  8
1
  100
AcDbLine
  10
0.6
  20
0.904753
  30
0
  11
0.7
  21
0.878668
  31
0
  0
LINE
  5
18c
  100
AcDbEntity
  8
1
  100
AcDbLine
  10
0.7
  20
0.878668
  30
0
  11
0.8
  21
0.849654
  31
0
  0
LINE
  5
18d
  100
AcDbEntity
  8
1
  100
AcDbLine
  10
0.8
  20
0.849654
  30
0
  11
0.9
  21
0.817809
  31
0
  0
LINE
  5
18e
  100
AcDbEntity
  8
1
  100
AcDbLine
  10
0.9
  20
0.817809
  30
0
  11
1
  21
0.783239
  31
0
  0
LINE
  5
18f
  100
AcDbEntity
  8
1
  100
AcDbLine
  10
1
  20
0.783239
  30
0
  11
1.1
  21
0.746059
  31
0
  0
LINE
  5
190
  100
AcDbEntity
  8
1
  100
AcDbLine
  10
1.1
  20
0.746059
  30
0
  11
1.2
  21
0.706393
  31
0
  0
LINE
  5
191
  100
AcDbEntity
  8
1
  100
AcDbLine
  10
1.2
  20
0.706393
  30
0
  11
1.3
  21
0.664373
  31
0
  0
LINE
  5
192
  100
AcDbEntity
  8
1
  100
AcDbLine
  10
1.3
  20
0.664373
  30
0
  11
1.4
  21
0.620138
  31
0
  0
LINE
  5
193
  100
AcDbEntity
  8
1
  100
AcDbLine
  10
1.4
  20
0.620138
  30
0
  11
1.5
  21
0.573838
  31
0
  0
LINE
  5
194
  100
AcDbEntity
  8
1
  100
AcDbLine
  10
1.5
  20
0.573838
  30
0
  11
1.6
  21
0.525625
  31
0
  0
LINE
  5
195
  100
AcDbEntity
  8
1
  100
AcDbLine
  10
1.6
  20
0.525625
  30
0
  11
1.7
  21
0.47566
  31
0
  0
LINE
  5
196
  100
AcDbEntity
  8
1
  100
AcDbLine
  10
1.7
  20
0.47566
  30
0
  11
1.8
  21
0.42411
  31
0
  0
LINE
  5
197
  100
AcDbEntity
  8
1
  100
AcDbLine
  10
1.8
  20
0.42411
  30
0
  11
1.9
  21
0.371147
  31
0
  0
LINE
  5
198
  100
AcDbEntity
  8
1
  100
AcDbLine
  10
1.9
  20
0.371147
  30
0
  11
2
  21
0.316947
  31
0
  0
LINE
  5
199
  100
AcDbEntity
  8
1
  100
AcDbLine
  10
2
  20
0.316947
  30
0
  11
2.1
  21
0.261691
  31
0
  0
LINE
  5
19a
  100
AcDbEntity
  8
1
  100
AcDbLine
  10
2.1
  20
0.261691
  30
0
  11
2.2
  21
0.205563
  31
0
  0
LINE
  5
19b
  100
AcDbEntity
  8
1
  100
AcDbLine
  10
2.2
  20
0.205563
  30
0
  11
2.3
  21
0.14875
  31
0
  0
LINE
  5
19c
  100
AcDbEntity
  8
1
  100
AcDbLine
  10
2.3
  20
0.14875
  30
0
  11
2.4
  21
0.091441
  31
0
  0
LINE
  5
19d
  100
AcDbEntity
  8
1
  100
AcDbLine
  10
2.4
  20
0.091441
  30
0
  11
2.5
  21
0.033827
  31
0
  0
LINE
  5
19e
  100
AcDbEntity
  8
1
  100
AcDbLine
  10
2.5
  20
0.033827
  30
0
  11
2.6
  21
-0.023899
  31
0
  0
LINE
  5
19f
  100
AcDbEntity
  8
1
  100
AcDbLine
  10
2.6
  20
-0.023899
  30
0
  11
2.7
  21
-0.081546
  31
0
  0
LINE
  5
1a0
  100
AcDbEntity
  8
1
  100
AcDbLine
  10
2.7
  20
-0.081546
  30
0
  11
2.8
  21
-0.13892
  31
0
  0
LINE
  5
1a1
  100
AcDbEntity
  8
1
  100
AcDbLine
  10
2.8
  20
-0.13892
  30
0
  11
2.9
  21
-0.195832
  31
0
  0
LINE
  5
1a2
  100
AcDbEntity
  8
1
  100
AcDbLine
  10
2.9
  20
-0.195832
  30
0
  11
3
  21
-0.252092
  31
0
  0
LINE
  5
1a3
  100
AcDbEntity
  8
1
  100
AcDbLine
  10
3
  20
-0.252092
  30
0
  11
3.1
  21
-0.307511
  31
0
  0
LINE
  5
1a4
  100
AcDbEntity
  8
1
  100
AcDbLine
  10
3.1
  20
-0.307511
  30
0
  11
3.2
  21
-0.361906
  31
0
  0
LINE
  5
1a5
  100
AcDbEntity
  8
1
  100
AcDbLine
  10
3.2
  20
-0.361906
  30
0
  11
3.3
  21
-0.415094
  31
0
  0
LINE
  5
1a6
  100
AcDbEntity
  8
1
  100
AcDbLine
  10
3.3
  20
-0.415094
  30
0
  11
3.4
  21
-0.4669
  31
0
  0
LINE
  5
1a7
  100
AcDbEntity
  8
1
  100
AcDbLine
  10
3.4
  20
-0.4669
  30
0
  11
3.5
  21
-0.517149
  31
0
  0
LINE
  5
1a8
  100
AcDbEntity
  8
1
  100
AcDbLine
  10
3.5
  20
-0.517149
  30
0
  11
3.6
  21
-0.565675
  31
0
  0
LINE
  5
1a9
  100
AcDbEntity
  8
1
  100
AcDbLine
  10
3.6
  20
-0.565675
  30
0
  11
3.7
  21
-0.612316
  31
0
  0
LINE
  5
1aa
  100
AcDbEntity
  8
1
  100
AcDbLine
  10
3.7
  20
-0.612316
  30
0
  11
3.8
  21
-0.656916
  31
0
  0
LINE
  5
1ab
  100
AcDbEntity
  8
1
  100
AcDbLine
  10
3.8
  20
-0.656916
  30
0
  11
3.9
  21
-0.699328
  31
0
  0
LINE
  5
1ac
  100
AcDbEntity
  8
1
  100
AcDbLine
  10
3.9
  20
-0.699328
  30
0
  11
4
  21
-0.739409
  31
0
  0
LINE
  5
1ad
  100
AcDbEntity
  8
1
  100
AcDbLine
  10
4
  20
-0.739409
  30
0
  11
4.1
  21
-0.777026
  31
0
  0
LINE
  5
1ae
  100
AcDbEntity
  8
1
  100
AcDbLine
  10
4.1
  20
-0.777026
  30
0
  11
4.2
  21
-0.812053
  31
0
  0
LINE
  5
1af
  100
AcDbEntity
  8
1
  100
AcDbLine
  10
4.2
  20
-0.812053
  30
0
  11
4.3
  21
-0.844375
  31
0
  0
LINE
  5
1b0
  100
AcDbEntity
  8
1
  100
AcDbLine
  10
4.3
  20
-0.844375
  30
0
  11
4.4
  21
-0.873882
  31
0
  0
LINE
  5
1b1
  100
AcDbEntity
  8
1
  100
AcDbLine
  10
4.4
  20
-0.873882
  30
0
  11
4.5
  21
-0.900478
  31
0
  0
LINE
  5
1b2
  100
AcDbEntity
  8
1
  100
AcDbLine
  10
4.5
  20
-0.900478
  30
0
  11
4.6
  21
-0.924072
  31
0
  0
LINE
  5
1b3
  100
AcDbEntity
  8
1
  100
AcDbLine
  10
4.6
  20
-0.924072
  30
0
  11
4.7
  21
-0.944588
  31
0
  0
LINE
  5
1b4
  100
AcDbEntity
  8
1
  100
AcDbLine
  10
4.7
  20
-0.944588
  30
0
  11
4.8
  21
-0.961955
  31
0
  0
LINE
  5
1b5
  100
AcDbEntity
  8
1
  100
AcDbLine
  10
4.8
  20
-0.961955
  30
0
  11
4.9
  21
-0.976117
  31
0
  0
LINE
  5
1b6
  100
AcDbEntity
  8
1
  100
AcDbLine
  10
4.9
  20
-0.976117
  30
0
  11
5
  21
-0.987027
  31
0
  0
LINE
  5
1b7
  100
AcDbEntity
  8
1
  100
AcDbLine
  10
5
  20
-0.987027
  30
0
  11
5.1
  21
-0.994647
  31
0
  0
LINE
  5
1b8
  100
AcDbEntity
  8
1
  100
AcDbLine
  10
5.1
  20
-0.994647
  30
0
  11
5.2
  21
-0.998952
  31
0
  0
LINE
  5
1b9
  100
AcDbEntity
  8
1
  100
AcDbLine
  10
5.2
  20
-0.998952
  30
0
  11
5.279296
  21
-1
  31
0
  0
LINE
  5
1ba
  100
AcDbEntity
  8
1
  100
AcDbLine
  10
5.452311
  20
-1
  30
0
  11
5.4
  21
-0.987107
  31
0
  0
LINE
  5
1bb
  100
AcDbEntity
  8
1
  100
AcDbLine
  10
5.4
  20
-0.987107
  30
0
  11
5.3
  21
-0.983742
  31
0
  0
LINE
  5
1bc
  100
AcDbEntity
  8
1
  100
AcDbLine
  10
5.3
  20
-0.983742
  30
0
  11
5.2
  21
-0.977098
  31
0
  0
LINE
  5
1bd
  100
AcDbEntity
  8
1
  100
AcDbLine
  10
5.2
  20
-0.977098
  30
0
  11
5.1
  21
-0.967198
  31
0
  0
LINE
  5
1be
  100
AcDbEntity
  8
1
  100
AcDbLine
  10
5.1
  20
-0.967198
  30
0
  11
5
  21
-0.954075
  31
0
  0
LINE
  5
1bf
  100
AcDbEntity
  8
1
  100
AcDbLine
  10
5
  20
-0.954075
  30
0
  11
4.9
  21
-0.937773
  31
0
  0
LINE
  5
1c0
  100
AcDbEntity
  8
1
  100
AcDbLine
  10
4.9
  20
-0.937773
  30
0
  11
4.8
  21
-0.918346
  31
0
  0
LINE
  5
1c1
  100
AcDbEntity
  8
1
  100
AcDbLine
  10
4.8
  20
-0.918346
  30
0
  11
4.7
  21
-0.895858
  31
0
  0
LINE
  5
1c2
  100
AcDbEntity
  8
1
  100
AcDbLine
  10
4.7
  20
-0.895858
  30
0
  11
4.6
  21
-0.870385
  31
0
  0
LINE
  5
1c3
  100
AcDbEntity
  8
1
  100
AcDbLine
  10
4.6
  20
-0.870385
  30
0
  11
4.5
  21
-0.842012
  31
0
  0
LINE
  5
1c4
  100
AcDbEntity
  8
1
  100
AcDbLine
  10
4.5
  20
-0.842012
  30
0
  11
4.4
  21
-0.810832
  31
0
  0
LINE
  5
1c5
  100
AcDbEntity
  8
1
  100
AcDbLine
  10
4.4
  20
-0.810832
  30
0
  11
4.3
  21
-0.776951
  31
0
  0
LINE
  5
1c6
  100
AcDbEntity
  8
1
  100
AcDbLine
  10
4.3
  20
-0.776951
  30
0
  11
4.2
  21
-0.74048
  31
0
  0
LINE
  5
1c7
  100
AcDbEntity
  8
1
  100
AcDbLine
  10
4.2
  20
-0.74048
  30
0
  11
4.1
  21
-0.701542
  31
0
  0
LINE
  5
1c8
  100
AcDbEntity
  8
1
  100
AcDbLine
  10
4.1
  20
-0.701542
  30
0
  11
4
  21
-0.660266
  31
0
  0
LINE
  5
1c9
  100
AcDbEntity
  8
1
  100
AcDbLine
  10
4
  20
-0.660266
  30
0
  11
3.9
  21
-0.61679
  31
0
  0
LINE
  5
1ca
  100
AcDbEntity
  8
1
  100
AcDbLine
  10
3.9
  20
-0.61679
  30
0
  11
3.8
  21
-0.571258
  31
0
  0
LINE
  5
1cb
  100
AcDbEntity
  8
1
  100
AcDbLine
  10
3.8
  20
-0.571258
  30
0
  11
3.7
  21
-0.523823
  31
0
  0
LINE
  5
1cc
  100
AcDbEntity
  8
1
  100
AcDbLine
  10
3.7
  20
-0.523823
  30
0
  11
3.6
  21
-0.474642
  31
0
  0
LINE
  5
1cd
  100
AcDbEntity
  8
1
  100
AcDbLine
  10
3.6
  20
-0.474642
  30
0
  11
3.5
  21
-0.423879
  31
0
  0
LINE
  5
1ce
  100
AcDbEntity
  8
1
  100
AcDbLine
  10
3.5
  20
-0.423879
  30
0
  11
3.4
  21
-0.371704
  31
0
  0
LINE
  5
1cf
  100
AcDbEntity
  8
1
  100
AcDbLine
  10
3.4
  20
-0.371704
  30
0
  11
3.3
  21
-0.318291
  31
0
  0
LINE
  5
1d0
  100
AcDbEntity
  8
1
  100
AcDbLine
  10
3.3
  20
-0.318291
  30
0
  11
3.2
  21
-0.263816
  31
0
  0
LINE
  5
1d1
  100
AcDbEntity
  8
1
  100
AcDbLine
  10
3.2
  20
-0.263816
  30
0
  11
3.1
  21
-0.208462
  31
0
  0
LINE
  5
1d2
  100
AcDbEntity
  8
1
  100
AcDbLine
  10
3.1
  20
-0.208462
  30
0
  11
3
  21
-0.152414
  31
0
  0
LINE
  5
1d3
  100
AcDbEntity
  8
1
  100
AcDbLine
  10
3
  20
-0.152414
  30
0
  11
2.9
  21
-0.095858
  31
0
  0
LINE
  5
1d4
  100
AcDbEntity
  8
1
  100
AcDbLine
  10
2.9
  20
-0.095858
  30
0
  11
2.8
  21
-0.038982
  31
0
  0
LINE
  5
1d5
  100
AcDbEntity
  8
1
  100
AcDbLine
  10
2.8
  20
-0.038982
  30
0
  11
2.7
  21
0.018023
  31
0
  0
LINE
  5
1d6
  100
AcDbEntity
  8
1
  100
AcDbLine
  10
2.7
  20
0.018023
  30
0
  11
2.6
  21
0.074969
  31
0
  0
LINE
  5
1d7
  100
AcDbEntity
  8
1
  100
AcDbLine
  10
2.6
  20
0.074969
  30
0
  11
2.5
  21
0.131664
  31
0
  0
LINE
  5
1d8
  100
AcDbEntity
  8
1
  100
AcDbLine
  10
2.5
  20
0.131664
  30
0
  11
2.4
  21
0.187921
  31
0
  0
LINE
  5
1d9
  100
AcDbEntity
  8
1
  100
AcDbLine
  10
2.4
  20
0.187921
  30
0
  11
2.3
  21
0.243552
  31
0
  0
LINE
  5
1da
  100
AcDbEntity
  8
1
  100
AcDbLine
  10
2.3
  20
0.243552
  30
0
  11
2.2
  21
0.298371
  31
0
  0
LINE
  5
1db
  100
AcDbEntity
  8
1
  100
AcDbLine
  10
2.2
  20
0.298371
  30
0
  11
2.1
  21
0.352196
  31
0
  0
LINE
  5
1dc
  100
AcDbEntity
  8
1
  100
AcDbLine
  10
2.1
  20
0.352196
  30
0
  11
2
  21
0.404847
  31
0
  0
LINE
  5
1dd
  100
AcDbEntity
  8
1
  100
AcDbLine
  10
2
  20
0.404847
  30
0
  11
1.9
  21
0.456149
  31
0
  0
LINE
  5
1de
  100
AcDbEntity
  8
1
  100
AcDbLine
  10
1.9
  20
0.456149
  30
0
  11
1.8
  21
0.505931
  31
0
  0
LINE
  5
1df
  100
AcDbEntity
  8
1
  100
AcDbLine
  10
1.8
  20
0.505931
  30
0
  11
1.7
  21
0.554027
  31
0
  0
LINE
  5
1e0
  100
AcDbEntity
  8
1
  100
AcDbLine
  10
1.7
  20
0.554027
  30
0
  11
1.6
  21
0.600276
  31
0
  0
LINE
  5
1e1
  100
AcDbEntity
  8
1
  100
AcDbLine
  10
1.6
  20
0.600276
  30
0
  11
1.5
  21
0.644526
  31
0
  0
LINE
  5
1e2
  100
AcDbEntity
  8
1
  100
AcDbLine
  10
1.5
  20
0.644526
  30
0
  11
1.4
  21
0.686627
  31
0
  0
LINE
  5
1e3
  100
AcDbEntity
  8
1
  100
AcDbLine
  10
1.4
  20
0.686627
  30
0
  11
1.3
  21
0.726441
  31
0
  0
LINE
  5
1e4
  100
AcDbEntity
  8
1
  100
AcDbLine
  10
1.3
  20
0.726441
  30
0
  11
1.2
  21
0.763833
  31
0
  0
LINE
  5
1e5
  100
AcDbEntity
  8
1
  100
AcDbLine
  10
1.2
  20
0.763833
  30
0
  11
1.1
  21
0.79868
  31
0
  0
LINE
  5
1e6
  100
AcDbEntity
  8
1
  100
AcDbLine
  10
1.1
  20
0.79868
  30
0
  11
1
  21
0.830866
  31
0
  0
LINE
  5
1e7
  100
AcDbEntity
  8
1
  100
AcDbLine
  10
1
  20
0.830866
  30
0
  11
0.9
  21
0.860283
  31
0
  0
LINE
  5
1e8
  100
AcDbEntity
  8
1
  100
AcDbLine
  10
0.9
  20
0.860283
  30
0
  11
0.8
  21
0.886833
  31
0
  0
LINE
  5
1e9
  100
AcDbEntity
  8
1
  100
AcDbLine
  10
0.8
  20
0.886833
  30
0
  11
0.7
  21
0.910428
  31
0
  0
LINE
  5
1ea
  100
AcDbEntity
  8
1
  100
AcDbLine
  10
0.7
  20
0.910428
  30
0
  11
0.6
  21
0.930989
  31
0
  0
LINE
  5
1eb
  100
AcDbEntity
  8
1
  100
AcDbLine
  10
0.6
  20
0.930989
  30
0
  11
0.5
  21
0.948447
  31
0
  0
LINE
  5
1ec
  100
AcDbEntity
  8
1
  100
AcDbLine
  10
0.5
  20
0.948447
  30
0
  11
0.4
  21
0.962745
  31
0
  0
LINE
  5
1ed
  100
AcDbEntity
  8
1
  100
AcDbLine
  10
0.4
  20
0.962745
  30
0
  11
0.3
  21
0.973834
  31
0
  0
LINE
  5
1ee
  100
AcDbEntity
  8
1
  100
AcDbLine
  10
0.3
  20
0.973834
  30
0
  11
0.2
  21
0.981679
  31
0
  0
LINE
  5
1ef
  100
AcDbEntity
  8
1
  100
AcDbLine
  10
0.2
  20
0.981679
  30
0
  11
0.1
  21
0.986252
  31
0
  0
LINE
  5
1f0
  100
AcDbEntity
  8
1
  100
AcDbLine
  10
0.1
  20
0.986252
  30
0
  11
0.010917
  21
1
  31
0
  0
LINE
  5
1f1
  100
AcDbEntity
  8
1
  100
AcDbLine
  10
5.823446
  20
-1
  30
0
  11
5.8
  21
-0.999908
  31
0
  0
LINE
  5
1f2
  100
AcDbEntity
  8
1
  100
AcDbLine
  10
5.8
  20
-0.999908
  30
0
  11
5.7
  21
-0.997461
  31
0
  0
LINE
  5
1f3
  100
AcDbEntity
  8
1
  100
AcDbLine
  10
5.7
  20
-0.997461
  30
0
  11
5.6
  21
-0.991691
  31
0
  0
LINE
  5
1f4
  100
AcDbEntity
  8
1
  100
AcDbLine
  10
5.6
  20
-0.991691
  30
0
  11
5.5
  21
-0.982615
  31
0
  0
LINE
  5
1f5
  100
AcDbEntity
  8
1
  100
AcDbLine
  10
5.5
  20
-0.982615
  30
0
  11
5.4
  21
-0.970265
  31
0
  0
LINE
  5
1f6
  100
AcDbEntity
  8
1
  100
AcDbLine
  10
5.4
  20
-0.970265
  30
0
  11
5.3
  21
-0.954681
  31
0
  0
LINE
  5
1f7
  100
AcDbEntity
  8
1
  100
AcDbLine
  10
5.3
  20
-0.954681
  30
0
  11
5.2
  21
-0.935917
  31
0
  0
LINE
  5
1f8
  100
AcDbEntity
  8
1
  100
AcDbLine
  10
5.2
  20
-0.935917
  30
0
  11
5.1
  21
-0.914033
  31
0
  0
LINE
  5
1f9
  100
AcDbEntity
  8
1
  100
AcDbLine
  10
5.1
  20
-0.914033
  30
0
  11
5
  21
-0.889103
  31
0
  0
LINE
  5
1fa
  100
AcDbEntity
  8
1
  100
AcDbLine
  10
5
  20
-0.889103
  30
0
  11
4.9
  21
-0.861211
  31
0
  0
LINE
  5
1fb
  100
AcDbEntity
  8
1
  100
AcDbLine
  10
4.9
  20
-0.861211
  30
0
  11
4.8
  21
-0.830449
  31
0
  0
LINE
  5
1fc
  100
AcDbEntity
  8
1
  100
AcDbLine
  10
4.8
  20
-0.830449
  30
0
  11
4.7
  21
-0.796919
  31
0
  0
LINE
  5
1fd
  100
AcDbEntity
  8
1
  100
AcDbLine
  10
4.7
  20
-0.796919
  30
0
  11
4.6
  21
-0.760734
  31
0
  0
LINE
  5
1fe
  100
AcDbEntity
  8
1
  100
AcDbLine
  10
4.6
  20
-0.760734
  30
0
  11
4.5
  21
-0.722013
  31
0
  0
LINE
  5
1ff
  100
AcDbEntity
  8
1
  100
AcDbLine
  10
4.5
  20
-0.722013
  30
0
  11
4.4
  21
-0.680887
  31
0
  0
LINE
  5
200
  100
AcDbEntity
  8
1
  100
AcDbLine
  10
4.4
  20
-0.680887
  30
0
  11
4.3
  21
-0.637491
  31
0
  0
LINE
  5
201
  100
AcDbEntity
  8
1
  100
AcDbLine
  10
4.3
  20
-0.637491
  30
0
  11
4.2
  21
-0.591971
  31
0
  0
LINE
  5
202
  100
AcDbEntity
  8
1
  100
AcDbLine
  10
4.2
  20
-0.591971
  30
0
  11
4.1
  21
-0.544479
  31
0
  0
LINE
  5
203
  100
AcDbEntity
  8
1
  100
AcDbLine
  10
4.1
  20
-0.544479
  30
0
  11
4
  21
-0.495172
  31
0
  0
LINE
  5
204
  100
AcDbEntity
  8
1
  100
AcDbLine
  10
4
  20
-0.495172
  30
0
  11
3.9
  21
-0.444214
  31
0
  0
LINE
  5
205
  100
AcDbEntity
  8
1
  100
AcDbLine
  10
3.9
  20
-0.444214
  30
0
  11
3.8
  21
-0.391777
  31
0
  0
LINE
  5
206
  100
AcDbEntity
  8
1
  100
AcDbLine
  10
3.8
  20
-0.391777
  30
0
  11
3.7
  21
-0.338034
  31
0
  0
LINE
  5
207
  100
AcDbEntity
  8
1
  100
AcDbLine
  10
3.7
  20
-0.338034
  30
0
  11
3.6
  21
-0.283165
  31
0
  0
LINE
  5
208
  100
AcDbEntity
  8
1
  100
AcDbLine
  10
3.6
  20
-0.283165
  30
0
  11
3.5
  21
-0.227352
  31
0
  0
LINE
  5
209
  100
AcDbEntity
  8
1
  100
AcDbLine
  10
3.5
  20
-0.227352
  30
0
  11
3.4
  21
-0.170781
  31
0
  0
LINE
  5
20a
  100
AcDbEntity
  8
1
  100
AcDbLine
  10
3.4
  20
-0.170781
  30
0
  11
3.3
  21
-0.113641
  31
0
  0
LINE
  5
20b
  100
AcDbEntity
  8
1
  100
AcDbLine
  10
3.3
  20
-0.113641
  30
0
  11
3.2
  21
-0.056123
  31
0
  0
LINE
  5
20c
  100
AcDbEntity
  8
1
  100
AcDbLine
  10
3.2
  20
-0.056123
  30
0
  11
3.1
  21
0.001583
  31
0
  0
LINE
  5
20d
  100
AcDbEntity
  8
1
  100
AcDbLine
  10
3.1
  20
0.001583
  30
0
  11
3
  21
0.059283
  31
0
  0
LINE
  5
20e
  100
AcDbEntity
  8
1
  100
AcDbLine
  10
3
  20
0.059283
  30
0
  11
2.9
  21
0.116786
  31
0
  0
LINE
  5
20f
  100
AcDbEntity
  8
1
  100
AcDbLine
  10
2.9
  20
0.116786
  30
0
  11
2.8
  21
0.173899
  31
0
  0
LINE
  5
210
  100
AcDbEntity
  8
1
  100
AcDbLine
  10
2.8
  20
0.173899
  30
0
  11
2.7
  21
0.230433
  31
0
  0
LINE
  5
211
  100
AcDbEntity
  8
1
  100
AcDbLine
  10
2.7
  20
0.230433
  30
0
  11
2.6
  21
0.2862
  31
0
  0
LINE
  5
212
  100
AcDbEntity
  8
1
  100
AcDbLine
  10
2.6
  20
0.2862
  30
0
  11
2.5
  21
0.341012
  31
0
  0
LINE
  5
213
  100
AcDbEntity
  8
1
  100
AcDbLine
  10
2.5
  20
0.341012
  30
0
  11
2.4
  21
0.394688
  31
0
  0
LINE
  5
214
  100
AcDbEntity
  8
1
  100
AcDbLine
  10
2.4
  20
0.394688
  30
0
  11
2.3
  21
0.447049
  31
0
  0
LINE
  5
215
  100
AcDbEntity
  8
1
  100
AcDbLine
  10
2.3
  20
0.447049
  30
0
  11
2.2
  21
0.49792
  31
0
  0
LINE
  5
216
  100
AcDbEntity
  8
1
  100
AcDbLine
  10
2.2
  20
0.49792
  30
0
  11
2.1
  21
0.547131
  31
0
  0
LINE
  5
217
  100
AcDbEntity
  8
1
  100
AcDbLine
  10
2.1
  20
0.547131
  30
0
  11
2
  21
0.59452
  31
0
  0
LINE
  5
218
  100
AcDbEntity
  8
1
  100
AcDbLine
  10
2
  20
0.59452
  30
0
  11
1.9
  21
0.639927
  31
0
  0
LINE
  5
219
  100
AcDbEntity
  8
1
  100
AcDbLine
  10
1.9
  20
0.639927
  30
0
  11
1.8
  21
0.683202
  31
0
  0
LINE
  5
21a
  100
AcDbEntity
  8
1
  100
AcDbLine
  10
1.8
  20
0.683202
  30
0
  11
1.7
  21
0.7242
  31
0
  0
LINE
  5
21b
  100
AcDbEntity
  8
1
  100
AcDbLine
  10
1.7
  20
0.7242
  30
0
  11
1.6
  21
0.762785
  31
0
  0
LINE
  5
21c
  100
AcDbEntity
  8
1
  100
AcDbLine
  10
1.6
  20
0.762785
  30
0
  11
1.5
  21
0.798827
  31
0
  0
LINE
  5
21d
  100
AcDbEntity
  8
1
  100
AcDbLine
  10
1.5
  20
0.798827
  30
0
  11
1.4
  21
0.832208
  31
0
  0
LINE
  5
21e
  100
AcDbEntity
  8
1
  100
AcDbLine
  10
1.4
  20
0.832208
  30
0
  11
1.3
  21
0.862816
  31
0
  0
LINE
  5
21f
  100
AcDbEntity
  8
1
  100
AcDbLine
  10
1.3
  20
0.862816
  30
0
  11
1.2
  21
0.890548
  31
0
  0
LINE
  5
220
  100
AcDbEntity
  8
1
  100
AcDbLine
  10
1.2
  20
0.890548
  30
0
  11
1.1
  21
0.915313
  31
0
  0
LINE
  5
221
  100
AcDbEntity
  8
1
  100
AcDbLine
  10
1.1
  20
0.915313
  30
0
  11
1
  21
0.937027
  31
0
  0
LINE
  5
222
  100
AcDbEntity
  8
1
  100
AcDbLine
  10
1
  20
0.937027
  30
0
  11
0.9
  21
0.955619
  31
0
  0
LINE
  5
223
  100
AcDbEntity
  8
1
  100
AcDbLine
  10
0.9
  20
0.955619
  30
0
  11
0.8
  21
0.971026
  31
0
  0
LINE
  5
224
  100
AcDbEntity
  8
1
  100
AcDbLine
  10
0.8
  20
0.971026
  30
0
  11
0.7
  21
0.983198
  31
0
  0
LINE
  5
225
  100
AcDbEntity
  8
1
  100
AcDbLine
  10
0.7
  20
0.983198
  30
0
  11
0.6
  21
0.992093
  31
0
  0
LINE
  5
226
  100
AcDbEntity
  8
1
  100
AcDbLine
  10
0.6
  20
0.992093
  30
0
  11
0.5
  21
0.997682
  31
0
  0
LINE
  5
227
  100
AcDbEntity
  8
1
  100
AcDbLine
  10
0.5
  20
0.997682
  30
0
  11
0.4
  21
0.999946
  31
0
  0
LINE
  5
228
  100
AcDbEntity
  8
1
  100
AcDbLine
  10
0.4
  20
0.999946
  30
0
  11
0.382037
  21
1
  31
0
  0
LINE
  5
229
  100
AcDbEntity
  8
1
  100
AcDbLine
  10
0
  20
1
  30
0
  11
0
  21
-1
  31
0
  0
LINE
  5
22a
  100
AcDbEntity
  8
1
  100
AcDbLine
  10
0
  20
-1
  30
0
  11
0
  21
1
  31
0
  0
LINE
  5
22b
  100
AcDbEntity
  8
SK1
  100
AcDbLine
  10
0
  20
1
  30
0
  11
-23.5
  21
1
  31
0
  0
LINE
  5
22c
  100
AcDbEntity
  8
SK1
  100
AcDbLine
  10
-23.5
  20
1
  30
0
  11
-24
  21
0.5
  31
0
  0
LINE
  5
22d
  100
AcDbEntity
  8
SK1
  100
AcDbLine
  10
-24
  20
0.5
  30
0
  11
-24
  21
-0.5
  31
0
  0
LINE
  5
22e
  100
AcDbEntity
  8
SK1
  100
AcDbLine
  10
-24
  20
-0.5
  30
0
  11
-23.5
  21
-1
  31
0
  0
LINE
  5
22f
  100
AcDbEntity
  8
SK1
  100
AcDbLine
  10
-23.5
  20
-1
  30
0
  11
0
  21
-1
  31
0
  0
LINE
  5
230
  100
AcDbEntity
  8
SK1
  100
AcDbLine
  10
0
  20
-1
  30
0
  11
0
  21
1
  31
0
  0
LINE
  5
231
  100
AcDbEntity
  8
SK1
  100
AcDbLine
  10
0
  20
0.995624
  30
0
  11
-0.1
  21
0.999357
  31
0
  0
LINE
  5
232
  100
AcDbEntity
  8
SK1
  100
AcDbLine
  10
-0.1
  20
0.999357
  30
0
  11
-0.162094
  21
1
  31
0
  0
LINE
  5
233
  100
AcDbEntity
  8
SK1
  100
AcDbLine
  10
-2.158911
  20
1
  30
0
  11
-2.1
  21
0.998722
  31
0
  0
LINE
  5
234
  100
AcDbEntity
  8
SK1
  100
AcDbLine
  10
-2.1
  20
0.998722
  30
0
  11
-2
  21
0.991506
  31
0
  0
LINE
  5
235
  100
AcDbEntity
  8
SK1
  100
AcDbLine
  10
-2
  20
0.991506
  30
0
  11
-1.9
  21
0.978977
  31
0
  0
LINE
  5
236
  100
AcDbEntity
  8
SK1
  100
AcDbLine
  10
-1.9
  20
0.978977
  30
0
  11
-1.8
  21
0.962044
  31
0
  0
LINE
  5
237
  100
AcDbEntity
  8
SK1
  100
AcDbLine
  10
-1.8
  20
0.962044
  30
0
  11
-1.7
  21
0.941353
  31
0
  0
LINE
  5
238
  100
AcDbEntity
  8
SK1
  100
AcDbLine
  10
-1.7
  20
0.941353
  30
0
  11
-1.6
  21
0.91736
  31
0
  0
LINE
  5
239
  100
AcDbEntity
  8
SK1
  100
AcDbLine
  10
-1.6
  20
0.91736
  30
0
  11
-1.5
  21
0.890381
  31
0
  0
LINE
  5
23a
  100
AcDbEntity
  8
SK1
  100
AcDbLine
  10
-1.5
  20
0.890381
  30
0
  11
-1.4
  21
0.860638
  31
0
  0
LINE
  5
23b
  100
AcDbEntity
  8
SK1
  100
AcDbLine
  10
-1.4
  20
0.860638
  30
0
  11
-1.3
  21
0.828283
  31
0
  0
LINE
  5
23c
  100
AcDbEntity
  8
SK1
  100
AcDbLine
  10
-1.3
  20
0.828283
  30
0
  11
-1.2
  21
0.793434
  31
0
  0
LINE
  5
23d
  100
AcDbEntity
  8
SK1
  100
AcDbLine
  10
-1.2
  20
0.793434
  30
0
  11
-1.1
  21
0.756183
  31
0
  0
LINE
  5
23e
  100
AcDbEntity
  8
SK1
  100
AcDbLine
  10
-1.1
  20
0.756183
  30
0
  11
-1
  21
0.716617
  31
0
  0
LINE
  5
23f
  100
AcDbEntity
  8
SK1
  100
AcDbLine
  10
-1
  20
0.716617
  30
0
  11
-0.9
  21
0.674825
  31
0
  0
LINE
  5
240
  100
AcDbEntity
  8
SK1
  100
AcDbLine
  10
-0.9
  20
0.674825
  30
0
  11
-0.8
  21
0.630905
  31
0
  0
LINE
  5
241
  100
AcDbEntity
  8
SK1
  100
AcDbLine
  10
-0.8
  20
0.630905
  30
0
  11
-0.7
  21
0.584965
  31
0
  0
LINE
  5
242
  100
AcDbEntity
  8
SK1
  100
AcDbLine
  10
-0.7
  20
0.584965
  30
0
  11
-0.6
  21
0.537129
  31
0
  0
LINE
  5
243
  100
AcDbEntity
  8
SK1
  100
AcDbLine
  10
-0.6
  20
0.537129
  30
0
  11
-0.5
  21
0.487534
  31
0
  0
LINE
  5
244
  100
AcDbEntity
  8
SK1
  100
AcDbLine
  10
-0.5
  20
0.487534
  30
0
  11
-0.4
  21
0.436331
  31
0
  0
LINE
  5
245
  100
AcDbEntity
  8
SK1
  100
AcDbLine
  10
-0.4
  20
0.436331
  30
0
  11
-0.3
  21
0.38368
  31
0
  0
LINE
  5
246
  100
AcDbEntity
  8
SK1
  100
AcDbLine
  10
-0.3
  20
0.38368
  30
0
  11
-0.2
  21
0.329754
  31
0
  0
LINE
  5
247
  100
AcDbEntity
  8
SK1
  100
AcDbLine
  10
-0.2
  20
0.329754
  30
0
  11
-0.1
  21
0.274729
  31
0
  0
LINE
  5
248
  100
AcDbEntity
  8
SK1
  100
AcDbLine
  10
-0.1
  20
0.274729
  30
0
  11
0
  21
0.218788
  31
0
  0
LINE
  5
249
  100
AcDbEntity
  8
SK1
  100
AcDbLine
  10
0
  20
-0.09345
  30
0
  11
-0.1
  21
-0.035844
  31
0
  0
LINE
  5
24a
  100
AcDbEntity
  8
SK1
  100
AcDbLine
  10
-0.1
  20
-0.035844
  30
0
  11
-0.2
  21
0.021881
  31
0
  0
LINE
  5
24b
  100
AcDbEntity
  8
SK1
  100
AcDbLine
  10
-0.2
  20
0.021881
  30
0
  11
-0.3
  21
0.079534
  31
0
  0
LINE
  5
24c
  100
AcDbEntity
  8
SK1
  100
AcDbLine
  10
-0.3
  20
0.079534
  30
0
  11
-0.4
  21
0.136922
  31
0
  0
LINE
  5
24d
  100
AcDbEntity
  8
SK1
  100
AcDbLine
  10
-0.4
  20
0.136922
  30
0
  11
-0.5
  21
0.193853
  31
0
  0
LINE
  5
24e
  100
AcDbEntity
  8
SK1
  100
AcDbLine
  10
-0.5
  20
0.193853
  30
0
  11
-0.6
  21
0.250139
  31
0
  0
LINE
  5
24f
  100
AcDbEntity
  8
SK1
  100
AcDbLine
  10
-0.6
  20
0.250139
  30
0
  11
-0.7
  21
0.30559
  31
0
  0
LINE
  5
250
  100
AcDbEntity
  8
SK1
  100
AcDbLine
  10
-0.7
  20
0.30559
  30
0
  11
-0.8
  21
0.360024
  31
0
  0
LINE
  5
251
  100
AcDbEntity
  8
SK1
  100
AcDbLine
  10
-0.8
  20
0.360024
  30
0
  11
-0.9
  21
0.413257
  31
0
  0
LINE
  5
252
  100
AcDbEntity
  8
SK1
  100
AcDbLine
  10
-0.9
  20
0.413257
  30
0
  11
-1
  21
0.465113
  31
0
  0
LINE
  5
253
  100
AcDbEntity
  8
SK1
  100
AcDbLine
  10
-1
  20
0.465113
  30
0
  11
-1.1
  21
0.515418
  31
0
  0
LINE
  5
254
  100
AcDbEntity
  8
SK1
  100
AcDbLine
  10
-1.1
  20
0.515418
  30
0
  11
-1.2
  21
0.564003
  31
0
  0
LINE
  5
255
  100
AcDbEntity
  8
SK1
  100
AcDbLine
  10
-1.2
  20
0.564003
  30
0
  11
-1.3
  21
0.610702
  31
0
  0
LINE
  5
256
  100
AcDbEntity
  8
SK1
  100
AcDbLine
  10
-1.3
  20
0.610702
  30
0
  11
-1.4
  21
0.655354
  31
0
  0
LINE
  5
257
  100
AcDbEntity
  8
SK1
  100
AcDbLine
  10
-1.4
  20
0.655354
  30
0
  11
-1.5
  21
0.697798
  31
0
  0
LINE
  5
258
  100
AcDbEntity
  8
SK1
  100
AcDbLine
  10
-1.5
  20
0.697798
  30
0
  11
-1.6
  21
0.737873
  31
0
  0
LINE
  5
259
  100
AcDbEntity
  8
SK1
  100
AcDbLine
  10
-1.6
  20
0.737873
  30
0
  11
-1.7
  21
0.775415
  31
0
  0
LINE
  5
25a
  100
AcDbEntity
  8
SK1
  100
AcDbLine
  10
-1.7
  20
0.775415
  30
0
  11
-1.8
  21
0.810249
  31
0
  0
LINE
  5
25b
  100
AcDbEntity
  8
SK1
  100
AcDbLine
  10
-1.8
  20
0.810249
  30
0
  11
-1.9
  21
0.842193
  31
0
  0
LINE
  5
25c
  100
AcDbEntity
  8
SK1
  100
AcDbLine
  10
-1.9
  20
0.842193
  30
0
  11
-2
  21
0.87105
  31
0
  0
LINE
  5
25d
  100
AcDbEntity
  8
SK1
  100
AcDbLine
  10
-2
  20
0.87105
  30
0
  11
-2.1
  21
0.896615
  31
0
  0
LINE
  5
25e
  100
AcDbEntity
  8
SK1
  100
AcDbLine
  10
-2.1
  20
0.896615
  30
0
  11
-2.2
  21
0.918681
  31
0
  0
LINE
  5
25f
  100
AcDbEntity
  8
SK1
  100
AcDbLine
  10
-2.2
  20
0.918681
  30
0
  11
-2.3
  21
0.937059
  31
0
  0
LINE
  5
260
  100
AcDbEntity
  8
SK1
  100
AcDbLine
  10
-2.3
  20
0.937059
  30
0
  11
-2.4
  21
0.951592
  31
0
  0
LINE
  5
261
  100
AcDbEntity
  8
SK1
  100
AcDbLine
  10
-2.4
  20
0.951592
  30
0
  11
-2.5
  21
0.96216
  31
0
  0
LINE
  5
262
  100
AcDbEntity
  8
SK1
  100
AcDbLine
  10
-2.5
  20
0.96216
  30
0
  11
-2.6
  21
0.968596
  31
0
  0
LINE
  5
263
  100
AcDbEntity
  8
SK1
  100
AcDbLine
  10
-2.6
  20
0.968596
  30
0
  11
-2.7
  21
0.970391
  31
0
  0
LINE
  5
264
  100
AcDbEntity
  8
SK1
  100
AcDbLine
  10
-2.7
  20
0.970391
  30
0
  11
-2.8
  21
0.965887
  31
0
  0
LINE
  5
265
  100
AcDbEntity
  8
SK1
  100
AcDbLine
  10
-2.8
  20
0.965887
  30
0
  11
-2.9
  21
0.950377
  31
0
  0
LINE
  5
266
  100
AcDbEntity
  8
SK1
  100
AcDbLine
  10
-2.9
  20
0.950377
  30
0
  11
-3
  21
0.912099
  31
0
  0
LINE
  5
267
  100
AcDbEntity
  8
SK1
  100
AcDbLine
  10
-3
  20
0.912099
  30
0
  11
-3
  21
0.901509
  31
0
  0
LINE
  5
268
  100
AcDbEntity
  8
SK1
  100
AcDbLine
  10
-3
  20
0.901509
  30
0
  11
-2.9
  21
0.801049
  31
0
  0
LINE
  5
269
  100
AcDbEntity
  8
SK1
  100
AcDbLine
  10
-2.9
  20
0.801049
  30
0
  11
-2.8
  21
0.686347
  31
0
  0
LINE
  5
26a
  100
AcDbEntity
  8
SK1
  100
AcDbLine
  10
-2.8
  20
0.686347
  30
0
  11
-2.7
  21
0.56682
  31
0
  0
LINE
  5
26b
  100
AcDbEntity
  8
SK1
  100
AcDbLine
  10
-2.7
  20
0.56682
  30
0
  11
-2.6
  21
0.44848
  31
0
  0
LINE
  5
26c
  100
AcDbEntity
  8
SK1
  100
AcDbLine
  10
-2.6
  20
0.44848
  30
0
  11
-2.5
  21
0.334854
  31
0
  0
LINE
  5
26d
  100
AcDbEntity
  8
SK1
  100
AcDbLine
  10
-2.5
  20
0.334854
  30
0
  11
-2.4
  21
0.227758
  31
0
  0
LINE
  5
26e
  100
AcDbEntity
  8
SK1
  100
AcDbLine
  10
-2.4
  20
0.227758
  30
0
  11
-2.3
  21
0.127888
  31
0
  0
LINE
  5
26f
  100
AcDbEntity
  8
SK1
  100
AcDbLine
  10
-2.3
  20
0.127888
  30
0
  11
-2.2
  21
0.03525
  31
0
  0
LINE
  5
270
  100
AcDbEntity
  8
SK1
  100
AcDbLine
  10
-2.2
  20
0.03525
  30
0
  11
-2.1
  21
-0.05054
  31
0
  0
LINE
  5
271
  100
AcDbEntity
  8
SK1
  100
AcDbLine
  10
-2.1
  20
-0.05054
  30
0
  11
-2
  21
-0.130064
  31
0
  0
LINE
  5
272
  100
AcDbEntity
  8
SK1
  100
AcDbLine
  10
-2
  20
-0.130064
  30
0
  11
-1.9
  21
-0.20397
  31
0
  0
LINE
  5
273
  100
AcDbEntity
  8
SK1
  100
AcDbLine
  10
-1.9
  20
-0.20397
  30
0
  11
-1.8
  21
-0.272896
  31
0
  0
LINE
  5
274
  100
AcDbEntity
  8
SK1
  100
AcDbLine
  10
-1.8
  20
-0.272896
  30
0
  11
-1.7
  21
-0.337425
  31
0
  0
LINE
  5
275
  100
AcDbEntity
  8
SK1
  100
AcDbLine
  10
-1.7
  20
-0.337425
  30
0
  11
-1.6
  21
-0.398059
  31
0
  0
LINE
  5
276
  100
AcDbEntity
  8
SK1
  100
AcDbLine
  10
-1.6
  20
-0.398059
  30
0
  11
-1.5
  21
-0.455215
  31
0
  0
LINE
  5
277
  100
AcDbEntity
  8
SK1
  100
AcDbLine
  10
-1.5
  20
-0.455215
  30
0
  11
-1.4
  21
-0.509218
  31
0
  0
LINE
  5
278
  100
AcDbEntity
  8
SK1
  100
AcDbLine
  10
-1.4
  20
-0.509218
  30
0
  11
-1.3
  21
-0.56031
  31
0
  0
LINE
  5
279
  100
AcDbEntity
  8
SK1
  100
AcDbLine
  10
-1.3
  20
-0.56031
  30
0
  11
-1.2
  21
-0.608657
  31
0
  0
LINE
  5
27a
  100
AcDbEntity
  8
SK1
  100
AcDbLine
  10
-1.2
  20
-0.608657
  30
0
  11
-1.1
  21
-0.654361
  31
0
  0
LINE
  5
27b
  100
AcDbEntity
  8
SK1
  100
AcDbLine
  10
-1.1
  20
-0.654361
  30
0
  11
-1
  21
-0.697467
  31
0
  0
LINE
  5
27c
  100
AcDbEntity
  8
SK1
  100
AcDbLine
  10
-1
  20
-0.697467
  30
0
  11
-0.9
  21
-0.737977
  31
0
  0
LINE
  5
27d
  100
AcDbEntity
  8
SK1
  100
AcDbLine
  10
-0.9
  20
-0.737977
  30
0
  11
-0.8
  21
-0.77586
  31
0
  0
LINE
  5
27e
  100
AcDbEntity
  8
SK1
  100
AcDbLine
  10
-0.8
  20
-0.77586
  30
0
  11
-0.7
  21
-0.811058
  31
0
  0
LINE
  5
27f
  100
AcDbEntity
  8
SK1
  100
AcDbLine
  10
-0.7
  20
-0.811058
  30
0
  11
-0.6
  21
-0.8435
  31
0
  0
LINE
  5
280
  100
AcDbEntity
  8
SK1
  100
AcDbLine
  10
-0.6
  20
-0.8435
  30
0
  11
-0.5
  21
-0.873104
  31
0
  0
LINE
  5
281
  100
AcDbEntity
  8
SK1
  100
AcDbLine
  10
-0.5
  20
-0.873104
  30
0
  11
-0.4
  21
-0.899786
  31
0
  0
LINE
  5
282
  100
AcDbEntity
  8
SK1
  100
AcDbLine
  10
-0.4
  20
-0.899786
  30
0
  11
-0.3
  21
-0.923466
  31
0
  0
LINE
  5
283
  100
AcDbEntity
  8
SK1
  100
AcDbLine
  10
-0.3
  20
-0.923466
  30
0
  11
-0.2
  21
-0.944067
  31
0
  0
LINE
  5
284
  100
AcDbEntity
  8
SK1
  100
AcDbLine
  10
-0.2
  20
-0.944067
  30
0
  11
-0.1
  21
-0.961522
  31
0
  0
LINE
  5
285
  100
AcDbEntity
  8
SK1
  100
AcDbLine
  10
-0.1
  20
-0.961522
  30
0
  11
0
  21
-0.975772
  31
0
  0
LINE
  5
286
  100
AcDbEntity
  8
SK1
  100
AcDbLine
  10
0
  20
-1
  30
0
  11
0
  21
1
  31
0
  0
LINE
  5
287
  100
AcDbEntity
  8
SK1
  100
AcDbLine
  10
0
  20
1
  30
0
  11
0
  21
-1
  31
0
  0
LINE
  5
288
  100
AcDbEntity
  8
SK1
  100
AcDbLine
  10
-0.162094
  20
-1
  30
0
  11
-0.2
  21
-0.999761
  31
0
  0
LINE
  5
289
  100
AcDbEntity
  8
SK1
  100
AcDbLine
  10
-0.2
  20
-0.999761
  30
0
  11
-0.3
  21
-0.996832
  31
0
  0
LINE
  5
28a
  100
AcDbEntity
  8
SK1
  100
AcDbLine
  10
-0.3
  20
-0.996832
  30
0
  11
-0.4
  21
-0.990582
  31
0
  0
LINE
  5
28b
  100
AcDbEntity
  8
SK1
  100
AcDbLine
  10
-0.4
  20
-0.990582
  30
0
  11
-0.5
  21
-0.981031
  31
0
  0
LINE
  5
28c
  100
AcDbEntity
  8
SK1
  100
AcDbLine
  10
-0.5
  20
-0.981031
  30
0
  11
-0.6
  21
-0.96821
  31
0
  0
LINE
  5
28d
  100
AcDbEntity
  8
SK1
  100
AcDbLine
  10
-0.6
  20
-0.96821
  30
0
  11
-0.7
  21
-0.952163
  31
0
  0
LINE
  5
28e
  100
AcDbEntity
  8
SK1
  100
AcDbLine
  10
-0.7
  20
-0.952163
  30
0
  11
-0.8
  21
-0.932943
  31
0
  0
LINE
  5
28f
  100
AcDbEntity
  8
SK1
  100
AcDbLine
  10
-0.8
  20
-0.932943
  30
0
  11
-0.9
  21
-0.910614
  31
0
  0
LINE
  5
290
  100
AcDbEntity
  8
SK1
  100
AcDbLine
  10
-0.9
  20
-0.910614
  30
0
  11
-1
  21
-0.885251
  31
0
  0
LINE
  5
291
  100
AcDbEntity
  8
SK1
  100
AcDbLine
  10
-1
  20
-0.885251
  30
0
  11
-1.1
  21
-0.856939
  31
0
  0
LINE
  5
292
  100
AcDbEntity
  8
SK1
  100
AcDbLine
  10
-1.1
  20
-0.856939
  30
0
  11
-1.2
  21
-0.825773
  31
0
  0
LINE
  5
293
  100
AcDbEntity
  8
SK1
  100
AcDbLine
  10
-1.2
  20
-0.825773
  30
0
  11
-1.3
  21
-0.79186
  31
0
  0
LINE
  5
294
  100
AcDbEntity
  8
SK1
  100
AcDbLine
  10
-1.3
  20
-0.79186
  30
0
  11
-1.4
  21
-0.755322
  31
0
  0
LINE
  5
295
  100
AcDbEntity
  8
SK1
  100
AcDbLine
  10
-1.4
  20
-0.755322
  30
0
  11
-1.5
  21
-0.716294
  31
0
  0
LINE
  5
296
  100
AcDbEntity
  8
SK1
  100
AcDbLine
  10
-1.5
  20
-0.716294
  30
0
  11
-1.6
  21
-0.674939
  31
0
  0
LINE
  5
297
  100
AcDbEntity
  8
SK1
  100
AcDbLine
  10
-1.6
  20
-0.674939
  30
0
  11
-1.7
  21
-0.631453
  31
0
  0
LINE
  5
298
  100
AcDbEntity
  8
SK1
  100
AcDbLine
  10
-1.7
  20
-0.631453
  30
0
  11
-1.8
  21
-0.586086
  31
0
  0
LINE
  5
299
  100
AcDbEntity
  8
SK1
  100
AcDbLine
  10
-1.8
  20
-0.586086
  30
0
  11
-1.9
  21
-0.539176
  31
0
  0
LINE
  5
29a
  100
AcDbEntity
  8
SK1
  100
AcDbLine
  10
-1.9
  20
-0.539176
  30
0
  11
-2
  21
-0.491194
  31
0
  0
LINE
  5
29b
  100
AcDbEntity
  8
SK1
  100
AcDbLine
  10
-2
  20
-0.491194
  30
0
  11
-2.1
  21
-0.442811
  31
0
  0
LINE
  5
29c
  100
AcDbEntity
  8
SK1
  100
AcDbLine
  10
-2.1
  20
-0.442811
  30
0
  11
-2.2
  21
-0.394999
  31
0
  0
LINE
  5
29d
  100
AcDbEntity
  8
SK1
  100
AcDbLine
  10
-2.2
  20
-0.394999
  30
0
  11
-2.3
  21
-0.349172
  31
0
  0
LINE
  5
29e
  100
AcDbEntity
  8
SK1
  100
AcDbLine
  10
-2.3
  20
-0.349172
  30
0
  11
-2.4
  21
-0.307363
  31
0
  0
LINE
  5
29f
  100
AcDbEntity
  8
SK1
  100
AcDbLine
  10
-2.4
  20
-0.307363
  30
0
  11
-2.5
  21
-0.272484
  31
0
  0
LINE
  5
2a0
  100
AcDbEntity
  8
SK1
  100
AcDbLine
  10
-2.5
  20
-0.272484
  30
0
  11
-2.6
  21
-0.24864
  31
0
  0
LINE
  5
2a1
  100
AcDbEntity
  8
SK1
  100
AcDbLine
  10
-2.6
  20
-0.24864
  30
0
  11
-2.7
  21
-0.24154
  31
0
  0
LINE
  5
2a2
  100
AcDbEntity
  8
SK1
  100
AcDbLine
  10
-2.7
  20
-0.24154
  30
0
  11
-2.8
  21
-0.258966
  31
0
  0
LINE
  5
2a3
  100
AcDbEntity
  8
SK1
  100
AcDbLine
  10
-2.8
  20
-0.258966
  30
0
  11
-2.9
  21
-0.311101
  31
0
  0
LINE
  5
2a4
  100
AcDbEntity
  8
SK1
  100
AcDbLine
  10
-2.9
  20
-0.311101
  30
0
  11
-3
  21
-0.40997
  31
0
  0
LINE
  5
2a5
  100
AcDbEntity
  8
SK1
  100
AcDbLine
  10
-3
  20
-0.40997
  30
0
  11
-3
  21
-0.432761
  31
0
  0
LINE
  5
2a6
  100
AcDbEntity
  8
SK1
  100
AcDbLine
  10
-3
  20
-0.432761
  30
0
  11
-2.9
  21
-0.598599
  31
0
  0
LINE
  5
2a7
  100
AcDbEntity
  8
SK1
  100
AcDbLine
  10
-2.9
  20
-0.598599
  30
0
  11
-2.8
  21
-0.727274
  31
0
  0
LINE
  5
2a8
  100
AcDbEntity
  8
SK1
  100
AcDbLine
  10
-2.8
  20
-0.727274
  30
0
  11
-2.7
  21
-0.823842
  31
0
  0
LINE
  5
2a9
  100
AcDbEntity
  8
SK1
  100
AcDbLine
  10
-2.7
  20
-0.823842
  30
0
  11
-2.6
  21
-0.893793
  31
0
  0
LINE
  5
2aa
  100
AcDbEntity
  8
SK1
  100
AcDbLine
  10
-2.6
  20
-0.893793
  30
0
  11
-2.5
  21
-0.94227
  31
0
  0
LINE
  5
2ab
  100
AcDbEntity
  8
SK1
  100
AcDbLine
  10
-2.5
  20
-0.94227
  30
0
  11
-2.4
  21
-0.973718
  31
0
  0
LINE
  5
2ac
  100
AcDbEntity
  8
SK1
  100
AcDbLine
  10
-2.4
  20
-0.973718
  30
0
  11
-2.3
  21
-0.991789
  31
0
  0
LINE
  5
2ad
  100
AcDbEntity
  8
SK1
  100
AcDbLine
  10
-2.3
  20
-0.991789
  30
0
  11
-2.2
  21
-0.999379
  31
0
  0
LINE
  5
2ae
  100
AcDbEntity
  8
SK1
  100
AcDbLine
  10
-2.2
  20
-0.999379
  30
0
  11
-2.158911
  21
-1
  31
0
  0
LINE
  5
2af
  100
AcDbEntity
  8
SK1
  100
AcDbLine
  10
-23.5
  20
-1
  30
0
  11
-23.5
  21
1
  31
0
  0
LINE
  5
2e8
  100
AcDbEntity
  8
CUT
  100
AcDbLine
  10
8
  20
0
  30
0
  11
8
  21
1
  31
0
  0
LINE
  5
2e9
  100
AcDbEntity
  8
CUT
  100
AcDbLine
  10
8
  20
1
  30
0
  11
0
  21
1
  31
0
  0
LINE
  5
2ea
  100
AcDbEntity
  8
CUT
  100
AcDbLine
  10
0
  20
1
  30
0
  11
0
  21
0
  31
0
  0
LINE
  5
2eb
  100
AcDbEntity
  8
CUT
  100
AcDbLine
  10
0
  20
0
  30
0
  11
8
  21
0
  31
0
  0
LINE
  5
2ec
  100
AcDbEntity
  8
4
  100
AcDbLine
  10
0
  20
0
  30
0
  11
8
  21
0
  31
0
  0
LINE
  5
2ed
  100
AcDbEntity
  8
INFTOTAL
  100
AcDbLine
  10
-38.8
  20
7.463866
  30
0
  11
22.8
  21
7.463866
  31
0
  0
LINE
  5
2ee
  100
AcDbEntity
  8
INFTOTAL
  100
AcDbLine
  10
22.8
  20
7.463866
  30
0
  11
22.8
  21
-32.3
  31
0
  0
LINE
  5
2ef
  100
AcDbEntity
  8
INFTOTAL
  100
AcDbLine
  10
22.8
  20
-32.3
  30
0
  11
-38.8
  21
-32.3
  31
0
  0
LINE
  5
2f0
  100
AcDbEntity
  8
INFTOTAL
  100
AcDbLine
  10
-38.8
  20
-32.3
  30
0
  11
-38.8
  21
7.463866
  31
0
  0
ENDSEC
  0
SECTION
  2
OBJECTS
  0
DICTIONARY
  5
2f1
  330
0
100
AcDbDictionary
281
    1
  3
ACAD_GROUP
  350
2f2
  0
DICTIONARY
  5
2f2
102
{ACAD_REACTORS
  330
2f1
102
}
  330
2f1
100
AcDbDictionary
281
    1
  0
ENDSEC
  0
EOF
