  0
SECTION
  2
HEADER
  9
$ACADVER
  1
AC1012
  9
$DWGCODEPAGE
  3
ansi_1252
  9
$INSBASE
 10
0.0
 20
0.0
 30
0.0
  9
$EXTMIN
 10
-51.950052
 20
-52.114062
 30
0.0
  9
$EXTMAX
 10
53.025057
 20
28.290814
 30
0.0
  9
$LIMMIN
 10
0.0
 20
0.0
  9
$LIMMAX
 10
12.0
 20
9.0
  9
$ORTHOMODE
 70
     0
  9
$REGENMODE
 70
     1
  9
$FILLMODE
 70
     1
  9
$QTEXTMODE
 70
     0
  9
$MIRRTEXT
 70
     1
  9
$DRAGMODE
 70
     2
  9
$LTSCALE
 40
1.0
  9
$OSMODE
 70
   511
  9
$ATTMODE
 70
     1
  9
$TEXTSIZE
 40
0.2
  9
$TRACEWID
 40
0.05
  9
$TEXTSTYLE
  7
STANDARD
  9
$CLAYER
  8
0
  9
$CELTYPE
  6
BYBLOCK
  9
$CECOLOR
 62
   256
  9
$CELTSCALE
 40
1.0
  9
$DELOBJ
 70
     1
  9
$DISPSILH
 70
     0
  9
$DIMSCALE
 40
1.0
  9
$DIMASZ
 40
0.18
  9
$DIMEXO
 40
0.0625
  9
$DIMDLI
 40
0.38
  9
$DIMRND
 40
0.0
  9
$DIMDLE
 40
0.0
  9
$DIMEXE
 40
0.18
  9
$DIMTP
 40
0.0
  9
$DIMTM
 40
0.0
  9
$DIMTXT
 40
0.18
  9
$DIMCEN
 40
0.09
  9
$DIMTSZ
 40
0.0
  9
$DIMTOL
 70
     0
  9
$DIMLIM
 70
     0
  9
$DIMTIH
 70
     1
  9
$DIMTOH
 70
     1
  9
$DIMSE1
 70
     0
  9
$DIMSE2
 70
     0
  9
$DIMTAD
 70
     0
  9
$DIMZIN
 70
     0
  9
$DIMBLK
  1

  9
$DIMASO
 70
     1
  9
$DIMSHO
 70
     1
  9
$DIMPOST
  1

  9
$DIMAPOST
  1

  9
$DIMALT
 70
     0
  9
$DIMALTD
 70
     2
  9
$DIMALTF
 40
25.4
  9
$DIMLFAC
 40
1.0
  9
$DIMTOFL
 70
     0
  9
$DIMTVP
 40
0.0
  9
$DIMTIX
 70
     0
  9
$DIMSOXD
 70
     0
  9
$DIMSAH
 70
     0
  9
$DIMBLK1
  1

  9
$DIMBLK2
  1

  9
$DIMSTYLE
  2
STANDARD
  9
$DIMCLRD
 70
     0
  9
$DIMCLRE
 70
     0
  9
$DIMCLRT
 70
     0
  9
$DIMTFAC
 40
1.0
  9
$DIMGAP
 40
0.09
  9
$DIMJUST
 70
     0
  9
$DIMSD1
 70
     0
  9
$DIMSD2
 70
     0
  9
$DIMTOLJ
 70
     1
  9
$DIMTZIN
 70
     0
  9
$DIMALTZ
 70
     0
  9
$DIMALTTZ
 70
     0
  9
$DIMFIT
 70
     3
  9
$DIMUPT
 70
     0
  9
$DIMUNIT
 70
     2
  9
$DIMDEC
 70
     4
  9
$DIMTDEC
 70
     4
  9
$DIMALTU
 70
     2
  9
$DIMALTTD
 70
     2
  9
$DIMTXSTY
  7
STANDARD
  9
$DIMAUNIT
 70
     0
  9
$LUNITS
 70
     2
  9
$LUPREC
 70
     4
  9
$SKETCHINC
 40
0.1
  9
$FILLETRAD
 40
0.5
  9
$AUNITS
 70
     0
  9
$AUPREC
 70
     0
  9
$MENU
  1
.
  9
$ELEVATION
 40
0.0
  9
$PELEVATION
 40
0.0
  9
$THICKNESS
 40
0.0
  9
$LIMCHECK
 70
     0
  9
$CHAMFERA
 40
0.0
  9
$CHAMFERB
 40
0.0
  9
$CHAMFERC
 40
0.0
  9
$CHAMFERD
 40
0.0
  9
$SKPOLY
 70
     0
  9
$TDCREATE
 40
2447893.041666667
  9
$TDUPDATE
 40
2458935.659815174
  9
$TDINDWG
 40
0.0000798958
  9
$TDUSRTIMER
 40
0.0000798958
  9
$USRTIMER
 70
     1
  9
$ANGBASE
 50
0.0
  9
$ANGDIR
 70
     0
  9
$PDMODE
 70
     0
  9
$PDSIZE
 40
0.0
  9
$PLINEWID
 40
0.0
  9
$COORDS
 70
     1
  9
$SPLFRAME
 70
     0
  9
$SPLINETYPE
 70
     6
  9
$SPLINESEGS
 70
     8
  9
$ATTDIA
 70
     0
  9
$ATTREQ
 70
     1
  9
$HANDLING
 70
     1
  9
$HANDSEED
  5
106ABDF
  9
$SURFTAB1
 70
     6
  9
$SURFTAB2
 70
     6
  9
$SURFTYPE
 70
     6
  9
$SURFU
 70
     6
  9
$SURFV
 70
     6
  9
$UCSNAME
  2

  9
$UCSORG
 10
0.0
 20
0.0
 30
0.0
  9
$UCSXDIR
 10
1.0
 20
0.0
 30
0.0
  9
$UCSYDIR
 10
0.0
 20
1.0
 30
0.0
  9
$PUCSNAME
  2

  9
$PUCSORG
 10
0.0
 20
0.0
 30
0.0
  9
$PUCSXDIR
 10
1.0
 20
0.0
 30
0.0
  9
$PUCSYDIR
 10
0.0
 20
1.0
 30
0.0
  9
$USERI1
 70
     0
  9
$USERI2
 70
     0
  9
$USERI3
 70
     0
  9
$USERI4
 70
     0
  9
$USERI5
 70
     0
  9
$USERR1
 40
0.0
  9
$USERR2
 40
0.0
  9
$USERR3
 40
0.0
  9
$USERR4
 40
0.0
  9
$USERR5
 40
0.0
  9
$WORLDVIEW
 70
     1
  9
$SHADEDGE
 70
     3
  9
$SHADEDIF
 70
    70
  9
$TILEMODE
 70
     1
  9
$MAXACTVP
 70
    64
  9
$PINSBASE
 10
0.0
 20
0.0
 30
0.0
  9
$PLIMCHECK
 70
     0
  9
$PEXTMIN
 10
1.000000000000000E+20
 20
1.000000000000000E+20
 30
1.000000000000000E+20
  9
$PEXTMAX
 10
-1.000000000000000E+20
 20
-1.000000000000000E+20
 30
-1.000000000000000E+20
  9
$PLIMMIN
 10
0.0
 20
0.0
  9
$PLIMMAX
 10
0.0
 20
0.0
  9
$UNITMODE
 70
     0
  9
$VISRETAIN
 70
     1
  9
$PLINEGEN
 70
     0
  9
$PSLTSCALE
 70
     1
  9
$TREEDEPTH
 70
  3020
  9
$PICKSTYLE
 70
     1
  9
$CMLSTYLE
  2
STANDARD
  9
$CMLJUST
 70
     0
  9
$CMLSCALE
 40
1.0
  9
$SAVEIMAGES
 70
     1
  0
ENDSEC
  0
SECTION
  2
CLASSES
  0
CLASS
  1
IMAGEDEF
  2
AcDbRasterImageDef
  3
ISM
 90
    32768
280
     0
281
     0
  0
CLASS
  1
IMAGE
  2
AcDbRasterImage
  3
ISM
 90
    32895
280
     0
281
     1
  0
CLASS
  1
IMAGEDEF_REACTOR
  2
AcDbRasterImageDefReactor
  3
ISM
 90
    32769
280
     0
281
     0
  0
CLASS
  1
ACDBDICTIONARYWDFLT
  2
AcDbDictionaryWithDefault
  3
ObjectDBX Classes
 90
    32768
280
     0
281
     0
  0
CLASS
  1
SCALE
  2
AcDbScale
  3
ObjectDBX Classes
 90
     1153
280
     0
281
     0
  0
CLASS
  1
MATERIAL
  2
AcDbMaterial
  3
ObjectDBX Classes
 90
     1153
280
     0
281
     0
  0
CLASS
  1
VISUALSTYLE
  2
AcDbVisualStyle
  3
ObjectDBX Classes
 90
     4095
280
     0
281
     0
  0
CLASS
  1
TABLESTYLE
  2
AcDbTableStyle
  3
ObjectDBX Classes
 90
     4095
280
     0
281
     0
  0
CLASS
  1
MLEADERSTYLE
  2
AcDbMLeaderStyle
  3
ACDB_MLEADERSTYLE_CLASS
 90
     4095
280
     0
281
     0
  0
CLASS
  1
XRECORD
  2
AcDbXrecord
  3
ObjectDBX Classes
 90
    32768
280
     0
281
     0
  0
ENDSEC
  0
SECTION
  2
TABLES
  0
TABLE
  2
VPORT
  5
2
330
0
100
AcDbSymbolTable
 70
     1
  0
VPORT
  5
106AB91
330
2
100
AcDbSymbolTableRecord
100
AcDbViewportTableRecord
  2
*ACTIVE
 70
     0
 10
0.0
 20
0.0
 11
1.0
 21
1.0
 12
-2.012753256794136
 22
-51.04379471555746
 13
0.0
 23
0.0
 14
0.5
 24
0.5
 15
0.5
 25
0.5
 16
0.0
 26
0.0
 36
1.0
 17
0.0
 27
0.0
 37
0.0
 40
326.3661080550319
 41
1.546353522867738
 42
50.0
 43
0.0
 44
0.0
 50
0.0
 51
0.0
 71
    16
 72
   100
 73
     1
 74
     3
 75
     0
 76
     0
 77
     0
 78
     0
  0
ENDTAB
  0
TABLE
  2
LTYPE
  5
3
330
0
100
AcDbSymbolTable
 70
     3
  0
LTYPE
  5
4
330
3
100
AcDbSymbolTableRecord
100
AcDbLinetypeTableRecord
  2
BYBLOCK
 70
     0
  3

 72
    65
 73
     0
 40
0.0
  0
LTYPE
  5
5
330
3
100
AcDbSymbolTableRecord
100
AcDbLinetypeTableRecord
  2
BYLAYER
 70
     0
  3

 72
    65
 73
     0
 40
0.0
  0
LTYPE
  5
6
330
3
100
AcDbSymbolTableRecord
100
AcDbLinetypeTableRecord
  2
CONTINUOUS
 70
     0
  3
Solid Line
 72
    65
 73
     0
 40
0.0
  0
LTYPE
  5
7
330
3
100
AcDbSymbolTableRecord
100
AcDbLinetypeTableRecord
  2
DASH
 70
     0
  3
Hidden
 72
    65
 73
     2
 40
2.5
 49
1.5
 74
     0
 49
-1.0
 74
     0
  0
LTYPE
  5
8
330
3
100
AcDbSymbolTableRecord
100
AcDbLinetypeTableRecord
  2
LONGDASHDASH
 70
     0
  3
__ . __
 72
    65
 73
     4
 40
7.0
 49
4.0
 74
     0
 49
-1.0
 74
     0
 49
1.0
 74
     0
 49
-1.0
 74
     0
  0
ENDTAB
  0
TABLE
  2
LAYER
  5
9
330
0
100
AcDbSymbolTable
 70
    29
  0
LAYER
  5
A
330
9
100
AcDbSymbolTableRecord
100
AcDbLayerTableRecord
  2
0
 70
     0
 62
     7
  6
CONTINUOUS
  0
LAYER
  5
B
330
9
100
AcDbSymbolTableRecord
100
AcDbLayerTableRecord
  2
DEFPOINT
 70
     0
 62
     7
  6
CONTINUOUS
  0
LAYER
  5
C
330
9
100
AcDbSymbolTableRecord
100
AcDbLayerTableRecord
  2
1
 70
     0
 62
     4
  6
CONTINUOUS
  0
LAYER
  5
D
330
9
100
AcDbSymbolTableRecord
100
AcDbLayerTableRecord
  2
2
 70
     0
 62
     7
  6
CONTINUOUS
  0
LAYER
  5
E
330
9
100
AcDbSymbolTableRecord
100
AcDbLayerTableRecord
  2
3
 70
     0
 62
     1
  6
DASH
  0
LAYER
  5
F
330
9
100
AcDbSymbolTableRecord
100
AcDbLayerTableRecord
  2
4
 70
     0
 62
     2
  6
LONGDASHDASH
  0
LAYER
  5
10
330
9
100
AcDbSymbolTableRecord
100
AcDbLayerTableRecord
  2
6
 70
     0
 62
     5
  6
CONTINUOUS
  0
LAYER
  5
11
330
9
100
AcDbSymbolTableRecord
100
AcDbLayerTableRecord
  2
7
 70
     0
 62
     5
  6
CONTINUOUS
  0
LAYER
  5
12
330
9
100
AcDbSymbolTableRecord
100
AcDbLayerTableRecord
  2
11
 70
     0
 62
     4
  6
CONTINUOUS
  0
LAYER
  5
13
330
9
100
AcDbSymbolTableRecord
100
AcDbLayerTableRecord
  2
SK1
 70
     0
 62
     4
  6
CONTINUOUS
  0
LAYER
  5
14
330
9
100
AcDbSymbolTableRecord
100
AcDbLayerTableRecord
  2
SK2
 70
     0
 62
     7
  6
CONTINUOUS
  0
LAYER
  5
15
330
9
100
AcDbSymbolTableRecord
100
AcDbLayerTableRecord
  2
SK3
 70
     0
 62
     1
  6
DASH
  0
LAYER
  5
16
330
9
100
AcDbSymbolTableRecord
100
AcDbLayerTableRecord
  2
SK4
 70
     0
 62
     2
  6
LONGDASHDASH
  0
LAYER
  5
17
330
9
100
AcDbSymbolTableRecord
100
AcDbLayerTableRecord
  2
SK6
 70
     0
 62
     5
  6
CONTINUOUS
  0
LAYER
  5
18
330
9
100
AcDbSymbolTableRecord
100
AcDbLayerTableRecord
  2
SK7
 70
     0
 62
     5
  6
CONTINUOUS
  0
LAYER
  5
19
330
9
100
AcDbSymbolTableRecord
100
AcDbLayerTableRecord
  2
SK11
 70
     0
 62
     4
  6
CONTINUOUS
  0
LAYER
  5
1A
330
9
100
AcDbSymbolTableRecord
100
AcDbLayerTableRecord
  2
SKVIEW1
 70
     0
 62
     4
  6
CONTINUOUS
  0
LAYER
  5
1B
330
9
100
AcDbSymbolTableRecord
100
AcDbLayerTableRecord
  2
SKVIEW2
 70
     0
 62
     7
  6
CONTINUOUS
  0
LAYER
  5
1C
330
9
100
AcDbSymbolTableRecord
100
AcDbLayerTableRecord
  2
SKVIEW3
 70
     0
 62
     1
  6
DASH
  0
LAYER
  5
1D
330
9
100
AcDbSymbolTableRecord
100
AcDbLayerTableRecord
  2
SKVIEW4
 70
     0
 62
     2
  6
LONGDASHDASH
  0
LAYER
  5
1E
330
9
100
AcDbSymbolTableRecord
100
AcDbLayerTableRecord
  2
SKVIEW6
 70
     0
 62
     5
  6
CONTINUOUS
  0
LAYER
  5
1F
330
9
100
AcDbSymbolTableRecord
100
AcDbLayerTableRecord
  2
SKVIEW7
 70
     0
 62
     5
  6
CONTINUOUS
  0
LAYER
  5
20
330
9
100
AcDbSymbolTableRecord
100
AcDbLayerTableRecord
  2
SKVIEW11
 70
     0
 62
     4
  6
CONTINUOUS
  0
LAYER
  5
21
330
9
100
AcDbSymbolTableRecord
100
AcDbLayerTableRecord
  2
NOCUT
 70
     0
 62
     7
  6
CONTINUOUS
  0
LAYER
  5
22
330
9
100
AcDbSymbolTableRecord
100
AcDbLayerTableRecord
  2
CUT
 70
     0
 62
     1
  6
CONTINUOUS
  0
LAYER
  5
23
330
9
100
AcDbSymbolTableRecord
100
AcDbLayerTableRecord
  2
FRAME50
 70
     0
 62
     7
  6
CONTINUOUS
  0
LAYER
  5
24
330
9
100
AcDbSymbolTableRecord
100
AcDbLayerTableRecord
  2
53
 70
     0
 62
     5
  6
CONTINUOUS
  0
LAYER
  5
25
330
9
100
AcDbSymbolTableRecord
100
AcDbLayerTableRecord
  2
INFTEXT
 70
     0
 62
     5
  6
CONTINUOUS
  0
LAYER
  5
26
330
9
100
AcDbSymbolTableRecord
100
AcDbLayerTableRecord
  2
INFTOTAL
 70
     0
 62
     9
  6
CONTINUOUS
  0
ENDTAB
  0
TABLE
  2
STYLE
  5
27
330
0
100
AcDbSymbolTable
 70
     2
  0
STYLE
  5
28
330
27
100
AcDbSymbolTableRecord
100
AcDbTextStyleTableRecord
  2
MONOSPAC821_BT
 70
     0
 40
3.5
 41
1.0
 50
0.0
 71
     0
 42
3.0
  3

  4

1001
ACAD
1000
Monospac821 BT
1071
      256
  0
STYLE
  5
106AB90
330
27
100
AcDbSymbolTableRecord
100
AcDbTextStyleTableRecord
  2
STANDARD
 70
     0
 40
0.0
 41
1.0
 50
0.0
 71
     0
 42
0.2
  3
txt
  4

  0
ENDTAB
  0
TABLE
  2
VIEW
  5
29
330
0
100
AcDbSymbolTable
 70
     0
  0
ENDTAB
  0
TABLE
  2
UCS
  5
2A
330
0
100
AcDbSymbolTable
 70
     0
  0
ENDTAB
  0
TABLE
  2
APPID
  5
2B
330
0
100
AcDbSymbolTable
 70
     1
  0
APPID
  5
2C
330
2B
100
AcDbSymbolTableRecord
100
AcDbRegAppTableRecord
  2
ACAD
 70
     0
  0
ENDTAB
  0
TABLE
  2
DIMSTYLE
  5
2D
330
0
100
AcDbSymbolTable
 70
     1
  0
DIMSTYLE
105
2E
330
2D
100
AcDbSymbolTableRecord
100
AcDbDimStyleTableRecord
  2
STANDARD
 70
     0
  3

  4

  5

  6

  7

 40
1.0
 41
3.0
 42
0.5
 43
0.38
 44
1.0
 45
0.0
 46
0.0
 47
0.0
 48
0.0
140
3.5
141
2.5
142
0.0
143
0.03937
144
1.0
145
0.0
146
1.0
147
0.8
 71
     0
 72
     0
 73
     0
 74
     1
 75
     0
 76
     0
 77
     1
 78
     1
170
     0
171
     2
172
     1
173
     0
174
     1
175
     0
176
     0
177
     0
178
     0
179
     1
270
     2
271
     2
272
     4
273
     2
274
     2
340
28
275
     0
280
     0
281
     0
282
     0
283
     1
284
     1
285
     0
286
     0
287
     4
288
     0
  0
ENDTAB
  0
TABLE
  2
BLOCK_RECORD
  5
2F
330
0
100
AcDbSymbolTable
 70
     9
  0
BLOCK_RECORD
  5
30
330
2F
100
AcDbSymbolTableRecord
100
AcDbBlockTableRecord
  2
*MODEL_SPACE
  0
BLOCK_RECORD
  5
31
330
2F
100
AcDbSymbolTableRecord
100
AcDbBlockTableRecord
  2
*PAPER_SPACE
  0
BLOCK_RECORD
  5
2C7
330
2F
100
AcDbSymbolTableRecord
100
AcDbBlockTableRecord
  2
*D0
  0
BLOCK_RECORD
  5
2D5
330
2F
100
AcDbSymbolTableRecord
100
AcDbBlockTableRecord
  2
*D1
  0
BLOCK_RECORD
  5
2E5
330
2F
100
AcDbSymbolTableRecord
100
AcDbBlockTableRecord
  2
*D2
  0
BLOCK_RECORD
  5
2F3
330
2F
100
AcDbSymbolTableRecord
100
AcDbBlockTableRecord
  2
*D3
  0
BLOCK_RECORD
  5
301
330
2F
100
AcDbSymbolTableRecord
100
AcDbBlockTableRecord
  2
*D4
  0
BLOCK_RECORD
  5
30F
330
2F
100
AcDbSymbolTableRecord
100
AcDbBlockTableRecord
  2
*D5
  0
BLOCK_RECORD
  5
31D
330
2F
100
AcDbSymbolTableRecord
100
AcDbBlockTableRecord
  2
*D6
  0
BLOCK_RECORD
  5
32B
330
2F
100
AcDbSymbolTableRecord
100
AcDbBlockTableRecord
  2
*D7
  0
BLOCK_RECORD
  5
335
330
2F
100
AcDbSymbolTableRecord
100
AcDbBlockTableRecord
  2
*D8
  0
ENDTAB
  0
ENDSEC
  0
SECTION
  2
BLOCKS
  0
BLOCK
  5
32
330
30
100
AcDbEntity
  8
0
100
AcDbBlockBegin
  2
*MODEL_SPACE
 70
     0
 10
0.0
 20
0.0
 30
0.0
  3
*MODEL_SPACE
  1

  0
ENDBLK
  5
33
330
30
100
AcDbEntity
  8
0
100
AcDbBlockEnd
  0
BLOCK
  5
34
330
31
100
AcDbEntity
 67
     1
  8
0
100
AcDbBlockBegin
  2
*PAPER_SPACE
 70
     0
 10
0.0
 20
0.0
 30
0.0
  3
*PAPER_SPACE
  1

  0
ENDBLK
  5
35
330
31
100
AcDbEntity
 67
     1
  8
0
100
AcDbBlockEnd
  0
BLOCK
  5
2C5
330
2C7
100
AcDbEntity
  8
SK2
100
AcDbBlockBegin
  2
*D0
 70
     1
 10
0.0
 20
0.0
 30
0.0
  3
*D0
  1

  0
LINE
  5
2C8
330
2C7
100
AcDbEntity
  8
SK2
100
AcDbLine
 10
-35.74701
 20
-47.342466
 30
0.0
 11
-35.74701
 21
4.0
 31
0.0
  0
LINE
  5
2C9
330
2C7
100
AcDbEntity
  8
SK2
100
AcDbLine
 10
36.253461
 20
-47.342466
 30
0.0
 11
36.253461
 21
22.068493
 31
0.0
  0
LINE
  5
2CA
330
2C7
100
AcDbEntity
  8
SK2
100
AcDbLine
 10
-35.74701
 20
-45.342466
 30
0.0
 11
36.253461
 21
-45.342466
 31
0.0
  0
SOLID
  5
2CB
330
2C7
100
AcDbEntity
  8
SK2
100
AcDbTrace
 10
-35.74701
 20
-45.342466
 30
0.0
 11
-33.268398
 21
-45.01615
 31
0.0
 12
-33.268398
 22
-45.668781
 32
0.0
 13
-33.268398
 23
-45.668781
 33
0.0
  0
SOLID
  5
2CC
330
2C7
100
AcDbEntity
  8
SK2
100
AcDbTrace
 10
36.253461
 20
-45.342466
 30
0.0
 11
33.774849
 21
-45.668781
 31
0.0
 12
33.774849
 22
-45.01615
 32
0.0
 13
33.774849
 23
-45.01615
 33
0.0
  0
MTEXT
  5
2CD
330
2C7
100
AcDbEntity
  8
SK2
100
AcDbMText
 10
-2.346736
 20
-45.342466
 30
0.0
 40
2.0
 41
0.0
 71
     8
 72
     1
  1
72 +2
  0
POINT
  5
2CE
330
2C7
100
AcDbEntity
  8
SK2
 62
     0
100
AcDbPoint
 10
-35.74701
 20
4.0
 30
0.0
  0
POINT
  5
2CF
330
2C7
100
AcDbEntity
  8
SK2
 62
     0
100
AcDbPoint
 10
36.253461
 20
22.068493
 30
0.0
  0
POINT
  5
2D0
330
2C7
100
AcDbEntity
  8
SK2
 62
     0
100
AcDbPoint
 10
36.253461
 20
-45.342466
 30
0.0
  0
ENDBLK
  5
2D1
330
2C7
100
AcDbEntity
  8
SK2
100
AcDbBlockEnd
  0
BLOCK
  5
2D3
330
2D5
100
AcDbEntity
  8
SK2
100
AcDbBlockBegin
  2
*D1
 70
     1
 10
0.0
 20
0.0
 30
0.0
  3
*D1
  1

  0
LINE
  5
2D6
330
2D5
100
AcDbEntity
  8
SK2
100
AcDbLine
 10
-1.955241
 20
5.344762
 30
0.0
 11
-19.552415
 21
8.447618
 31
0.0
  0
LINE
  5
2D7
330
2D5
100
AcDbEntity
  8
SK2
100
AcDbLine
 10
-1.985404
 20
5.0
 30
0.0
 11
-19.854042
 21
5.0
 31
0.0
  0
ARC
  5
2D8
330
2D5
100
AcDbEntity
  8
SK2
100
AcDbCircle
 10
0.0
 20
5.0
 30
0.0
 40
17.854042
100
AcDbArc
 50
170.0
 51
209.972891
  0
SOLID
  5
2D9
330
2D5
100
AcDbEntity
  8
SK2
100
AcDbTrace
 10
-17.582799
 20
8.100322
 30
0.0
 11
-17.691847
 21
5.602701
 31
0.0
 12
-18.334564
 22
5.716029
 32
0.0
 13
-18.334564
 23
5.716029
 33
0.0
  0
SOLID
  5
2DA
330
2D5
100
AcDbEntity
  8
SK2
100
AcDbTrace
 10
-17.854042
 20
5.0
 30
0.0
 11
-18.180358
 21
7.478612
 31
0.0
 12
-17.527727
 22
7.478612
 32
0.0
 13
-17.527727
 23
7.478612
 33
0.0
  0
MTEXT
  5
2DB
330
2D5
100
AcDbEntity
  8
SK2
100
AcDbMText
 10
-16.786338
 20
-1.081586
 30
0.0
 40
2.0
 41
0.0
 71
     8
 72
     1
  1
10°
 11
0.3406280487799838
 21
-0.9401981346420237
 31
0.0
  0
POINT
  5
2DC
330
2D5
100
AcDbEntity
  8
SK2
 62
     0
100
AcDbPoint
 10
-17.720961
 20
7.17586
 30
0.0
  0
POINT
  5
2DD
330
2D5
100
AcDbEntity
  8
SK2
 62
     0
100
AcDbPoint
 10
0.0
 20
5.0
 30
0.0
  0
POINT
  5
2DE
330
2D5
100
AcDbEntity
  8
SK2
 62
     0
100
AcDbPoint
 10
-1.955241
 20
5.344762
 30
0.0
  0
POINT
  5
2DF
330
2D5
100
AcDbEntity
  8
SK2
 62
     0
100
AcDbPoint
 10
0.0
 20
5.0
 30
0.0
  0
POINT
  5
2E0
330
2D5
100
AcDbEntity
  8
SK2
 62
     0
100
AcDbPoint
 10
-1.985404
 20
5.0
 30
0.0
  0
ENDBLK
  5
2E1
330
2D5
100
AcDbEntity
  8
SK2
100
AcDbBlockEnd
  0
BLOCK
  5
2E3
330
2E5
100
AcDbEntity
  8
SK2
100
AcDbBlockBegin
  2
*D2
 70
     1
 10
0.0
 20
0.0
 30
0.0
  3
*D2
  1

  0
LINE
  5
2E6
330
2E5
100
AcDbEntity
  8
SK2
100
AcDbLine
 10
-34.74701
 20
-5.0
 30
0.0
 11
-47.178456
 21
-5.0
 31
0.0
  0
LINE
  5
2E7
330
2E5
100
AcDbEntity
  8
SK2
100
AcDbLine
 10
-34.74701
 20
5.0
 30
0.0
 11
-47.178456
 21
5.0
 31
0.0
  0
LINE
  5
2E8
330
2E5
100
AcDbEntity
  8
SK2
100
AcDbLine
 10
-45.178456
 20
-5.0
 30
0.0
 11
-45.178456
 21
5.19802
 31
0.0
  0
SOLID
  5
2E9
330
2E5
100
AcDbEntity
  8
SK2
100
AcDbTrace
 10
-45.178456
 20
-5.0
 30
0.0
 11
-45.504771
 21
-2.521388
 31
0.0
 12
-44.85214
 22
-2.521388
 32
0.0
 13
-44.85214
 23
-2.521388
 33
0.0
  0
SOLID
  5
2EA
330
2E5
100
AcDbEntity
  8
SK2
100
AcDbTrace
 10
-45.178456
 20
5.0
 30
0.0
 11
-44.85214
 21
2.521388
 31
0.0
 12
-45.504771
 22
2.521388
 32
0.0
 13
-45.504771
 23
2.521388
 33
0.0
  0
MTEXT
  5
2EB
330
2E5
100
AcDbEntity
  8
SK2
100
AcDbMText
 10
-45.178456
 20
0.205479
 30
0.0
 40
2.0
 41
0.0
 71
     8
 72
     1
  1
Ø10h6
 11
0.0
 21
1.0
 31
0.0
  0
POINT
  5
2EC
330
2E5
100
AcDbEntity
  8
SK2
 62
     0
100
AcDbPoint
 10
-34.74701
 20
-5.0
 30
0.0
  0
POINT
  5
2ED
330
2E5
100
AcDbEntity
  8
SK2
 62
     0
100
AcDbPoint
 10
-34.74701
 20
5.0
 30
0.0
  0
POINT
  5
2EE
330
2E5
100
AcDbEntity
  8
SK2
 62
     0
100
AcDbPoint
 10
-45.178456
 20
5.19802
 30
0.0
  0
ENDBLK
  5
2EF
330
2E5
100
AcDbEntity
  8
SK2
100
AcDbBlockEnd
  0
BLOCK
  5
2F1
330
2F3
100
AcDbEntity
  8
2
100
AcDbBlockBegin
  2
*D3
 70
     1
 10
0.0
 20
0.0
 30
0.0
  3
*D3
  1

  0
LINE
  5
2F4
330
2F3
100
AcDbEntity
  8
2
100
AcDbLine
 10
36.253461
 20
-47.342466
 30
0.0
 11
36.253461
 21
22.068493
 31
0.0
  0
LINE
  5
2F5
330
2F3
100
AcDbEntity
  8
2
100
AcDbLine
 10
36.153461
 20
4.35
 30
0.0
 11
36.153461
 21
22.068493
 31
0.0
  0
LINE
  5
2F6
330
2F3
100
AcDbEntity
  8
2
100
AcDbLine
 10
40.660066
 20
20.068493
 30
0.0
 11
27.491749
 21
20.068493
 31
0.0
  0
SOLID
  5
2F7
330
2F3
100
AcDbEntity
  8
2
100
AcDbTrace
 10
36.253461
 20
20.068493
 30
0.0
 11
38.732074
 21
20.394809
 31
0.0
 12
38.732074
 22
19.742178
 32
0.0
 13
38.732074
 23
19.742178
 33
0.0
  0
SOLID
  5
2F8
330
2F3
100
AcDbEntity
  8
2
100
AcDbTrace
 10
36.153461
 20
20.068493
 30
0.0
 11
33.674849
 21
19.742178
 31
0.0
 12
33.674849
 22
20.394809
 32
0.0
 13
33.674849
 23
20.394809
 33
0.0
  0
MTEXT
  5
2F9
330
2F3
100
AcDbEntity
  8
2
100
AcDbMText
 10
27.654146
 20
20.068493
 30
0.0
 40
2.0
 41
0.0
 71
     8
 72
     1
  1
0.1 x 45°
  0
POINT
  5
2FA
330
2F3
100
AcDbEntity
  8
2
 62
     0
100
AcDbPoint
 10
36.253461
 20
-47.342466
 30
0.0
  0
POINT
  5
2FB
330
2F3
100
AcDbEntity
  8
2
 62
     0
100
AcDbPoint
 10
36.153461
 20
4.35
 30
0.0
  0
POINT
  5
2FC
330
2F3
100
AcDbEntity
  8
2
 62
     0
100
AcDbPoint
 10
27.491749
 20
20.068493
 30
0.0
  0
ENDBLK
  5
2FD
330
2F3
100
AcDbEntity
  8
2
100
AcDbBlockEnd
  0
BLOCK
  5
2FF
330
301
100
AcDbEntity
  8
2
100
AcDbBlockBegin
  2
*D4
 70
     1
 10
0.0
 20
0.0
 30
0.0
  3
*D4
  1

  0
LINE
  5
302
330
301
100
AcDbEntity
  8
2
100
AcDbLine
 10
36.153461
 20
-4.35
 30
0.0
 11
48.253461
 21
-4.35
 31
0.0
  0
LINE
  5
303
330
301
100
AcDbEntity
  8
2
100
AcDbLine
 10
36.153461
 20
4.35
 30
0.0
 11
48.253461
 21
4.35
 31
0.0
  0
LINE
  5
304
330
301
100
AcDbEntity
  8
2
100
AcDbLine
 10
46.253461
 20
-10.973597
 30
0.0
 11
46.253461
 21
4.35
 31
0.0
  0
SOLID
  5
305
330
301
100
AcDbEntity
  8
2
100
AcDbTrace
 10
46.253461
 20
-4.35
 30
0.0
 11
45.927146
 21
-1.871388
 31
0.0
 12
46.579777
 22
-1.871388
 32
0.0
 13
46.579777
 23
-1.871388
 33
0.0
  0
SOLID
  5
306
330
301
100
AcDbEntity
  8
2
100
AcDbTrace
 10
46.253461
 20
4.35
 30
0.0
 11
46.579777
 21
1.871388
 31
0.0
 12
45.927146
 22
1.871388
 32
0.0
 13
45.927146
 23
1.871388
 33
0.0
  0
MTEXT
  5
307
330
301
100
AcDbEntity
  8
2
100
AcDbMText
 10
46.253461
 20
0.0
 30
0.0
 40
2.0
 41
0.0
 71
     8
 72
     1
  1
Ø8.7 e8
 11
0.0
 21
1.0
 31
0.0
  0
POINT
  5
308
330
301
100
AcDbEntity
  8
2
 62
     0
100
AcDbPoint
 10
36.153461
 20
-4.35
 30
0.0
  0
POINT
  5
309
330
301
100
AcDbEntity
  8
2
 62
     0
100
AcDbPoint
 10
36.153461
 20
4.35
 30
0.0
  0
POINT
  5
30A
330
301
100
AcDbEntity
  8
2
 62
     0
100
AcDbPoint
 10
46.253461
 20
4.35
 30
0.0
  0
ENDBLK
  5
30B
330
301
100
AcDbEntity
  8
2
100
AcDbBlockEnd
  0
BLOCK
  5
30D
330
30F
100
AcDbEntity
  8
2
100
AcDbBlockBegin
  2
*D5
 70
     1
 10
0.0
 20
0.0
 30
0.0
  3
*D5
  1

  0
LINE
  5
310
330
30F
100
AcDbEntity
  8
2
100
AcDbLine
 10
17.253461
 20
-4.25
 30
0.0
 11
0.657571
 21
-4.25
 31
0.0
  0
LINE
  5
311
330
30F
100
AcDbEntity
  8
2
100
AcDbLine
 10
17.253461
 20
4.25
 30
0.0
 11
0.657571
 21
4.25
 31
0.0
  0
LINE
  5
312
330
30F
100
AcDbEntity
  8
2
100
AcDbLine
 10
2.657571
 20
-4.25
 30
0.0
 11
2.657571
 21
22.293729
 31
0.0
  0
SOLID
  5
313
330
30F
100
AcDbEntity
  8
2
100
AcDbTrace
 10
2.657571
 20
-4.25
 30
0.0
 11
2.331255
 21
-1.771388
 31
0.0
 12
2.983886
 22
-1.771388
 32
0.0
 13
2.983886
 23
-1.771388
 33
0.0
  0
SOLID
  5
314
330
30F
100
AcDbEntity
  8
2
100
AcDbTrace
 10
2.657571
 20
4.25
 30
0.0
 11
2.983886
 21
1.771388
 31
0.0
 12
2.331255
 22
1.771388
 32
0.0
 13
2.331255
 23
1.771388
 33
0.0
  0
MTEXT
  5
315
330
30F
100
AcDbEntity
  8
2
100
AcDbMText
 10
2.657571
 20
15.00274
 30
0.0
 40
2.0
 41
0.0
 71
     8
 72
     1
  1
Ø8.5
 11
0.0
 21
1.0
 31
0.0
  0
POINT
  5
316
330
30F
100
AcDbEntity
  8
2
 62
     0
100
AcDbPoint
 10
17.253461
 20
-4.25
 30
0.0
  0
POINT
  5
317
330
30F
100
AcDbEntity
  8
2
 62
     0
100
AcDbPoint
 10
17.253461
 20
4.25
 30
0.0
  0
POINT
  5
318
330
30F
100
AcDbEntity
  8
2
 62
     0
100
AcDbPoint
 10
2.657571
 20
22.293729
 30
0.0
  0
ENDBLK
  5
319
330
30F
100
AcDbEntity
  8
2
100
AcDbBlockEnd
  0
BLOCK
  5
31B
330
31D
100
AcDbEntity
  8
2
100
AcDbBlockBegin
  2
*D6
 70
     1
 10
0.0
 20
0.0
 30
0.0
  3
*D6
  1

  0
LINE
  5
31E
330
31D
100
AcDbEntity
  8
2
100
AcDbLine
 10
36.253461
 20
-47.342466
 30
0.0
 11
36.253461
 21
22.068493
 31
0.0
  0
LINE
  5
31F
330
31D
100
AcDbEntity
  8
2
100
AcDbLine
 10
4.253461
 20
-36.041096
 30
0.0
 11
4.253461
 21
4.25
 31
0.0
  0
LINE
  5
320
330
31D
100
AcDbEntity
  8
2
100
AcDbLine
 10
36.253461
 20
-34.041096
 30
0.0
 11
4.253461
 21
-34.041096
 31
0.0
  0
SOLID
  5
321
330
31D
100
AcDbEntity
  8
2
100
AcDbTrace
 10
36.253461
 20
-34.041096
 30
0.0
 11
38.732074
 21
-33.71478
 31
0.0
 12
38.732074
 22
-34.367411
 32
0.0
 13
38.732074
 23
-34.367411
 33
0.0
  0
SOLID
  5
322
330
31D
100
AcDbEntity
  8
2
100
AcDbTrace
 10
4.253461
 20
-34.041096
 30
0.0
 11
1.774849
 21
-34.367411
 31
0.0
 12
1.774849
 22
-33.71478
 32
0.0
 13
1.774849
 23
-33.71478
 33
0.0
  0
MTEXT
  5
323
330
31D
100
AcDbEntity
  8
2
100
AcDbMText
 10
18.510311
 20
-34.041096
 30
0.0
 40
2.0
 41
0.0
 71
     8
 72
     1
  1
32
  0
POINT
  5
324
330
31D
100
AcDbEntity
  8
2
 62
     0
100
AcDbPoint
 10
36.253461
 20
22.068493
 30
0.0
  0
POINT
  5
325
330
31D
100
AcDbEntity
  8
2
 62
     0
100
AcDbPoint
 10
4.253461
 20
4.25
 30
0.0
  0
POINT
  5
326
330
31D
100
AcDbEntity
  8
2
 62
     0
100
AcDbPoint
 10
4.253461
 20
-34.041096
 30
0.0
  0
ENDBLK
  5
327
330
31D
100
AcDbEntity
  8
2
100
AcDbBlockEnd
  0
BLOCK
  5
329
330
32B
100
AcDbEntity
  8
2
100
AcDbBlockBegin
  2
*D7
 70
     1
 10
0.0
 20
0.0
 30
0.0
  3
*D7
  1

  0
LINE
  5
32C
330
32B
100
AcDbEntity
  8
2
100
AcDbLine
 10
4.254127
 20
4.257611
 30
0.0
 11
-4.376267
 21
23.519218
 31
0.0
  0
MTEXT
  5
32D
330
32B
100
AcDbEntity
  8
2
100
AcDbMText
 10
-3.429598
 20
21.40641
 30
0.0
 40
2.0
 41
0.0
 71
     8
 72
     1
  1
R2
 11
0.4088931242681594
 21
-0.9125822773461161
 31
0.0
  0
SOLID
  5
32E
330
32B
100
AcDbEntity
  8
2
100
AcDbTrace
 10
4.254127
 20
4.257611
 30
0.0
 11
2.942849
 21
6.38612
 31
0.0
 12
3.538429
 22
6.652976
 32
0.0
 13
3.538429
 23
6.652976
 33
0.0
  0
POINT
  5
32F
330
32B
100
AcDbEntity
  8
2
 62
     0
100
AcDbPoint
 10
4.254127
 20
4.257611
 30
0.0
  0
POINT
  5
330
330
32B
100
AcDbEntity
  8
2
 62
     0
100
AcDbPoint
 10
4.428439
 20
6.25
 30
0.0
  0
ENDBLK
  5
331
330
32B
100
AcDbEntity
  8
2
100
AcDbBlockEnd
  0
BLOCK
  5
333
330
335
100
AcDbEntity
  8
2
100
AcDbBlockBegin
  2
*D8
 70
     1
 10
0.0
 20
0.0
 30
0.0
  3
*D8
  1

  0
LINE
  5
336
330
335
100
AcDbEntity
  8
2
100
AcDbLine
 10
17.253461
 20
-4.25
 30
0.0
 11
17.253461
 21
-22.0
 31
0.0
  0
LINE
  5
337
330
335
100
AcDbEntity
  8
2
100
AcDbLine
 10
36.253461
 20
-47.342466
 30
0.0
 11
36.253461
 21
22.068493
 31
0.0
  0
LINE
  5
338
330
335
100
AcDbEntity
  8
2
100
AcDbLine
 10
17.253461
 20
-20.0
 30
0.0
 11
36.253461
 21
-20.0
 31
0.0
  0
SOLID
  5
339
330
335
100
AcDbEntity
  8
2
100
AcDbTrace
 10
17.253461
 20
-20.0
 30
0.0
 11
19.732074
 21
-19.673685
 31
0.0
 12
19.732074
 22
-20.326315
 32
0.0
 13
19.732074
 23
-20.326315
 33
0.0
  0
SOLID
  5
33A
330
335
100
AcDbEntity
  8
2
100
AcDbTrace
 10
36.253461
 20
-20.0
 30
0.0
 11
33.774849
 21
-20.326315
 31
0.0
 12
33.774849
 22
-19.673685
 32
0.0
 13
33.774849
 23
-19.673685
 33
0.0
  0
MTEXT
  5
33B
330
335
100
AcDbEntity
  8
2
100
AcDbMText
 10
27.042296
 20
-20.0
 30
0.0
 40
2.0
 41
0.0
 71
     8
 72
     1
  1
19
  0
POINT
  5
33C
330
335
100
AcDbEntity
  8
2
 62
     0
100
AcDbPoint
 10
17.253461
 20
-4.25
 30
0.0
  0
POINT
  5
33D
330
335
100
AcDbEntity
  8
2
 62
     0
100
AcDbPoint
 10
36.253461
 20
22.068493
 30
0.0
  0
POINT
  5
33E
330
335
100
AcDbEntity
  8
2
 62
     0
100
AcDbPoint
 10
36.253461
 20
-20.0
 30
0.0
  0
ENDBLK
  5
33F
330
335
100
AcDbEntity
  8
2
100
AcDbBlockEnd
  0
ENDSEC
  0
SECTION
  2
ENTITIES
  0
DIMENSION
  5
2D2
330
30
100
AcDbEntity
  8
SK2
100
AcDbDimension
  2
*D0
 10
36.253461
 20
-45.342466
 30
0.0
 11
-2.346736
 21
-45.342466
 31
0.0
 70
   160
  1
<> +2
  3
STANDARD
100
AcDbAlignedDimension
 13
-35.74701
 23
4.0
 33
0.0
 14
36.253461
 24
22.068493
 34
0.0
100
AcDbRotatedDimension
  0
DIMENSION
  5
2E2
330
30
100
AcDbEntity
  8
SK2
100
AcDbDimension
  2
*D1
 10
-1.985404
 20
5.0
 30
0.0
 11
-16.786338
 21
-1.081586
 31
0.0
 70
   162
  1
10°
 53
289.915136
  3
STANDARD
100
AcDb2LineAngularDimension
 13
-1.955241
 23
5.344762
 33
0.0
 14
0.0
 24
5.0
 34
0.0
 15
0.0
 25
5.0
 35
0.0
 16
-17.720961
 26
7.17586
 36
0.0
  0
DIMENSION
  5
2F0
330
30
100
AcDbEntity
  8
SK2
100
AcDbDimension
  2
*D2
 10
-45.178456
 20
5.19802
 30
0.0
 11
-45.178456
 21
0.205479
 31
0.0
 70
   160
  1
%%c<>h6
  3
STANDARD
100
AcDbAlignedDimension
 13
-34.74701
 23
-5.0
 33
0.0
 14
-34.74701
 24
5.0
 34
0.0
 50
-90.0
100
AcDbRotatedDimension
  0
DIMENSION
  5
2FE
330
30
100
AcDbEntity
  8
2
100
AcDbDimension
  2
*D3
 10
27.491749
 20
20.068493
 30
0.0
 11
27.654146
 21
20.068493
 31
0.0
 70
   160
  1
<>°
  3
STANDARD
100
AcDbAlignedDimension
 13
36.253461
 23
-47.342466
 33
0.0
 14
36.153461
 24
4.35
 34
0.0
100
AcDbRotatedDimension
  0
DIMENSION
  5
30C
330
30
100
AcDbEntity
  8
2
100
AcDbDimension
  2
*D4
 10
46.253461
 20
4.35
 30
0.0
 11
46.253461
 21
0.0
 31
0.0
 70
   160
  1
%%c<> e8
  3
STANDARD
100
AcDbAlignedDimension
 13
36.153461
 23
-4.35
 33
0.0
 14
36.153461
 24
4.35
 34
0.0
 50
-90.0
100
AcDbRotatedDimension
  0
DIMENSION
  5
31A
330
30
100
AcDbEntity
  8
2
100
AcDbDimension
  2
*D5
 10
2.657571
 20
22.293729
 30
0.0
 11
2.657571
 21
15.00274
 31
0.0
 70
   160
  1
%%c<>
  3
STANDARD
100
AcDbAlignedDimension
 13
17.253461
 23
-4.25
 33
0.0
 14
17.253461
 24
4.25
 34
0.0
 50
-90.0
100
AcDbRotatedDimension
  0
DIMENSION
  5
328
330
30
100
AcDbEntity
  8
2
100
AcDbDimension
  2
*D6
 10
4.253461
 20
-34.041096
 30
0.0
 11
18.510311
 21
-34.041096
 31
0.0
 70
   160
  1
<>
  3
STANDARD
100
AcDbAlignedDimension
 13
36.253461
 23
22.068493
 33
0.0
 14
4.253461
 24
4.25
 34
0.0
100
AcDbRotatedDimension
  0
DIMENSION
  5
332
330
30
100
AcDbEntity
  8
2
100
AcDbDimension
  2
*D7
 10
4.428439
 20
6.25
 30
0.0
 11
-3.429598
 21
21.40641
 31
0.0
 70
   164
  1
R2
  3
STANDARD
100
AcDbRadialDimension
 15
4.254127
 25
4.257611
 35
0.0
 40
0.0
  0
DIMENSION
  5
340
330
30
100
AcDbEntity
  8
2
100
AcDbDimension
  2
*D8
 10
36.253461
 20
-20.0
 30
0.0
 11
27.042296
 21
-20.0
 31
0.0
 70
   160
  1
<>
  3
STANDARD
100
AcDbAlignedDimension
 13
17.253461
 23
-4.25
 33
0.0
 14
36.253461
 24
22.068493
 34
0.0
100
AcDbRotatedDimension
  0
ARC
  5
36
330
30
100
AcDbEntity
  8
1
100
AcDbCircle
 10
4.428439
 20
-6.25
 30
0.0
 40
2.0
100
AcDbArc
 50
90.0
 51
100.0
  0
LINE
  5
37
330
30
100
AcDbEntity
  8
1
100
AcDbLine
 10
4.428439
 20
-4.25
 30
0.0
 11
17.253461
 21
-4.25
 31
0.0
  0
LINE
  5
38
330
30
100
AcDbEntity
  8
1
100
AcDbLine
 10
17.253461
 20
-4.25
 30
0.0
 11
17.253461
 21
-4.35
 31
0.0
  0
LINE
  5
39
330
30
100
AcDbEntity
  8
1
100
AcDbLine
 10
17.253461
 20
-4.35
 30
0.0
 11
36.153461
 21
-4.35
 31
0.0
  0
LINE
  5
3A
330
30
100
AcDbEntity
  8
1
100
AcDbLine
 10
36.153461
 20
-4.35
 30
0.0
 11
36.253461
 21
-4.25
 31
0.0
  0
LINE
  5
3B
330
30
100
AcDbEntity
  8
1
100
AcDbLine
 10
36.253461
 20
-4.25
 30
0.0
 11
36.253461
 21
0.0
 31
0.0
  0
LINE
  5
3C
330
30
100
AcDbEntity
  8
1
100
AcDbLine
 10
36.253461
 20
0.0
 30
0.0
 11
36.253461
 21
4.25
 31
0.0
  0
LINE
  5
3D
330
30
100
AcDbEntity
  8
1
100
AcDbLine
 10
36.253461
 20
4.25
 30
0.0
 11
36.153461
 21
4.35
 31
0.0
  0
LINE
  5
3E
330
30
100
AcDbEntity
  8
1
100
AcDbLine
 10
36.153461
 20
4.35
 30
0.0
 11
17.253461
 21
4.35
 31
0.0
  0
LINE
  5
3F
330
30
100
AcDbEntity
  8
1
100
AcDbLine
 10
17.253461
 20
4.35
 30
0.0
 11
17.253461
 21
4.25
 31
0.0
  0
LINE
  5
40
330
30
100
AcDbEntity
  8
1
100
AcDbLine
 10
17.253461
 20
4.25
 30
0.0
 11
4.428439
 21
4.25
 31
0.0
  0
ARC
  5
41
330
30
100
AcDbEntity
  8
1
100
AcDbCircle
 10
4.428439
 20
6.25
 30
0.0
 40
2.0
100
AcDbArc
 50
260.0
 51
270.0
  0
LINE
  5
42
330
30
100
AcDbEntity
  8
1
100
AcDbLine
 10
4.081142
 20
4.280384
 30
0.0
 11
0.0
 21
5.0
 31
0.0
  0
LINE
  5
43
330
30
100
AcDbEntity
  8
1
100
AcDbLine
 10
0.0
 20
5.0
 30
0.0
 11
0.0
 21
-5.0
 31
0.0
  0
LINE
  5
44
330
30
100
AcDbEntity
  8
1
100
AcDbLine
 10
0.0
 20
-5.0
 30
0.0
 11
4.081142
 21
-4.280384
 31
0.0
  0
LINE
  5
45
330
30
100
AcDbEntity
  8
1
100
AcDbLine
 10
36.253461
 20
4.25
 30
0.0
 11
36.253461
 21
-4.25
 31
0.0
  0
LINE
  5
46
330
30
100
AcDbEntity
  8
1
100
AcDbLine
 10
36.253461
 20
-4.248688
 30
0.0
 11
36.153461
 21
-4.347692
 31
0.0
  0
LINE
  5
47
330
30
100
AcDbEntity
  8
1
100
AcDbLine
 10
36.153461
 20
-4.347692
 30
0.0
 11
36.053461
 21
-4.345766
 31
0.0
  0
LINE
  5
48
330
30
100
AcDbEntity
  8
1
100
AcDbLine
 10
36.053461
 20
-4.345766
 30
0.0
 11
35.953461
 21
-4.34326
 31
0.0
  0
LINE
  5
49
330
30
100
AcDbEntity
  8
1
100
AcDbLine
 10
35.953461
 20
-4.34326
 30
0.0
 11
35.853461
 21
-4.340176
 31
0.0
  0
LINE
  5
4A
330
30
100
AcDbEntity
  8
1
100
AcDbLine
 10
35.853461
 20
-4.340176
 30
0.0
 11
35.753461
 21
-4.336512
 31
0.0
  0
LINE
  5
4B
330
30
100
AcDbEntity
  8
1
100
AcDbLine
 10
35.753461
 20
-4.336512
 30
0.0
 11
35.653461
 21
-4.332271
 31
0.0
  0
LINE
  5
4C
330
30
100
AcDbEntity
  8
1
100
AcDbLine
 10
35.653461
 20
-4.332271
 30
0.0
 11
35.553461
 21
-4.327452
 31
0.0
  0
LINE
  5
4D
330
30
100
AcDbEntity
  8
1
100
AcDbLine
 10
35.553461
 20
-4.327452
 30
0.0
 11
35.453461
 21
-4.322056
 31
0.0
  0
LINE
  5
4E
330
30
100
AcDbEntity
  8
1
100
AcDbLine
 10
35.453461
 20
-4.322056
 30
0.0
 11
35.353461
 21
-4.316084
 31
0.0
  0
LINE
  5
4F
330
30
100
AcDbEntity
  8
1
100
AcDbLine
 10
35.353461
 20
-4.316084
 30
0.0
 11
35.253461
 21
-4.309536
 31
0.0
  0
LINE
  5
50
330
30
100
AcDbEntity
  8
1
100
AcDbLine
 10
35.253461
 20
-4.309536
 30
0.0
 11
35.153461
 21
-4.302414
 31
0.0
  0
LINE
  5
51
330
30
100
AcDbEntity
  8
1
100
AcDbLine
 10
35.153461
 20
-4.302414
 30
0.0
 11
35.053461
 21
-4.294718
 31
0.0
  0
LINE
  5
52
330
30
100
AcDbEntity
  8
1
100
AcDbLine
 10
35.053461
 20
-4.294718
 30
0.0
 11
34.953461
 21
-4.286449
 31
0.0
  0
LINE
  5
53
330
30
100
AcDbEntity
  8
1
100
AcDbLine
 10
34.953461
 20
-4.286449
 30
0.0
 11
34.853461
 21
-4.277609
 31
0.0
  0
LINE
  5
54
330
30
100
AcDbEntity
  8
1
100
AcDbLine
 10
34.853461
 20
-4.277609
 30
0.0
 11
34.753461
 21
-4.268198
 31
0.0
  0
LINE
  5
55
330
30
100
AcDbEntity
  8
1
100
AcDbLine
 10
34.753461
 20
-4.268198
 30
0.0
 11
34.653461
 21
-4.258219
 31
0.0
  0
LINE
  5
56
330
30
100
AcDbEntity
  8
1
100
AcDbLine
 10
34.653461
 20
-4.258219
 30
0.0
 11
34.553461
 21
-4.247671
 31
0.0
  0
LINE
  5
57
330
30
100
AcDbEntity
  8
1
100
AcDbLine
 10
34.553461
 20
-4.247671
 30
0.0
 11
34.453461
 21
-4.236558
 31
0.0
  0
LINE
  5
58
330
30
100
AcDbEntity
  8
1
100
AcDbLine
 10
34.453461
 20
-4.236558
 30
0.0
 11
34.353461
 21
-4.224879
 31
0.0
  0
LINE
  5
59
330
30
100
AcDbEntity
  8
1
100
AcDbLine
 10
34.353461
 20
-4.224879
 30
0.0
 11
34.253461
 21
-4.212637
 31
0.0
  0
LINE
  5
5A
330
30
100
AcDbEntity
  8
1
100
AcDbLine
 10
34.253461
 20
-4.212637
 30
0.0
 11
34.153461
 21
-4.199834
 31
0.0
  0
LINE
  5
5B
330
30
100
AcDbEntity
  8
1
100
AcDbLine
 10
34.153461
 20
-4.199834
 30
0.0
 11
34.053461
 21
-4.18647
 31
0.0
  0
LINE
  5
5C
330
30
100
AcDbEntity
  8
1
100
AcDbLine
 10
34.053461
 20
-4.18647
 30
0.0
 11
33.953461
 21
-4.172549
 31
0.0
  0
LINE
  5
5D
330
30
100
AcDbEntity
  8
1
100
AcDbLine
 10
33.953461
 20
-4.172549
 30
0.0
 11
33.853461
 21
-4.158071
 31
0.0
  0
LINE
  5
5E
330
30
100
AcDbEntity
  8
1
100
AcDbLine
 10
33.853461
 20
-4.158071
 30
0.0
 11
33.753461
 21
-4.143038
 31
0.0
  0
LINE
  5
5F
330
30
100
AcDbEntity
  8
1
100
AcDbLine
 10
33.753461
 20
-4.143038
 30
0.0
 11
33.653461
 21
-4.127453
 31
0.0
  0
LINE
  5
60
330
30
100
AcDbEntity
  8
1
100
AcDbLine
 10
33.653461
 20
-4.127453
 30
0.0
 11
33.553461
 21
-4.111318
 31
0.0
  0
LINE
  5
61
330
30
100
AcDbEntity
  8
1
100
AcDbLine
 10
33.553461
 20
-4.111318
 30
0.0
 11
33.453461
 21
-4.094635
 31
0.0
  0
LINE
  5
62
330
30
100
AcDbEntity
  8
1
100
AcDbLine
 10
33.453461
 20
-4.094635
 30
0.0
 11
33.353461
 21
-4.077406
 31
0.0
  0
LINE
  5
63
330
30
100
AcDbEntity
  8
1
100
AcDbLine
 10
33.353461
 20
-4.077406
 30
0.0
 11
33.253461
 21
-4.059633
 31
0.0
  0
LINE
  5
64
330
30
100
AcDbEntity
  8
1
100
AcDbLine
 10
33.253461
 20
-4.059633
 30
0.0
 11
33.153461
 21
-4.041318
 31
0.0
  0
LINE
  5
65
330
30
100
AcDbEntity
  8
1
100
AcDbLine
 10
33.153461
 20
-4.041318
 30
0.0
 11
33.053461
 21
-4.022465
 31
0.0
  0
LINE
  5
66
330
30
100
AcDbEntity
  8
1
100
AcDbLine
 10
33.053461
 20
-4.022465
 30
0.0
 11
32.953461
 21
-4.003076
 31
0.0
  0
LINE
  5
67
330
30
100
AcDbEntity
  8
1
100
AcDbLine
 10
32.953461
 20
-4.003076
 30
0.0
 11
32.853461
 21
-3.983153
 31
0.0
  0
LINE
  5
68
330
30
100
AcDbEntity
  8
1
100
AcDbLine
 10
32.853461
 20
-3.983153
 30
0.0
 11
32.753461
 21
-3.962699
 31
0.0
  0
LINE
  5
69
330
30
100
AcDbEntity
  8
1
100
AcDbLine
 10
32.753461
 20
-3.962699
 30
0.0
 11
32.653461
 21
-3.941716
 31
0.0
  0
LINE
  5
6A
330
30
100
AcDbEntity
  8
1
100
AcDbLine
 10
32.653461
 20
-3.941716
 30
0.0
 11
32.553461
 21
-3.920208
 31
0.0
  0
LINE
  5
6B
330
30
100
AcDbEntity
  8
1
100
AcDbLine
 10
32.553461
 20
-3.920208
 30
0.0
 11
32.453461
 21
-3.898177
 31
0.0
  0
LINE
  5
6C
330
30
100
AcDbEntity
  8
1
100
AcDbLine
 10
32.453461
 20
-3.898177
 30
0.0
 11
32.353461
 21
-3.875627
 31
0.0
  0
LINE
  5
6D
330
30
100
AcDbEntity
  8
1
100
AcDbLine
 10
32.353461
 20
-3.875627
 30
0.0
 11
32.253461
 21
-3.85256
 31
0.0
  0
LINE
  5
6E
330
30
100
AcDbEntity
  8
1
100
AcDbLine
 10
32.253461
 20
-3.85256
 30
0.0
 11
32.153461
 21
-3.828979
 31
0.0
  0
LINE
  5
6F
330
30
100
AcDbEntity
  8
1
100
AcDbLine
 10
32.153461
 20
-3.828979
 30
0.0
 11
32.053461
 21
-3.804887
 31
0.0
  0
LINE
  5
70
330
30
100
AcDbEntity
  8
1
100
AcDbLine
 10
32.053461
 20
-3.804887
 30
0.0
 11
31.953461
 21
-3.780289
 31
0.0
  0
LINE
  5
71
330
30
100
AcDbEntity
  8
1
100
AcDbLine
 10
31.953461
 20
-3.780289
 30
0.0
 11
31.853461
 21
-3.755186
 31
0.0
  0
LINE
  5
72
330
30
100
AcDbEntity
  8
1
100
AcDbLine
 10
31.853461
 20
-3.755186
 30
0.0
 11
31.753461
 21
-3.729582
 31
0.0
  0
LINE
  5
73
330
30
100
AcDbEntity
  8
1
100
AcDbLine
 10
31.753461
 20
-3.729582
 30
0.0
 11
31.653461
 21
-3.703481
 31
0.0
  0
LINE
  5
74
330
30
100
AcDbEntity
  8
1
100
AcDbLine
 10
31.653461
 20
-3.703481
 30
0.0
 11
31.553461
 21
-3.676887
 31
0.0
  0
LINE
  5
75
330
30
100
AcDbEntity
  8
1
100
AcDbLine
 10
31.553461
 20
-3.676887
 30
0.0
 11
31.453461
 21
-3.649802
 31
0.0
  0
LINE
  5
76
330
30
100
AcDbEntity
  8
1
100
AcDbLine
 10
31.453461
 20
-3.649802
 30
0.0
 11
31.353461
 21
-3.622231
 31
0.0
  0
LINE
  5
77
330
30
100
AcDbEntity
  8
1
100
AcDbLine
 10
31.353461
 20
-3.622231
 30
0.0
 11
31.253461
 21
-3.594176
 31
0.0
  0
LINE
  5
78
330
30
100
AcDbEntity
  8
1
100
AcDbLine
 10
31.253461
 20
-3.594176
 30
0.0
 11
31.153461
 21
-3.565643
 31
0.0
  0
LINE
  5
79
330
30
100
AcDbEntity
  8
1
100
AcDbLine
 10
31.153461
 20
-3.565643
 30
0.0
 11
31.053461
 21
-3.536634
 31
0.0
  0
LINE
  5
7A
330
30
100
AcDbEntity
  8
1
100
AcDbLine
 10
31.053461
 20
-3.536634
 30
0.0
 11
30.953461
 21
-3.507153
 31
0.0
  0
LINE
  5
7B
330
30
100
AcDbEntity
  8
1
100
AcDbLine
 10
30.953461
 20
-3.507153
 30
0.0
 11
30.853461
 21
-3.477205
 31
0.0
  0
LINE
  5
7C
330
30
100
AcDbEntity
  8
1
100
AcDbLine
 10
30.853461
 20
-3.477205
 30
0.0
 11
30.753461
 21
-3.446793
 31
0.0
  0
LINE
  5
7D
330
30
100
AcDbEntity
  8
1
100
AcDbLine
 10
30.753461
 20
-3.446793
 30
0.0
 11
30.653461
 21
-3.415922
 31
0.0
  0
LINE
  5
7E
330
30
100
AcDbEntity
  8
1
100
AcDbLine
 10
30.653461
 20
-3.415922
 30
0.0
 11
30.553461
 21
-3.384595
 31
0.0
  0
LINE
  5
7F
330
30
100
AcDbEntity
  8
1
100
AcDbLine
 10
30.553461
 20
-3.384595
 30
0.0
 11
30.453461
 21
-3.352817
 31
0.0
  0
LINE
  5
80
330
30
100
AcDbEntity
  8
1
100
AcDbLine
 10
30.453461
 20
-3.352817
 30
0.0
 11
30.353461
 21
-3.320592
 31
0.0
  0
LINE
  5
81
330
30
100
AcDbEntity
  8
1
100
AcDbLine
 10
30.353461
 20
-3.320592
 30
0.0
 11
30.253461
 21
-3.287924
 31
0.0
  0
LINE
  5
82
330
30
100
AcDbEntity
  8
1
100
AcDbLine
 10
30.253461
 20
-3.287924
 30
0.0
 11
30.153461
 21
-3.254817
 31
0.0
  0
LINE
  5
83
330
30
100
AcDbEntity
  8
1
100
AcDbLine
 10
30.153461
 20
-3.254817
 30
0.0
 11
30.053461
 21
-3.221277
 31
0.0
  0
LINE
  5
84
330
30
100
AcDbEntity
  8
1
100
AcDbLine
 10
30.053461
 20
-3.221277
 30
0.0
 11
29.953461
 21
-3.187307
 31
0.0
  0
LINE
  5
85
330
30
100
AcDbEntity
  8
1
100
AcDbLine
 10
29.953461
 20
-3.187307
 30
0.0
 11
29.853461
 21
-3.152913
 31
0.0
  0
LINE
  5
86
330
30
100
AcDbEntity
  8
1
100
AcDbLine
 10
29.853461
 20
-3.152913
 30
0.0
 11
29.753461
 21
-3.118098
 31
0.0
  0
LINE
  5
87
330
30
100
AcDbEntity
  8
1
100
AcDbLine
 10
29.753461
 20
-3.118098
 30
0.0
 11
29.653461
 21
-3.082867
 31
0.0
  0
LINE
  5
88
330
30
100
AcDbEntity
  8
1
100
AcDbLine
 10
29.653461
 20
-3.082867
 30
0.0
 11
29.553461
 21
-3.047225
 31
0.0
  0
LINE
  5
89
330
30
100
AcDbEntity
  8
1
100
AcDbLine
 10
29.553461
 20
-3.047225
 30
0.0
 11
29.453461
 21
-3.011177
 31
0.0
  0
LINE
  5
8A
330
30
100
AcDbEntity
  8
1
100
AcDbLine
 10
29.453461
 20
-3.011177
 30
0.0
 11
29.353461
 21
-2.974727
 31
0.0
  0
LINE
  5
8B
330
30
100
AcDbEntity
  8
1
100
AcDbLine
 10
29.353461
 20
-2.974727
 30
0.0
 11
29.253461
 21
-2.937881
 31
0.0
  0
LINE
  5
8C
330
30
100
AcDbEntity
  8
1
100
AcDbLine
 10
29.253461
 20
-2.937881
 30
0.0
 11
29.153461
 21
-2.900643
 31
0.0
  0
LINE
  5
8D
330
30
100
AcDbEntity
  8
1
100
AcDbLine
 10
29.153461
 20
-2.900643
 30
0.0
 11
29.053461
 21
-2.863018
 31
0.0
  0
LINE
  5
8E
330
30
100
AcDbEntity
  8
1
100
AcDbLine
 10
29.053461
 20
-2.863018
 30
0.0
 11
28.953461
 21
-2.825012
 31
0.0
  0
LINE
  5
8F
330
30
100
AcDbEntity
  8
1
100
AcDbLine
 10
28.953461
 20
-2.825012
 30
0.0
 11
28.853461
 21
-2.786629
 31
0.0
  0
LINE
  5
90
330
30
100
AcDbEntity
  8
1
100
AcDbLine
 10
28.853461
 20
-2.786629
 30
0.0
 11
28.753461
 21
-2.747874
 31
0.0
  0
LINE
  5
91
330
30
100
AcDbEntity
  8
1
100
AcDbLine
 10
28.753461
 20
-2.747874
 30
0.0
 11
28.653461
 21
-2.708753
 31
0.0
  0
LINE
  5
92
330
30
100
AcDbEntity
  8
1
100
AcDbLine
 10
28.653461
 20
-2.708753
 30
0.0
 11
28.553461
 21
-2.669271
 31
0.0
  0
LINE
  5
93
330
30
100
AcDbEntity
  8
1
100
AcDbLine
 10
28.553461
 20
-2.669271
 30
0.0
 11
28.453461
 21
-2.629432
 31
0.0
  0
LINE
  5
94
330
30
100
AcDbEntity
  8
1
100
AcDbLine
 10
28.453461
 20
-2.629432
 30
0.0
 11
28.353461
 21
-2.589244
 31
0.0
  0
LINE
  5
95
330
30
100
AcDbEntity
  8
1
100
AcDbLine
 10
28.353461
 20
-2.589244
 30
0.0
 11
28.253461
 21
-2.54871
 31
0.0
  0
LINE
  5
96
330
30
100
AcDbEntity
  8
1
100
AcDbLine
 10
28.253461
 20
-2.54871
 30
0.0
 11
28.153461
 21
-2.507836
 31
0.0
  0
LINE
  5
97
330
30
100
AcDbEntity
  8
1
100
AcDbLine
 10
28.153461
 20
-2.507836
 30
0.0
 11
28.053461
 21
-2.466628
 31
0.0
  0
LINE
  5
98
330
30
100
AcDbEntity
  8
1
100
AcDbLine
 10
28.053461
 20
-2.466628
 30
0.0
 11
27.953461
 21
-2.425091
 31
0.0
  0
LINE
  5
99
330
30
100
AcDbEntity
  8
1
100
AcDbLine
 10
27.953461
 20
-2.425091
 30
0.0
 11
27.853461
 21
-2.383231
 31
0.0
  0
LINE
  5
9A
330
30
100
AcDbEntity
  8
1
100
AcDbLine
 10
27.853461
 20
-2.383231
 30
0.0
 11
27.753461
 21
-2.341052
 31
0.0
  0
LINE
  5
9B
330
30
100
AcDbEntity
  8
1
100
AcDbLine
 10
27.753461
 20
-2.341052
 30
0.0
 11
27.653461
 21
-2.298562
 31
0.0
  0
LINE
  5
9C
330
30
100
AcDbEntity
  8
1
100
AcDbLine
 10
27.653461
 20
-2.298562
 30
0.0
 11
27.553461
 21
-2.255765
 31
0.0
  0
LINE
  5
9D
330
30
100
AcDbEntity
  8
1
100
AcDbLine
 10
27.553461
 20
-2.255765
 30
0.0
 11
27.453461
 21
-2.212668
 31
0.0
  0
LINE
  5
9E
330
30
100
AcDbEntity
  8
1
100
AcDbLine
 10
27.453461
 20
-2.212668
 30
0.0
 11
27.353461
 21
-2.169275
 31
0.0
  0
LINE
  5
9F
330
30
100
AcDbEntity
  8
1
100
AcDbLine
 10
27.353461
 20
-2.169275
 30
0.0
 11
27.253461
 21
-2.125594
 31
0.0
  0
LINE
  5
A0
330
30
100
AcDbEntity
  8
1
100
AcDbLine
 10
27.253461
 20
-2.125594
 30
0.0
 11
27.153461
 21
-2.081629
 31
0.0
  0
LINE
  5
A1
330
30
100
AcDbEntity
  8
1
100
AcDbLine
 10
27.153461
 20
-2.081629
 30
0.0
 11
27.053461
 21
-2.037386
 31
0.0
  0
LINE
  5
A2
330
30
100
AcDbEntity
  8
1
100
AcDbLine
 10
27.053461
 20
-2.037386
 30
0.0
 11
26.953461
 21
-1.992871
 31
0.0
  0
LINE
  5
A3
330
30
100
AcDbEntity
  8
1
100
AcDbLine
 10
26.953461
 20
-1.992871
 30
0.0
 11
26.853461
 21
-1.948091
 31
0.0
  0
LINE
  5
A4
330
30
100
AcDbEntity
  8
1
100
AcDbLine
 10
26.853461
 20
-1.948091
 30
0.0
 11
26.753461
 21
-1.903052
 31
0.0
  0
LINE
  5
A5
330
30
100
AcDbEntity
  8
1
100
AcDbLine
 10
26.753461
 20
-1.903052
 30
0.0
 11
26.653461
 21
-1.857758
 31
0.0
  0
LINE
  5
A6
330
30
100
AcDbEntity
  8
1
100
AcDbLine
 10
26.653461
 20
-1.857758
 30
0.0
 11
26.553461
 21
-1.812217
 31
0.0
  0
LINE
  5
A7
330
30
100
AcDbEntity
  8
1
100
AcDbLine
 10
26.553461
 20
-1.812217
 30
0.0
 11
26.453461
 21
-1.766434
 31
0.0
  0
LINE
  5
A8
330
30
100
AcDbEntity
  8
1
100
AcDbLine
 10
26.453461
 20
-1.766434
 30
0.0
 11
26.353461
 21
-1.720416
 31
0.0
  0
LINE
  5
A9
330
30
100
AcDbEntity
  8
1
100
AcDbLine
 10
26.353461
 20
-1.720416
 30
0.0
 11
26.253461
 21
-1.674168
 31
0.0
  0
LINE
  5
AA
330
30
100
AcDbEntity
  8
1
100
AcDbLine
 10
26.253461
 20
-1.674168
 30
0.0
 11
26.153461
 21
-1.627697
 31
0.0
  0
LINE
  5
AB
330
30
100
AcDbEntity
  8
1
100
AcDbLine
 10
26.153461
 20
-1.627697
 30
0.0
 11
26.053461
 21
-1.581009
 31
0.0
  0
LINE
  5
AC
330
30
100
AcDbEntity
  8
1
100
AcDbLine
 10
26.053461
 20
-1.581009
 30
0.0
 11
25.953461
 21
-1.53411
 31
0.0
  0
LINE
  5
AD
330
30
100
AcDbEntity
  8
1
100
AcDbLine
 10
25.953461
 20
-1.53411
 30
0.0
 11
25.853461
 21
-1.487007
 31
0.0
  0
LINE
  5
AE
330
30
100
AcDbEntity
  8
1
100
AcDbLine
 10
25.853461
 20
-1.487007
 30
0.0
 11
25.753461
 21
-1.439705
 31
0.0
  0
LINE
  5
AF
330
30
100
AcDbEntity
  8
1
100
AcDbLine
 10
25.753461
 20
-1.439705
 30
0.0
 11
25.653461
 21
-1.392211
 31
0.0
  0
LINE
  5
B0
330
30
100
AcDbEntity
  8
1
100
AcDbLine
 10
25.653461
 20
-1.392211
 30
0.0
 11
25.553461
 21
-1.344532
 31
0.0
  0
LINE
  5
B1
330
30
100
AcDbEntity
  8
1
100
AcDbLine
 10
25.553461
 20
-1.344532
 30
0.0
 11
25.453461
 21
-1.296674
 31
0.0
  0
LINE
  5
B2
330
30
100
AcDbEntity
  8
1
100
AcDbLine
 10
25.453461
 20
-1.296674
 30
0.0
 11
25.353461
 21
-1.248642
 31
0.0
  0
LINE
  5
B3
330
30
100
AcDbEntity
  8
1
100
AcDbLine
 10
25.353461
 20
-1.248642
 30
0.0
 11
25.253461
 21
-1.200444
 31
0.0
  0
LINE
  5
B4
330
30
100
AcDbEntity
  8
1
100
AcDbLine
 10
25.253461
 20
-1.200444
 30
0.0
 11
25.153461
 21
-1.152086
 31
0.0
  0
LINE
  5
B5
330
30
100
AcDbEntity
  8
1
100
AcDbLine
 10
25.153461
 20
-1.152086
 30
0.0
 11
25.053461
 21
-1.103575
 31
0.0
  0
LINE
  5
B6
330
30
100
AcDbEntity
  8
1
100
AcDbLine
 10
25.053461
 20
-1.103575
 30
0.0
 11
24.953461
 21
-1.054916
 31
0.0
  0
LINE
  5
B7
330
30
100
AcDbEntity
  8
1
100
AcDbLine
 10
24.953461
 20
-1.054916
 30
0.0
 11
24.853461
 21
-1.006117
 31
0.0
  0
LINE
  5
B8
330
30
100
AcDbEntity
  8
1
100
AcDbLine
 10
24.853461
 20
-1.006117
 30
0.0
 11
24.753461
 21
-0.957184
 31
0.0
  0
LINE
  5
B9
330
30
100
AcDbEntity
  8
1
100
AcDbLine
 10
24.753461
 20
-0.957184
 30
0.0
 11
24.653461
 21
-0.908122
 31
0.0
  0
LINE
  5
BA
330
30
100
AcDbEntity
  8
1
100
AcDbLine
 10
24.653461
 20
-0.908122
 30
0.0
 11
24.553461
 21
-0.85894
 31
0.0
  0
LINE
  5
BB
330
30
100
AcDbEntity
  8
1
100
AcDbLine
 10
24.553461
 20
-0.85894
 30
0.0
 11
24.453461
 21
-0.809644
 31
0.0
  0
LINE
  5
BC
330
30
100
AcDbEntity
  8
1
100
AcDbLine
 10
24.453461
 20
-0.809644
 30
0.0
 11
24.353461
 21
-0.760239
 31
0.0
  0
LINE
  5
BD
330
30
100
AcDbEntity
  8
1
100
AcDbLine
 10
24.353461
 20
-0.760239
 30
0.0
 11
24.253461
 21
-0.710733
 31
0.0
  0
LINE
  5
BE
330
30
100
AcDbEntity
  8
1
100
AcDbLine
 10
24.253461
 20
-0.710733
 30
0.0
 11
24.153461
 21
-0.661132
 31
0.0
  0
LINE
  5
BF
330
30
100
AcDbEntity
  8
1
100
AcDbLine
 10
24.153461
 20
-0.661132
 30
0.0
 11
24.053461
 21
-0.611443
 31
0.0
  0
LINE
  5
C0
330
30
100
AcDbEntity
  8
1
100
AcDbLine
 10
24.053461
 20
-0.611443
 30
0.0
 11
23.953461
 21
-0.561673
 31
0.0
  0
LINE
  5
C1
330
30
100
AcDbEntity
  8
1
100
AcDbLine
 10
23.953461
 20
-0.561673
 30
0.0
 11
23.853461
 21
-0.511827
 31
0.0
  0
LINE
  5
C2
330
30
100
AcDbEntity
  8
1
100
AcDbLine
 10
23.853461
 20
-0.511827
 30
0.0
 11
23.753461
 21
-0.461914
 31
0.0
  0
LINE
  5
C3
330
30
100
AcDbEntity
  8
1
100
AcDbLine
 10
23.753461
 20
-0.461914
 30
0.0
 11
23.653461
 21
-0.411939
 31
0.0
  0
LINE
  5
C4
330
30
100
AcDbEntity
  8
1
100
AcDbLine
 10
23.653461
 20
-0.411939
 30
0.0
 11
23.553461
 21
-0.361909
 31
0.0
  0
LINE
  5
C5
330
30
100
AcDbEntity
  8
1
100
AcDbLine
 10
23.553461
 20
-0.361909
 30
0.0
 11
23.453461
 21
-0.31183
 31
0.0
  0
LINE
  5
C6
330
30
100
AcDbEntity
  8
1
100
AcDbLine
 10
23.453461
 20
-0.31183
 30
0.0
 11
23.353461
 21
-0.26171
 31
0.0
  0
LINE
  5
C7
330
30
100
AcDbEntity
  8
1
100
AcDbLine
 10
23.353461
 20
-0.26171
 30
0.0
 11
23.253461
 21
-0.211555
 31
0.0
  0
LINE
  5
C8
330
30
100
AcDbEntity
  8
1
100
AcDbLine
 10
23.253461
 20
-0.211555
 30
0.0
 11
23.153461
 21
-0.161372
 31
0.0
  0
LINE
  5
C9
330
30
100
AcDbEntity
  8
1
100
AcDbLine
 10
23.153461
 20
-0.161372
 30
0.0
 11
23.053461
 21
-0.111168
 31
0.0
  0
LINE
  5
CA
330
30
100
AcDbEntity
  8
1
100
AcDbLine
 10
23.053461
 20
-0.111168
 30
0.0
 11
22.953461
 21
-0.060949
 31
0.0
  0
LINE
  5
CB
330
30
100
AcDbEntity
  8
1
100
AcDbLine
 10
22.953461
 20
-0.060949
 30
0.0
 11
22.853461
 21
-0.010721
 31
0.0
  0
LINE
  5
CC
330
30
100
AcDbEntity
  8
1
100
AcDbLine
 10
22.853461
 20
-0.010721
 30
0.0
 11
22.753461
 21
0.039508
 31
0.0
  0
LINE
  5
CD
330
30
100
AcDbEntity
  8
1
100
AcDbLine
 10
22.753461
 20
0.039508
 30
0.0
 11
22.653461
 21
0.089732
 31
0.0
  0
LINE
  5
CE
330
30
100
AcDbEntity
  8
1
100
AcDbLine
 10
22.653461
 20
0.089732
 30
0.0
 11
22.553461
 21
0.139943
 31
0.0
  0
LINE
  5
CF
330
30
100
AcDbEntity
  8
1
100
AcDbLine
 10
22.553461
 20
0.139943
 30
0.0
 11
22.453461
 21
0.190136
 31
0.0
  0
LINE
  5
D0
330
30
100
AcDbEntity
  8
1
100
AcDbLine
 10
22.453461
 20
0.190136
 30
0.0
 11
22.353461
 21
0.240304
 31
0.0
  0
LINE
  5
D1
330
30
100
AcDbEntity
  8
1
100
AcDbLine
 10
22.353461
 20
0.240304
 30
0.0
 11
22.253461
 21
0.29044
 31
0.0
  0
LINE
  5
D2
330
30
100
AcDbEntity
  8
1
100
AcDbLine
 10
22.253461
 20
0.29044
 30
0.0
 11
22.153461
 21
0.340536
 31
0.0
  0
LINE
  5
D3
330
30
100
AcDbEntity
  8
1
100
AcDbLine
 10
22.153461
 20
0.340536
 30
0.0
 11
22.053461
 21
0.390588
 31
0.0
  0
LINE
  5
D4
330
30
100
AcDbEntity
  8
1
100
AcDbLine
 10
22.053461
 20
0.390588
 30
0.0
 11
21.953461
 21
0.440587
 31
0.0
  0
LINE
  5
D5
330
30
100
AcDbEntity
  8
1
100
AcDbLine
 10
21.953461
 20
0.440587
 30
0.0
 11
21.853461
 21
0.490528
 31
0.0
  0
LINE
  5
D6
330
30
100
AcDbEntity
  8
1
100
AcDbLine
 10
21.853461
 20
0.490528
 30
0.0
 11
21.753461
 21
0.540403
 31
0.0
  0
LINE
  5
D7
330
30
100
AcDbEntity
  8
1
100
AcDbLine
 10
21.753461
 20
0.540403
 30
0.0
 11
21.653461
 21
0.590207
 31
0.0
  0
LINE
  5
D8
330
30
100
AcDbEntity
  8
1
100
AcDbLine
 10
21.653461
 20
0.590207
 30
0.0
 11
21.553461
 21
0.639931
 31
0.0
  0
LINE
  5
D9
330
30
100
AcDbEntity
  8
1
100
AcDbLine
 10
21.553461
 20
0.639931
 30
0.0
 11
21.453461
 21
0.68957
 31
0.0
  0
LINE
  5
DA
330
30
100
AcDbEntity
  8
1
100
AcDbLine
 10
21.453461
 20
0.68957
 30
0.0
 11
21.353461
 21
0.739118
 31
0.0
  0
LINE
  5
DB
330
30
100
AcDbEntity
  8
1
100
AcDbLine
 10
21.353461
 20
0.739118
 30
0.0
 11
21.253461
 21
0.788566
 31
0.0
  0
LINE
  5
DC
330
30
100
AcDbEntity
  8
1
100
AcDbLine
 10
21.253461
 20
0.788566
 30
0.0
 11
21.153461
 21
0.83791
 31
0.0
  0
LINE
  5
DD
330
30
100
AcDbEntity
  8
1
100
AcDbLine
 10
21.153461
 20
0.83791
 30
0.0
 11
21.053461
 21
0.887142
 31
0.0
  0
LINE
  5
DE
330
30
100
AcDbEntity
  8
1
100
AcDbLine
 10
21.053461
 20
0.887142
 30
0.0
 11
20.953461
 21
0.936255
 31
0.0
  0
LINE
  5
DF
330
30
100
AcDbEntity
  8
1
100
AcDbLine
 10
20.953461
 20
0.936255
 30
0.0
 11
20.853461
 21
0.985244
 31
0.0
  0
LINE
  5
E0
330
30
100
AcDbEntity
  8
1
100
AcDbLine
 10
20.853461
 20
0.985244
 30
0.0
 11
20.753461
 21
1.034101
 31
0.0
  0
LINE
  5
E1
330
30
100
AcDbEntity
  8
1
100
AcDbLine
 10
20.753461
 20
1.034101
 30
0.0
 11
20.653461
 21
1.082821
 31
0.0
  0
LINE
  5
E2
330
30
100
AcDbEntity
  8
1
100
AcDbLine
 10
20.653461
 20
1.082821
 30
0.0
 11
20.553461
 21
1.131396
 31
0.0
  0
LINE
  5
E3
330
30
100
AcDbEntity
  8
1
100
AcDbLine
 10
20.553461
 20
1.131396
 30
0.0
 11
20.453461
 21
1.17982
 31
0.0
  0
LINE
  5
E4
330
30
100
AcDbEntity
  8
1
100
AcDbLine
 10
20.453461
 20
1.17982
 30
0.0
 11
20.353461
 21
1.228087
 31
0.0
  0
LINE
  5
E5
330
30
100
AcDbEntity
  8
1
100
AcDbLine
 10
20.353461
 20
1.228087
 30
0.0
 11
20.253461
 21
1.276191
 31
0.0
  0
LINE
  5
E6
330
30
100
AcDbEntity
  8
1
100
AcDbLine
 10
20.253461
 20
1.276191
 30
0.0
 11
20.153461
 21
1.324124
 31
0.0
  0
LINE
  5
E7
330
30
100
AcDbEntity
  8
1
100
AcDbLine
 10
20.153461
 20
1.324124
 30
0.0
 11
20.053461
 21
1.37188
 31
0.0
  0
LINE
  5
E8
330
30
100
AcDbEntity
  8
1
100
AcDbLine
 10
20.053461
 20
1.37188
 30
0.0
 11
19.953461
 21
1.419454
 31
0.0
  0
LINE
  5
E9
330
30
100
AcDbEntity
  8
1
100
AcDbLine
 10
19.953461
 20
1.419454
 30
0.0
 11
19.853461
 21
1.466838
 31
0.0
  0
LINE
  5
EA
330
30
100
AcDbEntity
  8
1
100
AcDbLine
 10
19.853461
 20
1.466838
 30
0.0
 11
19.753461
 21
1.514027
 31
0.0
  0
LINE
  5
EB
330
30
100
AcDbEntity
  8
1
100
AcDbLine
 10
19.753461
 20
1.514027
 30
0.0
 11
19.653461
 21
1.561014
 31
0.0
  0
LINE
  5
EC
330
30
100
AcDbEntity
  8
1
100
AcDbLine
 10
19.653461
 20
1.561014
 30
0.0
 11
19.553461
 21
1.607793
 31
0.0
  0
LINE
  5
ED
330
30
100
AcDbEntity
  8
1
100
AcDbLine
 10
19.553461
 20
1.607793
 30
0.0
 11
19.453461
 21
1.654357
 31
0.0
  0
LINE
  5
EE
330
30
100
AcDbEntity
  8
1
100
AcDbLine
 10
19.453461
 20
1.654357
 30
0.0
 11
19.353461
 21
1.700701
 31
0.0
  0
LINE
  5
EF
330
30
100
AcDbEntity
  8
1
100
AcDbLine
 10
19.353461
 20
1.700701
 30
0.0
 11
19.253461
 21
1.746818
 31
0.0
  0
LINE
  5
F0
330
30
100
AcDbEntity
  8
1
100
AcDbLine
 10
19.253461
 20
1.746818
 30
0.0
 11
19.153461
 21
1.792702
 31
0.0
  0
LINE
  5
F1
330
30
100
AcDbEntity
  8
1
100
AcDbLine
 10
19.153461
 20
1.792702
 30
0.0
 11
19.053461
 21
1.838347
 31
0.0
  0
LINE
  5
F2
330
30
100
AcDbEntity
  8
1
100
AcDbLine
 10
19.053461
 20
1.838347
 30
0.0
 11
18.953461
 21
1.883747
 31
0.0
  0
LINE
  5
F3
330
30
100
AcDbEntity
  8
1
100
AcDbLine
 10
18.953461
 20
1.883747
 30
0.0
 11
18.853461
 21
1.928896
 31
0.0
  0
LINE
  5
F4
330
30
100
AcDbEntity
  8
1
100
AcDbLine
 10
18.853461
 20
1.928896
 30
0.0
 11
18.753461
 21
1.973788
 31
0.0
  0
LINE
  5
F5
330
30
100
AcDbEntity
  8
1
100
AcDbLine
 10
18.753461
 20
1.973788
 30
0.0
 11
18.653461
 21
2.018416
 31
0.0
  0
LINE
  5
F6
330
30
100
AcDbEntity
  8
1
100
AcDbLine
 10
18.653461
 20
2.018416
 30
0.0
 11
18.553461
 21
2.062776
 31
0.0
  0
LINE
  5
F7
330
30
100
AcDbEntity
  8
1
100
AcDbLine
 10
18.553461
 20
2.062776
 30
0.0
 11
18.453461
 21
2.10686
 31
0.0
  0
LINE
  5
F8
330
30
100
AcDbEntity
  8
1
100
AcDbLine
 10
18.453461
 20
2.10686
 30
0.0
 11
18.353461
 21
2.150663
 31
0.0
  0
LINE
  5
F9
330
30
100
AcDbEntity
  8
1
100
AcDbLine
 10
18.353461
 20
2.150663
 30
0.0
 11
18.253461
 21
2.19418
 31
0.0
  0
LINE
  5
FA
330
30
100
AcDbEntity
  8
1
100
AcDbLine
 10
18.253461
 20
2.19418
 30
0.0
 11
18.153461
 21
2.237404
 31
0.0
  0
LINE
  5
FB
330
30
100
AcDbEntity
  8
1
100
AcDbLine
 10
18.153461
 20
2.237404
 30
0.0
 11
18.053461
 21
2.28033
 31
0.0
  0
LINE
  5
FC
330
30
100
AcDbEntity
  8
1
100
AcDbLine
 10
18.053461
 20
2.28033
 30
0.0
 11
17.953461
 21
2.322952
 31
0.0
  0
LINE
  5
FD
330
30
100
AcDbEntity
  8
1
100
AcDbLine
 10
17.953461
 20
2.322952
 30
0.0
 11
17.853461
 21
2.365264
 31
0.0
  0
LINE
  5
FE
330
30
100
AcDbEntity
  8
1
100
AcDbLine
 10
17.853461
 20
2.365264
 30
0.0
 11
17.753461
 21
2.407261
 31
0.0
  0
LINE
  5
FF
330
30
100
AcDbEntity
  8
1
100
AcDbLine
 10
17.753461
 20
2.407261
 30
0.0
 11
17.653461
 21
2.448936
 31
0.0
  0
LINE
  5
100
330
30
100
AcDbEntity
  8
1
100
AcDbLine
 10
17.653461
 20
2.448936
 30
0.0
 11
17.553461
 21
2.490286
 31
0.0
  0
LINE
  5
101
330
30
100
AcDbEntity
  8
1
100
AcDbLine
 10
17.553461
 20
2.490286
 30
0.0
 11
17.453461
 21
2.531303
 31
0.0
  0
LINE
  5
102
330
30
100
AcDbEntity
  8
1
100
AcDbLine
 10
17.453461
 20
2.531303
 30
0.0
 11
17.353461
 21
2.571982
 31
0.0
  0
LINE
  5
103
330
30
100
AcDbEntity
  8
1
100
AcDbLine
 10
17.353461
 20
2.571982
 30
0.0
 11
17.253461
 21
2.612319
 31
0.0
  0
LINE
  5
104
330
30
100
AcDbEntity
  8
1
100
AcDbLine
 10
17.253461
 20
2.612319
 30
0.0
 11
17.253461
 21
2.565209
 31
0.0
  0
LINE
  5
105
330
30
100
AcDbEntity
  8
1
100
AcDbLine
 10
17.253461
 20
2.565209
 30
0.0
 11
17.153461
 21
2.604165
 31
0.0
  0
LINE
  5
106
330
30
100
AcDbEntity
  8
1
100
AcDbLine
 10
17.153461
 20
2.604165
 30
0.0
 11
17.053461
 21
2.642773
 31
0.0
  0
LINE
  5
107
330
30
100
AcDbEntity
  8
1
100
AcDbLine
 10
17.053461
 20
2.642773
 30
0.0
 11
16.953461
 21
2.681029
 31
0.0
  0
LINE
  5
108
330
30
100
AcDbEntity
  8
1
100
AcDbLine
 10
16.953461
 20
2.681029
 30
0.0
 11
16.853461
 21
2.718928
 31
0.0
  0
LINE
  5
109
330
30
100
AcDbEntity
  8
1
100
AcDbLine
 10
16.853461
 20
2.718928
 30
0.0
 11
16.753461
 21
2.756464
 31
0.0
  0
LINE
  5
10A
330
30
100
AcDbEntity
  8
1
100
AcDbLine
 10
16.753461
 20
2.756464
 30
0.0
 11
16.653461
 21
2.793632
 31
0.0
  0
LINE
  5
10B
330
30
100
AcDbEntity
  8
1
100
AcDbLine
 10
16.653461
 20
2.793632
 30
0.0
 11
16.553461
 21
2.830427
 31
0.0
  0
LINE
  5
10C
330
30
100
AcDbEntity
  8
1
100
AcDbLine
 10
16.553461
 20
2.830427
 30
0.0
 11
16.453461
 21
2.86684
 31
0.0
  0
LINE
  5
10D
330
30
100
AcDbEntity
  8
1
100
AcDbLine
 10
16.453461
 20
2.86684
 30
0.0
 11
16.353461
 21
2.902854
 31
0.0
  0
LINE
  5
10E
330
30
100
AcDbEntity
  8
1
100
AcDbLine
 10
16.353461
 20
2.902854
 30
0.0
 11
16.253461
 21
2.938431
 31
0.0
  0
LINE
  5
10F
330
30
100
AcDbEntity
  8
1
100
AcDbLine
 10
16.253461
 20
2.938431
 30
0.0
 11
16.153461
 21
2.973476
 31
0.0
  0
LINE
  5
110
330
30
100
AcDbEntity
  8
1
100
AcDbLine
 10
16.153461
 20
2.973476
 30
0.0
 11
16.053461
 21
3.007768
 31
0.0
  0
LINE
  5
111
330
30
100
AcDbEntity
  8
1
100
AcDbLine
 10
16.053461
 20
3.007768
 30
0.0
 11
15.953461
 21
3.04083
 31
0.0
  0
LINE
  5
112
330
30
100
AcDbEntity
  8
1
100
AcDbLine
 10
15.953461
 20
3.04083
 30
0.0
 11
15.853461
 21
3.071676
 31
0.0
  0
LINE
  5
113
330
30
100
AcDbEntity
  8
1
100
AcDbLine
 10
15.853461
 20
3.071676
 30
0.0
 11
15.753461
 21
3.098384
 31
0.0
  0
LINE
  5
114
330
30
100
AcDbEntity
  8
1
100
AcDbLine
 10
15.753461
 20
3.098384
 30
0.0
 11
15.653461
 21
3.117345
 31
0.0
  0
LINE
  5
115
330
30
100
AcDbEntity
  8
1
100
AcDbLine
 10
15.653461
 20
3.117345
 30
0.0
 11
15.553461
 21
3.121993
 31
0.0
  0
LINE
  5
116
330
30
100
AcDbEntity
  8
1
100
AcDbLine
 10
15.553461
 20
3.121993
 30
0.0
 11
15.453461
 21
3.100571
 31
0.0
  0
LINE
  5
117
330
30
100
AcDbEntity
  8
1
100
AcDbLine
 10
15.453461
 20
3.100571
 30
0.0
 11
15.353461
 21
3.031973
 31
0.0
  0
LINE
  5
118
330
30
100
AcDbEntity
  8
1
100
AcDbLine
 10
15.353461
 20
3.031973
 30
0.0
 11
15.253461
 21
2.877545
 31
0.0
  0
LINE
  5
119
330
30
100
AcDbEntity
  8
1
100
AcDbLine
 10
15.253461
 20
2.877545
 30
0.0
 11
15.153461
 21
2.56446
 31
0.0
  0
LINE
  5
11A
330
30
100
AcDbEntity
  8
1
100
AcDbLine
 10
15.153461
 20
2.56446
 30
0.0
 11
15.053461
 21
1.954493
 31
0.0
  0
LINE
  5
11B
330
30
100
AcDbEntity
  8
1
100
AcDbLine
 10
15.053461
 20
1.954493
 30
0.0
 11
14.953461
 21
0.804664
 31
0.0
  0
LINE
  5
11C
330
30
100
AcDbEntity
  8
1
100
AcDbLine
 10
14.953461
 20
0.804664
 30
0.0
 11
14.953461
 21
-1.933842
 31
0.0
  0
LINE
  5
11D
330
30
100
AcDbEntity
  8
1
100
AcDbLine
 10
14.953461
 20
-1.933842
 30
0.0
 11
15.053461
 21
-3.032133
 31
0.0
  0
LINE
  5
11E
330
30
100
AcDbEntity
  8
1
100
AcDbLine
 10
15.053461
 20
-3.032133
 30
0.0
 11
15.153461
 21
-3.693543
 31
0.0
  0
LINE
  5
11F
330
30
100
AcDbEntity
  8
1
100
AcDbLine
 10
15.153461
 20
-3.693543
 30
0.0
 11
15.253461
 21
-4.046189
 31
0.0
  0
LINE
  5
120
330
30
100
AcDbEntity
  8
1
100
AcDbLine
 10
15.253461
 20
-4.046189
 30
0.0
 11
15.353461
 21
-4.203839
 31
0.0
  0
LINE
  5
121
330
30
100
AcDbEntity
  8
1
100
AcDbLine
 10
15.353461
 20
-4.203839
 30
0.0
 11
15.453461
 21
-4.249215
 31
0.0
  0
LINE
  5
122
330
30
100
AcDbEntity
  8
1
100
AcDbLine
 10
15.453461
 20
-4.249215
 30
0.0
 11
15.472692
 21
-4.25
 31
0.0
  0
LINE
  5
123
330
30
100
AcDbEntity
  8
1
100
AcDbLine
 10
17.253461
 20
-4.25
 30
0.0
 11
17.253461
 21
4.25
 31
0.0
  0
LINE
  5
124
330
30
100
AcDbEntity
  8
1
100
AcDbLine
 10
17.253461
 20
2.905399
 30
0.0
 11
17.253461
 21
2.953904
 31
0.0
  0
LINE
  5
125
330
30
100
AcDbEntity
  8
1
100
AcDbLine
 10
17.253461
 20
2.953904
 30
0.0
 11
17.353461
 21
2.917761
 31
0.0
  0
LINE
  5
126
330
30
100
AcDbEntity
  8
1
100
AcDbLine
 10
17.353461
 20
2.917761
 30
0.0
 11
17.453461
 21
2.881229
 31
0.0
  0
LINE
  5
127
330
30
100
AcDbEntity
  8
1
100
AcDbLine
 10
17.453461
 20
2.881229
 30
0.0
 11
17.553461
 21
2.844312
 31
0.0
  0
LINE
  5
128
330
30
100
AcDbEntity
  8
1
100
AcDbLine
 10
17.553461
 20
2.844312
 30
0.0
 11
17.653461
 21
2.807016
 31
0.0
  0
LINE
  5
129
330
30
100
AcDbEntity
  8
1
100
AcDbLine
 10
17.653461
 20
2.807016
 30
0.0
 11
17.753461
 21
2.769346
 31
0.0
  0
LINE
  5
12A
330
30
100
AcDbEntity
  8
1
100
AcDbLine
 10
17.753461
 20
2.769346
 30
0.0
 11
17.853461
 21
2.731306
 31
0.0
  0
LINE
  5
12B
330
30
100
AcDbEntity
  8
1
100
AcDbLine
 10
17.853461
 20
2.731306
 30
0.0
 11
17.953461
 21
2.692903
 31
0.0
  0
LINE
  5
12C
330
30
100
AcDbEntity
  8
1
100
AcDbLine
 10
17.953461
 20
2.692903
 30
0.0
 11
18.053461
 21
2.65414
 31
0.0
  0
LINE
  5
12D
330
30
100
AcDbEntity
  8
1
100
AcDbLine
 10
18.053461
 20
2.65414
 30
0.0
 11
18.153461
 21
2.615024
 31
0.0
  0
LINE
  5
12E
330
30
100
AcDbEntity
  8
1
100
AcDbLine
 10
18.153461
 20
2.615024
 30
0.0
 11
18.253461
 21
2.575559
 31
0.0
  0
LINE
  5
12F
330
30
100
AcDbEntity
  8
1
100
AcDbLine
 10
18.253461
 20
2.575559
 30
0.0
 11
18.353461
 21
2.53575
 31
0.0
  0
LINE
  5
130
330
30
100
AcDbEntity
  8
1
100
AcDbLine
 10
18.353461
 20
2.53575
 30
0.0
 11
18.453461
 21
2.495603
 31
0.0
  0
LINE
  5
131
330
30
100
AcDbEntity
  8
1
100
AcDbLine
 10
18.453461
 20
2.495603
 30
0.0
 11
18.553461
 21
2.455124
 31
0.0
  0
LINE
  5
132
330
30
100
AcDbEntity
  8
1
100
AcDbLine
 10
18.553461
 20
2.455124
 30
0.0
 11
18.653461
 21
2.414317
 31
0.0
  0
LINE
  5
133
330
30
100
AcDbEntity
  8
1
100
AcDbLine
 10
18.653461
 20
2.414317
 30
0.0
 11
18.753461
 21
2.373189
 31
0.0
  0
LINE
  5
134
330
30
100
AcDbEntity
  8
1
100
AcDbLine
 10
18.753461
 20
2.373189
 30
0.0
 11
18.853461
 21
2.331744
 31
0.0
  0
LINE
  5
135
330
30
100
AcDbEntity
  8
1
100
AcDbLine
 10
18.853461
 20
2.331744
 30
0.0
 11
18.953461
 21
2.289988
 31
0.0
  0
LINE
  5
136
330
30
100
AcDbEntity
  8
1
100
AcDbLine
 10
18.953461
 20
2.289988
 30
0.0
 11
19.053461
 21
2.247926
 31
0.0
  0
LINE
  5
137
330
30
100
AcDbEntity
  8
1
100
AcDbLine
 10
19.053461
 20
2.247926
 30
0.0
 11
19.153461
 21
2.205565
 31
0.0
  0
LINE
  5
138
330
30
100
AcDbEntity
  8
1
100
AcDbLine
 10
19.153461
 20
2.205565
 30
0.0
 11
19.253461
 21
2.16291
 31
0.0
  0
LINE
  5
139
330
30
100
AcDbEntity
  8
1
100
AcDbLine
 10
19.253461
 20
2.16291
 30
0.0
 11
19.353461
 21
2.119967
 31
0.0
  0
LINE
  5
13A
330
30
100
AcDbEntity
  8
1
100
AcDbLine
 10
19.353461
 20
2.119967
 30
0.0
 11
19.453461
 21
2.076741
 31
0.0
  0
LINE
  5
13B
330
30
100
AcDbEntity
  8
1
100
AcDbLine
 10
19.453461
 20
2.076741
 30
0.0
 11
19.553461
 21
2.033238
 31
0.0
  0
LINE
  5
13C
330
30
100
AcDbEntity
  8
1
100
AcDbLine
 10
19.553461
 20
2.033238
 30
0.0
 11
19.653461
 21
1.989463
 31
0.0
  0
LINE
  5
13D
330
30
100
AcDbEntity
  8
1
100
AcDbLine
 10
19.653461
 20
1.989463
 30
0.0
 11
19.753461
 21
1.945424
 31
0.0
  0
LINE
  5
13E
330
30
100
AcDbEntity
  8
1
100
AcDbLine
 10
19.753461
 20
1.945424
 30
0.0
 11
19.853461
 21
1.901125
 31
0.0
  0
LINE
  5
13F
330
30
100
AcDbEntity
  8
1
100
AcDbLine
 10
19.853461
 20
1.901125
 30
0.0
 11
19.953461
 21
1.856573
 31
0.0
  0
LINE
  5
140
330
30
100
AcDbEntity
  8
1
100
AcDbLine
 10
19.953461
 20
1.856573
 30
0.0
 11
20.053461
 21
1.811773
 31
0.0
  0
LINE
  5
141
330
30
100
AcDbEntity
  8
1
100
AcDbLine
 10
20.053461
 20
1.811773
 30
0.0
 11
20.153461
 21
1.766732
 31
0.0
  0
LINE
  5
142
330
30
100
AcDbEntity
  8
1
100
AcDbLine
 10
20.153461
 20
1.766732
 30
0.0
 11
20.253461
 21
1.721455
 31
0.0
  0
LINE
  5
143
330
30
100
AcDbEntity
  8
1
100
AcDbLine
 10
20.253461
 20
1.721455
 30
0.0
 11
20.353461
 21
1.675948
 31
0.0
  0
LINE
  5
144
330
30
100
AcDbEntity
  8
1
100
AcDbLine
 10
20.353461
 20
1.675948
 30
0.0
 11
20.453461
 21
1.630219
 31
0.0
  0
LINE
  5
145
330
30
100
AcDbEntity
  8
1
100
AcDbLine
 10
20.453461
 20
1.630219
 30
0.0
 11
20.553461
 21
1.584271
 31
0.0
  0
LINE
  5
146
330
30
100
AcDbEntity
  8
1
100
AcDbLine
 10
20.553461
 20
1.584271
 30
0.0
 11
20.653461
 21
1.538113
 31
0.0
  0
LINE
  5
147
330
30
100
AcDbEntity
  8
1
100
AcDbLine
 10
20.653461
 20
1.538113
 30
0.0
 11
20.753461
 21
1.491749
 31
0.0
  0
LINE
  5
148
330
30
100
AcDbEntity
  8
1
100
AcDbLine
 10
20.753461
 20
1.491749
 30
0.0
 11
20.853461
 21
1.445187
 31
0.0
  0
LINE
  5
149
330
30
100
AcDbEntity
  8
1
100
AcDbLine
 10
20.853461
 20
1.445187
 30
0.0
 11
20.953461
 21
1.398432
 31
0.0
  0
LINE
  5
14A
330
30
100
AcDbEntity
  8
1
100
AcDbLine
 10
20.953461
 20
1.398432
 30
0.0
 11
21.053461
 21
1.35149
 31
0.0
  0
LINE
  5
14B
330
30
100
AcDbEntity
  8
1
100
AcDbLine
 10
21.053461
 20
1.35149
 30
0.0
 11
21.153461
 21
1.304368
 31
0.0
  0
LINE
  5
14C
330
30
100
AcDbEntity
  8
1
100
AcDbLine
 10
21.153461
 20
1.304368
 30
0.0
 11
21.253461
 21
1.257072
 31
0.0
  0
LINE
  5
14D
330
30
100
AcDbEntity
  8
1
100
AcDbLine
 10
21.253461
 20
1.257072
 30
0.0
 11
21.353461
 21
1.209609
 31
0.0
  0
LINE
  5
14E
330
30
100
AcDbEntity
  8
1
100
AcDbLine
 10
21.353461
 20
1.209609
 30
0.0
 11
21.453461
 21
1.161984
 31
0.0
  0
LINE
  5
14F
330
30
100
AcDbEntity
  8
1
100
AcDbLine
 10
21.453461
 20
1.161984
 30
0.0
 11
21.553461
 21
1.114205
 31
0.0
  0
LINE
  5
150
330
30
100
AcDbEntity
  8
1
100
AcDbLine
 10
21.553461
 20
1.114205
 30
0.0
 11
21.653461
 21
1.066277
 31
0.0
  0
LINE
  5
151
330
30
100
AcDbEntity
  8
1
100
AcDbLine
 10
21.653461
 20
1.066277
 30
0.0
 11
21.753461
 21
1.018207
 31
0.0
  0
LINE
  5
152
330
30
100
AcDbEntity
  8
1
100
AcDbLine
 10
21.753461
 20
1.018207
 30
0.0
 11
21.853461
 21
0.970001
 31
0.0
  0
LINE
  5
153
330
30
100
AcDbEntity
  8
1
100
AcDbLine
 10
21.853461
 20
0.970001
 30
0.0
 11
21.953461
 21
0.921665
 31
0.0
  0
LINE
  5
154
330
30
100
AcDbEntity
  8
1
100
AcDbLine
 10
21.953461
 20
0.921665
 30
0.0
 11
22.053461
 21
0.873207
 31
0.0
  0
LINE
  5
155
330
30
100
AcDbEntity
  8
1
100
AcDbLine
 10
22.053461
 20
0.873207
 30
0.0
 11
22.153461
 21
0.824632
 31
0.0
  0
LINE
  5
156
330
30
100
AcDbEntity
  8
1
100
AcDbLine
 10
22.153461
 20
0.824632
 30
0.0
 11
22.253461
 21
0.775948
 31
0.0
  0
LINE
  5
157
330
30
100
AcDbEntity
  8
1
100
AcDbLine
 10
22.253461
 20
0.775948
 30
0.0
 11
22.353461
 21
0.72716
 31
0.0
  0
LINE
  5
158
330
30
100
AcDbEntity
  8
1
100
AcDbLine
 10
22.353461
 20
0.72716
 30
0.0
 11
22.453461
 21
0.678274
 31
0.0
  0
LINE
  5
159
330
30
100
AcDbEntity
  8
1
100
AcDbLine
 10
22.453461
 20
0.678274
 30
0.0
 11
22.553461
 21
0.629299
 31
0.0
  0
LINE
  5
15A
330
30
100
AcDbEntity
  8
1
100
AcDbLine
 10
22.553461
 20
0.629299
 30
0.0
 11
22.653461
 21
0.58024
 31
0.0
  0
LINE
  5
15B
330
30
100
AcDbEntity
  8
1
100
AcDbLine
 10
22.653461
 20
0.58024
 30
0.0
 11
22.753461
 21
0.531103
 31
0.0
  0
LINE
  5
15C
330
30
100
AcDbEntity
  8
1
100
AcDbLine
 10
22.753461
 20
0.531103
 30
0.0
 11
22.853461
 21
0.481895
 31
0.0
  0
LINE
  5
15D
330
30
100
AcDbEntity
  8
1
100
AcDbLine
 10
22.853461
 20
0.481895
 30
0.0
 11
22.953461
 21
0.432623
 31
0.0
  0
LINE
  5
15E
330
30
100
AcDbEntity
  8
1
100
AcDbLine
 10
22.953461
 20
0.432623
 30
0.0
 11
23.053461
 21
0.383294
 31
0.0
  0
LINE
  5
15F
330
30
100
AcDbEntity
  8
1
100
AcDbLine
 10
23.053461
 20
0.383294
 30
0.0
 11
23.153461
 21
0.333913
 31
0.0
  0
LINE
  5
160
330
30
100
AcDbEntity
  8
1
100
AcDbLine
 10
23.153461
 20
0.333913
 30
0.0
 11
23.253461
 21
0.284488
 31
0.0
  0
LINE
  5
161
330
30
100
AcDbEntity
  8
1
100
AcDbLine
 10
23.253461
 20
0.284488
 30
0.0
 11
23.353461
 21
0.235025
 31
0.0
  0
LINE
  5
162
330
30
100
AcDbEntity
  8
1
100
AcDbLine
 10
23.353461
 20
0.235025
 30
0.0
 11
23.453461
 21
0.185531
 31
0.0
  0
LINE
  5
163
330
30
100
AcDbEntity
  8
1
100
AcDbLine
 10
23.453461
 20
0.185531
 30
0.0
 11
23.553461
 21
0.136012
 31
0.0
  0
LINE
  5
164
330
30
100
AcDbEntity
  8
1
100
AcDbLine
 10
23.553461
 20
0.136012
 30
0.0
 11
23.653461
 21
0.086474
 31
0.0
  0
LINE
  5
165
330
30
100
AcDbEntity
  8
1
100
AcDbLine
 10
23.653461
 20
0.086474
 30
0.0
 11
23.753461
 21
0.036926
 31
0.0
  0
LINE
  5
166
330
30
100
AcDbEntity
  8
1
100
AcDbLine
 10
23.753461
 20
0.036926
 30
0.0
 11
23.853461
 21
-0.012628
 31
0.0
  0
LINE
  5
167
330
30
100
AcDbEntity
  8
1
100
AcDbLine
 10
23.853461
 20
-0.012628
 30
0.0
 11
23.953461
 21
-0.06218
 31
0.0
  0
LINE
  5
168
330
30
100
AcDbEntity
  8
1
100
AcDbLine
 10
23.953461
 20
-0.06218
 30
0.0
 11
24.053461
 21
-0.111724
 31
0.0
  0
LINE
  5
169
330
30
100
AcDbEntity
  8
1
100
AcDbLine
 10
24.053461
 20
-0.111724
 30
0.0
 11
24.153461
 21
-0.161253
 31
0.0
  0
LINE
  5
16A
330
30
100
AcDbEntity
  8
1
100
AcDbLine
 10
24.153461
 20
-0.161253
 30
0.0
 11
24.253461
 21
-0.21076
 31
0.0
  0
LINE
  5
16B
330
30
100
AcDbEntity
  8
1
100
AcDbLine
 10
24.253461
 20
-0.21076
 30
0.0
 11
24.353461
 21
-0.260239
 31
0.0
  0
LINE
  5
16C
330
30
100
AcDbEntity
  8
1
100
AcDbLine
 10
24.353461
 20
-0.260239
 30
0.0
 11
24.453461
 21
-0.309684
 31
0.0
  0
LINE
  5
16D
330
30
100
AcDbEntity
  8
1
100
AcDbLine
 10
24.453461
 20
-0.309684
 30
0.0
 11
24.553461
 21
-0.359087
 31
0.0
  0
LINE
  5
16E
330
30
100
AcDbEntity
  8
1
100
AcDbLine
 10
24.553461
 20
-0.359087
 30
0.0
 11
24.653461
 21
-0.408442
 31
0.0
  0
LINE
  5
16F
330
30
100
AcDbEntity
  8
1
100
AcDbLine
 10
24.653461
 20
-0.408442
 30
0.0
 11
24.753461
 21
-0.457743
 31
0.0
  0
LINE
  5
170
330
30
100
AcDbEntity
  8
1
100
AcDbLine
 10
24.753461
 20
-0.457743
 30
0.0
 11
24.853461
 21
-0.506983
 31
0.0
  0
LINE
  5
171
330
30
100
AcDbEntity
  8
1
100
AcDbLine
 10
24.853461
 20
-0.506983
 30
0.0
 11
24.953461
 21
-0.556155
 31
0.0
  0
LINE
  5
172
330
30
100
AcDbEntity
  8
1
100
AcDbLine
 10
24.953461
 20
-0.556155
 30
0.0
 11
25.053461
 21
-0.605254
 31
0.0
  0
LINE
  5
173
330
30
100
AcDbEntity
  8
1
100
AcDbLine
 10
25.053461
 20
-0.605254
 30
0.0
 11
25.153461
 21
-0.654271
 31
0.0
  0
LINE
  5
174
330
30
100
AcDbEntity
  8
1
100
AcDbLine
 10
25.153461
 20
-0.654271
 30
0.0
 11
25.253461
 21
-0.703201
 31
0.0
  0
LINE
  5
175
330
30
100
AcDbEntity
  8
1
100
AcDbLine
 10
25.253461
 20
-0.703201
 30
0.0
 11
25.353461
 21
-0.752038
 31
0.0
  0
LINE
  5
176
330
30
100
AcDbEntity
  8
1
100
AcDbLine
 10
25.353461
 20
-0.752038
 30
0.0
 11
25.453461
 21
-0.800774
 31
0.0
  0
LINE
  5
177
330
30
100
AcDbEntity
  8
1
100
AcDbLine
 10
25.453461
 20
-0.800774
 30
0.0
 11
25.553461
 21
-0.849403
 31
0.0
  0
LINE
  5
178
330
30
100
AcDbEntity
  8
1
100
AcDbLine
 10
25.553461
 20
-0.849403
 30
0.0
 11
25.653461
 21
-0.897919
 31
0.0
  0
LINE
  5
179
330
30
100
AcDbEntity
  8
1
100
AcDbLine
 10
25.653461
 20
-0.897919
 30
0.0
 11
25.753461
 21
-0.946316
 31
0.0
  0
LINE
  5
17A
330
30
100
AcDbEntity
  8
1
100
AcDbLine
 10
25.753461
 20
-0.946316
 30
0.0
 11
25.853461
 21
-0.994586
 31
0.0
  0
LINE
  5
17B
330
30
100
AcDbEntity
  8
1
100
AcDbLine
 10
25.853461
 20
-0.994586
 30
0.0
 11
25.953461
 21
-1.042724
 31
0.0
  0
LINE
  5
17C
330
30
100
AcDbEntity
  8
1
100
AcDbLine
 10
25.953461
 20
-1.042724
 30
0.0
 11
26.053461
 21
-1.090722
 31
0.0
  0
LINE
  5
17D
330
30
100
AcDbEntity
  8
1
100
AcDbLine
 10
26.053461
 20
-1.090722
 30
0.0
 11
26.153461
 21
-1.138576
 31
0.0
  0
LINE
  5
17E
330
30
100
AcDbEntity
  8
1
100
AcDbLine
 10
26.153461
 20
-1.138576
 30
0.0
 11
26.253461
 21
-1.186277
 31
0.0
  0
LINE
  5
17F
330
30
100
AcDbEntity
  8
1
100
AcDbLine
 10
26.253461
 20
-1.186277
 30
0.0
 11
26.353461
 21
-1.23382
 31
0.0
  0
LINE
  5
180
330
30
100
AcDbEntity
  8
1
100
AcDbLine
 10
26.353461
 20
-1.23382
 30
0.0
 11
26.453461
 21
-1.281199
 31
0.0
  0
LINE
  5
181
330
30
100
AcDbEntity
  8
1
100
AcDbLine
 10
26.453461
 20
-1.281199
 30
0.0
 11
26.553461
 21
-1.328407
 31
0.0
  0
LINE
  5
182
330
30
100
AcDbEntity
  8
1
100
AcDbLine
 10
26.553461
 20
-1.328407
 30
0.0
 11
26.653461
 21
-1.375437
 31
0.0
  0
LINE
  5
183
330
30
100
AcDbEntity
  8
1
100
AcDbLine
 10
26.653461
 20
-1.375437
 30
0.0
 11
26.753461
 21
-1.422285
 31
0.0
  0
LINE
  5
184
330
30
100
AcDbEntity
  8
1
100
AcDbLine
 10
26.753461
 20
-1.422285
 30
0.0
 11
26.853461
 21
-1.468943
 31
0.0
  0
LINE
  5
185
330
30
100
AcDbEntity
  8
1
100
AcDbLine
 10
26.853461
 20
-1.468943
 30
0.0
 11
26.953461
 21
-1.515404
 31
0.0
  0
LINE
  5
186
330
30
100
AcDbEntity
  8
1
100
AcDbLine
 10
26.953461
 20
-1.515404
 30
0.0
 11
27.053461
 21
-1.561664
 31
0.0
  0
LINE
  5
187
330
30
100
AcDbEntity
  8
1
100
AcDbLine
 10
27.053461
 20
-1.561664
 30
0.0
 11
27.153461
 21
-1.607716
 31
0.0
  0
LINE
  5
188
330
30
100
AcDbEntity
  8
1
100
AcDbLine
 10
27.153461
 20
-1.607716
 30
0.0
 11
27.253461
 21
-1.653553
 31
0.0
  0
LINE
  5
189
330
30
100
AcDbEntity
  8
1
100
AcDbLine
 10
27.253461
 20
-1.653553
 30
0.0
 11
27.353461
 21
-1.69917
 31
0.0
  0
LINE
  5
18A
330
30
100
AcDbEntity
  8
1
100
AcDbLine
 10
27.353461
 20
-1.69917
 30
0.0
 11
27.453461
 21
-1.74456
 31
0.0
  0
LINE
  5
18B
330
30
100
AcDbEntity
  8
1
100
AcDbLine
 10
27.453461
 20
-1.74456
 30
0.0
 11
27.553461
 21
-1.789718
 31
0.0
  0
LINE
  5
18C
330
30
100
AcDbEntity
  8
1
100
AcDbLine
 10
27.553461
 20
-1.789718
 30
0.0
 11
27.653461
 21
-1.834637
 31
0.0
  0
LINE
  5
18D
330
30
100
AcDbEntity
  8
1
100
AcDbLine
 10
27.653461
 20
-1.834637
 30
0.0
 11
27.753461
 21
-1.879311
 31
0.0
  0
LINE
  5
18E
330
30
100
AcDbEntity
  8
1
100
AcDbLine
 10
27.753461
 20
-1.879311
 30
0.0
 11
27.853461
 21
-1.923735
 31
0.0
  0
LINE
  5
18F
330
30
100
AcDbEntity
  8
1
100
AcDbLine
 10
27.853461
 20
-1.923735
 30
0.0
 11
27.953461
 21
-1.967902
 31
0.0
  0
LINE
  5
190
330
30
100
AcDbEntity
  8
1
100
AcDbLine
 10
27.953461
 20
-1.967902
 30
0.0
 11
28.053461
 21
-2.011807
 31
0.0
  0
LINE
  5
191
330
30
100
AcDbEntity
  8
1
100
AcDbLine
 10
28.053461
 20
-2.011807
 30
0.0
 11
28.153461
 21
-2.055444
 31
0.0
  0
LINE
  5
192
330
30
100
AcDbEntity
  8
1
100
AcDbLine
 10
28.153461
 20
-2.055444
 30
0.0
 11
28.253461
 21
-2.098806
 31
0.0
  0
LINE
  5
193
330
30
100
AcDbEntity
  8
1
100
AcDbLine
 10
28.253461
 20
-2.098806
 30
0.0
 11
28.353461
 21
-2.141889
 31
0.0
  0
LINE
  5
194
330
30
100
AcDbEntity
  8
1
100
AcDbLine
 10
28.353461
 20
-2.141889
 30
0.0
 11
28.453461
 21
-2.184686
 31
0.0
  0
LINE
  5
195
330
30
100
AcDbEntity
  8
1
100
AcDbLine
 10
28.453461
 20
-2.184686
 30
0.0
 11
28.553461
 21
-2.227192
 31
0.0
  0
LINE
  5
196
330
30
100
AcDbEntity
  8
1
100
AcDbLine
 10
28.553461
 20
-2.227192
 30
0.0
 11
28.653461
 21
-2.269401
 31
0.0
  0
LINE
  5
197
330
30
100
AcDbEntity
  8
1
100
AcDbLine
 10
28.653461
 20
-2.269401
 30
0.0
 11
28.753461
 21
-2.311308
 31
0.0
  0
LINE
  5
198
330
30
100
AcDbEntity
  8
1
100
AcDbLine
 10
28.753461
 20
-2.311308
 30
0.0
 11
28.853461
 21
-2.352906
 31
0.0
  0
LINE
  5
199
330
30
100
AcDbEntity
  8
1
100
AcDbLine
 10
28.853461
 20
-2.352906
 30
0.0
 11
28.953461
 21
-2.39419
 31
0.0
  0
LINE
  5
19A
330
30
100
AcDbEntity
  8
1
100
AcDbLine
 10
28.953461
 20
-2.39419
 30
0.0
 11
29.053461
 21
-2.435156
 31
0.0
  0
LINE
  5
19B
330
30
100
AcDbEntity
  8
1
100
AcDbLine
 10
29.053461
 20
-2.435156
 30
0.0
 11
29.153461
 21
-2.475796
 31
0.0
  0
LINE
  5
19C
330
30
100
AcDbEntity
  8
1
100
AcDbLine
 10
29.153461
 20
-2.475796
 30
0.0
 11
29.253461
 21
-2.516107
 31
0.0
  0
LINE
  5
19D
330
30
100
AcDbEntity
  8
1
100
AcDbLine
 10
29.253461
 20
-2.516107
 30
0.0
 11
29.353461
 21
-2.556082
 31
0.0
  0
LINE
  5
19E
330
30
100
AcDbEntity
  8
1
100
AcDbLine
 10
29.353461
 20
-2.556082
 30
0.0
 11
29.453461
 21
-2.595716
 31
0.0
  0
LINE
  5
19F
330
30
100
AcDbEntity
  8
1
100
AcDbLine
 10
29.453461
 20
-2.595716
 30
0.0
 11
29.553461
 21
-2.635004
 31
0.0
  0
LINE
  5
1A0
330
30
100
AcDbEntity
  8
1
100
AcDbLine
 10
29.553461
 20
-2.635004
 30
0.0
 11
29.653461
 21
-2.673941
 31
0.0
  0
LINE
  5
1A1
330
30
100
AcDbEntity
  8
1
100
AcDbLine
 10
29.653461
 20
-2.673941
 30
0.0
 11
29.753461
 21
-2.712521
 31
0.0
  0
LINE
  5
1A2
330
30
100
AcDbEntity
  8
1
100
AcDbLine
 10
29.753461
 20
-2.712521
 30
0.0
 11
29.853461
 21
-2.75074
 31
0.0
  0
LINE
  5
1A3
330
30
100
AcDbEntity
  8
1
100
AcDbLine
 10
29.853461
 20
-2.75074
 30
0.0
 11
29.953461
 21
-2.788592
 31
0.0
  0
LINE
  5
1A4
330
30
100
AcDbEntity
  8
1
100
AcDbLine
 10
29.953461
 20
-2.788592
 30
0.0
 11
30.053461
 21
-2.826072
 31
0.0
  0
LINE
  5
1A5
330
30
100
AcDbEntity
  8
1
100
AcDbLine
 10
30.053461
 20
-2.826072
 30
0.0
 11
30.153461
 21
-2.863175
 31
0.0
  0
LINE
  5
1A6
330
30
100
AcDbEntity
  8
1
100
AcDbLine
 10
30.153461
 20
-2.863175
 30
0.0
 11
30.253461
 21
-2.899896
 31
0.0
  0
LINE
  5
1A7
330
30
100
AcDbEntity
  8
1
100
AcDbLine
 10
30.253461
 20
-2.899896
 30
0.0
 11
30.353461
 21
-2.936231
 31
0.0
  0
LINE
  5
1A8
330
30
100
AcDbEntity
  8
1
100
AcDbLine
 10
30.353461
 20
-2.936231
 30
0.0
 11
30.453461
 21
-2.972174
 31
0.0
  0
LINE
  5
1A9
330
30
100
AcDbEntity
  8
1
100
AcDbLine
 10
30.453461
 20
-2.972174
 30
0.0
 11
30.553461
 21
-3.007721
 31
0.0
  0
LINE
  5
1AA
330
30
100
AcDbEntity
  8
1
100
AcDbLine
 10
30.553461
 20
-3.007721
 30
0.0
 11
30.653461
 21
-3.042867
 31
0.0
  0
LINE
  5
1AB
330
30
100
AcDbEntity
  8
1
100
AcDbLine
 10
30.653461
 20
-3.042867
 30
0.0
 11
30.753461
 21
-3.077608
 31
0.0
  0
LINE
  5
1AC
330
30
100
AcDbEntity
  8
1
100
AcDbLine
 10
30.753461
 20
-3.077608
 30
0.0
 11
30.853461
 21
-3.111938
 31
0.0
  0
LINE
  5
1AD
330
30
100
AcDbEntity
  8
1
100
AcDbLine
 10
30.853461
 20
-3.111938
 30
0.0
 11
30.953461
 21
-3.145853
 31
0.0
  0
LINE
  5
1AE
330
30
100
AcDbEntity
  8
1
100
AcDbLine
 10
30.953461
 20
-3.145853
 30
0.0
 11
31.053461
 21
-3.179348
 31
0.0
  0
LINE
  5
1AF
330
30
100
AcDbEntity
  8
1
100
AcDbLine
 10
31.053461
 20
-3.179348
 30
0.0
 11
31.153461
 21
-3.21242
 31
0.0
  0
LINE
  5
1B0
330
30
100
AcDbEntity
  8
1
100
AcDbLine
 10
31.153461
 20
-3.21242
 30
0.0
 11
31.253461
 21
-3.245063
 31
0.0
  0
LINE
  5
1B1
330
30
100
AcDbEntity
  8
1
100
AcDbLine
 10
31.253461
 20
-3.245063
 30
0.0
 11
31.353461
 21
-3.277274
 31
0.0
  0
LINE
  5
1B2
330
30
100
AcDbEntity
  8
1
100
AcDbLine
 10
31.353461
 20
-3.277274
 30
0.0
 11
31.453461
 21
-3.309048
 31
0.0
  0
LINE
  5
1B3
330
30
100
AcDbEntity
  8
1
100
AcDbLine
 10
31.453461
 20
-3.309048
 30
0.0
 11
31.553461
 21
-3.34038
 31
0.0
  0
LINE
  5
1B4
330
30
100
AcDbEntity
  8
1
100
AcDbLine
 10
31.553461
 20
-3.34038
 30
0.0
 11
31.653461
 21
-3.371267
 31
0.0
  0
LINE
  5
1B5
330
30
100
AcDbEntity
  8
1
100
AcDbLine
 10
31.653461
 20
-3.371267
 30
0.0
 11
31.753461
 21
-3.401705
 31
0.0
  0
LINE
  5
1B6
330
30
100
AcDbEntity
  8
1
100
AcDbLine
 10
31.753461
 20
-3.401705
 30
0.0
 11
31.853461
 21
-3.431689
 31
0.0
  0
LINE
  5
1B7
330
30
100
AcDbEntity
  8
1
100
AcDbLine
 10
31.853461
 20
-3.431689
 30
0.0
 11
31.953461
 21
-3.461216
 31
0.0
  0
LINE
  5
1B8
330
30
100
AcDbEntity
  8
1
100
AcDbLine
 10
31.953461
 20
-3.461216
 30
0.0
 11
32.053461
 21
-3.490281
 31
0.0
  0
LINE
  5
1B9
330
30
100
AcDbEntity
  8
1
100
AcDbLine
 10
32.053461
 20
-3.490281
 30
0.0
 11
32.153461
 21
-3.518881
 31
0.0
  0
LINE
  5
1BA
330
30
100
AcDbEntity
  8
1
100
AcDbLine
 10
32.153461
 20
-3.518881
 30
0.0
 11
32.253461
 21
-3.547011
 31
0.0
  0
LINE
  5
1BB
330
30
100
AcDbEntity
  8
1
100
AcDbLine
 10
32.253461
 20
-3.547011
 30
0.0
 11
32.353461
 21
-3.574669
 31
0.0
  0
LINE
  5
1BC
330
30
100
AcDbEntity
  8
1
100
AcDbLine
 10
32.353461
 20
-3.574669
 30
0.0
 11
32.453461
 21
-3.60185
 31
0.0
  0
LINE
  5
1BD
330
30
100
AcDbEntity
  8
1
100
AcDbLine
 10
32.453461
 20
-3.60185
 30
0.0
 11
32.553461
 21
-3.62855
 31
0.0
  0
LINE
  5
1BE
330
30
100
AcDbEntity
  8
1
100
AcDbLine
 10
32.553461
 20
-3.62855
 30
0.0
 11
32.653461
 21
-3.654767
 31
0.0
  0
LINE
  5
1BF
330
30
100
AcDbEntity
  8
1
100
AcDbLine
 10
32.653461
 20
-3.654767
 30
0.0
 11
32.753461
 21
-3.680497
 31
0.0
  0
LINE
  5
1C0
330
30
100
AcDbEntity
  8
1
100
AcDbLine
 10
32.753461
 20
-3.680497
 30
0.0
 11
32.853461
 21
-3.705736
 31
0.0
  0
LINE
  5
1C1
330
30
100
AcDbEntity
  8
1
100
AcDbLine
 10
32.853461
 20
-3.705736
 30
0.0
 11
32.953461
 21
-3.730481
 31
0.0
  0
LINE
  5
1C2
330
30
100
AcDbEntity
  8
1
100
AcDbLine
 10
32.953461
 20
-3.730481
 30
0.0
 11
33.053461
 21
-3.754728
 31
0.0
  0
LINE
  5
1C3
330
30
100
AcDbEntity
  8
1
100
AcDbLine
 10
33.053461
 20
-3.754728
 30
0.0
 11
33.153461
 21
-3.778475
 31
0.0
  0
LINE
  5
1C4
330
30
100
AcDbEntity
  8
1
100
AcDbLine
 10
33.153461
 20
-3.778475
 30
0.0
 11
33.253461
 21
-3.801718
 31
0.0
  0
LINE
  5
1C5
330
30
100
AcDbEntity
  8
1
100
AcDbLine
 10
33.253461
 20
-3.801718
 30
0.0
 11
33.353461
 21
-3.824454
 31
0.0
  0
LINE
  5
1C6
330
30
100
AcDbEntity
  8
1
100
AcDbLine
 10
33.353461
 20
-3.824454
 30
0.0
 11
33.453461
 21
-3.84668
 31
0.0
  0
LINE
  5
1C7
330
30
100
AcDbEntity
  8
1
100
AcDbLine
 10
33.453461
 20
-3.84668
 30
0.0
 11
33.553461
 21
-3.868393
 31
0.0
  0
LINE
  5
1C8
330
30
100
AcDbEntity
  8
1
100
AcDbLine
 10
33.553461
 20
-3.868393
 30
0.0
 11
33.653461
 21
-3.889591
 31
0.0
  0
LINE
  5
1C9
330
30
100
AcDbEntity
  8
1
100
AcDbLine
 10
33.653461
 20
-3.889591
 30
0.0
 11
33.753461
 21
-3.91027
 31
0.0
  0
LINE
  5
1CA
330
30
100
AcDbEntity
  8
1
100
AcDbLine
 10
33.753461
 20
-3.91027
 30
0.0
 11
33.853461
 21
-3.930427
 31
0.0
  0
LINE
  5
1CB
330
30
100
AcDbEntity
  8
1
100
AcDbLine
 10
33.853461
 20
-3.930427
 30
0.0
 11
33.953461
 21
-3.950061
 31
0.0
  0
LINE
  5
1CC
330
30
100
AcDbEntity
  8
1
100
AcDbLine
 10
33.953461
 20
-3.950061
 30
0.0
 11
34.053461
 21
-3.969168
 31
0.0
  0
LINE
  5
1CD
330
30
100
AcDbEntity
  8
1
100
AcDbLine
 10
34.053461
 20
-3.969168
 30
0.0
 11
34.153461
 21
-3.987745
 31
0.0
  0
LINE
  5
1CE
330
30
100
AcDbEntity
  8
1
100
AcDbLine
 10
34.153461
 20
-3.987745
 30
0.0
 11
34.253461
 21
-4.005791
 31
0.0
  0
LINE
  5
1CF
330
30
100
AcDbEntity
  8
1
100
AcDbLine
 10
34.253461
 20
-4.005791
 30
0.0
 11
34.353461
 21
-4.023303
 31
0.0
  0
LINE
  5
1D0
330
30
100
AcDbEntity
  8
1
100
AcDbLine
 10
34.353461
 20
-4.023303
 30
0.0
 11
34.453461
 21
-4.040278
 31
0.0
  0
LINE
  5
1D1
330
30
100
AcDbEntity
  8
1
100
AcDbLine
 10
34.453461
 20
-4.040278
 30
0.0
 11
34.553461
 21
-4.056715
 31
0.0
  0
LINE
  5
1D2
330
30
100
AcDbEntity
  8
1
100
AcDbLine
 10
34.553461
 20
-4.056715
 30
0.0
 11
34.653461
 21
-4.072611
 31
0.0
  0
LINE
  5
1D3
330
30
100
AcDbEntity
  8
1
100
AcDbLine
 10
34.653461
 20
-4.072611
 30
0.0
 11
34.753461
 21
-4.087964
 31
0.0
  0
LINE
  5
1D4
330
30
100
AcDbEntity
  8
1
100
AcDbLine
 10
34.753461
 20
-4.087964
 30
0.0
 11
34.853461
 21
-4.102771
 31
0.0
  0
LINE
  5
1D5
330
30
100
AcDbEntity
  8
1
100
AcDbLine
 10
34.853461
 20
-4.102771
 30
0.0
 11
34.953461
 21
-4.117032
 31
0.0
  0
LINE
  5
1D6
330
30
100
AcDbEntity
  8
1
100
AcDbLine
 10
34.953461
 20
-4.117032
 30
0.0
 11
35.053461
 21
-4.130744
 31
0.0
  0
LINE
  5
1D7
330
30
100
AcDbEntity
  8
1
100
AcDbLine
 10
35.053461
 20
-4.130744
 30
0.0
 11
35.153461
 21
-4.143905
 31
0.0
  0
LINE
  5
1D8
330
30
100
AcDbEntity
  8
1
100
AcDbLine
 10
35.153461
 20
-4.143905
 30
0.0
 11
35.253461
 21
-4.156513
 31
0.0
  0
LINE
  5
1D9
330
30
100
AcDbEntity
  8
1
100
AcDbLine
 10
35.253461
 20
-4.156513
 30
0.0
 11
35.353461
 21
-4.168568
 31
0.0
  0
LINE
  5
1DA
330
30
100
AcDbEntity
  8
1
100
AcDbLine
 10
35.353461
 20
-4.168568
 30
0.0
 11
35.453461
 21
-4.180066
 31
0.0
  0
LINE
  5
1DB
330
30
100
AcDbEntity
  8
1
100
AcDbLine
 10
35.453461
 20
-4.180066
 30
0.0
 11
35.553461
 21
-4.191007
 31
0.0
  0
LINE
  5
1DC
330
30
100
AcDbEntity
  8
1
100
AcDbLine
 10
35.553461
 20
-4.191007
 30
0.0
 11
35.653461
 21
-4.20139
 31
0.0
  0
LINE
  5
1DD
330
30
100
AcDbEntity
  8
1
100
AcDbLine
 10
35.653461
 20
-4.20139
 30
0.0
 11
35.753461
 21
-4.211212
 31
0.0
  0
LINE
  5
1DE
330
30
100
AcDbEntity
  8
1
100
AcDbLine
 10
35.753461
 20
-4.211212
 30
0.0
 11
35.853461
 21
-4.220473
 31
0.0
  0
LINE
  5
1DF
330
30
100
AcDbEntity
  8
1
100
AcDbLine
 10
35.853461
 20
-4.220473
 30
0.0
 11
35.953461
 21
-4.229171
 31
0.0
  0
LINE
  5
1E0
330
30
100
AcDbEntity
  8
1
100
AcDbLine
 10
35.953461
 20
-4.229171
 30
0.0
 11
36.053461
 21
-4.237305
 31
0.0
  0
LINE
  5
1E1
330
30
100
AcDbEntity
  8
1
100
AcDbLine
 10
36.053461
 20
-4.237305
 30
0.0
 11
36.153461
 21
-4.244874
 31
0.0
  0
LINE
  5
1E2
330
30
100
AcDbEntity
  8
1
100
AcDbLine
 10
36.153461
 20
-4.244874
 30
0.0
 11
36.253461
 21
-4.149657
 31
0.0
  0
LINE
  5
1E3
330
30
100
AcDbEntity
  8
1
100
AcDbLine
 10
36.153461
 20
-4.35
 30
0.0
 11
36.153461
 21
4.35
 31
0.0
  0
LINE
  5
1E4
330
30
100
AcDbEntity
  8
1
100
AcDbLine
 10
36.153461
 20
4.35
 30
0.0
 11
36.153461
 21
-4.35
 31
0.0
  0
LINE
  5
1E5
330
30
100
AcDbEntity
  8
1
100
AcDbLine
 10
36.253461
 20
-3.818837
 30
0.0
 11
36.153461
 21
-3.918331
 31
0.0
  0
LINE
  5
1E6
330
30
100
AcDbEntity
  8
1
100
AcDbLine
 10
36.153461
 20
-3.918331
 30
0.0
 11
36.053461
 21
-3.896255
 31
0.0
  0
LINE
  5
1E7
330
30
100
AcDbEntity
  8
1
100
AcDbLine
 10
36.053461
 20
-3.896255
 30
0.0
 11
35.953461
 21
-3.87366
 31
0.0
  0
LINE
  5
1E8
330
30
100
AcDbEntity
  8
1
100
AcDbLine
 10
35.953461
 20
-3.87366
 30
0.0
 11
35.853461
 21
-3.850548
 31
0.0
  0
LINE
  5
1E9
330
30
100
AcDbEntity
  8
1
100
AcDbLine
 10
35.853461
 20
-3.850548
 30
0.0
 11
35.753461
 21
-3.826923
 31
0.0
  0
LINE
  5
1EA
330
30
100
AcDbEntity
  8
1
100
AcDbLine
 10
35.753461
 20
-3.826923
 30
0.0
 11
35.653461
 21
-3.802788
 31
0.0
  0
LINE
  5
1EB
330
30
100
AcDbEntity
  8
1
100
AcDbLine
 10
35.653461
 20
-3.802788
 30
0.0
 11
35.553461
 21
-3.778146
 31
0.0
  0
LINE
  5
1EC
330
30
100
AcDbEntity
  8
1
100
AcDbLine
 10
35.553461
 20
-3.778146
 30
0.0
 11
35.453461
 21
-3.752999
 31
0.0
  0
LINE
  5
1ED
330
30
100
AcDbEntity
  8
1
100
AcDbLine
 10
35.453461
 20
-3.752999
 30
0.0
 11
35.353461
 21
-3.727353
 31
0.0
  0
LINE
  5
1EE
330
30
100
AcDbEntity
  8
1
100
AcDbLine
 10
35.353461
 20
-3.727353
 30
0.0
 11
35.253461
 21
-3.70121
 31
0.0
  0
LINE
  5
1EF
330
30
100
AcDbEntity
  8
1
100
AcDbLine
 10
35.253461
 20
-3.70121
 30
0.0
 11
35.153461
 21
-3.674573
 31
0.0
  0
LINE
  5
1F0
330
30
100
AcDbEntity
  8
1
100
AcDbLine
 10
35.153461
 20
-3.674573
 30
0.0
 11
35.053461
 21
-3.647446
 31
0.0
  0
LINE
  5
1F1
330
30
100
AcDbEntity
  8
1
100
AcDbLine
 10
35.053461
 20
-3.647446
 30
0.0
 11
34.953461
 21
-3.619833
 31
0.0
  0
LINE
  5
1F2
330
30
100
AcDbEntity
  8
1
100
AcDbLine
 10
34.953461
 20
-3.619833
 30
0.0
 11
34.853461
 21
-3.591737
 31
0.0
  0
LINE
  5
1F3
330
30
100
AcDbEntity
  8
1
100
AcDbLine
 10
34.853461
 20
-3.591737
 30
0.0
 11
34.753461
 21
-3.563162
 31
0.0
  0
LINE
  5
1F4
330
30
100
AcDbEntity
  8
1
100
AcDbLine
 10
34.753461
 20
-3.563162
 30
0.0
 11
34.653461
 21
-3.534112
 31
0.0
  0
LINE
  5
1F5
330
30
100
AcDbEntity
  8
1
100
AcDbLine
 10
34.653461
 20
-3.534112
 30
0.0
 11
34.553461
 21
-3.504591
 31
0.0
  0
LINE
  5
1F6
330
30
100
AcDbEntity
  8
1
100
AcDbLine
 10
34.553461
 20
-3.504591
 30
0.0
 11
34.453461
 21
-3.474603
 31
0.0
  0
LINE
  5
1F7
330
30
100
AcDbEntity
  8
1
100
AcDbLine
 10
34.453461
 20
-3.474603
 30
0.0
 11
34.353461
 21
-3.444151
 31
0.0
  0
LINE
  5
1F8
330
30
100
AcDbEntity
  8
1
100
AcDbLine
 10
34.353461
 20
-3.444151
 30
0.0
 11
34.253461
 21
-3.413241
 31
0.0
  0
LINE
  5
1F9
330
30
100
AcDbEntity
  8
1
100
AcDbLine
 10
34.253461
 20
-3.413241
 30
0.0
 11
34.153461
 21
-3.381875
 31
0.0
  0
LINE
  5
1FA
330
30
100
AcDbEntity
  8
1
100
AcDbLine
 10
34.153461
 20
-3.381875
 30
0.0
 11
34.053461
 21
-3.350058
 31
0.0
  0
LINE
  5
1FB
330
30
100
AcDbEntity
  8
1
100
AcDbLine
 10
34.053461
 20
-3.350058
 30
0.0
 11
33.953461
 21
-3.317794
 31
0.0
  0
LINE
  5
1FC
330
30
100
AcDbEntity
  8
1
100
AcDbLine
 10
33.953461
 20
-3.317794
 30
0.0
 11
33.853461
 21
-3.285089
 31
0.0
  0
LINE
  5
1FD
330
30
100
AcDbEntity
  8
1
100
AcDbLine
 10
33.853461
 20
-3.285089
 30
0.0
 11
33.753461
 21
-3.251945
 31
0.0
  0
LINE
  5
1FE
330
30
100
AcDbEntity
  8
1
100
AcDbLine
 10
33.753461
 20
-3.251945
 30
0.0
 11
33.653461
 21
-3.218367
 31
0.0
  0
LINE
  5
1FF
330
30
100
AcDbEntity
  8
1
100
AcDbLine
 10
33.653461
 20
-3.218367
 30
0.0
 11
33.553461
 21
-3.184361
 31
0.0
  0
LINE
  5
200
330
30
100
AcDbEntity
  8
1
100
AcDbLine
 10
33.553461
 20
-3.184361
 30
0.0
 11
33.453461
 21
-3.14993
 31
0.0
  0
LINE
  5
201
330
30
100
AcDbEntity
  8
1
100
AcDbLine
 10
33.453461
 20
-3.14993
 30
0.0
 11
33.353461
 21
-3.115079
 31
0.0
  0
LINE
  5
202
330
30
100
AcDbEntity
  8
1
100
AcDbLine
 10
33.353461
 20
-3.115079
 30
0.0
 11
33.253461
 21
-3.079812
 31
0.0
  0
LINE
  5
203
330
30
100
AcDbEntity
  8
1
100
AcDbLine
 10
33.253461
 20
-3.079812
 30
0.0
 11
33.153461
 21
-3.044135
 31
0.0
  0
LINE
  5
204
330
30
100
AcDbEntity
  8
1
100
AcDbLine
 10
33.153461
 20
-3.044135
 30
0.0
 11
33.053461
 21
-3.008052
 31
0.0
  0
LINE
  5
205
330
30
100
AcDbEntity
  8
1
100
AcDbLine
 10
33.053461
 20
-3.008052
 30
0.0
 11
32.953461
 21
-2.971568
 31
0.0
  0
LINE
  5
206
330
30
100
AcDbEntity
  8
1
100
AcDbLine
 10
32.953461
 20
-2.971568
 30
0.0
 11
32.853461
 21
-2.934688
 31
0.0
  0
LINE
  5
207
330
30
100
AcDbEntity
  8
1
100
AcDbLine
 10
32.853461
 20
-2.934688
 30
0.0
 11
32.753461
 21
-2.897416
 31
0.0
  0
LINE
  5
208
330
30
100
AcDbEntity
  8
1
100
AcDbLine
 10
32.753461
 20
-2.897416
 30
0.0
 11
32.653461
 21
-2.859759
 31
0.0
  0
LINE
  5
209
330
30
100
AcDbEntity
  8
1
100
AcDbLine
 10
32.653461
 20
-2.859759
 30
0.0
 11
32.553461
 21
-2.821719
 31
0.0
  0
LINE
  5
20A
330
30
100
AcDbEntity
  8
1
100
AcDbLine
 10
32.553461
 20
-2.821719
 30
0.0
 11
32.453461
 21
-2.783304
 31
0.0
  0
LINE
  5
20B
330
30
100
AcDbEntity
  8
1
100
AcDbLine
 10
32.453461
 20
-2.783304
 30
0.0
 11
32.353461
 21
-2.744518
 31
0.0
  0
LINE
  5
20C
330
30
100
AcDbEntity
  8
1
100
AcDbLine
 10
32.353461
 20
-2.744518
 30
0.0
 11
32.253461
 21
-2.705365
 31
0.0
  0
LINE
  5
20D
330
30
100
AcDbEntity
  8
1
100
AcDbLine
 10
32.253461
 20
-2.705365
 30
0.0
 11
32.153461
 21
-2.665852
 31
0.0
  0
LINE
  5
20E
330
30
100
AcDbEntity
  8
1
100
AcDbLine
 10
32.153461
 20
-2.665852
 30
0.0
 11
32.053461
 21
-2.625984
 31
0.0
  0
LINE
  5
20F
330
30
100
AcDbEntity
  8
1
100
AcDbLine
 10
32.053461
 20
-2.625984
 30
0.0
 11
31.953461
 21
-2.585765
 31
0.0
  0
LINE
  5
210
330
30
100
AcDbEntity
  8
1
100
AcDbLine
 10
31.953461
 20
-2.585765
 30
0.0
 11
31.853461
 21
-2.545202
 31
0.0
  0
LINE
  5
211
330
30
100
AcDbEntity
  8
1
100
AcDbLine
 10
31.853461
 20
-2.545202
 30
0.0
 11
31.753461
 21
-2.504299
 31
0.0
  0
LINE
  5
212
330
30
100
AcDbEntity
  8
1
100
AcDbLine
 10
31.753461
 20
-2.504299
 30
0.0
 11
31.653461
 21
-2.463062
 31
0.0
  0
LINE
  5
213
330
30
100
AcDbEntity
  8
1
100
AcDbLine
 10
31.653461
 20
-2.463062
 30
0.0
 11
31.553461
 21
-2.421497
 31
0.0
  0
LINE
  5
214
330
30
100
AcDbEntity
  8
1
100
AcDbLine
 10
31.553461
 20
-2.421497
 30
0.0
 11
31.453461
 21
-2.379609
 31
0.0
  0
LINE
  5
215
330
30
100
AcDbEntity
  8
1
100
AcDbLine
 10
31.453461
 20
-2.379609
 30
0.0
 11
31.353461
 21
-2.337404
 31
0.0
  0
LINE
  5
216
330
30
100
AcDbEntity
  8
1
100
AcDbLine
 10
31.353461
 20
-2.337404
 30
0.0
 11
31.253461
 21
-2.294887
 31
0.0
  0
LINE
  5
217
330
30
100
AcDbEntity
  8
1
100
AcDbLine
 10
31.253461
 20
-2.294887
 30
0.0
 11
31.153461
 21
-2.252064
 31
0.0
  0
LINE
  5
218
330
30
100
AcDbEntity
  8
1
100
AcDbLine
 10
31.153461
 20
-2.252064
 30
0.0
 11
31.053461
 21
-2.208941
 31
0.0
  0
LINE
  5
219
330
30
100
AcDbEntity
  8
1
100
AcDbLine
 10
31.053461
 20
-2.208941
 30
0.0
 11
30.953461
 21
-2.165523
 31
0.0
  0
LINE
  5
21A
330
30
100
AcDbEntity
  8
1
100
AcDbLine
 10
30.953461
 20
-2.165523
 30
0.0
 11
30.853461
 21
-2.121817
 31
0.0
  0
LINE
  5
21B
330
30
100
AcDbEntity
  8
1
100
AcDbLine
 10
30.853461
 20
-2.121817
 30
0.0
 11
30.753461
 21
-2.077828
 31
0.0
  0
LINE
  5
21C
330
30
100
AcDbEntity
  8
1
100
AcDbLine
 10
30.753461
 20
-2.077828
 30
0.0
 11
30.653461
 21
-2.033561
 31
0.0
  0
LINE
  5
21D
330
30
100
AcDbEntity
  8
1
100
AcDbLine
 10
30.653461
 20
-2.033561
 30
0.0
 11
30.553461
 21
-1.989024
 31
0.0
  0
LINE
  5
21E
330
30
100
AcDbEntity
  8
1
100
AcDbLine
 10
30.553461
 20
-1.989024
 30
0.0
 11
30.453461
 21
-1.944221
 31
0.0
  0
LINE
  5
21F
330
30
100
AcDbEntity
  8
1
100
AcDbLine
 10
30.453461
 20
-1.944221
 30
0.0
 11
30.353461
 21
-1.899159
 31
0.0
  0
LINE
  5
220
330
30
100
AcDbEntity
  8
1
100
AcDbLine
 10
30.353461
 20
-1.899159
 30
0.0
 11
30.253461
 21
-1.853844
 31
0.0
  0
LINE
  5
221
330
30
100
AcDbEntity
  8
1
100
AcDbLine
 10
30.253461
 20
-1.853844
 30
0.0
 11
30.153461
 21
-1.808282
 31
0.0
  0
LINE
  5
222
330
30
100
AcDbEntity
  8
1
100
AcDbLine
 10
30.153461
 20
-1.808282
 30
0.0
 11
30.053461
 21
-1.762478
 31
0.0
  0
LINE
  5
223
330
30
100
AcDbEntity
  8
1
100
AcDbLine
 10
30.053461
 20
-1.762478
 30
0.0
 11
29.953461
 21
-1.71644
 31
0.0
  0
LINE
  5
224
330
30
100
AcDbEntity
  8
1
100
AcDbLine
 10
29.953461
 20
-1.71644
 30
0.0
 11
29.853461
 21
-1.670173
 31
0.0
  0
LINE
  5
225
330
30
100
AcDbEntity
  8
1
100
AcDbLine
 10
29.853461
 20
-1.670173
 30
0.0
 11
29.753461
 21
-1.623683
 31
0.0
  0
LINE
  5
226
330
30
100
AcDbEntity
  8
1
100
AcDbLine
 10
29.753461
 20
-1.623683
 30
0.0
 11
29.653461
 21
-1.576976
 31
0.0
  0
LINE
  5
227
330
30
100
AcDbEntity
  8
1
100
AcDbLine
 10
29.653461
 20
-1.576976
 30
0.0
 11
29.553461
 21
-1.53006
 31
0.0
  0
LINE
  5
228
330
30
100
AcDbEntity
  8
1
100
AcDbLine
 10
29.553461
 20
-1.53006
 30
0.0
 11
29.453461
 21
-1.482939
 31
0.0
  0
LINE
  5
229
330
30
100
AcDbEntity
  8
1
100
AcDbLine
 10
29.453461
 20
-1.482939
 30
0.0
 11
29.353461
 21
-1.43562
 31
0.0
  0
LINE
  5
22A
330
30
100
AcDbEntity
  8
1
100
AcDbLine
 10
29.353461
 20
-1.43562
 30
0.0
 11
29.253461
 21
-1.388111
 31
0.0
  0
LINE
  5
22B
330
30
100
AcDbEntity
  8
1
100
AcDbLine
 10
29.253461
 20
-1.388111
 30
0.0
 11
29.153461
 21
-1.340416
 31
0.0
  0
LINE
  5
22C
330
30
100
AcDbEntity
  8
1
100
AcDbLine
 10
29.153461
 20
-1.340416
 30
0.0
 11
29.053461
 21
-1.292542
 31
0.0
  0
LINE
  5
22D
330
30
100
AcDbEntity
  8
1
100
AcDbLine
 10
29.053461
 20
-1.292542
 30
0.0
 11
28.953461
 21
-1.244496
 31
0.0
  0
LINE
  5
22E
330
30
100
AcDbEntity
  8
1
100
AcDbLine
 10
28.953461
 20
-1.244496
 30
0.0
 11
28.853461
 21
-1.196284
 31
0.0
  0
LINE
  5
22F
330
30
100
AcDbEntity
  8
1
100
AcDbLine
 10
28.853461
 20
-1.196284
 30
0.0
 11
28.753461
 21
-1.147913
 31
0.0
  0
LINE
  5
230
330
30
100
AcDbEntity
  8
1
100
AcDbLine
 10
28.753461
 20
-1.147913
 30
0.0
 11
28.653461
 21
-1.099388
 31
0.0
  0
LINE
  5
231
330
30
100
AcDbEntity
  8
1
100
AcDbLine
 10
28.653461
 20
-1.099388
 30
0.0
 11
28.553461
 21
-1.050717
 31
0.0
  0
LINE
  5
232
330
30
100
AcDbEntity
  8
1
100
AcDbLine
 10
28.553461
 20
-1.050717
 30
0.0
 11
28.453461
 21
-1.001906
 31
0.0
  0
LINE
  5
233
330
30
100
AcDbEntity
  8
1
100
AcDbLine
 10
28.453461
 20
-1.001906
 30
0.0
 11
28.353461
 21
-0.952961
 31
0.0
  0
LINE
  5
234
330
30
100
AcDbEntity
  8
1
100
AcDbLine
 10
28.353461
 20
-0.952961
 30
0.0
 11
28.253461
 21
-0.90389
 31
0.0
  0
LINE
  5
235
330
30
100
AcDbEntity
  8
1
100
AcDbLine
 10
28.253461
 20
-0.90389
 30
0.0
 11
28.153461
 21
-0.854697
 31
0.0
  0
LINE
  5
236
330
30
100
AcDbEntity
  8
1
100
AcDbLine
 10
28.153461
 20
-0.854697
 30
0.0
 11
28.053461
 21
-0.805391
 31
0.0
  0
LINE
  5
237
330
30
100
AcDbEntity
  8
1
100
AcDbLine
 10
28.053461
 20
-0.805391
 30
0.0
 11
27.953461
 21
-0.755978
 31
0.0
  0
LINE
  5
238
330
30
100
AcDbEntity
  8
1
100
AcDbLine
 10
27.953461
 20
-0.755978
 30
0.0
 11
27.853461
 21
-0.706463
 31
0.0
  0
LINE
  5
239
330
30
100
AcDbEntity
  8
1
100
AcDbLine
 10
27.853461
 20
-0.706463
 30
0.0
 11
27.753461
 21
-0.656854
 31
0.0
  0
LINE
  5
23A
330
30
100
AcDbEntity
  8
1
100
AcDbLine
 10
27.753461
 20
-0.656854
 30
0.0
 11
27.653461
 21
-0.607158
 31
0.0
  0
LINE
  5
23B
330
30
100
AcDbEntity
  8
1
100
AcDbLine
 10
27.653461
 20
-0.607158
 30
0.0
 11
27.553461
 21
-0.557381
 31
0.0
  0
LINE
  5
23C
330
30
100
AcDbEntity
  8
1
100
AcDbLine
 10
27.553461
 20
-0.557381
 30
0.0
 11
27.453461
 21
-0.50753
 31
0.0
  0
LINE
  5
23D
330
30
100
AcDbEntity
  8
1
100
AcDbLine
 10
27.453461
 20
-0.50753
 30
0.0
 11
27.353461
 21
-0.45761
 31
0.0
  0
LINE
  5
23E
330
30
100
AcDbEntity
  8
1
100
AcDbLine
 10
27.353461
 20
-0.45761
 30
0.0
 11
27.253461
 21
-0.40763
 31
0.0
  0
LINE
  5
23F
330
30
100
AcDbEntity
  8
1
100
AcDbLine
 10
27.253461
 20
-0.40763
 30
0.0
 11
27.153461
 21
-0.357596
 31
0.0
  0
LINE
  5
240
330
30
100
AcDbEntity
  8
1
100
AcDbLine
 10
27.153461
 20
-0.357596
 30
0.0
 11
27.053461
 21
-0.307514
 31
0.0
  0
LINE
  5
241
330
30
100
AcDbEntity
  8
1
100
AcDbLine
 10
27.053461
 20
-0.307514
 30
0.0
 11
26.953461
 21
-0.25739
 31
0.0
  0
LINE
  5
242
330
30
100
AcDbEntity
  8
1
100
AcDbLine
 10
26.953461
 20
-0.25739
 30
0.0
 11
26.853461
 21
-0.207233
 31
0.0
  0
LINE
  5
243
330
30
100
AcDbEntity
  8
1
100
AcDbLine
 10
26.853461
 20
-0.207233
 30
0.0
 11
26.753461
 21
-0.157048
 31
0.0
  0
LINE
  5
244
330
30
100
AcDbEntity
  8
1
100
AcDbLine
 10
26.753461
 20
-0.157048
 30
0.0
 11
26.653461
 21
-0.106842
 31
0.0
  0
LINE
  5
245
330
30
100
AcDbEntity
  8
1
100
AcDbLine
 10
26.653461
 20
-0.106842
 30
0.0
 11
26.553461
 21
-0.056621
 31
0.0
  0
LINE
  5
246
330
30
100
AcDbEntity
  8
1
100
AcDbLine
 10
26.553461
 20
-0.056621
 30
0.0
 11
26.453461
 21
-0.006393
 31
0.0
  0
LINE
  5
247
330
30
100
AcDbEntity
  8
1
100
AcDbLine
 10
26.453461
 20
-0.006393
 30
0.0
 11
26.353461
 21
0.043835
 31
0.0
  0
LINE
  5
248
330
30
100
AcDbEntity
  8
1
100
AcDbLine
 10
26.353461
 20
0.043835
 30
0.0
 11
26.253461
 21
0.094058
 31
0.0
  0
LINE
  5
249
330
30
100
AcDbEntity
  8
1
100
AcDbLine
 10
26.253461
 20
0.094058
 30
0.0
 11
26.153461
 21
0.144269
 31
0.0
  0
LINE
  5
24A
330
30
100
AcDbEntity
  8
1
100
AcDbLine
 10
26.153461
 20
0.144269
 30
0.0
 11
26.053461
 21
0.19446
 31
0.0
  0
LINE
  5
24B
330
30
100
AcDbEntity
  8
1
100
AcDbLine
 10
26.053461
 20
0.19446
 30
0.0
 11
25.953461
 21
0.244625
 31
0.0
  0
LINE
  5
24C
330
30
100
AcDbEntity
  8
1
100
AcDbLine
 10
25.953461
 20
0.244625
 30
0.0
 11
25.853461
 21
0.294757
 31
0.0
  0
LINE
  5
24D
330
30
100
AcDbEntity
  8
1
100
AcDbLine
 10
25.853461
 20
0.294757
 30
0.0
 11
25.753461
 21
0.344851
 31
0.0
  0
LINE
  5
24E
330
30
100
AcDbEntity
  8
1
100
AcDbLine
 10
25.753461
 20
0.344851
 30
0.0
 11
25.653461
 21
0.394898
 31
0.0
  0
LINE
  5
24F
330
30
100
AcDbEntity
  8
1
100
AcDbLine
 10
25.653461
 20
0.394898
 30
0.0
 11
25.553461
 21
0.444893
 31
0.0
  0
LINE
  5
250
330
30
100
AcDbEntity
  8
1
100
AcDbLine
 10
25.553461
 20
0.444893
 30
0.0
 11
25.453461
 21
0.494828
 31
0.0
  0
LINE
  5
251
330
30
100
AcDbEntity
  8
1
100
AcDbLine
 10
25.453461
 20
0.494828
 30
0.0
 11
25.353461
 21
0.544697
 31
0.0
  0
LINE
  5
252
330
30
100
AcDbEntity
  8
1
100
AcDbLine
 10
25.353461
 20
0.544697
 30
0.0
 11
25.253461
 21
0.594494
 31
0.0
  0
LINE
  5
253
330
30
100
AcDbEntity
  8
1
100
AcDbLine
 10
25.253461
 20
0.594494
 30
0.0
 11
25.153461
 21
0.644211
 31
0.0
  0
LINE
  5
254
330
30
100
AcDbEntity
  8
1
100
AcDbLine
 10
25.153461
 20
0.644211
 30
0.0
 11
25.053461
 21
0.693843
 31
0.0
  0
LINE
  5
255
330
30
100
AcDbEntity
  8
1
100
AcDbLine
 10
25.053461
 20
0.693843
 30
0.0
 11
24.953461
 21
0.743382
 31
0.0
  0
LINE
  5
256
330
30
100
AcDbEntity
  8
1
100
AcDbLine
 10
24.953461
 20
0.743382
 30
0.0
 11
24.853461
 21
0.792822
 31
0.0
  0
LINE
  5
257
330
30
100
AcDbEntity
  8
1
100
AcDbLine
 10
24.853461
 20
0.792822
 30
0.0
 11
24.753461
 21
0.842156
 31
0.0
  0
LINE
  5
258
330
30
100
AcDbEntity
  8
1
100
AcDbLine
 10
24.753461
 20
0.842156
 30
0.0
 11
24.653461
 21
0.891378
 31
0.0
  0
LINE
  5
259
330
30
100
AcDbEntity
  8
1
100
AcDbLine
 10
24.653461
 20
0.891378
 30
0.0
 11
24.553461
 21
0.940481
 31
0.0
  0
LINE
  5
25A
330
30
100
AcDbEntity
  8
1
100
AcDbLine
 10
24.553461
 20
0.940481
 30
0.0
 11
24.453461
 21
0.989459
 31
0.0
  0
LINE
  5
25B
330
30
100
AcDbEntity
  8
1
100
AcDbLine
 10
24.453461
 20
0.989459
 30
0.0
 11
24.353461
 21
1.038305
 31
0.0
  0
LINE
  5
25C
330
30
100
AcDbEntity
  8
1
100
AcDbLine
 10
24.353461
 20
1.038305
 30
0.0
 11
24.253461
 21
1.087012
 31
0.0
  0
LINE
  5
25D
330
30
100
AcDbEntity
  8
1
100
AcDbLine
 10
24.253461
 20
1.087012
 30
0.0
 11
24.153461
 21
1.135574
 31
0.0
  0
LINE
  5
25E
330
30
100
AcDbEntity
  8
1
100
AcDbLine
 10
24.153461
 20
1.135574
 30
0.0
 11
24.053461
 21
1.183985
 31
0.0
  0
LINE
  5
25F
330
30
100
AcDbEntity
  8
1
100
AcDbLine
 10
24.053461
 20
1.183985
 30
0.0
 11
23.953461
 21
1.232238
 31
0.0
  0
LINE
  5
260
330
30
100
AcDbEntity
  8
1
100
AcDbLine
 10
23.953461
 20
1.232238
 30
0.0
 11
23.853461
 21
1.280327
 31
0.0
  0
LINE
  5
261
330
30
100
AcDbEntity
  8
1
100
AcDbLine
 10
23.853461
 20
1.280327
 30
0.0
 11
23.753461
 21
1.328245
 31
0.0
  0
LINE
  5
262
330
30
100
AcDbEntity
  8
1
100
AcDbLine
 10
23.753461
 20
1.328245
 30
0.0
 11
23.653461
 21
1.375986
 31
0.0
  0
LINE
  5
263
330
30
100
AcDbEntity
  8
1
100
AcDbLine
 10
23.653461
 20
1.375986
 30
0.0
 11
23.553461
 21
1.423544
 31
0.0
  0
LINE
  5
264
330
30
100
AcDbEntity
  8
1
100
AcDbLine
 10
23.553461
 20
1.423544
 30
0.0
 11
23.453461
 21
1.470912
 31
0.0
  0
LINE
  5
265
330
30
100
AcDbEntity
  8
1
100
AcDbLine
 10
23.453461
 20
1.470912
 30
0.0
 11
23.353461
 21
1.518083
 31
0.0
  0
LINE
  5
266
330
30
100
AcDbEntity
  8
1
100
AcDbLine
 10
23.353461
 20
1.518083
 30
0.0
 11
23.253461
 21
1.565052
 31
0.0
  0
LINE
  5
267
330
30
100
AcDbEntity
  8
1
100
AcDbLine
 10
23.253461
 20
1.565052
 30
0.0
 11
23.153461
 21
1.611813
 31
0.0
  0
LINE
  5
268
330
30
100
AcDbEntity
  8
1
100
AcDbLine
 10
23.153461
 20
1.611813
 30
0.0
 11
23.053461
 21
1.658359
 31
0.0
  0
LINE
  5
269
330
30
100
AcDbEntity
  8
1
100
AcDbLine
 10
23.053461
 20
1.658359
 30
0.0
 11
22.953461
 21
1.704683
 31
0.0
  0
LINE
  5
26A
330
30
100
AcDbEntity
  8
1
100
AcDbLine
 10
22.953461
 20
1.704683
 30
0.0
 11
22.853461
 21
1.75078
 31
0.0
  0
LINE
  5
26B
330
30
100
AcDbEntity
  8
1
100
AcDbLine
 10
22.853461
 20
1.75078
 30
0.0
 11
22.753461
 21
1.796644
 31
0.0
  0
LINE
  5
26C
330
30
100
AcDbEntity
  8
1
100
AcDbLine
 10
22.753461
 20
1.796644
 30
0.0
 11
22.653461
 21
1.842268
 31
0.0
  0
LINE
  5
26D
330
30
100
AcDbEntity
  8
1
100
AcDbLine
 10
22.653461
 20
1.842268
 30
0.0
 11
22.553461
 21
1.887647
 31
0.0
  0
LINE
  5
26E
330
30
100
AcDbEntity
  8
1
100
AcDbLine
 10
22.553461
 20
1.887647
 30
0.0
 11
22.453461
 21
1.932774
 31
0.0
  0
LINE
  5
26F
330
30
100
AcDbEntity
  8
1
100
AcDbLine
 10
22.453461
 20
1.932774
 30
0.0
 11
22.353461
 21
1.977643
 31
0.0
  0
LINE
  5
270
330
30
100
AcDbEntity
  8
1
100
AcDbLine
 10
22.353461
 20
1.977643
 30
0.0
 11
22.253461
 21
2.022249
 31
0.0
  0
LINE
  5
271
330
30
100
AcDbEntity
  8
1
100
AcDbLine
 10
22.253461
 20
2.022249
 30
0.0
 11
22.153461
 21
2.066585
 31
0.0
  0
LINE
  5
272
330
30
100
AcDbEntity
  8
1
100
AcDbLine
 10
22.153461
 20
2.066585
 30
0.0
 11
22.053461
 21
2.110645
 31
0.0
  0
LINE
  5
273
330
30
100
AcDbEntity
  8
1
100
AcDbLine
 10
22.053461
 20
2.110645
 30
0.0
 11
21.953461
 21
2.154424
 31
0.0
  0
LINE
  5
274
330
30
100
AcDbEntity
  8
1
100
AcDbLine
 10
21.953461
 20
2.154424
 30
0.0
 11
21.853461
 21
2.197916
 31
0.0
  0
LINE
  5
275
330
30
100
AcDbEntity
  8
1
100
AcDbLine
 10
21.853461
 20
2.197916
 30
0.0
 11
21.753461
 21
2.241114
 31
0.0
  0
LINE
  5
276
330
30
100
AcDbEntity
  8
1
100
AcDbLine
 10
21.753461
 20
2.241114
 30
0.0
 11
21.653461
 21
2.284014
 31
0.0
  0
LINE
  5
277
330
30
100
AcDbEntity
  8
1
100
AcDbLine
 10
21.653461
 20
2.284014
 30
0.0
 11
21.553461
 21
2.32661
 31
0.0
  0
LINE
  5
278
330
30
100
AcDbEntity
  8
1
100
AcDbLine
 10
21.553461
 20
2.32661
 30
0.0
 11
21.453461
 21
2.368895
 31
0.0
  0
LINE
  5
279
330
30
100
AcDbEntity
  8
1
100
AcDbLine
 10
21.453461
 20
2.368895
 30
0.0
 11
21.353461
 21
2.410864
 31
0.0
  0
LINE
  5
27A
330
30
100
AcDbEntity
  8
1
100
AcDbLine
 10
21.353461
 20
2.410864
 30
0.0
 11
21.253461
 21
2.452512
 31
0.0
  0
LINE
  5
27B
330
30
100
AcDbEntity
  8
1
100
AcDbLine
 10
21.253461
 20
2.452512
 30
0.0
 11
21.153461
 21
2.493833
 31
0.0
  0
LINE
  5
27C
330
30
100
AcDbEntity
  8
1
100
AcDbLine
 10
21.153461
 20
2.493833
 30
0.0
 11
21.053461
 21
2.534821
 31
0.0
  0
LINE
  5
27D
330
30
100
AcDbEntity
  8
1
100
AcDbLine
 10
21.053461
 20
2.534821
 30
0.0
 11
20.953461
 21
2.575471
 31
0.0
  0
LINE
  5
27E
330
30
100
AcDbEntity
  8
1
100
AcDbLine
 10
20.953461
 20
2.575471
 30
0.0
 11
20.853461
 21
2.615778
 31
0.0
  0
LINE
  5
27F
330
30
100
AcDbEntity
  8
1
100
AcDbLine
 10
20.853461
 20
2.615778
 30
0.0
 11
20.753461
 21
2.655736
 31
0.0
  0
LINE
  5
280
330
30
100
AcDbEntity
  8
1
100
AcDbLine
 10
20.753461
 20
2.655736
 30
0.0
 11
20.653461
 21
2.69534
 31
0.0
  0
LINE
  5
281
330
30
100
AcDbEntity
  8
1
100
AcDbLine
 10
20.653461
 20
2.69534
 30
0.0
 11
20.553461
 21
2.734585
 31
0.0
  0
LINE
  5
282
330
30
100
AcDbEntity
  8
1
100
AcDbLine
 10
20.553461
 20
2.734585
 30
0.0
 11
20.453461
 21
2.773465
 31
0.0
  0
LINE
  5
283
330
30
100
AcDbEntity
  8
1
100
AcDbLine
 10
20.453461
 20
2.773465
 30
0.0
 11
20.353461
 21
2.811976
 31
0.0
  0
LINE
  5
284
330
30
100
AcDbEntity
  8
1
100
AcDbLine
 10
20.353461
 20
2.811976
 30
0.0
 11
20.253461
 21
2.850111
 31
0.0
  0
LINE
  5
285
330
30
100
AcDbEntity
  8
1
100
AcDbLine
 10
20.253461
 20
2.850111
 30
0.0
 11
20.153461
 21
2.887866
 31
0.0
  0
LINE
  5
286
330
30
100
AcDbEntity
  8
1
100
AcDbLine
 10
20.153461
 20
2.887866
 30
0.0
 11
20.053461
 21
2.925237
 31
0.0
  0
LINE
  5
287
330
30
100
AcDbEntity
  8
1
100
AcDbLine
 10
20.053461
 20
2.925237
 30
0.0
 11
19.953461
 21
2.962217
 31
0.0
  0
LINE
  5
288
330
30
100
AcDbEntity
  8
1
100
AcDbLine
 10
19.953461
 20
2.962217
 30
0.0
 11
19.853461
 21
2.998802
 31
0.0
  0
LINE
  5
289
330
30
100
AcDbEntity
  8
1
100
AcDbLine
 10
19.853461
 20
2.998802
 30
0.0
 11
19.753461
 21
3.034988
 31
0.0
  0
LINE
  5
28A
330
30
100
AcDbEntity
  8
1
100
AcDbLine
 10
19.753461
 20
3.034988
 30
0.0
 11
19.653461
 21
3.070769
 31
0.0
  0
LINE
  5
28B
330
30
100
AcDbEntity
  8
1
100
AcDbLine
 10
19.653461
 20
3.070769
 30
0.0
 11
19.553461
 21
3.10614
 31
0.0
  0
LINE
  5
28C
330
30
100
AcDbEntity
  8
1
100
AcDbLine
 10
19.553461
 20
3.10614
 30
0.0
 11
19.453461
 21
3.141097
 31
0.0
  0
LINE
  5
28D
330
30
100
AcDbEntity
  8
1
100
AcDbLine
 10
19.453461
 20
3.141097
 30
0.0
 11
19.353461
 21
3.175636
 31
0.0
  0
LINE
  5
28E
330
30
100
AcDbEntity
  8
1
100
AcDbLine
 10
19.353461
 20
3.175636
 30
0.0
 11
19.253461
 21
3.209751
 31
0.0
  0
LINE
  5
28F
330
30
100
AcDbEntity
  8
1
100
AcDbLine
 10
19.253461
 20
3.209751
 30
0.0
 11
19.153461
 21
3.243438
 31
0.0
  0
LINE
  5
290
330
30
100
AcDbEntity
  8
1
100
AcDbLine
 10
19.153461
 20
3.243438
 30
0.0
 11
19.053461
 21
3.276693
 31
0.0
  0
LINE
  5
291
330
30
100
AcDbEntity
  8
1
100
AcDbLine
 10
19.053461
 20
3.276693
 30
0.0
 11
18.953461
 21
3.30951
 31
0.0
  0
LINE
  5
292
330
30
100
AcDbEntity
  8
1
100
AcDbLine
 10
18.953461
 20
3.30951
 30
0.0
 11
18.853461
 21
3.341887
 31
0.0
  0
LINE
  5
293
330
30
100
AcDbEntity
  8
1
100
AcDbLine
 10
18.853461
 20
3.341887
 30
0.0
 11
18.753461
 21
3.373818
 31
0.0
  0
LINE
  5
294
330
30
100
AcDbEntity
  8
1
100
AcDbLine
 10
18.753461
 20
3.373818
 30
0.0
 11
18.653461
 21
3.405299
 31
0.0
  0
LINE
  5
295
330
30
100
AcDbEntity
  8
1
100
AcDbLine
 10
18.653461
 20
3.405299
 30
0.0
 11
18.553461
 21
3.436326
 31
0.0
  0
LINE
  5
296
330
30
100
AcDbEntity
  8
1
100
AcDbLine
 10
18.553461
 20
3.436326
 30
0.0
 11
18.453461
 21
3.466895
 31
0.0
  0
LINE
  5
297
330
30
100
AcDbEntity
  8
1
100
AcDbLine
 10
18.453461
 20
3.466895
 30
0.0
 11
18.353461
 21
3.497001
 31
0.0
  0
LINE
  5
298
330
30
100
AcDbEntity
  8
1
100
AcDbLine
 10
18.353461
 20
3.497001
 30
0.0
 11
18.253461
 21
3.526642
 31
0.0
  0
LINE
  5
299
330
30
100
AcDbEntity
  8
1
100
AcDbLine
 10
18.253461
 20
3.526642
 30
0.0
 11
18.153461
 21
3.555812
 31
0.0
  0
LINE
  5
29A
330
30
100
AcDbEntity
  8
1
100
AcDbLine
 10
18.153461
 20
3.555812
 30
0.0
 11
18.053461
 21
3.584508
 31
0.0
  0
LINE
  5
29B
330
30
100
AcDbEntity
  8
1
100
AcDbLine
 10
18.053461
 20
3.584508
 30
0.0
 11
17.953461
 21
3.612726
 31
0.0
  0
LINE
  5
29C
330
30
100
AcDbEntity
  8
1
100
AcDbLine
 10
17.953461
 20
3.612726
 30
0.0
 11
17.853461
 21
3.640462
 31
0.0
  0
LINE
  5
29D
330
30
100
AcDbEntity
  8
1
100
AcDbLine
 10
17.853461
 20
3.640462
 30
0.0
 11
17.753461
 21
3.667713
 31
0.0
  0
LINE
  5
29E
330
30
100
AcDbEntity
  8
1
100
AcDbLine
 10
17.753461
 20
3.667713
 30
0.0
 11
17.653461
 21
3.694475
 31
0.0
  0
LINE
  5
29F
330
30
100
AcDbEntity
  8
1
100
AcDbLine
 10
17.653461
 20
3.694475
 30
0.0
 11
17.553461
 21
3.720745
 31
0.0
  0
LINE
  5
2A0
330
30
100
AcDbEntity
  8
1
100
AcDbLine
 10
17.553461
 20
3.720745
 30
0.0
 11
17.453461
 21
3.746518
 31
0.0
  0
LINE
  5
2A1
330
30
100
AcDbEntity
  8
1
100
AcDbLine
 10
17.453461
 20
3.746518
 30
0.0
 11
17.353461
 21
3.771792
 31
0.0
  0
LINE
  5
2A2
330
30
100
AcDbEntity
  8
1
100
AcDbLine
 10
17.353461
 20
3.771792
 30
0.0
 11
17.253461
 21
3.796563
 31
0.0
  0
LINE
  5
2A3
330
30
100
AcDbEntity
  8
1
100
AcDbLine
 10
17.253461
 20
3.796563
 30
0.0
 11
17.253461
 21
3.743254
 31
0.0
  0
LINE
  5
2A4
330
30
100
AcDbEntity
  8
1
100
AcDbLine
 10
17.253461
 20
3.743254
 30
0.0
 11
17.153461
 21
3.766244
 31
0.0
  0
LINE
  5
2A5
330
30
100
AcDbEntity
  8
1
100
AcDbLine
 10
17.153461
 20
3.766244
 30
0.0
 11
17.053461
 21
3.788732
 31
0.0
  0
LINE
  5
2A6
330
30
100
AcDbEntity
  8
1
100
AcDbLine
 10
17.053461
 20
3.788732
 30
0.0
 11
16.953461
 21
3.810725
 31
0.0
  0
LINE
  5
2A7
330
30
100
AcDbEntity
  8
1
100
AcDbLine
 10
16.953461
 20
3.810725
 30
0.0
 11
16.853461
 21
3.832254
 31
0.0
  0
LINE
  5
2A8
330
30
100
AcDbEntity
  8
1
100
AcDbLine
 10
16.853461
 20
3.832254
 30
0.0
 11
16.753461
 21
3.853401
 31
0.0
  0
LINE
  5
2A9
330
30
100
AcDbEntity
  8
1
100
AcDbLine
 10
16.753461
 20
3.853401
 30
0.0
 11
16.653461
 21
3.87433
 31
0.0
  0
LINE
  5
2AA
330
30
100
AcDbEntity
  8
1
100
AcDbLine
 10
16.653461
 20
3.87433
 30
0.0
 11
16.553461
 21
3.895326
 31
0.0
  0
LINE
  5
2AB
330
30
100
AcDbEntity
  8
1
100
AcDbLine
 10
16.553461
 20
3.895326
 30
0.0
 11
16.453461
 21
3.91683
 31
0.0
  0
LINE
  5
2AC
330
30
100
AcDbEntity
  8
1
100
AcDbLine
 10
16.453461
 20
3.91683
 30
0.0
 11
16.353461
 21
3.939474
 31
0.0
  0
LINE
  5
2AD
330
30
100
AcDbEntity
  8
1
100
AcDbLine
 10
16.353461
 20
3.939474
 30
0.0
 11
16.253461
 21
3.964093
 31
0.0
  0
LINE
  5
2AE
330
30
100
AcDbEntity
  8
1
100
AcDbLine
 10
16.253461
 20
3.964093
 30
0.0
 11
16.153461
 21
3.991703
 31
0.0
  0
LINE
  5
2AF
330
30
100
AcDbEntity
  8
1
100
AcDbLine
 10
16.153461
 20
3.991703
 30
0.0
 11
16.053461
 21
4.023417
 31
0.0
  0
LINE
  5
2B0
330
30
100
AcDbEntity
  8
1
100
AcDbLine
 10
16.053461
 20
4.023417
 30
0.0
 11
15.953461
 21
4.060219
 31
0.0
  0
LINE
  5
2B1
330
30
100
AcDbEntity
  8
1
100
AcDbLine
 10
15.953461
 20
4.060219
 30
0.0
 11
15.853461
 21
4.102521
 31
0.0
  0
LINE
  5
2B2
330
30
100
AcDbEntity
  8
1
100
AcDbLine
 10
15.853461
 20
4.102521
 30
0.0
 11
15.753461
 21
4.149342
 31
0.0
  0
LINE
  5
2B3
330
30
100
AcDbEntity
  8
1
100
AcDbLine
 10
15.753461
 20
4.149342
 30
0.0
 11
15.653461
 21
4.196879
 31
0.0
  0
LINE
  5
2B4
330
30
100
AcDbEntity
  8
1
100
AcDbLine
 10
15.653461
 20
4.196879
 30
0.0
 11
15.553461
 21
4.236137
 31
0.0
  0
LINE
  5
2B5
330
30
100
AcDbEntity
  8
1
100
AcDbLine
 10
15.553461
 20
4.236137
 30
0.0
 11
15.472692
 21
4.25
 31
0.0
  0
LINE
  5
2B6
330
30
100
AcDbEntity
  8
1
100
AcDbLine
 10
4.428439
 20
4.25
 30
0.0
 11
4.428439
 21
-4.25
 31
0.0
  0
LINE
  5
2B7
330
30
100
AcDbEntity
  8
1
100
AcDbLine
 10
0.0
 20
-5.0
 30
0.0
 11
0.0
 21
5.0
 31
0.0
  0
LINE
  5
2B8
330
30
100
AcDbEntity
  8
1
100
AcDbLine
 10
0.0
 20
5.0
 30
0.0
 11
0.0
 21
-5.0
 31
0.0
  0
LINE
  5
2B9
330
30
100
AcDbEntity
  8
SK1
100
AcDbLine
 10
0.0
 20
5.0
 30
0.0
 11
-10.74701
 21
5.0
 31
0.0
  0
LINE
  5
2BA
330
30
100
AcDbEntity
  8
SK1
100
AcDbLine
 10
-10.74701
 20
5.0
 30
0.0
 11
-12.24701
 21
3.5
 31
0.0
  0
LINE
  5
2BB
330
30
100
AcDbEntity
  8
SK1
100
AcDbLine
 10
-12.24701
 20
3.5
 30
0.0
 11
-19.24701
 21
3.5
 31
0.0
  0
LINE
  5
2BC
330
30
100
AcDbEntity
  8
SK1
100
AcDbLine
 10
-19.24701
 20
3.5
 30
0.0
 11
-20.74701
 21
5.0
 31
0.0
  0
LINE
  5
2BD
330
30
100
AcDbEntity
  8
SK1
100
AcDbLine
 10
-20.74701
 20
5.0
 30
0.0
 11
-34.74701
 21
5.0
 31
0.0
  0
LINE
  5
2BE
330
30
100
AcDbEntity
  8
SK1
100
AcDbLine
 10
-34.74701
 20
5.0
 30
0.0
 11
-35.74701
 21
4.0
 31
0.0
  0
LINE
  5
2BF
330
30
100
AcDbEntity
  8
SK1
100
AcDbLine
 10
0.0
 20
-5.0
 30
0.0
 11
-34.74701
 21
-5.0
 31
0.0
  0
LINE
  5
2C0
330
30
100
AcDbEntity
  8
SK1
100
AcDbLine
 10
-34.74701
 20
-5.0
 30
0.0
 11
-35.74701
 21
-4.0
 31
0.0
  0
LINE
  5
2C1
330
30
100
AcDbEntity
  8
SK1
100
AcDbLine
 10
0.0
 20
5.0
 30
0.0
 11
0.0
 21
-5.0
 31
0.0
  0
LINE
  5
2C2
330
30
100
AcDbEntity
  8
SK1
100
AcDbLine
 10
0.0
 20
5.0
 30
0.0
 11
0.0
 21
-5.0
 31
0.0
  0
LINE
  5
2C3
330
30
100
AcDbEntity
  8
SK1
100
AcDbLine
 10
-34.74701
 20
5.0
 30
0.0
 11
-34.74701
 21
-5.0
 31
0.0
  0
LINE
  5
2C4
330
30
100
AcDbEntity
  8
SK1
100
AcDbLine
 10
-35.74701
 20
4.0
 30
0.0
 11
-35.74701
 21
-4.0
 31
0.0
  0
LINE
  5
341
330
30
100
AcDbEntity
  8
NOCUT
100
AcDbLine
 10
17.253461
 20
0.0
 30
0.0
 11
17.253461
 21
4.25
 31
0.0
  0
LINE
  5
342
330
30
100
AcDbEntity
  8
NOCUT
100
AcDbLine
 10
17.253461
 20
4.25
 30
0.0
 11
4.428439
 21
4.25
 31
0.0
  0
ARC
  5
343
330
30
100
AcDbEntity
  8
NOCUT
100
AcDbCircle
 10
4.428439
 20
6.25
 30
0.0
 40
2.0
100
AcDbArc
 50
260.0
 51
270.0
  0
LINE
  5
344
330
30
100
AcDbEntity
  8
NOCUT
100
AcDbLine
 10
4.081142
 20
4.280384
 30
0.0
 11
0.0
 21
5.0
 31
0.0
  0
LINE
  5
345
330
30
100
AcDbEntity
  8
NOCUT
100
AcDbLine
 10
0.0
 20
5.0
 30
0.0
 11
0.0
 21
0.0
 31
0.0
  0
LINE
  5
346
330
30
100
AcDbEntity
  8
NOCUT
100
AcDbLine
 10
0.0
 20
0.0
 30
0.0
 11
17.253461
 21
0.0
 31
0.0
  0
LINE
  5
347
330
30
100
AcDbEntity
  8
CUT
100
AcDbLine
 10
36.253461
 20
0.0
 30
0.0
 11
36.253461
 21
4.25
 31
0.0
  0
LINE
  5
348
330
30
100
AcDbEntity
  8
CUT
100
AcDbLine
 10
36.253461
 20
4.25
 30
0.0
 11
36.153461
 21
4.35
 31
0.0
  0
LINE
  5
349
330
30
100
AcDbEntity
  8
CUT
100
AcDbLine
 10
36.153461
 20
4.35
 30
0.0
 11
17.253461
 21
4.35
 31
0.0
  0
LINE
  5
34A
330
30
100
AcDbEntity
  8
CUT
100
AcDbLine
 10
17.253461
 20
4.35
 30
0.0
 11
17.253461
 21
0.0
 31
0.0
  0
LINE
  5
34B
330
30
100
AcDbEntity
  8
CUT
100
AcDbLine
 10
17.253461
 20
0.0
 30
0.0
 11
36.253461
 21
0.0
 31
0.0
  0
LINE
  5
34C
330
30
100
AcDbEntity
  8
4
100
AcDbLine
 10
0.0
 20
0.0
 30
0.0
 11
36.253461
 21
0.0
 31
0.0
  0
LINE
  5
34D
330
30
100
AcDbEntity
  8
INFTOTAL
100
AcDbLine
 10
-51.950052
 20
28.290814
 30
0.0
 11
53.025057
 21
28.290814
 31
0.0
  0
LINE
  5
34E
330
30
100
AcDbEntity
  8
INFTOTAL
100
AcDbLine
 10
53.025057
 20
28.290814
 30
0.0
 11
53.025057
 21
-52.114062
 31
0.0
  0
LINE
  5
34F
330
30
100
AcDbEntity
  8
INFTOTAL
100
AcDbLine
 10
53.025057
 20
-52.114062
 30
0.0
 11
-51.950052
 21
-52.114062
 31
0.0
  0
LINE
  5
350
330
30
100
AcDbEntity
  8
INFTOTAL
100
AcDbLine
 10
-51.950052
 20
-52.114062
 30
0.0
 11
-51.950052
 21
28.290814
 31
0.0
  0
ENDSEC
  0
SECTION
  2
OBJECTS
  0
DICTIONARY
  5
351
330
0
100
AcDbDictionary
  3
ACAD_GROUP
350
352
  3
ACAD_IMAGE_DICT
350
354
  3
ACAD_MLINESTYLE
350
106AB92
  3
ACAD_SCALELIST
350
106AB9A
  3
APPDATA
350
106ABDD
  3
DWGPROPS
350
106ABDE
1001
ACAD
1000
TREAT_AS_HARD
1070
     0
  0
DICTIONARY
  5
352
102
{ACAD_REACTORS
330
351
102
}
330
351
100
AcDbDictionary
1001
ACAD
1000
TREAT_AS_HARD
1070
     0
  0
DICTIONARY
  5
354
102
{ACAD_REACTORS
330
351
102
}
330
351
100
AcDbDictionary
  3
ISBETDSKETCHER_EXPORT
350
355
1001
ACAD
1000
TREAT_AS_HARD
1070
     0
  0
DICTIONARY
  5
106AB92
102
{ACAD_REACTORS
330
351
102
}
330
351
100
AcDbDictionary
  3
STANDARD
350
106AB93
1001
ACAD
1000
TREAT_AS_HARD
1070
     0
  0
DICTIONARY
  5
106AB9A
102
{ACAD_REACTORS
330
351
102
}
330
351
100
AcDbDictionary
1001
ACAD
1000
TREAT_AS_HARD
1070
     0
  0
DICTIONARY
  5
106ABDD
102
{ACAD_REACTORS
330
351
102
}
330
351
100
AcDbDictionary
1001
ACAD
1000
TREAT_AS_HARD
1070
     0
  0
XRECORD
  5
106ABDE
102
{ACAD_REACTORS
330
351
102
}
330
351
100
AcDbXrecord
  1
DWGPROPS COOKIE
  2

  3

  4

  6

  7

  8
t.sippl
  9

300
=
301
=
302
=
303
=
304
=
305
=
306
=
307
=
308
=
309
=
 40
0.0
 41
0.0
 42
2458935.618148507
  1

 90
        0
  0
IMAGEDEF
  5
355
102
{ACAD_REACTORS
330
354
330
356
102
}
330
354
100
AcDbRasterImageDef
 90
        0
  1
.\2540500087(1).jpg
 10
1897.0
 20
362.0
 11
0.08466683600033867
 21
0.08466683600033867
280
     1
281
     3
  0
MLINESTYLE
  5
106AB93
102
{ACAD_REACTORS
330
106AB92
102
}
330
106AB92
100
AcDbMlineStyle
  2
Standard
 70
     0
  3

 62
   256
 51
90.0
 52
90.0
 71
     2
 49
0.5
 62
   256
  6
BYLAYER
 49
-0.5
 62
   256
  6
BYLAYER
  0
ENDSEC
  0
EOF
