  0
SECTION
  2
HEADER
  9
$ACADVER
  1
AC1012
  9
$DWGCODEPAGE
  3
ansi_1252
  9
$INSBASE
 10
0.0
 20
0.0
 30
0.0
  9
$EXTMIN
 10
-56.887305
 20
-25.95
 30
0.0
  9
$EXTMAX
 10
19.01269500000001
 20
29.483471
 30
0.0
  9
$LIMMIN
 10
0.0
 20
0.0
  9
$LIMMAX
 10
12.0
 20
9.0
  9
$ORTHOMODE
 70
     0
  9
$REGENMODE
 70
     1
  9
$FILLMODE
 70
     1
  9
$QTEXTMODE
 70
     0
  9
$MIRRTEXT
 70
     1
  9
$DRAGMODE
 70
     2
  9
$LTSCALE
 40
1.0
  9
$OSMODE
 70
   511
  9
$ATTMODE
 70
     1
  9
$TEXTSIZE
 40
0.2
  9
$TRACEWID
 40
0.05
  9
$TEXTSTYLE
  7
STANDARD
  9
$CLAYER
  8
0
  9
$CELTYPE
  6
BYBLOCK
  9
$CECOLOR
 62
   256
  9
$CELTSCALE
 40
1.0
  9
$DELOBJ
 70
     1
  9
$DISPSILH
 70
     0
  9
$DIMSCALE
 40
1.0
  9
$DIMASZ
 40
0.18
  9
$DIMEXO
 40
0.0625
  9
$DIMDLI
 40
0.38
  9
$DIMRND
 40
0.0
  9
$DIMDLE
 40
0.0
  9
$DIMEXE
 40
0.18
  9
$DIMTP
 40
0.0
  9
$DIMTM
 40
0.0
  9
$DIMTXT
 40
0.18
  9
$DIMCEN
 40
0.09
  9
$DIMTSZ
 40
0.0
  9
$DIMTOL
 70
     0
  9
$DIMLIM
 70
     0
  9
$DIMTIH
 70
     1
  9
$DIMTOH
 70
     1
  9
$DIMSE1
 70
     0
  9
$DIMSE2
 70
     0
  9
$DIMTAD
 70
     0
  9
$DIMZIN
 70
     0
  9
$DIMBLK
  1

  9
$DIMASO
 70
     1
  9
$DIMSHO
 70
     1
  9
$DIMPOST
  1

  9
$DIMAPOST
  1

  9
$DIMALT
 70
     0
  9
$DIMALTD
 70
     2
  9
$DIMALTF
 40
25.4
  9
$DIMLFAC
 40
1.0
  9
$DIMTOFL
 70
     0
  9
$DIMTVP
 40
0.0
  9
$DIMTIX
 70
     0
  9
$DIMSOXD
 70
     0
  9
$DIMSAH
 70
     0
  9
$DIMBLK1
  1

  9
$DIMBLK2
  1

  9
$DIMSTYLE
  2
STANDARD
  9
$DIMCLRD
 70
     0
  9
$DIMCLRE
 70
     0
  9
$DIMCLRT
 70
     0
  9
$DIMTFAC
 40
1.0
  9
$DIMGAP
 40
0.09
  9
$DIMJUST
 70
     0
  9
$DIMSD1
 70
     0
  9
$DIMSD2
 70
     0
  9
$DIMTOLJ
 70
     1
  9
$DIMTZIN
 70
     0
  9
$DIMALTZ
 70
     0
  9
$DIMALTTZ
 70
     0
  9
$DIMFIT
 70
     3
  9
$DIMUPT
 70
     0
  9
$DIMUNIT
 70
     2
  9
$DIMDEC
 70
     4
  9
$DIMTDEC
 70
     4
  9
$DIMALTU
 70
     2
  9
$DIMALTTD
 70
     2
  9
$DIMTXSTY
  7
STANDARD
  9
$DIMAUNIT
 70
     0
  9
$LUNITS
 70
     2
  9
$LUPREC
 70
     4
  9
$SKETCHINC
 40
0.1
  9
$FILLETRAD
 40
0.5
  9
$AUNITS
 70
     0
  9
$AUPREC
 70
     0
  9
$MENU
  1
.
  9
$ELEVATION
 40
0.0
  9
$PELEVATION
 40
0.0
  9
$THICKNESS
 40
0.0
  9
$LIMCHECK
 70
     0
  9
$CHAMFERA
 40
0.0
  9
$CHAMFERB
 40
0.0
  9
$CHAMFERC
 40
0.0
  9
$CHAMFERD
 40
0.0
  9
$SKPOLY
 70
     0
  9
$TDCREATE
 40
2447893.041666667
  9
$TDUPDATE
 40
2458935.63411206
  9
$TDINDWG
 40
0.0001960648
  9
$TDUSRTIMER
 40
0.0001960648
  9
$USRTIMER
 70
     1
  9
$ANGBASE
 50
0.0
  9
$ANGDIR
 70
     0
  9
$PDMODE
 70
     0
  9
$PDSIZE
 40
0.0
  9
$PLINEWID
 40
0.0
  9
$COORDS
 70
     1
  9
$SPLFRAME
 70
     0
  9
$SPLINETYPE
 70
     6
  9
$SPLINESEGS
 70
     8
  9
$ATTDIA
 70
     0
  9
$ATTREQ
 70
     1
  9
$HANDLING
 70
     1
  9
$HANDSEED
  5
106ABDF
  9
$SURFTAB1
 70
     6
  9
$SURFTAB2
 70
     6
  9
$SURFTYPE
 70
     6
  9
$SURFU
 70
     6
  9
$SURFV
 70
     6
  9
$UCSNAME
  2

  9
$UCSORG
 10
0.0
 20
0.0
 30
0.0
  9
$UCSXDIR
 10
1.0
 20
0.0
 30
0.0
  9
$UCSYDIR
 10
0.0
 20
1.0
 30
0.0
  9
$PUCSNAME
  2

  9
$PUCSORG
 10
0.0
 20
0.0
 30
0.0
  9
$PUCSXDIR
 10
1.0
 20
0.0
 30
0.0
  9
$PUCSYDIR
 10
0.0
 20
1.0
 30
0.0
  9
$USERI1
 70
     0
  9
$USERI2
 70
     0
  9
$USERI3
 70
     0
  9
$USERI4
 70
     0
  9
$USERI5
 70
     0
  9
$USERR1
 40
0.0
  9
$USERR2
 40
0.0
  9
$USERR3
 40
0.0
  9
$USERR4
 40
0.0
  9
$USERR5
 40
0.0
  9
$WORLDVIEW
 70
     1
  9
$SHADEDGE
 70
     3
  9
$SHADEDIF
 70
    70
  9
$TILEMODE
 70
     1
  9
$MAXACTVP
 70
    64
  9
$PINSBASE
 10
0.0
 20
0.0
 30
0.0
  9
$PLIMCHECK
 70
     0
  9
$PEXTMIN
 10
1.000000000000000E+20
 20
1.000000000000000E+20
 30
1.000000000000000E+20
  9
$PEXTMAX
 10
-1.000000000000000E+20
 20
-1.000000000000000E+20
 30
-1.000000000000000E+20
  9
$PLIMMIN
 10
0.0
 20
0.0
  9
$PLIMMAX
 10
0.0
 20
0.0
  9
$UNITMODE
 70
     0
  9
$VISRETAIN
 70
     1
  9
$PLINEGEN
 70
     0
  9
$PSLTSCALE
 70
     1
  9
$TREEDEPTH
 70
  3020
  9
$PICKSTYLE
 70
     1
  9
$CMLSTYLE
  2
STANDARD
  9
$CMLJUST
 70
     0
  9
$CMLSCALE
 40
1.0
  9
$SAVEIMAGES
 70
     1
  0
ENDSEC
  0
SECTION
  2
CLASSES
  0
CLASS
  1
IMAGEDEF
  2
AcDbRasterImageDef
  3
ISM
 90
    32768
280
     0
281
     0
  0
CLASS
  1
IMAGE
  2
AcDbRasterImage
  3
ISM
 90
    32895
280
     0
281
     1
  0
CLASS
  1
IMAGEDEF_REACTOR
  2
AcDbRasterImageDefReactor
  3
ISM
 90
    32769
280
     0
281
     0
  0
CLASS
  1
ACDBDICTIONARYWDFLT
  2
AcDbDictionaryWithDefault
  3
ObjectDBX Classes
 90
    32768
280
     0
281
     0
  0
CLASS
  1
SCALE
  2
AcDbScale
  3
ObjectDBX Classes
 90
     1153
280
     0
281
     0
  0
CLASS
  1
MATERIAL
  2
AcDbMaterial
  3
ObjectDBX Classes
 90
     1153
280
     0
281
     0
  0
CLASS
  1
VISUALSTYLE
  2
AcDbVisualStyle
  3
ObjectDBX Classes
 90
     4095
280
     0
281
     0
  0
CLASS
  1
TABLESTYLE
  2
AcDbTableStyle
  3
ObjectDBX Classes
 90
     4095
280
     0
281
     0
  0
CLASS
  1
MLEADERSTYLE
  2
AcDbMLeaderStyle
  3
ACDB_MLEADERSTYLE_CLASS
 90
     4095
280
     0
281
     0
  0
CLASS
  1
XRECORD
  2
AcDbXrecord
  3
ObjectDBX Classes
 90
    32768
280
     0
281
     0
  0
ENDSEC
  0
SECTION
  2
TABLES
  0
TABLE
  2
VPORT
  5
2
330
0
100
AcDbSymbolTable
 70
     1
  0
VPORT
  5
106AB91
330
2
100
AcDbSymbolTableRecord
100
AcDbViewportTableRecord
  2
*ACTIVE
 70
     0
 10
0.0
 20
0.0
 11
1.0
 21
1.0
 12
43.3218513020407
 22
39.87190098588395
 13
0.0
 23
0.0
 14
0.5
 24
0.5
 15
0.5
 25
0.5
 16
0.0
 26
0.0
 36
1.0
 17
0.0
 27
0.0
 37
0.0
 40
326.366108055032
 41
1.546353522867738
 42
50.0
 43
0.0
 44
0.0
 50
0.0
 51
0.0
 71
    16
 72
   100
 73
     1
 74
     3
 75
     0
 76
     0
 77
     0
 78
     0
  0
ENDTAB
  0
TABLE
  2
LTYPE
  5
3
330
0
100
AcDbSymbolTable
 70
     3
  0
LTYPE
  5
4
330
3
100
AcDbSymbolTableRecord
100
AcDbLinetypeTableRecord
  2
BYBLOCK
 70
     0
  3

 72
    65
 73
     0
 40
0.0
  0
LTYPE
  5
5
330
3
100
AcDbSymbolTableRecord
100
AcDbLinetypeTableRecord
  2
BYLAYER
 70
     0
  3

 72
    65
 73
     0
 40
0.0
  0
LTYPE
  5
6
330
3
100
AcDbSymbolTableRecord
100
AcDbLinetypeTableRecord
  2
CONTINUOUS
 70
     0
  3
Solid Line
 72
    65
 73
     0
 40
0.0
  0
LTYPE
  5
7
330
3
100
AcDbSymbolTableRecord
100
AcDbLinetypeTableRecord
  2
DASH
 70
     0
  3
Hidden
 72
    65
 73
     2
 40
2.5
 49
1.5
 74
     0
 49
-1.0
 74
     0
  0
LTYPE
  5
8
330
3
100
AcDbSymbolTableRecord
100
AcDbLinetypeTableRecord
  2
LONGDASHDASH
 70
     0
  3
__ . __
 72
    65
 73
     4
 40
7.0
 49
4.0
 74
     0
 49
-1.0
 74
     0
 49
1.0
 74
     0
 49
-1.0
 74
     0
  0
ENDTAB
  0
TABLE
  2
LAYER
  5
9
330
0
100
AcDbSymbolTable
 70
    29
  0
LAYER
  5
A
330
9
100
AcDbSymbolTableRecord
100
AcDbLayerTableRecord
  2
0
 70
     0
 62
     7
  6
CONTINUOUS
  0
LAYER
  5
B
330
9
100
AcDbSymbolTableRecord
100
AcDbLayerTableRecord
  2
DEFPOINT
 70
     0
 62
     7
  6
CONTINUOUS
  0
LAYER
  5
C
330
9
100
AcDbSymbolTableRecord
100
AcDbLayerTableRecord
  2
1
 70
     0
 62
     4
  6
CONTINUOUS
  0
LAYER
  5
D
330
9
100
AcDbSymbolTableRecord
100
AcDbLayerTableRecord
  2
2
 70
     0
 62
     7
  6
CONTINUOUS
  0
LAYER
  5
E
330
9
100
AcDbSymbolTableRecord
100
AcDbLayerTableRecord
  2
3
 70
     0
 62
     1
  6
DASH
  0
LAYER
  5
F
330
9
100
AcDbSymbolTableRecord
100
AcDbLayerTableRecord
  2
4
 70
     0
 62
     2
  6
LONGDASHDASH
  0
LAYER
  5
10
330
9
100
AcDbSymbolTableRecord
100
AcDbLayerTableRecord
  2
6
 70
     0
 62
     5
  6
CONTINUOUS
  0
LAYER
  5
11
330
9
100
AcDbSymbolTableRecord
100
AcDbLayerTableRecord
  2
7
 70
     0
 62
     5
  6
CONTINUOUS
  0
LAYER
  5
12
330
9
100
AcDbSymbolTableRecord
100
AcDbLayerTableRecord
  2
11
 70
     0
 62
     4
  6
CONTINUOUS
  0
LAYER
  5
13
330
9
100
AcDbSymbolTableRecord
100
AcDbLayerTableRecord
  2
SK1
 70
     0
 62
     4
  6
CONTINUOUS
  0
LAYER
  5
14
330
9
100
AcDbSymbolTableRecord
100
AcDbLayerTableRecord
  2
SK2
 70
     0
 62
     7
  6
CONTINUOUS
  0
LAYER
  5
15
330
9
100
AcDbSymbolTableRecord
100
AcDbLayerTableRecord
  2
SK3
 70
     0
 62
     1
  6
DASH
  0
LAYER
  5
16
330
9
100
AcDbSymbolTableRecord
100
AcDbLayerTableRecord
  2
SK4
 70
     0
 62
     2
  6
LONGDASHDASH
  0
LAYER
  5
17
330
9
100
AcDbSymbolTableRecord
100
AcDbLayerTableRecord
  2
SK6
 70
     0
 62
     5
  6
CONTINUOUS
  0
LAYER
  5
18
330
9
100
AcDbSymbolTableRecord
100
AcDbLayerTableRecord
  2
SK7
 70
     0
 62
     5
  6
CONTINUOUS
  0
LAYER
  5
19
330
9
100
AcDbSymbolTableRecord
100
AcDbLayerTableRecord
  2
SK11
 70
     0
 62
     4
  6
CONTINUOUS
  0
LAYER
  5
1A
330
9
100
AcDbSymbolTableRecord
100
AcDbLayerTableRecord
  2
SKVIEW1
 70
     0
 62
     4
  6
CONTINUOUS
  0
LAYER
  5
1B
330
9
100
AcDbSymbolTableRecord
100
AcDbLayerTableRecord
  2
SKVIEW2
 70
     0
 62
     7
  6
CONTINUOUS
  0
LAYER
  5
1C
330
9
100
AcDbSymbolTableRecord
100
AcDbLayerTableRecord
  2
SKVIEW3
 70
     0
 62
     1
  6
DASH
  0
LAYER
  5
1D
330
9
100
AcDbSymbolTableRecord
100
AcDbLayerTableRecord
  2
SKVIEW4
 70
     0
 62
     2
  6
LONGDASHDASH
  0
LAYER
  5
1E
330
9
100
AcDbSymbolTableRecord
100
AcDbLayerTableRecord
  2
SKVIEW6
 70
     0
 62
     5
  6
CONTINUOUS
  0
LAYER
  5
1F
330
9
100
AcDbSymbolTableRecord
100
AcDbLayerTableRecord
  2
SKVIEW7
 70
     0
 62
     5
  6
CONTINUOUS
  0
LAYER
  5
20
330
9
100
AcDbSymbolTableRecord
100
AcDbLayerTableRecord
  2
SKVIEW11
 70
     0
 62
     4
  6
CONTINUOUS
  0
LAYER
  5
21
330
9
100
AcDbSymbolTableRecord
100
AcDbLayerTableRecord
  2
NOCUT
 70
     0
 62
     7
  6
CONTINUOUS
  0
LAYER
  5
22
330
9
100
AcDbSymbolTableRecord
100
AcDbLayerTableRecord
  2
CUT
 70
     0
 62
     1
  6
CONTINUOUS
  0
LAYER
  5
23
330
9
100
AcDbSymbolTableRecord
100
AcDbLayerTableRecord
  2
FRAME50
 70
     0
 62
     7
  6
CONTINUOUS
  0
LAYER
  5
24
330
9
100
AcDbSymbolTableRecord
100
AcDbLayerTableRecord
  2
53
 70
     0
 62
     5
  6
CONTINUOUS
  0
LAYER
  5
25
330
9
100
AcDbSymbolTableRecord
100
AcDbLayerTableRecord
  2
INFTEXT
 70
     0
 62
     5
  6
CONTINUOUS
  0
LAYER
  5
26
330
9
100
AcDbSymbolTableRecord
100
AcDbLayerTableRecord
  2
INFTOTAL
 70
     0
 62
     9
  6
CONTINUOUS
  0
ENDTAB
  0
TABLE
  2
STYLE
  5
27
330
0
100
AcDbSymbolTable
 70
     2
  0
STYLE
  5
28
330
27
100
AcDbSymbolTableRecord
100
AcDbTextStyleTableRecord
  2
MONOSPAC821_BT
 70
     0
 40
3.5
 41
1.0
 50
0.0
 71
     0
 42
3.0
  3

  4

1001
ACAD
1000
Monospac821 BT
1071
      256
  0
STYLE
  5
106AB90
330
27
100
AcDbSymbolTableRecord
100
AcDbTextStyleTableRecord
  2
STANDARD
 70
     0
 40
0.0
 41
1.0
 50
0.0
 71
     0
 42
0.2
  3
txt
  4

  0
ENDTAB
  0
TABLE
  2
VIEW
  5
29
330
0
100
AcDbSymbolTable
 70
     0
  0
ENDTAB
  0
TABLE
  2
UCS
  5
2A
330
0
100
AcDbSymbolTable
 70
     0
  0
ENDTAB
  0
TABLE
  2
APPID
  5
2B
330
0
100
AcDbSymbolTable
 70
     1
  0
APPID
  5
2C
330
2B
100
AcDbSymbolTableRecord
100
AcDbRegAppTableRecord
  2
ACAD
 70
     0
  0
ENDTAB
  0
TABLE
  2
DIMSTYLE
  5
2D
330
0
100
AcDbSymbolTable
 70
     1
  0
DIMSTYLE
105
2E
330
2D
100
AcDbSymbolTableRecord
100
AcDbDimStyleTableRecord
  2
STANDARD
 70
     0
  3

  4

  5

  6

  7

 40
1.0
 41
3.0
 42
0.5
 43
0.38
 44
1.0
 45
0.0
 46
0.0
 47
0.0
 48
0.0
140
3.5
141
2.5
142
0.0
143
0.03937
144
1.0
145
0.0
146
1.0
147
0.8
 71
     0
 72
     0
 73
     0
 74
     1
 75
     0
 76
     0
 77
     1
 78
     1
170
     0
171
     2
172
     1
173
     0
174
     1
175
     0
176
     0
177
     0
178
     0
179
     1
270
     2
271
     2
272
     4
273
     2
274
     2
340
28
275
     0
280
     0
281
     0
282
     0
283
     1
284
     1
285
     0
286
     0
287
     4
288
     0
  0
ENDTAB
  0
TABLE
  2
BLOCK_RECORD
  5
2F
330
0
100
AcDbSymbolTable
 70
     6
  0
BLOCK_RECORD
  5
30
330
2F
100
AcDbSymbolTableRecord
100
AcDbBlockTableRecord
  2
*MODEL_SPACE
  0
BLOCK_RECORD
  5
31
330
2F
100
AcDbSymbolTableRecord
100
AcDbBlockTableRecord
  2
*PAPER_SPACE
  0
BLOCK_RECORD
  5
91
330
2F
100
AcDbSymbolTableRecord
100
AcDbBlockTableRecord
  2
*D0
  0
BLOCK_RECORD
  5
9F
330
2F
100
AcDbSymbolTableRecord
100
AcDbBlockTableRecord
  2
*D1
  0
BLOCK_RECORD
  5
AF
330
2F
100
AcDbSymbolTableRecord
100
AcDbBlockTableRecord
  2
*D2
  0
BLOCK_RECORD
  5
BD
330
2F
100
AcDbSymbolTableRecord
100
AcDbBlockTableRecord
  2
*D3
  0
BLOCK_RECORD
  5
CB
330
2F
100
AcDbSymbolTableRecord
100
AcDbBlockTableRecord
  2
*D4
  0
BLOCK_RECORD
  5
D5
330
2F
100
AcDbSymbolTableRecord
100
AcDbBlockTableRecord
  2
*D5
  0
ENDTAB
  0
ENDSEC
  0
SECTION
  2
BLOCKS
  0
BLOCK
  5
32
330
30
100
AcDbEntity
  8
0
100
AcDbBlockBegin
  2
*MODEL_SPACE
 70
     0
 10
0.0
 20
0.0
 30
0.0
  3
*MODEL_SPACE
  1

  0
ENDBLK
  5
33
330
30
100
AcDbEntity
  8
0
100
AcDbBlockEnd
  0
BLOCK
  5
34
330
31
100
AcDbEntity
 67
     1
  8
0
100
AcDbBlockBegin
  2
*PAPER_SPACE
 70
     0
 10
0.0
 20
0.0
 30
0.0
  3
*PAPER_SPACE
  1

  0
ENDBLK
  5
35
330
31
100
AcDbEntity
 67
     1
  8
0
100
AcDbBlockEnd
  0
BLOCK
  5
8F
330
91
100
AcDbEntity
  8
SK2
100
AcDbBlockBegin
  2
*D0
 70
     1
 10
0.0
 20
0.0
 30
0.0
  3
*D0
  1

  0
LINE
  5
92
330
91
100
AcDbEntity
  8
SK2
100
AcDbLine
 10
-41.437305
 20
-22.5
 30
0.0
 11
-41.437305
 21
1.0
 31
0.0
  0
LINE
  5
93
330
91
100
AcDbEntity
  8
SK2
100
AcDbLine
 10
8.562695
 20
-22.5
 30
0.0
 11
8.562695
 21
0.55
 31
0.0
  0
LINE
  5
94
330
91
100
AcDbEntity
  8
SK2
100
AcDbLine
 10
-41.437305
 20
-20.5
 30
0.0
 11
8.562695
 21
-20.5
 31
0.0
  0
SOLID
  5
95
330
91
100
AcDbEntity
  8
SK2
100
AcDbTrace
 10
-41.437305
 20
-20.5
 30
0.0
 11
-38.958693
 21
-20.173685
 31
0.0
 12
-38.958693
 22
-20.826315
 32
0.0
 13
-38.958693
 23
-20.826315
 33
0.0
  0
SOLID
  5
96
330
91
100
AcDbEntity
  8
SK2
100
AcDbTrace
 10
8.562695
 20
-20.5
 30
0.0
 11
6.084083
 21
-20.826315
 31
0.0
 12
6.084083
 22
-20.173685
 32
0.0
 13
6.084083
 23
-20.173685
 33
0.0
  0
MTEXT
  5
97
330
91
100
AcDbEntity
  8
SK2
100
AcDbMText
 10
-16.267402
 20
-20.5
 30
0.0
 40
2.0
 41
0.0
 71
     8
 72
     1
  1
50+2
  0
POINT
  5
98
330
91
100
AcDbEntity
  8
SK2
 62
     0
100
AcDbPoint
 10
-41.437305
 20
1.0
 30
0.0
  0
POINT
  5
99
330
91
100
AcDbEntity
  8
SK2
 62
     0
100
AcDbPoint
 10
8.562695
 20
0.55
 30
0.0
  0
POINT
  5
9A
330
91
100
AcDbEntity
  8
SK2
 62
     0
100
AcDbPoint
 10
8.562695
 20
-20.5
 30
0.0
  0
ENDBLK
  5
9B
330
91
100
AcDbEntity
  8
SK2
100
AcDbBlockEnd
  0
BLOCK
  5
9D
330
9F
100
AcDbEntity
  8
SK2
100
AcDbBlockBegin
  2
*D1
 70
     1
 10
0.0
 20
0.0
 30
0.0
  3
*D1
  1

  0
LINE
  5
A0
330
9F
100
AcDbEntity
  8
SK2
100
AcDbLine
 10
-2.641536
 20
1.965774
 30
0.0
 11
-26.41536
 21
6.157741
 31
0.0
  0
LINE
  5
A1
330
9F
100
AcDbEntity
  8
SK2
100
AcDbLine
 10
-2.682286
 20
1.5
 30
0.0
 11
-26.82286
 21
1.5
 31
0.0
  0
ARC
  5
A2
330
9F
100
AcDbEntity
  8
SK2
100
AcDbCircle
 10
0.0
 20
1.5
 30
0.0
 40
24.82286
100
AcDbArc
 50
170.0
 51
225.466356
  0
SOLID
  5
A3
330
9F
100
AcDbEntity
  8
SK2
100
AcDbTrace
 10
-24.445745
 20
5.810444
 30
0.0
 11
-24.554793
 21
3.312824
 31
0.0
 12
-25.197509
 22
3.426152
 32
0.0
 13
-25.197509
 23
3.426152
 33
0.0
  0
SOLID
  5
A4
330
9F
100
AcDbEntity
  8
SK2
100
AcDbTrace
 10
-24.82286
 20
1.5
 30
0.0
 11
-25.149175
 21
3.978612
 31
0.0
 12
-24.496544
 22
3.978612
 32
0.0
 13
-24.496544
 23
3.978612
 33
0.0
  0
MTEXT
  5
A5
330
9F
100
AcDbEntity
  8
SK2
100
AcDbMText
 10
-19.389076
 20
-13.999616
 30
0.0
 40
2.0
 41
0.0
 71
     8
 72
     1
  1
10°
 11
0.6244087861759309
 21
-0.7810977325189855
 31
0.0
  0
POINT
  5
A6
330
9F
100
AcDbEntity
  8
SK2
 62
     0
100
AcDbPoint
 10
-24.637834
 20
4.525146
 30
0.0
  0
POINT
  5
A7
330
9F
100
AcDbEntity
  8
SK2
 62
     0
100
AcDbPoint
 10
0.0
 20
1.5
 30
0.0
  0
POINT
  5
A8
330
9F
100
AcDbEntity
  8
SK2
 62
     0
100
AcDbPoint
 10
-2.641536
 20
1.965774
 30
0.0
  0
POINT
  5
A9
330
9F
100
AcDbEntity
  8
SK2
 62
     0
100
AcDbPoint
 10
0.0
 20
1.5
 30
0.0
  0
POINT
  5
AA
330
9F
100
AcDbEntity
  8
SK2
 62
     0
100
AcDbPoint
 10
-2.682286
 20
1.5
 30
0.0
  0
ENDBLK
  5
AB
330
9F
100
AcDbEntity
  8
SK2
100
AcDbBlockEnd
  0
BLOCK
  5
AD
330
AF
100
AcDbEntity
  8
SK2
100
AcDbBlockBegin
  2
*D2
 70
     1
 10
0.0
 20
0.0
 30
0.0
  3
*D2
  1

  0
LINE
  5
B0
330
AF
100
AcDbEntity
  8
SK2
100
AcDbLine
 10
-40.937305
 20
-1.5
 30
0.0
 11
-53.437305
 21
-1.5
 31
0.0
  0
LINE
  5
B1
330
AF
100
AcDbEntity
  8
SK2
100
AcDbLine
 10
-40.937305
 20
1.5
 30
0.0
 11
-53.437305
 21
1.5
 31
0.0
  0
LINE
  5
B2
330
AF
100
AcDbEntity
  8
SK2
100
AcDbLine
 10
-51.437305
 20
-7.76617
 30
0.0
 11
-51.437305
 21
1.5
 31
0.0
  0
SOLID
  5
B3
330
AF
100
AcDbEntity
  8
SK2
100
AcDbTrace
 10
-51.437305
 20
-1.5
 30
0.0
 11
-51.76362
 21
0.978612
 31
0.0
 12
-51.110989
 22
0.978612
 32
0.0
 13
-51.110989
 23
0.978612
 33
0.0
  0
SOLID
  5
B4
330
AF
100
AcDbEntity
  8
SK2
100
AcDbTrace
 10
-51.437305
 20
1.5
 30
0.0
 11
-51.110989
 21
-0.978612
 31
0.0
 12
-51.76362
 22
-0.978612
 32
0.0
 13
-51.76362
 23
-0.978612
 33
0.0
  0
MTEXT
  5
B5
330
AF
100
AcDbEntity
  8
SK2
100
AcDbMText
 10
-51.437305
 20
0.0
 30
0.0
 40
2.0
 41
0.0
 71
     8
 72
     1
  1
Ø3h6
 11
0.0
 21
1.0
 31
0.0
  0
POINT
  5
B6
330
AF
100
AcDbEntity
  8
SK2
 62
     0
100
AcDbPoint
 10
-40.937305
 20
-1.5
 30
0.0
  0
POINT
  5
B7
330
AF
100
AcDbEntity
  8
SK2
 62
     0
100
AcDbPoint
 10
-40.937305
 20
1.5
 30
0.0
  0
POINT
  5
B8
330
AF
100
AcDbEntity
  8
SK2
 62
     0
100
AcDbPoint
 10
-51.437305
 20
1.5
 30
0.0
  0
ENDBLK
  5
B9
330
AF
100
AcDbEntity
  8
SK2
100
AcDbBlockEnd
  0
BLOCK
  5
BB
330
BD
100
AcDbEntity
  8
2
100
AcDbBlockBegin
  2
*D3
 70
     1
 10
0.0
 20
0.0
 30
0.0
  3
*D3
  1

  0
LINE
  5
BE
330
BD
100
AcDbEntity
  8
2
100
AcDbLine
 10
8.562695
 20
-0.55
 30
0.0
 11
15.562695
 21
-0.55
 31
0.0
  0
LINE
  5
BF
330
BD
100
AcDbEntity
  8
2
100
AcDbLine
 10
8.562695
 20
0.55
 30
0.0
 11
15.562695
 21
0.55
 31
0.0
  0
LINE
  5
C0
330
BD
100
AcDbEntity
  8
2
100
AcDbLine
 10
13.562695
 20
-3.795066
 30
0.0
 11
13.562695
 21
5.198318
 31
0.0
  0
SOLID
  5
C1
330
BD
100
AcDbEntity
  8
2
100
AcDbTrace
 10
13.562695
 20
-0.55
 30
0.0
 11
13.23638
 21
1.928612
 31
0.0
 12
13.889011
 22
1.928612
 32
0.0
 13
13.889011
 23
1.928612
 33
0.0
  0
SOLID
  5
C2
330
BD
100
AcDbEntity
  8
2
100
AcDbTrace
 10
13.562695
 20
0.55
 30
0.0
 11
13.889011
 21
-1.928612
 31
0.0
 12
13.23638
 22
-1.928612
 32
0.0
 13
13.23638
 23
-1.928612
 33
0.0
  0
MTEXT
  5
C3
330
BD
100
AcDbEntity
  8
2
100
AcDbMText
 10
13.562695
 20
5.139247
 30
0.0
 40
2.0
 41
0.0
 71
     8
 72
     1
  1
Ø1.1e8
 11
0.0
 21
1.0
 31
0.0
  0
POINT
  5
C4
330
BD
100
AcDbEntity
  8
2
 62
     0
100
AcDbPoint
 10
8.562695
 20
-0.55
 30
0.0
  0
POINT
  5
C5
330
BD
100
AcDbEntity
  8
2
 62
     0
100
AcDbPoint
 10
8.562695
 20
0.55
 30
0.0
  0
POINT
  5
C6
330
BD
100
AcDbEntity
  8
2
 62
     0
100
AcDbPoint
 10
13.562695
 20
5.198318
 30
0.0
  0
ENDBLK
  5
C7
330
BD
100
AcDbEntity
  8
2
100
AcDbBlockEnd
  0
BLOCK
  5
C9
330
CB
100
AcDbEntity
  8
2
100
AcDbBlockBegin
  2
*D4
 70
     1
 10
0.0
 20
0.0
 30
0.0
  3
*D4
  1

  0
LINE
  5
CC
330
CB
100
AcDbEntity
  8
2
100
AcDbLine
 10
5.407365
 20
0.556041
 30
0.0
 11
7.392069
 21
26.033471
 31
0.0
  0
MTEXT
  5
CD
330
CB
100
AcDbEntity
  8
2
100
AcDbMText
 10
7.218462
 20
23.804894
 30
0.0
 40
2.0
 41
0.0
 71
     8
 72
     1
  1
R2
 11
0.07766503966098293
 21
0.9969795091246649
 31
0.0
  0
SOLID
  5
CE
330
CB
100
AcDbEntity
  8
2
100
AcDbTrace
 10
5.407365
 20
0.556041
 30
0.0
 11
5.274537
 21
3.05251
 31
0.0
 12
5.925196
 22
3.001823
 32
0.0
 13
5.925196
 23
3.001823
 33
0.0
  0
POINT
  5
CF
330
CB
100
AcDbEntity
  8
2
 62
     0
100
AcDbPoint
 10
5.407365
 20
0.556041
 30
0.0
  0
POINT
  5
D0
330
CB
100
AcDbEntity
  8
2
 62
     0
100
AcDbPoint
 10
5.562695
 20
2.55
 30
0.0
  0
ENDBLK
  5
D1
330
CB
100
AcDbEntity
  8
2
100
AcDbBlockEnd
  0
BLOCK
  5
D3
330
D5
100
AcDbEntity
  8
2
100
AcDbBlockBegin
  2
*D5
 70
     1
 10
0.0
 20
0.0
 30
0.0
  3
*D5
  1

  0
LINE
  5
D6
330
D5
100
AcDbEntity
  8
2
100
AcDbLine
 10
5.562695
 20
-0.55
 30
0.0
 11
5.562695
 21
-13.5
 31
0.0
  0
LINE
  5
D7
330
D5
100
AcDbEntity
  8
2
100
AcDbLine
 10
8.562695
 20
-22.5
 30
0.0
 11
8.562695
 21
0.55
 31
0.0
  0
LINE
  5
D8
330
D5
100
AcDbEntity
  8
2
100
AcDbLine
 10
5.562695
 20
-11.5
 30
0.0
 11
8.562695
 21
-11.5
 31
0.0
  0
SOLID
  5
D9
330
D5
100
AcDbEntity
  8
2
100
AcDbTrace
 10
5.562695
 20
-11.5
 30
0.0
 11
8.041307
 21
-11.173685
 31
0.0
 12
8.041307
 22
-11.826315
 32
0.0
 13
8.041307
 23
-11.826315
 33
0.0
  0
SOLID
  5
DA
330
D5
100
AcDbEntity
  8
2
100
AcDbTrace
 10
8.562695
 20
-11.5
 30
0.0
 11
6.084083
 21
-11.826315
 31
0.0
 12
6.084083
 22
-11.173685
 32
0.0
 13
6.084083
 23
-11.173685
 33
0.0
  0
MTEXT
  5
DB
330
D5
100
AcDbEntity
  8
2
100
AcDbMText
 10
7.062695
 20
-11.5
 30
0.0
 40
2.0
 41
0.0
 71
     8
 72
     1
  1
3
  0
POINT
  5
DC
330
D5
100
AcDbEntity
  8
2
 62
     0
100
AcDbPoint
 10
5.562695
 20
-0.55
 30
0.0
  0
POINT
  5
DD
330
D5
100
AcDbEntity
  8
2
 62
     0
100
AcDbPoint
 10
8.562695
 20
0.55
 30
0.0
  0
POINT
  5
DE
330
D5
100
AcDbEntity
  8
2
 62
     0
100
AcDbPoint
 10
8.562695
 20
-11.5
 30
0.0
  0
ENDBLK
  5
DF
330
D5
100
AcDbEntity
  8
2
100
AcDbBlockEnd
  0
ENDSEC
  0
SECTION
  2
ENTITIES
  0
DIMENSION
  5
9C
330
30
100
AcDbEntity
  8
SK2
100
AcDbDimension
  2
*D0
 10
8.562695
 20
-20.5
 30
0.0
 11
-16.267402
 21
-20.5
 31
0.0
 70
   160
  1
<>+2
  3
STANDARD
100
AcDbAlignedDimension
 13
-41.437305
 23
1.0
 33
0.0
 14
8.562695
 24
0.55
 34
0.0
100
AcDbRotatedDimension
  0
DIMENSION
  5
AC
330
30
100
AcDbEntity
  8
SK2
100
AcDbDimension
  2
*D1
 10
-2.682286
 20
1.5
 30
0.0
 11
-19.389076
 21
-13.999616
 31
0.0
 70
   162
  1
10°
 53
308.638821
  3
STANDARD
100
AcDb2LineAngularDimension
 13
-2.641536
 23
1.965774
 33
0.0
 14
0.0
 24
1.5
 34
0.0
 15
0.0
 25
1.5
 35
0.0
 16
-24.637834
 26
4.525146
 36
0.0
  0
DIMENSION
  5
BA
330
30
100
AcDbEntity
  8
SK2
100
AcDbDimension
  2
*D2
 10
-51.437305
 20
1.5
 30
0.0
 11
-51.437305
 21
0.0
 31
0.0
 70
   160
  1
%%c<>h6
  3
STANDARD
100
AcDbAlignedDimension
 13
-40.937305
 23
-1.5
 33
0.0
 14
-40.937305
 24
1.5
 34
0.0
 50
-90.0
100
AcDbRotatedDimension
  0
DIMENSION
  5
C8
330
30
100
AcDbEntity
  8
2
100
AcDbDimension
  2
*D3
 10
13.562695
 20
5.198318
 30
0.0
 11
13.562695
 21
5.139247
 31
0.0
 70
   160
  1
%%c<>e8
  3
STANDARD
100
AcDbAlignedDimension
 13
8.562695
 23
-0.55
 33
0.0
 14
8.562695
 24
0.55
 34
0.0
 50
-90.0
100
AcDbRotatedDimension
  0
DIMENSION
  5
D2
330
30
100
AcDbEntity
  8
2
100
AcDbDimension
  2
*D4
 10
5.562695
 20
2.55
 30
0.0
 11
7.218462
 21
23.804894
 31
0.0
 70
   164
  1
R2
  3
STANDARD
100
AcDbRadialDimension
 15
5.407365
 25
0.556041
 35
0.0
 40
0.0
  0
DIMENSION
  5
E0
330
30
100
AcDbEntity
  8
2
100
AcDbDimension
  2
*D5
 10
8.562695
 20
-11.5
 30
0.0
 11
7.062695
 21
-11.5
 31
0.0
 70
   160
  1
<>
  3
STANDARD
100
AcDbAlignedDimension
 13
5.562695
 23
-0.55
 33
0.0
 14
8.562695
 24
0.55
 34
0.0
100
AcDbRotatedDimension
  0
LINE
  5
36
330
30
100
AcDbEntity
  8
1
100
AcDbLine
 10
8.562695
 20
0.55
 30
0.0
 11
8.562695
 21
-0.55
 31
0.0
  0
LINE
  5
37
330
30
100
AcDbEntity
  8
1
100
AcDbLine
 10
8.562695
 20
-0.55
 30
0.0
 11
8.562695
 21
0.0
 31
0.0
  0
LINE
  5
38
330
30
100
AcDbEntity
  8
1
100
AcDbLine
 10
8.562695
 20
0.0
 30
0.0
 11
8.562695
 21
0.55
 31
0.0
  0
LINE
  5
39
330
30
100
AcDbEntity
  8
1
100
AcDbLine
 10
8.562695
 20
0.55
 30
0.0
 11
5.562695
 21
0.55
 31
0.0
  0
ARC
  5
3A
330
30
100
AcDbEntity
  8
1
100
AcDbCircle
 10
5.562695
 20
2.55
 30
0.0
 40
2.0
100
AcDbArc
 50
260.0
 51
270.0
  0
LINE
  5
3B
330
30
100
AcDbEntity
  8
1
100
AcDbLine
 10
5.215399
 20
0.580384
 30
0.0
 11
0.0
 21
1.5
 31
0.0
  0
LINE
  5
3C
330
30
100
AcDbEntity
  8
1
100
AcDbLine
 10
0.0
 20
1.5
 30
0.0
 11
0.0
 21
-1.5
 31
0.0
  0
LINE
  5
3D
330
30
100
AcDbEntity
  8
1
100
AcDbLine
 10
0.0
 20
-1.5
 30
0.0
 11
5.215399
 21
-0.580384
 31
0.0
  0
ARC
  5
3E
330
30
100
AcDbEntity
  8
1
100
AcDbCircle
 10
5.562695
 20
-2.55
 30
0.0
 40
2.0
100
AcDbArc
 50
90.0
 51
100.0
  0
LINE
  5
3F
330
30
100
AcDbEntity
  8
1
100
AcDbLine
 10
5.562695
 20
-0.55
 30
0.0
 11
8.562695
 21
-0.55
 31
0.0
  0
LINE
  5
40
330
30
100
AcDbEntity
  8
1
100
AcDbLine
 10
8.562695
 20
-0.55
 30
0.0
 11
8.462695
 21
-0.549593
 31
0.0
  0
LINE
  5
41
330
30
100
AcDbEntity
  8
1
100
AcDbLine
 10
8.462695
 20
-0.549593
 30
0.0
 11
8.362695
 21
-0.548371
 31
0.0
  0
LINE
  5
42
330
30
100
AcDbEntity
  8
1
100
AcDbLine
 10
8.362695
 20
-0.548371
 30
0.0
 11
8.262695
 21
-0.546337
 31
0.0
  0
LINE
  5
43
330
30
100
AcDbEntity
  8
1
100
AcDbLine
 10
8.262695
 20
-0.546337
 30
0.0
 11
8.162695
 21
-0.543494
 31
0.0
  0
LINE
  5
44
330
30
100
AcDbEntity
  8
1
100
AcDbLine
 10
8.162695
 20
-0.543494
 30
0.0
 11
8.062695
 21
-0.539846
 31
0.0
  0
LINE
  5
45
330
30
100
AcDbEntity
  8
1
100
AcDbLine
 10
8.062695
 20
-0.539846
 30
0.0
 11
7.962695
 21
-0.535398
 31
0.0
  0
LINE
  5
46
330
30
100
AcDbEntity
  8
1
100
AcDbLine
 10
7.962695
 20
-0.535398
 30
0.0
 11
7.862695
 21
-0.530158
 31
0.0
  0
LINE
  5
47
330
30
100
AcDbEntity
  8
1
100
AcDbLine
 10
7.862695
 20
-0.530158
 30
0.0
 11
7.762695
 21
-0.524131
 31
0.0
  0
LINE
  5
48
330
30
100
AcDbEntity
  8
1
100
AcDbLine
 10
7.762695
 20
-0.524131
 30
0.0
 11
7.662695
 21
-0.517329
 31
0.0
  0
LINE
  5
49
330
30
100
AcDbEntity
  8
1
100
AcDbLine
 10
7.662695
 20
-0.517329
 30
0.0
 11
7.562695
 21
-0.50976
 31
0.0
  0
LINE
  5
4A
330
30
100
AcDbEntity
  8
1
100
AcDbLine
 10
7.562695
 20
-0.50976
 30
0.0
 11
7.462695
 21
-0.501436
 31
0.0
  0
LINE
  5
4B
330
30
100
AcDbEntity
  8
1
100
AcDbLine
 10
7.462695
 20
-0.501436
 30
0.0
 11
7.362695
 21
-0.492369
 31
0.0
  0
LINE
  5
4C
330
30
100
AcDbEntity
  8
1
100
AcDbLine
 10
7.362695
 20
-0.492369
 30
0.0
 11
7.262695
 21
-0.482573
 31
0.0
  0
LINE
  5
4D
330
30
100
AcDbEntity
  8
1
100
AcDbLine
 10
7.262695
 20
-0.482573
 30
0.0
 11
7.162695
 21
-0.472062
 31
0.0
  0
LINE
  5
4E
330
30
100
AcDbEntity
  8
1
100
AcDbLine
 10
7.162695
 20
-0.472062
 30
0.0
 11
7.062695
 21
-0.460852
 31
0.0
  0
LINE
  5
4F
330
30
100
AcDbEntity
  8
1
100
AcDbLine
 10
7.062695
 20
-0.460852
 30
0.0
 11
6.962695
 21
-0.448959
 31
0.0
  0
LINE
  5
50
330
30
100
AcDbEntity
  8
1
100
AcDbLine
 10
6.962695
 20
-0.448959
 30
0.0
 11
6.862695
 21
-0.436401
 31
0.0
  0
LINE
  5
51
330
30
100
AcDbEntity
  8
1
100
AcDbLine
 10
6.862695
 20
-0.436401
 30
0.0
 11
6.762695
 21
-0.423196
 31
0.0
  0
LINE
  5
52
330
30
100
AcDbEntity
  8
1
100
AcDbLine
 10
6.762695
 20
-0.423196
 30
0.0
 11
6.662695
 21
-0.409365
 31
0.0
  0
LINE
  5
53
330
30
100
AcDbEntity
  8
1
100
AcDbLine
 10
6.662695
 20
-0.409365
 30
0.0
 11
6.562695
 21
-0.394927
 31
0.0
  0
LINE
  5
54
330
30
100
AcDbEntity
  8
1
100
AcDbLine
 10
6.562695
 20
-0.394927
 30
0.0
 11
6.462695
 21
-0.379905
 31
0.0
  0
LINE
  5
55
330
30
100
AcDbEntity
  8
1
100
AcDbLine
 10
6.462695
 20
-0.379905
 30
0.0
 11
6.362695
 21
-0.364319
 31
0.0
  0
LINE
  5
56
330
30
100
AcDbEntity
  8
1
100
AcDbLine
 10
6.362695
 20
-0.364319
 30
0.0
 11
6.262695
 21
-0.348194
 31
0.0
  0
LINE
  5
57
330
30
100
AcDbEntity
  8
1
100
AcDbLine
 10
6.262695
 20
-0.348194
 30
0.0
 11
6.162695
 21
-0.331553
 31
0.0
  0
LINE
  5
58
330
30
100
AcDbEntity
  8
1
100
AcDbLine
 10
6.162695
 20
-0.331553
 30
0.0
 11
6.062695
 21
-0.314421
 31
0.0
  0
LINE
  5
59
330
30
100
AcDbEntity
  8
1
100
AcDbLine
 10
6.062695
 20
-0.314421
 30
0.0
 11
5.962695
 21
-0.296823
 31
0.0
  0
LINE
  5
5A
330
30
100
AcDbEntity
  8
1
100
AcDbLine
 10
5.962695
 20
-0.296823
 30
0.0
 11
5.862695
 21
-0.278786
 31
0.0
  0
LINE
  5
5B
330
30
100
AcDbEntity
  8
1
100
AcDbLine
 10
5.862695
 20
-0.278786
 30
0.0
 11
5.762695
 21
-0.260336
 31
0.0
  0
LINE
  5
5C
330
30
100
AcDbEntity
  8
1
100
AcDbLine
 10
5.762695
 20
-0.260336
 30
0.0
 11
5.662695
 21
-0.2415
 31
0.0
  0
LINE
  5
5D
330
30
100
AcDbEntity
  8
1
100
AcDbLine
 10
5.662695
 20
-0.2415
 30
0.0
 11
5.462695
 21
-0.203705
 31
0.0
  0
LINE
  5
5E
330
30
100
AcDbEntity
  8
1
100
AcDbLine
 10
5.462695
 20
-0.203705
 30
0.0
 11
5.362695
 21
-0.186566
 31
0.0
  0
LINE
  5
5F
330
30
100
AcDbEntity
  8
1
100
AcDbLine
 10
5.362695
 20
-0.186566
 30
0.0
 11
5.262695
 21
-0.205634
 31
0.0
  0
LINE
  5
60
330
30
100
AcDbEntity
  8
1
100
AcDbLine
 10
5.262695
 20
-0.205634
 30
0.0
 11
5.262695
 21
-0.572628
 31
0.0
  0
LINE
  5
61
330
30
100
AcDbEntity
  8
1
100
AcDbLine
 10
5.215399
 20
-0.580384
 30
0.0
 11
5.215399
 21
0.580384
 31
0.0
  0
LINE
  5
62
330
30
100
AcDbEntity
  8
1
100
AcDbLine
 10
5.215399
 20
0.580384
 30
0.0
 11
5.215399
 21
-0.580384
 31
0.0
  0
LINE
  5
63
330
30
100
AcDbEntity
  8
1
100
AcDbLine
 10
5.562695
 20
-0.55
 30
0.0
 11
5.562695
 21
0.55
 31
0.0
  0
LINE
  5
64
330
30
100
AcDbEntity
  8
1
100
AcDbLine
 10
5.262695
 20
0.572628
 30
0.0
 11
5.262695
 21
0.376554
 31
0.0
  0
LINE
  5
65
330
30
100
AcDbEntity
  8
1
100
AcDbLine
 10
5.262695
 20
0.376554
 30
0.0
 11
5.362695
 21
0.186251
 31
0.0
  0
LINE
  5
66
330
30
100
AcDbEntity
  8
1
100
AcDbLine
 10
5.362695
 20
0.186251
 30
0.0
 11
5.462695
 21
0.149548
 31
0.0
  0
LINE
  5
67
330
30
100
AcDbEntity
  8
1
100
AcDbLine
 10
5.462695
 20
0.149548
 30
0.0
 11
5.662695
 21
0.108672
 31
0.0
  0
LINE
  5
68
330
30
100
AcDbEntity
  8
1
100
AcDbLine
 10
5.662695
 20
0.108672
 30
0.0
 11
5.762695
 21
0.087844
 31
0.0
  0
LINE
  5
69
330
30
100
AcDbEntity
  8
1
100
AcDbLine
 10
5.762695
 20
0.087844
 30
0.0
 11
5.862695
 21
0.066887
 31
0.0
  0
LINE
  5
6A
330
30
100
AcDbEntity
  8
1
100
AcDbLine
 10
5.862695
 20
0.066887
 30
0.0
 11
5.962695
 21
0.04583
 31
0.0
  0
LINE
  5
6B
330
30
100
AcDbEntity
  8
1
100
AcDbLine
 10
5.962695
 20
0.04583
 30
0.0
 11
6.062695
 21
0.024705
 31
0.0
  0
LINE
  5
6C
330
30
100
AcDbEntity
  8
1
100
AcDbLine
 10
6.062695
 20
0.024705
 30
0.0
 11
6.162695
 21
0.003544
 31
0.0
  0
LINE
  5
6D
330
30
100
AcDbEntity
  8
1
100
AcDbLine
 10
6.162695
 20
0.003544
 30
0.0
 11
6.262695
 21
-0.017622
 31
0.0
  0
LINE
  5
6E
330
30
100
AcDbEntity
  8
1
100
AcDbLine
 10
6.262695
 20
-0.017622
 30
0.0
 11
6.362695
 21
-0.038763
 31
0.0
  0
LINE
  5
6F
330
30
100
AcDbEntity
  8
1
100
AcDbLine
 10
6.362695
 20
-0.038763
 30
0.0
 11
6.462695
 21
-0.059846
 31
0.0
  0
LINE
  5
70
330
30
100
AcDbEntity
  8
1
100
AcDbLine
 10
6.462695
 20
-0.059846
 30
0.0
 11
6.562695
 21
-0.08084
 31
0.0
  0
LINE
  5
71
330
30
100
AcDbEntity
  8
1
100
AcDbLine
 10
6.562695
 20
-0.08084
 30
0.0
 11
6.662695
 21
-0.101715
 31
0.0
  0
LINE
  5
72
330
30
100
AcDbEntity
  8
1
100
AcDbLine
 10
6.662695
 20
-0.101715
 30
0.0
 11
6.762695
 21
-0.122438
 31
0.0
  0
LINE
  5
73
330
30
100
AcDbEntity
  8
1
100
AcDbLine
 10
6.762695
 20
-0.122438
 30
0.0
 11
6.862695
 21
-0.142981
 31
0.0
  0
LINE
  5
74
330
30
100
AcDbEntity
  8
1
100
AcDbLine
 10
6.862695
 20
-0.142981
 30
0.0
 11
6.962695
 21
-0.163312
 31
0.0
  0
LINE
  5
75
330
30
100
AcDbEntity
  8
1
100
AcDbLine
 10
6.962695
 20
-0.163312
 30
0.0
 11
7.062695
 21
-0.183401
 31
0.0
  0
LINE
  5
76
330
30
100
AcDbEntity
  8
1
100
AcDbLine
 10
7.062695
 20
-0.183401
 30
0.0
 11
7.162695
 21
-0.203218
 31
0.0
  0
LINE
  5
77
330
30
100
AcDbEntity
  8
1
100
AcDbLine
 10
7.162695
 20
-0.203218
 30
0.0
 11
7.262695
 21
-0.222734
 31
0.0
  0
LINE
  5
78
330
30
100
AcDbEntity
  8
1
100
AcDbLine
 10
7.262695
 20
-0.222734
 30
0.0
 11
7.362695
 21
-0.24192
 31
0.0
  0
LINE
  5
79
330
30
100
AcDbEntity
  8
1
100
AcDbLine
 10
7.362695
 20
-0.24192
 30
0.0
 11
7.462695
 21
-0.260748
 31
0.0
  0
LINE
  5
7A
330
30
100
AcDbEntity
  8
1
100
AcDbLine
 10
7.462695
 20
-0.260748
 30
0.0
 11
7.562695
 21
-0.279189
 31
0.0
  0
LINE
  5
7B
330
30
100
AcDbEntity
  8
1
100
AcDbLine
 10
7.562695
 20
-0.279189
 30
0.0
 11
7.662695
 21
-0.297217
 31
0.0
  0
LINE
  5
7C
330
30
100
AcDbEntity
  8
1
100
AcDbLine
 10
7.662695
 20
-0.297217
 30
0.0
 11
7.762695
 21
-0.314805
 31
0.0
  0
LINE
  5
7D
330
30
100
AcDbEntity
  8
1
100
AcDbLine
 10
7.762695
 20
-0.314805
 30
0.0
 11
7.862695
 21
-0.331926
 31
0.0
  0
LINE
  5
7E
330
30
100
AcDbEntity
  8
1
100
AcDbLine
 10
7.862695
 20
-0.331926
 30
0.0
 11
7.962695
 21
-0.348556
 31
0.0
  0
LINE
  5
7F
330
30
100
AcDbEntity
  8
1
100
AcDbLine
 10
7.962695
 20
-0.348556
 30
0.0
 11
8.062695
 21
-0.36467
 31
0.0
  0
LINE
  5
80
330
30
100
AcDbEntity
  8
1
100
AcDbLine
 10
8.062695
 20
-0.36467
 30
0.0
 11
8.162695
 21
-0.380243
 31
0.0
  0
LINE
  5
81
330
30
100
AcDbEntity
  8
1
100
AcDbLine
 10
8.162695
 20
-0.380243
 30
0.0
 11
8.262695
 21
-0.395253
 31
0.0
  0
LINE
  5
82
330
30
100
AcDbEntity
  8
1
100
AcDbLine
 10
8.262695
 20
-0.395253
 30
0.0
 11
8.362695
 21
-0.409677
 31
0.0
  0
LINE
  5
83
330
30
100
AcDbEntity
  8
1
100
AcDbLine
 10
8.362695
 20
-0.409677
 30
0.0
 11
8.462695
 21
-0.423495
 31
0.0
  0
LINE
  5
84
330
30
100
AcDbEntity
  8
1
100
AcDbLine
 10
8.462695
 20
-0.423495
 30
0.0
 11
8.562695
 21
-0.436685
 31
0.0
  0
LINE
  5
85
330
30
100
AcDbEntity
  8
1
100
AcDbLine
 10
0.0
 20
-1.5
 30
0.0
 11
0.0
 21
1.5
 31
0.0
  0
LINE
  5
86
330
30
100
AcDbEntity
  8
1
100
AcDbLine
 10
0.0
 20
1.5
 30
0.0
 11
0.0
 21
-1.5
 31
0.0
  0
LINE
  5
87
330
30
100
AcDbEntity
  8
SK1
100
AcDbLine
 10
0.0
 20
1.5
 30
0.0
 11
-40.937305
 21
1.5
 31
0.0
  0
LINE
  5
88
330
30
100
AcDbEntity
  8
SK1
100
AcDbLine
 10
-40.937305
 20
1.5
 30
0.0
 11
-41.437305
 21
1.0
 31
0.0
  0
LINE
  5
89
330
30
100
AcDbEntity
  8
SK1
100
AcDbLine
 10
0.0
 20
-1.5
 30
0.0
 11
-40.937305
 21
-1.5
 31
0.0
  0
LINE
  5
8A
330
30
100
AcDbEntity
  8
SK1
100
AcDbLine
 10
-40.937305
 20
-1.5
 30
0.0
 11
-41.437305
 21
-1.0
 31
0.0
  0
LINE
  5
8B
330
30
100
AcDbEntity
  8
SK1
100
AcDbLine
 10
0.0
 20
1.5
 30
0.0
 11
0.0
 21
-1.5
 31
0.0
  0
LINE
  5
8C
330
30
100
AcDbEntity
  8
SK1
100
AcDbLine
 10
0.0
 20
1.5
 30
0.0
 11
0.0
 21
-1.5
 31
0.0
  0
LINE
  5
8D
330
30
100
AcDbEntity
  8
SK1
100
AcDbLine
 10
-40.937305
 20
1.5
 30
0.0
 11
-40.937305
 21
-1.5
 31
0.0
  0
LINE
  5
8E
330
30
100
AcDbEntity
  8
SK1
100
AcDbLine
 10
-41.437305
 20
1.0
 30
0.0
 11
-41.437305
 21
-1.0
 31
0.0
  0
LINE
  5
E1
330
30
100
AcDbEntity
  8
NOCUT
100
AcDbLine
 10
5.562695
 20
0.0
 30
0.0
 11
5.562695
 21
0.55
 31
0.0
  0
ARC
  5
E2
330
30
100
AcDbEntity
  8
NOCUT
100
AcDbCircle
 10
5.562695
 20
2.55
 30
0.0
 40
2.0
100
AcDbArc
 50
260.0
 51
270.0
  0
LINE
  5
E3
330
30
100
AcDbEntity
  8
NOCUT
100
AcDbLine
 10
5.215399
 20
0.580384
 30
0.0
 11
0.0
 21
1.5
 31
0.0
  0
LINE
  5
E4
330
30
100
AcDbEntity
  8
NOCUT
100
AcDbLine
 10
0.0
 20
1.5
 30
0.0
 11
0.0
 21
0.0
 31
0.0
  0
LINE
  5
E5
330
30
100
AcDbEntity
  8
NOCUT
100
AcDbLine
 10
0.0
 20
0.0
 30
0.0
 11
5.562695
 21
0.0
 31
0.0
  0
LINE
  5
E6
330
30
100
AcDbEntity
  8
CUT
100
AcDbLine
 10
8.562695
 20
0.0
 30
0.0
 11
8.562695
 21
0.55
 31
0.0
  0
LINE
  5
E7
330
30
100
AcDbEntity
  8
CUT
100
AcDbLine
 10
8.562695
 20
0.55
 30
0.0
 11
5.562695
 21
0.55
 31
0.0
  0
LINE
  5
E8
330
30
100
AcDbEntity
  8
CUT
100
AcDbLine
 10
5.562695
 20
0.55
 30
0.0
 11
5.562695
 21
0.0
 31
0.0
  0
LINE
  5
E9
330
30
100
AcDbEntity
  8
CUT
100
AcDbLine
 10
5.562695
 20
0.0
 30
0.0
 11
8.562695
 21
0.0
 31
0.0
  0
LINE
  5
EA
330
30
100
AcDbEntity
  8
4
100
AcDbLine
 10
0.0
 20
0.0
 30
0.0
 11
8.562695
 21
0.0
 31
0.0
  0
LINE
  5
EB
330
30
100
AcDbEntity
  8
INFTOTAL
100
AcDbLine
 10
-56.887305
 20
29.483471
 30
0.0
 11
19.012695
 21
29.483471
 31
0.0
  0
LINE
  5
EC
330
30
100
AcDbEntity
  8
INFTOTAL
100
AcDbLine
 10
19.012695
 20
29.483471
 30
0.0
 11
19.012695
 21
-25.95
 31
0.0
  0
LINE
  5
ED
330
30
100
AcDbEntity
  8
INFTOTAL
100
AcDbLine
 10
19.012695
 20
-25.95
 30
0.0
 11
-56.887305
 21
-25.95
 31
0.0
  0
LINE
  5
EE
330
30
100
AcDbEntity
  8
INFTOTAL
100
AcDbLine
 10
-56.887305
 20
-25.95
 30
0.0
 11
-56.887305
 21
29.483471
 31
0.0
  0
ENDSEC
  0
SECTION
  2
OBJECTS
  0
DICTIONARY
  5
EF
330
0
100
AcDbDictionary
  3
ACAD_GROUP
350
F0
  3
ACAD_IMAGE_DICT
350
F2
  3
ACAD_MLINESTYLE
350
106AB92
  3
ACAD_SCALELIST
350
106AB9A
  3
APPDATA
350
106ABDD
  3
DWGPROPS
350
106ABDE
1001
ACAD
1000
TREAT_AS_HARD
1070
     0
  0
DICTIONARY
  5
F0
102
{ACAD_REACTORS
330
EF
102
}
330
EF
100
AcDbDictionary
1001
ACAD
1000
TREAT_AS_HARD
1070
     0
  0
DICTIONARY
  5
F2
102
{ACAD_REACTORS
330
EF
102
}
330
EF
100
AcDbDictionary
  3
ISBETDSKETCHER_EXPORT
350
F3
1001
ACAD
1000
TREAT_AS_HARD
1070
     0
  0
DICTIONARY
  5
106AB92
102
{ACAD_REACTORS
330
EF
102
}
330
EF
100
AcDbDictionary
  3
STANDARD
350
106AB93
1001
ACAD
1000
TREAT_AS_HARD
1070
     0
  0
DICTIONARY
  5
106AB9A
102
{ACAD_REACTORS
330
EF
102
}
330
EF
100
AcDbDictionary
1001
ACAD
1000
TREAT_AS_HARD
1070
     0
  0
DICTIONARY
  5
106ABDD
102
{ACAD_REACTORS
330
EF
102
}
330
EF
100
AcDbDictionary
1001
ACAD
1000
TREAT_AS_HARD
1070
     0
  0
XRECORD
  5
106ABDE
102
{ACAD_REACTORS
330
EF
102
}
330
EF
100
AcDbXrecord
  1
DWGPROPS COOKIE
  2

  3

  4

  6

  7

  8
t.sippl
  9

300
=
301
=
302
=
303
=
304
=
305
=
306
=
307
=
308
=
309
=
 40
0.0
 41
0.0
 42
2458935.592445394
  1

 90
        0
  0
IMAGEDEF
  5
F3
102
{ACAD_REACTORS
330
F2
330
F4
102
}
330
F2
100
AcDbRasterImageDef
 90
        0
  1
.\2540500011(1).jpg
 10
1897.0
 20
362.0
 11
0.08466683600033867
 21
0.08466683600033867
280
     1
281
     3
  0
MLINESTYLE
  5
106AB93
102
{ACAD_REACTORS
330
106AB92
102
}
330
106AB92
100
AcDbMlineStyle
  2
Standard
 70
     0
  3

 62
   256
 51
90.0
 52
90.0
 71
     2
 49
0.5
 62
   256
  6
BYLAYER
 49
-0.5
 62
   256
  6
BYLAYER
  0
ENDSEC
  0
EOF
