  0
SECTION
  2
HEADER
  9
$ACADVER
  1
AC1015
  9
$DWGCODEPAGE
  3
ansi_1252
  9
$HANDSEED
  5
106AB90
  0
ENDSEC
  0
SECTION
  2
TABLES
  0
TABLE
  2
VPORT
  5
2
  330
0
  100
AcDbSymbolTable
  70
    0
  0
ENDTAB
  0
TABLE
  2
LTYPE
  5
3
  330
0
  100
AcDbSymbolTable
  70
    4
  0
LTYPE
  5
4
  330
3
  100
AcDbSymbolTableRecord
  100
AcDbLinetypeTableRecord
  2
ByBlock
  70
    0
  3

  72
65
  73
    0
  40
0
  0
LTYPE
  5
5
  330
3
  100
AcDbSymbolTableRecord
  100
AcDbLinetypeTableRecord
  2
ByLayer
  70
    0
  3

  72
65
  73
    0
  40
0
  0
LTYPE
  5
6
  330
3
  100
AcDbSymbolTableRecord
  100
AcDbLinetypeTableRecord
  2
CONTINUOUS
  70
    0
  3
Solid Line
  72
65
  73
    0
  40
0
  0
LTYPE
  5
7
  330
3
  100
AcDbSymbolTableRecord
  100
AcDbLinetypeTableRecord
  2
DASH
  70
    0
  3
Hidden
  72
65
  73
2
  40
2.5
  49
1.5
  74
0
  49
-1
  74
0
  0
LTYPE
  5
8
  330
3
  100
AcDbSymbolTableRecord
  100
AcDbLinetypeTableRecord
  2
LONGDASHDASH
  70
    0
  3
__ . __
  72
65
  73
    4
  40
7
  49
4
  74
    0
  49
-1
  74
    0
  49
1
  74
    0
  49
-1
  74
    0
  0
ENDTAB
  0
TABLE
  2
LAYER
  5
9
  330
0
  100
AcDbSymbolTable
  70
    40
  0
LAYER
  5
a
  330
9
  100
AcDbSymbolTableRecord
  100
AcDbLayerTableRecord
  2
0
  70
    0
  62
    0
  6
CONTINUOUS
  390
0
  0
LAYER
  5
c
  330
9
  100
AcDbSymbolTableRecord
  100
AcDbLayerTableRecord
  2
1
  70
    0
  62
    4
  6
CONTINUOUS
  370
50
  390
0
  0
LAYER
  5
d
  330
9
  100
AcDbSymbolTableRecord
  100
AcDbLayerTableRecord
  2
2
  70
    0
  62
    7
  6
CONTINUOUS
  370
25
  390
0
  0
LAYER
  5
f
  330
9
  100
AcDbSymbolTableRecord
  100
AcDbLayerTableRecord
  2
4
  70
    0
  62
    2
  6
LONGDASHDASH
  370
25
  390
0
  0
LAYER
  5
13
  330
9
  100
AcDbSymbolTableRecord
  100
AcDbLayerTableRecord
  2
SK1
  70
    0
  62
    4
  6
CONTINUOUS
  370
50
  390
0
  0
LAYER
  5
14
  330
9
  100
AcDbSymbolTableRecord
  100
AcDbLayerTableRecord
  2
SK2
  70
    0
  62
    7
  6
CONTINUOUS
  370
25
  390
0
  0
LAYER
  5
22
  330
9
  100
AcDbSymbolTableRecord
  100
AcDbLayerTableRecord
  2
CUT
  70
    0
  62
    1
  6
CONTINUOUS
  370
25
  390
0
  0
LAYER
  5
26
  330
9
  100
AcDbSymbolTableRecord
  100
AcDbLayerTableRecord
  2
INFTOTAL
  70
    0
  62
    9
  6
CONTINUOUS
  370
18
  390
0
  0
ENDTAB
  0
TABLE
  2
STYLE
  5
27
  330
0
  100
AcDbSymbolTable
  70
    1
  0
STYLE
  5
28
  330
27
  100
AcDbSymbolTableRecord
  100
AcDbTextStyleTableRecord
  2
Monospac821 BT
  70
    0
  40
    3.5
  41
1
  50
0
  71
0
  42
3
  3

  4

  1001
ACAD
  1000
Monospac821 BT
  1071
256
  0
ENDTAB
  0
TABLE
  2
VIEW
  5
29
  330
0
  100
AcDbSymbolTable
  70
    0
  0
ENDTAB
  0
TABLE
  2
UCS
  5
2a
  330
0
  100
AcDbSymbolTable
  70
    0
  0
ENDTAB
  0
TABLE
  2
APPID
  5
2b
  330
0
  100
AcDbSymbolTable
  70
    1
  0
APPID
  5
2c
  330
2b
  100
AcDbSymbolTableRecord
  100
AcDbRegAppTableRecord
  2
ACAD
  70
    0
  0
ENDTAB
  0
TABLE
  2
DIMSTYLE
  5
2d
  330
0
  100
AcDbSymbolTable
  70
    1
  100
AcDbDimStyleTable
  0
DIMSTYLE
  105
2e
  330
2d
  100
AcDbSymbolTableRecord
  100
AcDbDimStyleTableRecord
  2
ISBEtdSketcher
  70
    0
  41
    3
  42
0.5
  44
1
  73
0
  77
1
  78
1
  140
3.5
  141
2.5
  143
0.03937
  147
0.8
  172
1
  174
1
  178
0
  179
1
  271
2
  279
1
  284
1
  340
28
  0
ENDTAB
  0
TABLE
  2
BLOCK_RECORD
  5
2f
  330
0
  100
AcDbSymbolTable
  70
    2
  0
BLOCK_RECORD
  5
30
  330
2f
  100
AcDbSymbolTableRecord
  100
AcDbBlockTableRecord
  2
*Model_Space
  0
BLOCK_RECORD
  5
31
  330
2f
  100
AcDbSymbolTableRecord
  100
AcDbBlockTableRecord
  2
*Paper_Space
  0
BLOCK_RECORD
  5
3b7
  330
2f
  100
AcDbSymbolTableRecord
  100
AcDbBlockTableRecord
  2
*D3b6
  340
0
  0
BLOCK_RECORD
  5
3c5
  330
2f
  100
AcDbSymbolTableRecord
  100
AcDbBlockTableRecord
  2
*D3c4
  340
0
  0
BLOCK_RECORD
  5
3d3
  330
2f
  100
AcDbSymbolTableRecord
  100
AcDbBlockTableRecord
  2
*D3d2
  340
0
  0
BLOCK_RECORD
  5
3e1
  330
2f
  100
AcDbSymbolTableRecord
  100
AcDbBlockTableRecord
  2
*D3e0
  340
0
  0
ENDTAB
  0
ENDSEC
  0
SECTION
  2
BLOCKS
  0
BLOCK
  5
32
  330
30
  100
AcDbEntity
  8
0
  100
AcDbBlockBegin
  2
*Model_Space
  70
    0
  10
0
  20
0
  30
0
  3
*Model_Space
  1

  0
ENDBLK
  5
33
  330
30
  100
AcDbEntity
  8
0
  100
AcDbBlockEnd
  0
BLOCK
  5
34
  330
31
  100
AcDbEntity
  8
0
  100
AcDbBlockBegin
  2
*Paper_Space
  70
    0
  10
0
  20
0
  30
0
  3
*Paper_Space
  1

  0
ENDBLK
  5
35
  330
31
  100
AcDbEntity
  8
0
  100
AcDbBlockEnd
  0
BLOCK
  5
3b5
  330
3b7
  100
AcDbEntity
  8
SK2
  100
AcDbBlockBegin
  2
*D3b6
  70
1
  10
0
  20
0
  30
0
  3
*D3b6
  1

  0
LINE
  5
3b8
  330
3b7
  100
AcDbEntity
  8
SK2
  100
AcDbLine
  10
-40
  20
-27
  30
0
  11
-40
  21
5.5
  31
0
  0
LINE
  5
3b9
  330
3b7
  100
AcDbEntity
  8
SK2
  100
AcDbLine
  10
15
  20
-27
  30
0
  11
15
  21
6
  31
0
  0
LINE
  5
3ba
  330
3b7
  100
AcDbEntity
  8
SK2
  100
AcDbLine
  10
-40
  20
-25
  30
0
  11
15
  21
-25
  31
0
  0
SOLID
  5
3bb
  330
3b7
  100
AcDbEntity
  8
SK2
  100
AcDbTrace
  10
-40
  20
-25
  30
0
  11
-37.521388
  21
-24.673685
  31
0
  12
-37.521388
  22
-25.326315
  32
0
  13
-37.521388
  23
-25.326315
  33
0
  0
SOLID
  5
3bc
  330
3b7
  100
AcDbEntity
  8
SK2
  100
AcDbTrace
  10
15
  20
-25
  30
0
  11
12.521388
  21
-25.326315
  31
0
  12
12.521388
  22
-24.673685
  32
0
  13
12.521388
  23
-24.673685
  33
0
  0
MTEXT
  5
3bd
  330
3b7
  100
AcDbEntity
  8
SK2
  100
AcDbMText
  10
-18.004228
  20
-25
  30
0
  11
1
  21
0
  31
0
  40
2
  41
0
  71
8
  72
1
  1
55
  0
POINT
  5
3be
  330
3b7
  100
AcDbEntity
  8
SK2
  62
0
  100
AcDbPoint
  10
-40
  20
5.5
  30
0
  0
POINT
  5
3bf
  330
3b7
  100
AcDbEntity
  8
SK2
  62
0
  100
AcDbPoint
  10
15
  20
6
  30
0
  0
POINT
  5
3c0
  330
3b7
  100
AcDbEntity
  8
SK2
  62
0
  100
AcDbPoint
  10
15
  20
-25
  30
0
  0
ENDBLK
  5
3c1
  330
3b7
  100
AcDbEntity
  8
SK2
  100
AcDbBlockEnd
  0
BLOCK
  5
3c3
  330
3c5
  100
AcDbEntity
  8
SK2
  100
AcDbBlockBegin
  2
*D3c4
  70
1
  10
0
  20
0
  30
0
  3
*D3c4
  1

  0
LINE
  5
3c6
  330
3c5
  100
AcDbEntity
  8
SK2
  100
AcDbLine
  10
-39.5
  20
-6
  30
0
  11
-49.746575
  21
-6
  31
0
  0
LINE
  5
3c7
  330
3c5
  100
AcDbEntity
  8
SK2
  100
AcDbLine
  10
-39.5
  20
6
  30
0
  11
-49.746575
  21
6
  31
0
  0
LINE
  5
3c8
  330
3c5
  100
AcDbEntity
  8
SK2
  100
AcDbLine
  10
-47.746575
  20
-6
  30
0
  11
-47.746575
  21
6
  31
0
  0
SOLID
  5
3c9
  330
3c5
  100
AcDbEntity
  8
SK2
  100
AcDbTrace
  10
-47.746575
  20
-6
  30
0
  11
-48.072891
  21
-3.521388
  31
0
  12
-47.42026
  22
-3.521388
  32
0
  13
-47.42026
  23
-3.521388
  33
0
  0
SOLID
  5
3ca
  330
3c5
  100
AcDbEntity
  8
SK2
  100
AcDbTrace
  10
-47.746575
  20
6
  30
0
  11
-47.42026
  21
3.521388
  31
0
  12
-48.072891
  22
3.521388
  32
0
  13
-48.072891
  23
3.521388
  33
0
  0
MTEXT
  5
3cb
  330
3c5
  100
AcDbEntity
  8
SK2
  100
AcDbMText
  10
-47.746575
  20
-0.410959
  30
0
  11
0
  21
1
  31
0
  40
2
  41
0
  71
8
  72
1
  1
Ø12h6
  0
POINT
  5
3cc
  330
3c5
  100
AcDbEntity
  8
SK2
  62
0
  100
AcDbPoint
  10
-39.5
  20
-6
  30
0
  0
POINT
  5
3cd
  330
3c5
  100
AcDbEntity
  8
SK2
  62
0
  100
AcDbPoint
  10
-39.5
  20
6
  30
0
  0
POINT
  5
3ce
  330
3c5
  100
AcDbEntity
  8
SK2
  62
0
  100
AcDbPoint
  10
-47.746575
  20
6
  30
0
  0
ENDBLK
  5
3cf
  330
3c5
  100
AcDbEntity
  8
SK2
  100
AcDbBlockEnd
  0
BLOCK
  5
3d1
  330
3d3
  100
AcDbEntity
  8
2
  100
AcDbBlockBegin
  2
*D3d2
  70
1
  10
0
  20
0
  30
0
  3
*D3d2
  1

  0
LINE
  5
3d4
  330
3d3
  100
AcDbEntity
  8
2
  100
AcDbLine
  10
15
  20
-6
  30
0
  11
24.253425
  21
-6
  31
0
  0
LINE
  5
3d5
  330
3d3
  100
AcDbEntity
  8
2
  100
AcDbLine
  10
15
  20
6
  30
0
  11
24.253425
  21
6
  31
0
  0
LINE
  5
3d6
  330
3d3
  100
AcDbEntity
  8
2
  100
AcDbLine
  10
22.253425
  20
-6
  30
0
  11
22.253425
  21
6
  31
0
  0
SOLID
  5
3d7
  330
3d3
  100
AcDbEntity
  8
2
  100
AcDbTrace
  10
22.253425
  20
-6
  30
0
  11
21.927109
  21
-3.521388
  31
0
  12
22.57974
  22
-3.521388
  32
0
  13
22.57974
  23
-3.521388
  33
0
  0
SOLID
  5
3d8
  330
3d3
  100
AcDbEntity
  8
2
  100
AcDbTrace
  10
22.253425
  20
6
  30
0
  11
22.57974
  21
3.521388
  31
0
  12
21.927109
  22
3.521388
  32
0
  13
21.927109
  23
3.521388
  33
0
  0
MTEXT
  5
3d9
  330
3d3
  100
AcDbEntity
  8
2
  100
AcDbMText
  10
22.253425
  20
-0.068493
  30
0
  11
0
  21
1
  31
0
  40
2
  41
0
  71
8
  72
1
  1
Ø12 e8
  0
POINT
  5
3da
  330
3d3
  100
AcDbEntity
  8
2
  62
0
  100
AcDbPoint
  10
15
  20
-6
  30
0
  0
POINT
  5
3db
  330
3d3
  100
AcDbEntity
  8
2
  62
0
  100
AcDbPoint
  10
15
  20
6
  30
0
  0
POINT
  5
3dc
  330
3d3
  100
AcDbEntity
  8
2
  62
0
  100
AcDbPoint
  10
22.253425
  20
6
  30
0
  0
ENDBLK
  5
3dd
  330
3d3
  100
AcDbEntity
  8
2
  100
AcDbBlockEnd
  0
BLOCK
  5
3df
  330
3e1
  100
AcDbEntity
  8
2
  100
AcDbBlockBegin
  2
*D3e0
  70
1
  10
0
  20
0
  30
0
  3
*D3e0
  1

  0
LINE
  5
3e2
  330
3e1
  100
AcDbEntity
  8
2
  100
AcDbLine
  10
15
  20
-27
  30
0
  11
15
  21
6
  31
0
  0
LINE
  5
3e3
  330
3e1
  100
AcDbEntity
  8
2
  100
AcDbLine
  10
0
  20
-17
  30
0
  11
0
  21
6
  31
0
  0
LINE
  5
3e4
  330
3e1
  100
AcDbEntity
  8
2
  100
AcDbLine
  10
15
  20
-15
  30
0
  11
0
  21
-15
  31
0
  0
SOLID
  5
3e5
  330
3e1
  100
AcDbEntity
  8
2
  100
AcDbTrace
  10
15
  20
-15
  30
0
  11
17.478612
  21
-14.673685
  31
0
  12
17.478612
  22
-15.326315
  32
0
  13
17.478612
  23
-15.326315
  33
0
  0
SOLID
  5
3e6
  330
3e1
  100
AcDbEntity
  8
2
  100
AcDbTrace
  10
0
  20
-15
  30
0
  11
-2.478612
  21
-15.326315
  31
0
  12
-2.478612
  22
-14.673685
  32
0
  13
-2.478612
  23
-14.673685
  33
0
  0
MTEXT
  5
3e7
  330
3e1
  100
AcDbEntity
  8
2
  100
AcDbMText
  10
9.369283
  20
-15
  30
0
  11
1
  21
-0
  31
0
  40
2
  41
0
  71
8
  72
1
  1
15
  0
POINT
  5
3e8
  330
3e1
  100
AcDbEntity
  8
2
  62
0
  100
AcDbPoint
  10
15
  20
6
  30
0
  0
POINT
  5
3e9
  330
3e1
  100
AcDbEntity
  8
2
  62
0
  100
AcDbPoint
  10
0
  20
6
  30
0
  0
POINT
  5
3ea
  330
3e1
  100
AcDbEntity
  8
2
  62
0
  100
AcDbPoint
  10
0
  20
-15
  30
0
  0
ENDBLK
  5
3eb
  330
3e1
  100
AcDbEntity
  8
2
  100
AcDbBlockEnd
  0
ENDSEC
  0
SECTION
  2
ENTITIES
  0
DIMENSION
  5
3c2
  100
AcDbEntity
  8
SK2
  100
AcDbDimension
  2
*D3b6
  10
15
  20
-25
  30
0
  11
-18.004228
  21
-25
  31
0
  70
160
  1
<>
  71
5
  3
ISBEtdSketcher
  42
55
  100
AcDbAlignedDimension
  13
-40
  23
5.5
  33
0
  14
15
  24
6
  34
0
  50
0
  100
AcDbRotatedDimension
  0
DIMENSION
  5
3d0
  100
AcDbEntity
  8
SK2
  100
AcDbDimension
  2
*D3c4
  10
-47.746575
  20
6
  30
0
  11
-47.746575
  21
-0.410959
  31
0
  70
160
  1
%%c<>h6
  71
5
  3
ISBEtdSketcher
  42
12
  100
AcDbAlignedDimension
  13
-39.5
  23
-6
  33
0
  14
-39.5
  24
6
  34
0
  50
-90
  100
AcDbRotatedDimension
  0
DIMENSION
  5
3de
  100
AcDbEntity
  8
2
  100
AcDbDimension
  2
*D3d2
  10
22.253425
  20
6
  30
0
  11
22.253425
  21
-0.068493
  31
0
  70
160
  1
%%c<> e8
  71
5
  3
ISBEtdSketcher
  42
12
  100
AcDbAlignedDimension
  13
15
  23
-6
  33
0
  14
15
  24
6
  34
0
  50
-90
  100
AcDbRotatedDimension
  0
DIMENSION
  5
3ec
  100
AcDbEntity
  8
2
  100
AcDbDimension
  2
*D3e0
  10
0
  20
-15
  30
0
  11
9.369283
  21
-15
  31
0
  70
160
  1
<>
  71
5
  3
ISBEtdSketcher
  42
15
  100
AcDbAlignedDimension
  13
15
  23
6
  33
0
  14
0
  24
6
  34
0
  50
0
  100
AcDbRotatedDimension
  0
LINE
  5
36
  100
AcDbEntity
  8
1
  100
AcDbLine
  10
15
  20
0
  30
0
  11
15
  21
6
  31
0
  0
LINE
  5
37
  100
AcDbEntity
  8
1
  100
AcDbLine
  10
15
  20
6
  30
0
  11
0
  21
6
  31
0
  0
LINE
  5
38
  100
AcDbEntity
  8
1
  100
AcDbLine
  10
0
  20
6
  30
0
  11
0
  21
-6
  31
0
  0
LINE
  5
39
  100
AcDbEntity
  8
1
  100
AcDbLine
  10
0
  20
-6
  30
0
  11
15
  21
-6
  31
0
  0
LINE
  5
3a
  100
AcDbEntity
  8
1
  100
AcDbLine
  10
15
  20
-6
  30
0
  11
15
  21
0
  31
0
  0
LINE
  5
3b
  100
AcDbEntity
  8
1
  100
AcDbLine
  10
16
  20
0
  30
0
  11
15.7
  21
0
  31
0
  0
LINE
  5
3c
  100
AcDbEntity
  8
1
  100
AcDbLine
  10
15.5725
  20
0
  30
0
  11
15.4875
  21
0
  31
0
  0
LINE
  5
3d
  100
AcDbEntity
  8
1
  100
AcDbLine
  10
15.275
  20
0
  30
0
  11
14.85
  21
0
  31
0
  0
LINE
  5
3e
  100
AcDbEntity
  8
1
  100
AcDbLine
  10
14.7225
  20
0
  30
0
  11
14.6375
  21
0
  31
0
  0
LINE
  5
3f
  100
AcDbEntity
  8
1
  100
AcDbLine
  10
14.425
  20
0
  30
0
  11
14
  21
0
  31
0
  0
LINE
  5
40
  100
AcDbEntity
  8
1
  100
AcDbLine
  10
15
  20
3
  30
0
  11
14.9
  21
3.04986
  31
0
  0
LINE
  5
41
  100
AcDbEntity
  8
1
  100
AcDbLine
  10
14.9
  20
3.04986
  30
0
  11
14.8
  21
3.099438
  31
0
  0
LINE
  5
42
  100
AcDbEntity
  8
1
  100
AcDbLine
  10
14.8
  20
3.099438
  30
0
  11
14.7
  21
3.148729
  31
0
  0
LINE
  5
43
  100
AcDbEntity
  8
1
  100
AcDbLine
  10
14.7
  20
3.148729
  30
0
  11
14.6
  21
3.197729
  31
0
  0
LINE
  5
44
  100
AcDbEntity
  8
1
  100
AcDbLine
  10
14.6
  20
3.197729
  30
0
  11
14.5
  21
3.246432
  31
0
  0
LINE
  5
45
  100
AcDbEntity
  8
1
  100
AcDbLine
  10
14.5
  20
3.246432
  30
0
  11
14.4
  21
3.294835
  31
0
  0
LINE
  5
46
  100
AcDbEntity
  8
1
  100
AcDbLine
  10
14.4
  20
3.294835
  30
0
  11
14.3
  21
3.342932
  31
0
  0
LINE
  5
47
  100
AcDbEntity
  8
1
  100
AcDbLine
  10
14.3
  20
3.342932
  30
0
  11
14.2
  21
3.390721
  31
0
  0
LINE
  5
48
  100
AcDbEntity
  8
1
  100
AcDbLine
  10
14.2
  20
3.390721
  30
0
  11
14.1
  21
3.438195
  31
0
  0
LINE
  5
49
  100
AcDbEntity
  8
1
  100
AcDbLine
  10
14.1
  20
3.438195
  30
0
  11
14
  21
3.485351
  31
0
  0
LINE
  5
4a
  100
AcDbEntity
  8
1
  100
AcDbLine
  10
14
  20
3.485351
  30
0
  11
13.9
  21
3.532184
  31
0
  0
LINE
  5
4b
  100
AcDbEntity
  8
1
  100
AcDbLine
  10
13.9
  20
3.532184
  30
0
  11
13.8
  21
3.57869
  31
0
  0
LINE
  5
4c
  100
AcDbEntity
  8
1
  100
AcDbLine
  10
13.8
  20
3.57869
  30
0
  11
13.7
  21
3.624864
  31
0
  0
LINE
  5
4d
  100
AcDbEntity
  8
1
  100
AcDbLine
  10
13.7
  20
3.624864
  30
0
  11
13.6
  21
3.670704
  31
0
  0
LINE
  5
4e
  100
AcDbEntity
  8
1
  100
AcDbLine
  10
13.6
  20
3.670704
  30
0
  11
13.5
  21
3.716203
  31
0
  0
LINE
  5
4f
  100
AcDbEntity
  8
1
  100
AcDbLine
  10
13.5
  20
3.716203
  30
0
  11
13.4
  21
3.761358
  31
0
  0
LINE
  5
50
  100
AcDbEntity
  8
1
  100
AcDbLine
  10
13.4
  20
3.761358
  30
0
  11
13.3
  21
3.806165
  31
0
  0
LINE
  5
51
  100
AcDbEntity
  8
1
  100
AcDbLine
  10
13.3
  20
3.806165
  30
0
  11
13.2
  21
3.850619
  31
0
  0
LINE
  5
52
  100
AcDbEntity
  8
1
  100
AcDbLine
  10
13.2
  20
3.850619
  30
0
  11
13.1
  21
3.894717
  31
0
  0
LINE
  5
53
  100
AcDbEntity
  8
1
  100
AcDbLine
  10
13.1
  20
3.894717
  30
0
  11
13
  21
3.938454
  31
0
  0
LINE
  5
54
  100
AcDbEntity
  8
1
  100
AcDbLine
  10
13
  20
3.938454
  30
0
  11
12.9
  21
3.981827
  31
0
  0
LINE
  5
55
  100
AcDbEntity
  8
1
  100
AcDbLine
  10
12.9
  20
3.981827
  30
0
  11
12.8
  21
4.024831
  31
0
  0
LINE
  5
56
  100
AcDbEntity
  8
1
  100
AcDbLine
  10
12.8
  20
4.024831
  30
0
  11
12.7
  21
4.067462
  31
0
  0
LINE
  5
57
  100
AcDbEntity
  8
1
  100
AcDbLine
  10
12.7
  20
4.067462
  30
0
  11
12.6
  21
4.109717
  31
0
  0
LINE
  5
58
  100
AcDbEntity
  8
1
  100
AcDbLine
  10
12.6
  20
4.109717
  30
0
  11
12.5
  21
4.151591
  31
0
  0
LINE
  5
59
  100
AcDbEntity
  8
1
  100
AcDbLine
  10
12.5
  20
4.151591
  30
0
  11
12.4
  21
4.19308
  31
0
  0
LINE
  5
5a
  100
AcDbEntity
  8
1
  100
AcDbLine
  10
12.4
  20
4.19308
  30
0
  11
12.3
  21
4.234182
  31
0
  0
LINE
  5
5b
  100
AcDbEntity
  8
1
  100
AcDbLine
  10
12.3
  20
4.234182
  30
0
  11
12.2
  21
4.274891
  31
0
  0
LINE
  5
5c
  100
AcDbEntity
  8
1
  100
AcDbLine
  10
12.2
  20
4.274891
  30
0
  11
12.1
  21
4.315205
  31
0
  0
LINE
  5
5d
  100
AcDbEntity
  8
1
  100
AcDbLine
  10
12.1
  20
4.315205
  30
0
  11
12
  21
4.355119
  31
0
  0
LINE
  5
5e
  100
AcDbEntity
  8
1
  100
AcDbLine
  10
12
  20
4.355119
  30
0
  11
11.9
  21
4.39463
  31
0
  0
LINE
  5
5f
  100
AcDbEntity
  8
1
  100
AcDbLine
  10
11.9
  20
4.39463
  30
0
  11
11.8
  21
4.433734
  31
0
  0
LINE
  5
60
  100
AcDbEntity
  8
1
  100
AcDbLine
  10
11.8
  20
4.433734
  30
0
  11
11.7
  21
4.472427
  31
0
  0
LINE
  5
61
  100
AcDbEntity
  8
1
  100
AcDbLine
  10
11.7
  20
4.472427
  30
0
  11
11.6
  21
4.510706
  31
0
  0
LINE
  5
62
  100
AcDbEntity
  8
1
  100
AcDbLine
  10
11.6
  20
4.510706
  30
0
  11
11.5
  21
4.548568
  31
0
  0
LINE
  5
63
  100
AcDbEntity
  8
1
  100
AcDbLine
  10
11.5
  20
4.548568
  30
0
  11
11.4
  21
4.586008
  31
0
  0
LINE
  5
64
  100
AcDbEntity
  8
1
  100
AcDbLine
  10
11.4
  20
4.586008
  30
0
  11
11.3
  21
4.623024
  31
0
  0
LINE
  5
65
  100
AcDbEntity
  8
1
  100
AcDbLine
  10
11.3
  20
4.623024
  30
0
  11
11.2
  21
4.659612
  31
0
  0
LINE
  5
66
  100
AcDbEntity
  8
1
  100
AcDbLine
  10
11.2
  20
4.659612
  30
0
  11
11.1
  21
4.695768
  31
0
  0
LINE
  5
67
  100
AcDbEntity
  8
1
  100
AcDbLine
  10
11.1
  20
4.695768
  30
0
  11
11
  21
4.73149
  31
0
  0
LINE
  5
68
  100
AcDbEntity
  8
1
  100
AcDbLine
  10
11
  20
4.73149
  30
0
  11
10.9
  21
4.766773
  31
0
  0
LINE
  5
69
  100
AcDbEntity
  8
1
  100
AcDbLine
  10
10.9
  20
4.766773
  30
0
  11
10.8
  21
4.801615
  31
0
  0
LINE
  5
6a
  100
AcDbEntity
  8
1
  100
AcDbLine
  10
10.8
  20
4.801615
  30
0
  11
10.7
  21
4.836012
  31
0
  0
LINE
  5
6b
  100
AcDbEntity
  8
1
  100
AcDbLine
  10
10.7
  20
4.836012
  30
0
  11
10.6
  21
4.869962
  31
0
  0
LINE
  5
6c
  100
AcDbEntity
  8
1
  100
AcDbLine
  10
10.6
  20
4.869962
  30
0
  11
10.5
  21
4.903461
  31
0
  0
LINE
  5
6d
  100
AcDbEntity
  8
1
  100
AcDbLine
  10
10.5
  20
4.903461
  30
0
  11
10.4
  21
4.936506
  31
0
  0
LINE
  5
6e
  100
AcDbEntity
  8
1
  100
AcDbLine
  10
10.4
  20
4.936506
  30
0
  11
10.3
  21
4.969093
  31
0
  0
LINE
  5
6f
  100
AcDbEntity
  8
1
  100
AcDbLine
  10
10.3
  20
4.969093
  30
0
  11
10.2
  21
5.001221
  31
0
  0
LINE
  5
70
  100
AcDbEntity
  8
1
  100
AcDbLine
  10
10.2
  20
5.001221
  30
0
  11
10.1
  21
5.032885
  31
0
  0
LINE
  5
71
  100
AcDbEntity
  8
1
  100
AcDbLine
  10
10.1
  20
5.032885
  30
0
  11
10
  21
5.064084
  31
0
  0
LINE
  5
72
  100
AcDbEntity
  8
1
  100
AcDbLine
  10
10
  20
5.064084
  30
0
  11
9.9
  21
5.094813
  31
0
  0
LINE
  5
73
  100
AcDbEntity
  8
1
  100
AcDbLine
  10
9.9
  20
5.094813
  30
0
  11
9.8
  21
5.125071
  31
0
  0
LINE
  5
74
  100
AcDbEntity
  8
1
  100
AcDbLine
  10
9.8
  20
5.125071
  30
0
  11
9.7
  21
5.154855
  31
0
  0
LINE
  5
75
  100
AcDbEntity
  8
1
  100
AcDbLine
  10
9.7
  20
5.154855
  30
0
  11
9.6
  21
5.184161
  31
0
  0
LINE
  5
76
  100
AcDbEntity
  8
1
  100
AcDbLine
  10
9.6
  20
5.184161
  30
0
  11
9.5
  21
5.212987
  31
0
  0
LINE
  5
77
  100
AcDbEntity
  8
1
  100
AcDbLine
  10
9.5
  20
5.212987
  30
0
  11
9.4
  21
5.24133
  31
0
  0
LINE
  5
78
  100
AcDbEntity
  8
1
  100
AcDbLine
  10
9.4
  20
5.24133
  30
0
  11
9.3
  21
5.269188
  31
0
  0
LINE
  5
79
  100
AcDbEntity
  8
1
  100
AcDbLine
  10
9.3
  20
5.269188
  30
0
  11
9.2
  21
5.296558
  31
0
  0
LINE
  5
7a
  100
AcDbEntity
  8
1
  100
AcDbLine
  10
9.2
  20
5.296558
  30
0
  11
9.1
  21
5.323438
  31
0
  0
LINE
  5
7b
  100
AcDbEntity
  8
1
  100
AcDbLine
  10
9.1
  20
5.323438
  30
0
  11
9
  21
5.349825
  31
0
  0
LINE
  5
7c
  100
AcDbEntity
  8
1
  100
AcDbLine
  10
9
  20
5.349825
  30
0
  11
8.9
  21
5.375716
  31
0
  0
LINE
  5
7d
  100
AcDbEntity
  8
1
  100
AcDbLine
  10
8.9
  20
5.375716
  30
0
  11
8.8
  21
5.40111
  31
0
  0
LINE
  5
7e
  100
AcDbEntity
  8
1
  100
AcDbLine
  10
8.8
  20
5.40111
  30
0
  11
8.7
  21
5.426003
  31
0
  0
LINE
  5
7f
  100
AcDbEntity
  8
1
  100
AcDbLine
  10
8.7
  20
5.426003
  30
0
  11
8.6
  21
5.450395
  31
0
  0
LINE
  5
80
  100
AcDbEntity
  8
1
  100
AcDbLine
  10
8.6
  20
5.450395
  30
0
  11
8.5
  21
5.474281
  31
0
  0
LINE
  5
81
  100
AcDbEntity
  8
1
  100
AcDbLine
  10
8.5
  20
5.474281
  30
0
  11
8.4
  21
5.497661
  31
0
  0
LINE
  5
82
  100
AcDbEntity
  8
1
  100
AcDbLine
  10
8.4
  20
5.497661
  30
0
  11
8.3
  21
5.520532
  31
0
  0
LINE
  5
83
  100
AcDbEntity
  8
1
  100
AcDbLine
  10
8.3
  20
5.520532
  30
0
  11
8.2
  21
5.542891
  31
0
  0
LINE
  5
84
  100
AcDbEntity
  8
1
  100
AcDbLine
  10
8.2
  20
5.542891
  30
0
  11
8.1
  21
5.564737
  31
0
  0
LINE
  5
85
  100
AcDbEntity
  8
1
  100
AcDbLine
  10
8.1
  20
5.564737
  30
0
  11
8
  21
5.586068
  31
0
  0
LINE
  5
86
  100
AcDbEntity
  8
1
  100
AcDbLine
  10
8
  20
5.586068
  30
0
  11
7.9
  21
5.606882
  31
0
  0
LINE
  5
87
  100
AcDbEntity
  8
1
  100
AcDbLine
  10
7.9
  20
5.606882
  30
0
  11
7.8
  21
5.627177
  31
0
  0
LINE
  5
88
  100
AcDbEntity
  8
1
  100
AcDbLine
  10
7.8
  20
5.627177
  30
0
  11
7.7
  21
5.64695
  31
0
  0
LINE
  5
89
  100
AcDbEntity
  8
1
  100
AcDbLine
  10
7.7
  20
5.64695
  30
0
  11
7.6
  21
5.666201
  31
0
  0
LINE
  5
8a
  100
AcDbEntity
  8
1
  100
AcDbLine
  10
7.6
  20
5.666201
  30
0
  11
7.5
  21
5.684927
  31
0
  0
LINE
  5
8b
  100
AcDbEntity
  8
1
  100
AcDbLine
  10
7.5
  20
5.684927
  30
0
  11
7.4
  21
5.703127
  31
0
  0
LINE
  5
8c
  100
AcDbEntity
  8
1
  100
AcDbLine
  10
7.4
  20
5.703127
  30
0
  11
7.3
  21
5.720798
  31
0
  0
LINE
  5
8d
  100
AcDbEntity
  8
1
  100
AcDbLine
  10
7.3
  20
5.720798
  30
0
  11
7.2
  21
5.73794
  31
0
  0
LINE
  5
8e
  100
AcDbEntity
  8
1
  100
AcDbLine
  10
7.2
  20
5.73794
  30
0
  11
7.1
  21
5.754551
  31
0
  0
LINE
  5
8f
  100
AcDbEntity
  8
1
  100
AcDbLine
  10
7.1
  20
5.754551
  30
0
  11
7
  21
5.770629
  31
0
  0
LINE
  5
90
  100
AcDbEntity
  8
1
  100
AcDbLine
  10
7
  20
5.770629
  30
0
  11
6.9
  21
5.786172
  31
0
  0
LINE
  5
91
  100
AcDbEntity
  8
1
  100
AcDbLine
  10
6.9
  20
5.786172
  30
0
  11
6.8
  21
5.80118
  31
0
  0
LINE
  5
92
  100
AcDbEntity
  8
1
  100
AcDbLine
  10
6.8
  20
5.80118
  30
0
  11
6.7
  21
5.815651
  31
0
  0
LINE
  5
93
  100
AcDbEntity
  8
1
  100
AcDbLine
  10
6.7
  20
5.815651
  30
0
  11
6.6
  21
5.829583
  31
0
  0
LINE
  5
94
  100
AcDbEntity
  8
1
  100
AcDbLine
  10
6.6
  20
5.829583
  30
0
  11
6.5
  21
5.842975
  31
0
  0
LINE
  5
95
  100
AcDbEntity
  8
1
  100
AcDbLine
  10
6.5
  20
5.842975
  30
0
  11
6.4
  21
5.855827
  31
0
  0
LINE
  5
96
  100
AcDbEntity
  8
1
  100
AcDbLine
  10
6.4
  20
5.855827
  30
0
  11
6.3
  21
5.868136
  31
0
  0
LINE
  5
97
  100
AcDbEntity
  8
1
  100
AcDbLine
  10
6.3
  20
5.868136
  30
0
  11
6.2
  21
5.879902
  31
0
  0
LINE
  5
98
  100
AcDbEntity
  8
1
  100
AcDbLine
  10
6.2
  20
5.879902
  30
0
  11
6.1
  21
5.891123
  31
0
  0
LINE
  5
99
  100
AcDbEntity
  8
1
  100
AcDbLine
  10
6.1
  20
5.891123
  30
0
  11
6
  21
5.901799
  31
0
  0
LINE
  5
9a
  100
AcDbEntity
  8
1
  100
AcDbLine
  10
6
  20
5.901799
  30
0
  11
5.9
  21
5.911928
  31
0
  0
LINE
  5
9b
  100
AcDbEntity
  8
1
  100
AcDbLine
  10
5.9
  20
5.911928
  30
0
  11
5.8
  21
5.921511
  31
0
  0
LINE
  5
9c
  100
AcDbEntity
  8
1
  100
AcDbLine
  10
5.8
  20
5.921511
  30
0
  11
5.7
  21
5.930544
  31
0
  0
LINE
  5
9d
  100
AcDbEntity
  8
1
  100
AcDbLine
  10
5.7
  20
5.930544
  30
0
  11
5.6
  21
5.939029
  31
0
  0
LINE
  5
9e
  100
AcDbEntity
  8
1
  100
AcDbLine
  10
5.6
  20
5.939029
  30
0
  11
5.5
  21
5.946964
  31
0
  0
LINE
  5
9f
  100
AcDbEntity
  8
1
  100
AcDbLine
  10
5.5
  20
5.946964
  30
0
  11
5.4
  21
5.954348
  31
0
  0
LINE
  5
a0
  100
AcDbEntity
  8
1
  100
AcDbLine
  10
5.4
  20
5.954348
  30
0
  11
5.3
  21
5.961181
  31
0
  0
LINE
  5
a1
  100
AcDbEntity
  8
1
  100
AcDbLine
  10
5.3
  20
5.961181
  30
0
  11
5.2
  21
5.967461
  31
0
  0
LINE
  5
a2
  100
AcDbEntity
  8
1
  100
AcDbLine
  10
5.2
  20
5.967461
  30
0
  11
5.1
  21
5.97319
  31
0
  0
LINE
  5
a3
  100
AcDbEntity
  8
1
  100
AcDbLine
  10
5.1
  20
5.97319
  30
0
  11
5
  21
5.978365
  31
0
  0
LINE
  5
a4
  100
AcDbEntity
  8
1
  100
AcDbLine
  10
5
  20
5.978365
  30
0
  11
4.9
  21
5.982987
  31
0
  0
LINE
  5
a5
  100
AcDbEntity
  8
1
  100
AcDbLine
  10
4.9
  20
5.982987
  30
0
  11
4.8
  21
5.987054
  31
0
  0
LINE
  5
a6
  100
AcDbEntity
  8
1
  100
AcDbLine
  10
4.8
  20
5.987054
  30
0
  11
4.7
  21
5.990568
  31
0
  0
LINE
  5
a7
  100
AcDbEntity
  8
1
  100
AcDbLine
  10
4.7
  20
5.990568
  30
0
  11
4.6
  21
5.993526
  31
0
  0
LINE
  5
a8
  100
AcDbEntity
  8
1
  100
AcDbLine
  10
4.6
  20
5.993526
  30
0
  11
4.5
  21
5.99593
  31
0
  0
LINE
  5
a9
  100
AcDbEntity
  8
1
  100
AcDbLine
  10
4.5
  20
5.99593
  30
0
  11
4.4
  21
5.997779
  31
0
  0
LINE
  5
aa
  100
AcDbEntity
  8
1
  100
AcDbLine
  10
4.4
  20
5.997779
  30
0
  11
4.3
  21
5.999072
  31
0
  0
LINE
  5
ab
  100
AcDbEntity
  8
1
  100
AcDbLine
  10
4.3
  20
5.999072
  30
0
  11
4.2
  21
5.99981
  31
0
  0
LINE
  5
ac
  100
AcDbEntity
  8
1
  100
AcDbLine
  10
4.2
  20
5.99981
  30
0
  11
4.117204
  21
6
  31
0
  0
LINE
  5
ad
  100
AcDbEntity
  8
1
  100
AcDbLine
  10
5.681501
  20
6
  30
0
  11
5.7
  21
5.91054
  31
0
  0
LINE
  5
ae
  100
AcDbEntity
  8
1
  100
AcDbLine
  10
5.7
  20
5.91054
  30
0
  11
5.8
  21
5.910166
  31
0
  0
LINE
  5
af
  100
AcDbEntity
  8
1
  100
AcDbLine
  10
5.8
  20
5.910166
  30
0
  11
5.9
  21
5.909244
  31
0
  0
LINE
  5
b0
  100
AcDbEntity
  8
1
  100
AcDbLine
  10
5.9
  20
5.909244
  30
0
  11
6
  21
5.907774
  31
0
  0
LINE
  5
b1
  100
AcDbEntity
  8
1
  100
AcDbLine
  10
6
  20
5.907774
  30
0
  11
6.1
  21
5.905758
  31
0
  0
LINE
  5
b2
  100
AcDbEntity
  8
1
  100
AcDbLine
  10
6.1
  20
5.905758
  30
0
  11
6.2
  21
5.903195
  31
0
  0
LINE
  5
b3
  100
AcDbEntity
  8
1
  100
AcDbLine
  10
6.2
  20
5.903195
  30
0
  11
6.3
  21
5.900085
  31
0
  0
LINE
  5
b4
  100
AcDbEntity
  8
1
  100
AcDbLine
  10
6.3
  20
5.900085
  30
0
  11
6.4
  21
5.896429
  31
0
  0
LINE
  5
b5
  100
AcDbEntity
  8
1
  100
AcDbLine
  10
6.4
  20
5.896429
  30
0
  11
6.5
  21
5.892227
  31
0
  0
LINE
  5
b6
  100
AcDbEntity
  8
1
  100
AcDbLine
  10
6.5
  20
5.892227
  30
0
  11
6.6
  21
5.88748
  31
0
  0
LINE
  5
b7
  100
AcDbEntity
  8
1
  100
AcDbLine
  10
6.6
  20
5.88748
  30
0
  11
6.7
  21
5.882187
  31
0
  0
LINE
  5
b8
  100
AcDbEntity
  8
1
  100
AcDbLine
  10
6.7
  20
5.882187
  30
0
  11
6.8
  21
5.87635
  31
0
  0
LINE
  5
b9
  100
AcDbEntity
  8
1
  100
AcDbLine
  10
6.8
  20
5.87635
  30
0
  11
6.9
  21
5.869968
  31
0
  0
LINE
  5
ba
  100
AcDbEntity
  8
1
  100
AcDbLine
  10
6.9
  20
5.869968
  30
0
  11
7
  21
5.863044
  31
0
  0
LINE
  5
bb
  100
AcDbEntity
  8
1
  100
AcDbLine
  10
7
  20
5.863044
  30
0
  11
7.1
  21
5.855576
  31
0
  0
LINE
  5
bc
  100
AcDbEntity
  8
1
  100
AcDbLine
  10
7.1
  20
5.855576
  30
0
  11
7.2
  21
5.847566
  31
0
  0
LINE
  5
bd
  100
AcDbEntity
  8
1
  100
AcDbLine
  10
7.2
  20
5.847566
  30
0
  11
7.3
  21
5.839014
  31
0
  0
LINE
  5
be
  100
AcDbEntity
  8
1
  100
AcDbLine
  10
7.3
  20
5.839014
  30
0
  11
7.4
  21
5.829922
  31
0
  0
LINE
  5
bf
  100
AcDbEntity
  8
1
  100
AcDbLine
  10
7.4
  20
5.829922
  30
0
  11
7.5
  21
5.820291
  31
0
  0
LINE
  5
c0
  100
AcDbEntity
  8
1
  100
AcDbLine
  10
7.5
  20
5.820291
  30
0
  11
7.6
  21
5.81012
  31
0
  0
LINE
  5
c1
  100
AcDbEntity
  8
1
  100
AcDbLine
  10
7.6
  20
5.81012
  30
0
  11
7.7
  21
5.799411
  31
0
  0
LINE
  5
c2
  100
AcDbEntity
  8
1
  100
AcDbLine
  10
7.7
  20
5.799411
  30
0
  11
7.8
  21
5.788165
  31
0
  0
LINE
  5
c3
  100
AcDbEntity
  8
1
  100
AcDbLine
  10
7.8
  20
5.788165
  30
0
  11
7.9
  21
5.776384
  31
0
  0
LINE
  5
c4
  100
AcDbEntity
  8
1
  100
AcDbLine
  10
7.9
  20
5.776384
  30
0
  11
8
  21
5.764067
  31
0
  0
LINE
  5
c5
  100
AcDbEntity
  8
1
  100
AcDbLine
  10
8
  20
5.764067
  30
0
  11
8.1
  21
5.751217
  31
0
  0
LINE
  5
c6
  100
AcDbEntity
  8
1
  100
AcDbLine
  10
8.1
  20
5.751217
  30
0
  11
8.2
  21
5.737834
  31
0
  0
LINE
  5
c7
  100
AcDbEntity
  8
1
  100
AcDbLine
  10
8.2
  20
5.737834
  30
0
  11
8.3
  21
5.72392
  31
0
  0
LINE
  5
c8
  100
AcDbEntity
  8
1
  100
AcDbLine
  10
8.3
  20
5.72392
  30
0
  11
8.4
  21
5.709476
  31
0
  0
LINE
  5
c9
  100
AcDbEntity
  8
1
  100
AcDbLine
  10
8.4
  20
5.709476
  30
0
  11
8.5
  21
5.694504
  31
0
  0
LINE
  5
ca
  100
AcDbEntity
  8
1
  100
AcDbLine
  10
8.5
  20
5.694504
  30
0
  11
8.6
  21
5.679004
  31
0
  0
LINE
  5
cb
  100
AcDbEntity
  8
1
  100
AcDbLine
  10
8.6
  20
5.679004
  30
0
  11
8.7
  21
5.662978
  31
0
  0
LINE
  5
cc
  100
AcDbEntity
  8
1
  100
AcDbLine
  10
8.7
  20
5.662978
  30
0
  11
8.8
  21
5.646428
  31
0
  0
LINE
  5
cd
  100
AcDbEntity
  8
1
  100
AcDbLine
  10
8.8
  20
5.646428
  30
0
  11
8.9
  21
5.629355
  31
0
  0
LINE
  5
ce
  100
AcDbEntity
  8
1
  100
AcDbLine
  10
8.9
  20
5.629355
  30
0
  11
9
  21
5.611761
  31
0
  0
LINE
  5
cf
  100
AcDbEntity
  8
1
  100
AcDbLine
  10
9
  20
5.611761
  30
0
  11
9.1
  21
5.593647
  31
0
  0
LINE
  5
d0
  100
AcDbEntity
  8
1
  100
AcDbLine
  10
9.1
  20
5.593647
  30
0
  11
9.2
  21
5.575016
  31
0
  0
LINE
  5
d1
  100
AcDbEntity
  8
1
  100
AcDbLine
  10
9.2
  20
5.575016
  30
0
  11
9.3
  21
5.555868
  31
0
  0
LINE
  5
d2
  100
AcDbEntity
  8
1
  100
AcDbLine
  10
9.3
  20
5.555868
  30
0
  11
9.4
  21
5.536206
  31
0
  0
LINE
  5
d3
  100
AcDbEntity
  8
1
  100
AcDbLine
  10
9.4
  20
5.536206
  30
0
  11
9.5
  21
5.516031
  31
0
  0
LINE
  5
d4
  100
AcDbEntity
  8
1
  100
AcDbLine
  10
9.5
  20
5.516031
  30
0
  11
9.6
  21
5.495345
  31
0
  0
LINE
  5
d5
  100
AcDbEntity
  8
1
  100
AcDbLine
  10
9.6
  20
5.495345
  30
0
  11
9.7
  21
5.474151
  31
0
  0
LINE
  5
d6
  100
AcDbEntity
  8
1
  100
AcDbLine
  10
9.7
  20
5.474151
  30
0
  11
9.8
  21
5.45245
  31
0
  0
LINE
  5
d7
  100
AcDbEntity
  8
1
  100
AcDbLine
  10
9.8
  20
5.45245
  30
0
  11
9.9
  21
5.430243
  31
0
  0
LINE
  5
d8
  100
AcDbEntity
  8
1
  100
AcDbLine
  10
9.9
  20
5.430243
  30
0
  11
10
  21
5.407534
  31
0
  0
LINE
  5
d9
  100
AcDbEntity
  8
1
  100
AcDbLine
  10
10
  20
5.407534
  30
0
  11
10.1
  21
5.384325
  31
0
  0
LINE
  5
da
  100
AcDbEntity
  8
1
  100
AcDbLine
  10
10.1
  20
5.384325
  30
0
  11
10.2
  21
5.360617
  31
0
  0
LINE
  5
db
  100
AcDbEntity
  8
1
  100
AcDbLine
  10
10.2
  20
5.360617
  30
0
  11
10.3
  21
5.336412
  31
0
  0
LINE
  5
dc
  100
AcDbEntity
  8
1
  100
AcDbLine
  10
10.3
  20
5.336412
  30
0
  11
10.4
  21
5.311713
  31
0
  0
LINE
  5
dd
  100
AcDbEntity
  8
1
  100
AcDbLine
  10
10.4
  20
5.311713
  30
0
  11
10.5
  21
5.286523
  31
0
  0
LINE
  5
de
  100
AcDbEntity
  8
1
  100
AcDbLine
  10
10.5
  20
5.286523
  30
0
  11
10.6
  21
5.260843
  31
0
  0
LINE
  5
df
  100
AcDbEntity
  8
1
  100
AcDbLine
  10
10.6
  20
5.260843
  30
0
  11
10.7
  21
5.234676
  31
0
  0
LINE
  5
e0
  100
AcDbEntity
  8
1
  100
AcDbLine
  10
10.7
  20
5.234676
  30
0
  11
10.8
  21
5.208024
  31
0
  0
LINE
  5
e1
  100
AcDbEntity
  8
1
  100
AcDbLine
  10
10.8
  20
5.208024
  30
0
  11
10.9
  21
5.18089
  31
0
  0
LINE
  5
e2
  100
AcDbEntity
  8
1
  100
AcDbLine
  10
10.9
  20
5.18089
  30
0
  11
11
  21
5.153277
  31
0
  0
LINE
  5
e3
  100
AcDbEntity
  8
1
  100
AcDbLine
  10
11
  20
5.153277
  30
0
  11
11.1
  21
5.125186
  31
0
  0
LINE
  5
e4
  100
AcDbEntity
  8
1
  100
AcDbLine
  10
11.1
  20
5.125186
  30
0
  11
11.2
  21
5.09662
  31
0
  0
LINE
  5
e5
  100
AcDbEntity
  8
1
  100
AcDbLine
  10
11.2
  20
5.09662
  30
0
  11
11.3
  21
5.067583
  31
0
  0
LINE
  5
e6
  100
AcDbEntity
  8
1
  100
AcDbLine
  10
11.3
  20
5.067583
  30
0
  11
11.4
  21
5.038077
  31
0
  0
LINE
  5
e7
  100
AcDbEntity
  8
1
  100
AcDbLine
  10
11.4
  20
5.038077
  30
0
  11
11.5
  21
5.008104
  31
0
  0
LINE
  5
e8
  100
AcDbEntity
  8
1
  100
AcDbLine
  10
11.5
  20
5.008104
  30
0
  11
11.6
  21
4.977667
  31
0
  0
LINE
  5
e9
  100
AcDbEntity
  8
1
  100
AcDbLine
  10
11.6
  20
4.977667
  30
0
  11
11.7
  21
4.946769
  31
0
  0
LINE
  5
ea
  100
AcDbEntity
  8
1
  100
AcDbLine
  10
11.7
  20
4.946769
  30
0
  11
11.8
  21
4.915414
  31
0
  0
LINE
  5
eb
  100
AcDbEntity
  8
1
  100
AcDbLine
  10
11.8
  20
4.915414
  30
0
  11
11.9
  21
4.883603
  31
0
  0
LINE
  5
ec
  100
AcDbEntity
  8
1
  100
AcDbLine
  10
11.9
  20
4.883603
  30
0
  11
12
  21
4.85134
  31
0
  0
LINE
  5
ed
  100
AcDbEntity
  8
1
  100
AcDbLine
  10
12
  20
4.85134
  30
0
  11
12.1
  21
4.818628
  31
0
  0
LINE
  5
ee
  100
AcDbEntity
  8
1
  100
AcDbLine
  10
12.1
  20
4.818628
  30
0
  11
12.2
  21
4.785469
  31
0
  0
LINE
  5
ef
  100
AcDbEntity
  8
1
  100
AcDbLine
  10
12.2
  20
4.785469
  30
0
  11
12.3
  21
4.751868
  31
0
  0
LINE
  5
f0
  100
AcDbEntity
  8
1
  100
AcDbLine
  10
12.3
  20
4.751868
  30
0
  11
12.4
  21
4.717827
  31
0
  0
LINE
  5
f1
  100
AcDbEntity
  8
1
  100
AcDbLine
  10
12.4
  20
4.717827
  30
0
  11
12.5
  21
4.683349
  31
0
  0
LINE
  5
f2
  100
AcDbEntity
  8
1
  100
AcDbLine
  10
12.5
  20
4.683349
  30
0
  11
12.6
  21
4.648437
  31
0
  0
LINE
  5
f3
  100
AcDbEntity
  8
1
  100
AcDbLine
  10
12.6
  20
4.648437
  30
0
  11
12.7
  21
4.613094
  31
0
  0
LINE
  5
f4
  100
AcDbEntity
  8
1
  100
AcDbLine
  10
12.7
  20
4.613094
  30
0
  11
12.8
  21
4.577325
  31
0
  0
LINE
  5
f5
  100
AcDbEntity
  8
1
  100
AcDbLine
  10
12.8
  20
4.577325
  30
0
  11
12.9
  21
4.541132
  31
0
  0
LINE
  5
f6
  100
AcDbEntity
  8
1
  100
AcDbLine
  10
12.9
  20
4.541132
  30
0
  11
13
  21
4.504518
  31
0
  0
LINE
  5
f7
  100
AcDbEntity
  8
1
  100
AcDbLine
  10
13
  20
4.504518
  30
0
  11
13.1
  21
4.467487
  31
0
  0
LINE
  5
f8
  100
AcDbEntity
  8
1
  100
AcDbLine
  10
13.1
  20
4.467487
  30
0
  11
13.2
  21
4.430043
  31
0
  0
LINE
  5
f9
  100
AcDbEntity
  8
1
  100
AcDbLine
  10
13.2
  20
4.430043
  30
0
  11
13.3
  21
4.392188
  31
0
  0
LINE
  5
fa
  100
AcDbEntity
  8
1
  100
AcDbLine
  10
13.3
  20
4.392188
  30
0
  11
13.4
  21
4.353927
  31
0
  0
LINE
  5
fb
  100
AcDbEntity
  8
1
  100
AcDbLine
  10
13.4
  20
4.353927
  30
0
  11
13.5
  21
4.315263
  31
0
  0
LINE
  5
fc
  100
AcDbEntity
  8
1
  100
AcDbLine
  10
13.5
  20
4.315263
  30
0
  11
13.6
  21
4.276199
  31
0
  0
LINE
  5
fd
  100
AcDbEntity
  8
1
  100
AcDbLine
  10
13.6
  20
4.276199
  30
0
  11
13.7
  21
4.236739
  31
0
  0
LINE
  5
fe
  100
AcDbEntity
  8
1
  100
AcDbLine
  10
13.7
  20
4.236739
  30
0
  11
13.8
  21
4.196887
  31
0
  0
LINE
  5
ff
  100
AcDbEntity
  8
1
  100
AcDbLine
  10
13.8
  20
4.196887
  30
0
  11
13.9
  21
4.156646
  31
0
  0
LINE
  5
100
  100
AcDbEntity
  8
1
  100
AcDbLine
  10
13.9
  20
4.156646
  30
0
  11
14
  21
4.11602
  31
0
  0
LINE
  5
101
  100
AcDbEntity
  8
1
  100
AcDbLine
  10
14
  20
4.11602
  30
0
  11
14.1
  21
4.075013
  31
0
  0
LINE
  5
102
  100
AcDbEntity
  8
1
  100
AcDbLine
  10
14.1
  20
4.075013
  30
0
  11
14.2
  21
4.033629
  31
0
  0
LINE
  5
103
  100
AcDbEntity
  8
1
  100
AcDbLine
  10
14.2
  20
4.033629
  30
0
  11
14.3
  21
3.991872
  31
0
  0
LINE
  5
104
  100
AcDbEntity
  8
1
  100
AcDbLine
  10
14.3
  20
3.991872
  30
0
  11
14.4
  21
3.949744
  31
0
  0
LINE
  5
105
  100
AcDbEntity
  8
1
  100
AcDbLine
  10
14.4
  20
3.949744
  30
0
  11
14.5
  21
3.907251
  31
0
  0
LINE
  5
106
  100
AcDbEntity
  8
1
  100
AcDbLine
  10
14.5
  20
3.907251
  30
0
  11
14.6
  21
3.864397
  31
0
  0
LINE
  5
107
  100
AcDbEntity
  8
1
  100
AcDbLine
  10
14.6
  20
3.864397
  30
0
  11
14.7
  21
3.821184
  31
0
  0
LINE
  5
108
  100
AcDbEntity
  8
1
  100
AcDbLine
  10
14.7
  20
3.821184
  30
0
  11
14.8
  21
3.777618
  31
0
  0
LINE
  5
109
  100
AcDbEntity
  8
1
  100
AcDbLine
  10
14.8
  20
3.777618
  30
0
  11
14.9
  21
3.733702
  31
0
  0
LINE
  5
10a
  100
AcDbEntity
  8
1
  100
AcDbLine
  10
14.9
  20
3.733702
  30
0
  11
15
  21
3.68944
  31
0
  0
LINE
  5
10b
  100
AcDbEntity
  8
1
  100
AcDbLine
  10
9.921362
  20
6
  30
0
  11
10
  21
5.999828
  31
0
  0
LINE
  5
10c
  100
AcDbEntity
  8
1
  100
AcDbLine
  10
10
  20
5.999828
  30
0
  11
10.1
  21
5.999114
  31
0
  0
LINE
  5
10d
  100
AcDbEntity
  8
1
  100
AcDbLine
  10
10.1
  20
5.999114
  30
0
  11
10.2
  21
5.997843
  31
0
  0
LINE
  5
10e
  100
AcDbEntity
  8
1
  100
AcDbLine
  10
10.2
  20
5.997843
  30
0
  11
10.3
  21
5.996018
  31
0
  0
LINE
  5
10f
  100
AcDbEntity
  8
1
  100
AcDbLine
  10
10.3
  20
5.996018
  30
0
  11
10.4
  21
5.993637
  31
0
  0
LINE
  5
110
  100
AcDbEntity
  8
1
  100
AcDbLine
  10
10.4
  20
5.993637
  30
0
  11
10.5
  21
5.990702
  31
0
  0
LINE
  5
111
  100
AcDbEntity
  8
1
  100
AcDbLine
  10
10.5
  20
5.990702
  30
0
  11
10.6
  21
5.987211
  31
0
  0
LINE
  5
112
  100
AcDbEntity
  8
1
  100
AcDbLine
  10
10.6
  20
5.987211
  30
0
  11
10.7
  21
5.983167
  31
0
  0
LINE
  5
113
  100
AcDbEntity
  8
1
  100
AcDbLine
  10
10.7
  20
5.983167
  30
0
  11
10.8
  21
5.978568
  31
0
  0
LINE
  5
114
  100
AcDbEntity
  8
1
  100
AcDbLine
  10
10.8
  20
5.978568
  30
0
  11
10.9
  21
5.973416
  31
0
  0
LINE
  5
115
  100
AcDbEntity
  8
1
  100
AcDbLine
  10
10.9
  20
5.973416
  30
0
  11
11
  21
5.967711
  31
0
  0
LINE
  5
116
  100
AcDbEntity
  8
1
  100
AcDbLine
  10
11
  20
5.967711
  30
0
  11
11.1
  21
5.961453
  31
0
  0
LINE
  5
117
  100
AcDbEntity
  8
1
  100
AcDbLine
  10
11.1
  20
5.961453
  30
0
  11
11.2
  21
5.954643
  31
0
  0
LINE
  5
118
  100
AcDbEntity
  8
1
  100
AcDbLine
  10
11.2
  20
5.954643
  30
0
  11
11.3
  21
5.947282
  31
0
  0
LINE
  5
119
  100
AcDbEntity
  8
1
  100
AcDbLine
  10
11.3
  20
5.947282
  30
0
  11
11.4
  21
5.93937
  31
0
  0
LINE
  5
11a
  100
AcDbEntity
  8
1
  100
AcDbLine
  10
11.4
  20
5.93937
  30
0
  11
11.5
  21
5.930908
  31
0
  0
LINE
  5
11b
  100
AcDbEntity
  8
1
  100
AcDbLine
  10
11.5
  20
5.930908
  30
0
  11
11.6
  21
5.921897
  31
0
  0
LINE
  5
11c
  100
AcDbEntity
  8
1
  100
AcDbLine
  10
11.6
  20
5.921897
  30
0
  11
11.7
  21
5.912338
  31
0
  0
LINE
  5
11d
  100
AcDbEntity
  8
1
  100
AcDbLine
  10
11.7
  20
5.912338
  30
0
  11
11.8
  21
5.902231
  31
0
  0
LINE
  5
11e
  100
AcDbEntity
  8
1
  100
AcDbLine
  10
11.8
  20
5.902231
  30
0
  11
11.9
  21
5.891578
  31
0
  0
LINE
  5
11f
  100
AcDbEntity
  8
1
  100
AcDbLine
  10
11.9
  20
5.891578
  30
0
  11
12
  21
5.880379
  31
0
  0
LINE
  5
120
  100
AcDbEntity
  8
1
  100
AcDbLine
  10
12
  20
5.880379
  30
0
  11
12.1
  21
5.868636
  31
0
  0
LINE
  5
121
  100
AcDbEntity
  8
1
  100
AcDbLine
  10
12.1
  20
5.868636
  30
0
  11
12.2
  21
5.856349
  31
0
  0
LINE
  5
122
  100
AcDbEntity
  8
1
  100
AcDbLine
  10
12.2
  20
5.856349
  30
0
  11
12.3
  21
5.84352
  31
0
  0
LINE
  5
123
  100
AcDbEntity
  8
1
  100
AcDbLine
  10
12.3
  20
5.84352
  30
0
  11
12.4
  21
5.830151
  31
0
  0
LINE
  5
124
  100
AcDbEntity
  8
1
  100
AcDbLine
  10
12.4
  20
5.830151
  30
0
  11
12.5
  21
5.816241
  31
0
  0
LINE
  5
125
  100
AcDbEntity
  8
1
  100
AcDbLine
  10
12.5
  20
5.816241
  30
0
  11
12.6
  21
5.801793
  31
0
  0
LINE
  5
126
  100
AcDbEntity
  8
1
  100
AcDbLine
  10
12.6
  20
5.801793
  30
0
  11
12.7
  21
5.786807
  31
0
  0
LINE
  5
127
  100
AcDbEntity
  8
1
  100
AcDbLine
  10
12.7
  20
5.786807
  30
0
  11
12.8
  21
5.771286
  31
0
  0
LINE
  5
128
  100
AcDbEntity
  8
1
  100
AcDbLine
  10
12.8
  20
5.771286
  30
0
  11
12.9
  21
5.75523
  31
0
  0
LINE
  5
129
  100
AcDbEntity
  8
1
  100
AcDbLine
  10
12.9
  20
5.75523
  30
0
  11
13
  21
5.738642
  31
0
  0
LINE
  5
12a
  100
AcDbEntity
  8
1
  100
AcDbLine
  10
13
  20
5.738642
  30
0
  11
13.1
  21
5.721522
  31
0
  0
LINE
  5
12b
  100
AcDbEntity
  8
1
  100
AcDbLine
  10
13.1
  20
5.721522
  30
0
  11
13.2
  21
5.703872
  31
0
  0
LINE
  5
12c
  100
AcDbEntity
  8
1
  100
AcDbLine
  10
13.2
  20
5.703872
  30
0
  11
13.3
  21
5.685694
  31
0
  0
LINE
  5
12d
  100
AcDbEntity
  8
1
  100
AcDbLine
  10
13.3
  20
5.685694
  30
0
  11
13.4
  21
5.66699
  31
0
  0
LINE
  5
12e
  100
AcDbEntity
  8
1
  100
AcDbLine
  10
13.4
  20
5.66699
  30
0
  11
13.5
  21
5.647761
  31
0
  0
LINE
  5
12f
  100
AcDbEntity
  8
1
  100
AcDbLine
  10
13.5
  20
5.647761
  30
0
  11
13.6
  21
5.628009
  31
0
  0
LINE
  5
130
  100
AcDbEntity
  8
1
  100
AcDbLine
  10
13.6
  20
5.628009
  30
0
  11
13.7
  21
5.607736
  31
0
  0
LINE
  5
131
  100
AcDbEntity
  8
1
  100
AcDbLine
  10
13.7
  20
5.607736
  30
0
  11
13.8
  21
5.586944
  31
0
  0
LINE
  5
132
  100
AcDbEntity
  8
1
  100
AcDbLine
  10
13.8
  20
5.586944
  30
0
  11
13.9
  21
5.565634
  31
0
  0
LINE
  5
133
  100
AcDbEntity
  8
1
  100
AcDbLine
  10
13.9
  20
5.565634
  30
0
  11
14
  21
5.54381
  31
0
  0
LINE
  5
134
  100
AcDbEntity
  8
1
  100
AcDbLine
  10
14
  20
5.54381
  30
0
  11
14.1
  21
5.521471
  31
0
  0
LINE
  5
135
  100
AcDbEntity
  8
1
  100
AcDbLine
  10
14.1
  20
5.521471
  30
0
  11
14.2
  21
5.498622
  31
0
  0
LINE
  5
136
  100
AcDbEntity
  8
1
  100
AcDbLine
  10
14.2
  20
5.498622
  30
0
  11
14.3
  21
5.475263
  31
0
  0
LINE
  5
137
  100
AcDbEntity
  8
1
  100
AcDbLine
  10
14.3
  20
5.475263
  30
0
  11
14.4
  21
5.451398
  31
0
  0
LINE
  5
138
  100
AcDbEntity
  8
1
  100
AcDbLine
  10
14.4
  20
5.451398
  30
0
  11
14.5
  21
5.427028
  31
0
  0
LINE
  5
139
  100
AcDbEntity
  8
1
  100
AcDbLine
  10
14.5
  20
5.427028
  30
0
  11
14.6
  21
5.402155
  31
0
  0
LINE
  5
13a
  100
AcDbEntity
  8
1
  100
AcDbLine
  10
14.6
  20
5.402155
  30
0
  11
14.7
  21
5.376782
  31
0
  0
LINE
  5
13b
  100
AcDbEntity
  8
1
  100
AcDbLine
  10
14.7
  20
5.376782
  30
0
  11
14.8
  21
5.350911
  31
0
  0
LINE
  5
13c
  100
AcDbEntity
  8
1
  100
AcDbLine
  10
14.8
  20
5.350911
  30
0
  11
14.9
  21
5.324545
  31
0
  0
LINE
  5
13d
  100
AcDbEntity
  8
1
  100
AcDbLine
  10
14.9
  20
5.324545
  30
0
  11
15
  21
5.297686
  31
0
  0
LINE
  5
13e
  100
AcDbEntity
  8
1
  100
AcDbLine
  10
15
  20
6
  30
0
  11
15
  21
-6
  31
0
  0
LINE
  5
13f
  100
AcDbEntity
  8
1
  100
AcDbLine
  10
15
  20
-6
  30
0
  11
14.9
  21
-5.999722
  31
0
  0
LINE
  5
140
  100
AcDbEntity
  8
1
  100
AcDbLine
  10
14.9
  20
-5.999722
  30
0
  11
14.8
  21
-5.998889
  31
0
  0
LINE
  5
141
  100
AcDbEntity
  8
1
  100
AcDbLine
  10
14.8
  20
-5.998889
  30
0
  11
14.7
  21
-5.9975
  31
0
  0
LINE
  5
142
  100
AcDbEntity
  8
1
  100
AcDbLine
  10
14.7
  20
-5.9975
  30
0
  11
14.6
  21
-5.995556
  31
0
  0
LINE
  5
143
  100
AcDbEntity
  8
1
  100
AcDbLine
  10
14.6
  20
-5.995556
  30
0
  11
14.5
  21
-5.993057
  31
0
  0
LINE
  5
144
  100
AcDbEntity
  8
1
  100
AcDbLine
  10
14.5
  20
-5.993057
  30
0
  11
14.4
  21
-5.990003
  31
0
  0
LINE
  5
145
  100
AcDbEntity
  8
1
  100
AcDbLine
  10
14.4
  20
-5.990003
  30
0
  11
14.3
  21
-5.986394
  31
0
  0
LINE
  5
146
  100
AcDbEntity
  8
1
  100
AcDbLine
  10
14.3
  20
-5.986394
  30
0
  11
14.2
  21
-5.982231
  31
0
  0
LINE
  5
147
  100
AcDbEntity
  8
1
  100
AcDbLine
  10
14.2
  20
-5.982231
  30
0
  11
14.1
  21
-5.977514
  31
0
  0
LINE
  5
148
  100
AcDbEntity
  8
1
  100
AcDbLine
  10
14.1
  20
-5.977514
  30
0
  11
14
  21
-5.972244
  31
0
  0
LINE
  5
149
  100
AcDbEntity
  8
1
  100
AcDbLine
  10
14
  20
-5.972244
  30
0
  11
13.9
  21
-5.96642
  31
0
  0
LINE
  5
14a
  100
AcDbEntity
  8
1
  100
AcDbLine
  10
13.9
  20
-5.96642
  30
0
  11
13.8
  21
-5.960044
  31
0
  0
LINE
  5
14b
  100
AcDbEntity
  8
1
  100
AcDbLine
  10
13.8
  20
-5.960044
  30
0
  11
13.7
  21
-5.953117
  31
0
  0
LINE
  5
14c
  100
AcDbEntity
  8
1
  100
AcDbLine
  10
13.7
  20
-5.953117
  30
0
  11
13.6
  21
-5.945638
  31
0
  0
LINE
  5
14d
  100
AcDbEntity
  8
1
  100
AcDbLine
  10
13.6
  20
-5.945638
  30
0
  11
13.5
  21
-5.937608
  31
0
  0
LINE
  5
14e
  100
AcDbEntity
  8
1
  100
AcDbLine
  10
13.5
  20
-5.937608
  30
0
  11
13.4
  21
-5.929029
  31
0
  0
LINE
  5
14f
  100
AcDbEntity
  8
1
  100
AcDbLine
  10
13.4
  20
-5.929029
  30
0
  11
13.3
  21
-5.919901
  31
0
  0
LINE
  5
150
  100
AcDbEntity
  8
1
  100
AcDbLine
  10
13.3
  20
-5.919901
  30
0
  11
13.2
  21
-5.910225
  31
0
  0
LINE
  5
151
  100
AcDbEntity
  8
1
  100
AcDbLine
  10
13.2
  20
-5.910225
  30
0
  11
13.1
  21
-5.900001
  31
0
  0
LINE
  5
152
  100
AcDbEntity
  8
1
  100
AcDbLine
  10
13.1
  20
-5.900001
  30
0
  11
13
  21
-5.889231
  31
0
  0
LINE
  5
153
  100
AcDbEntity
  8
1
  100
AcDbLine
  10
13
  20
-5.889231
  30
0
  11
12.9
  21
-5.877916
  31
0
  0
LINE
  5
154
  100
AcDbEntity
  8
1
  100
AcDbLine
  10
12.9
  20
-5.877916
  30
0
  11
12.8
  21
-5.866057
  31
0
  0
LINE
  5
155
  100
AcDbEntity
  8
1
  100
AcDbLine
  10
12.8
  20
-5.866057
  30
0
  11
12.7
  21
-5.853654
  31
0
  0
LINE
  5
156
  100
AcDbEntity
  8
1
  100
AcDbLine
  10
12.7
  20
-5.853654
  30
0
  11
12.6
  21
-5.84071
  31
0
  0
LINE
  5
157
  100
AcDbEntity
  8
1
  100
AcDbLine
  10
12.6
  20
-5.84071
  30
0
  11
12.5
  21
-5.827225
  31
0
  0
LINE
  5
158
  100
AcDbEntity
  8
1
  100
AcDbLine
  10
12.5
  20
-5.827225
  30
0
  11
12.4
  21
-5.8132
  31
0
  0
LINE
  5
159
  100
AcDbEntity
  8
1
  100
AcDbLine
  10
12.4
  20
-5.8132
  30
0
  11
12.3
  21
-5.798637
  31
0
  0
LINE
  5
15a
  100
AcDbEntity
  8
1
  100
AcDbLine
  10
12.3
  20
-5.798637
  30
0
  11
12.2
  21
-5.783536
  31
0
  0
LINE
  5
15b
  100
AcDbEntity
  8
1
  100
AcDbLine
  10
12.2
  20
-5.783536
  30
0
  11
12.1
  21
-5.767901
  31
0
  0
LINE
  5
15c
  100
AcDbEntity
  8
1
  100
AcDbLine
  10
12.1
  20
-5.767901
  30
0
  11
12
  21
-5.751731
  31
0
  0
LINE
  5
15d
  100
AcDbEntity
  8
1
  100
AcDbLine
  10
12
  20
-5.751731
  30
0
  11
11.9
  21
-5.735029
  31
0
  0
LINE
  5
15e
  100
AcDbEntity
  8
1
  100
AcDbLine
  10
11.9
  20
-5.735029
  30
0
  11
11.8
  21
-5.717796
  31
0
  0
LINE
  5
15f
  100
AcDbEntity
  8
1
  100
AcDbLine
  10
11.8
  20
-5.717796
  30
0
  11
11.7
  21
-5.700033
  31
0
  0
LINE
  5
160
  100
AcDbEntity
  8
1
  100
AcDbLine
  10
11.7
  20
-5.700033
  30
0
  11
11.6
  21
-5.681743
  31
0
  0
LINE
  5
161
  100
AcDbEntity
  8
1
  100
AcDbLine
  10
11.6
  20
-5.681743
  30
0
  11
11.5
  21
-5.662926
  31
0
  0
LINE
  5
162
  100
AcDbEntity
  8
1
  100
AcDbLine
  10
11.5
  20
-5.662926
  30
0
  11
11.4
  21
-5.643586
  31
0
  0
LINE
  5
163
  100
AcDbEntity
  8
1
  100
AcDbLine
  10
11.4
  20
-5.643586
  30
0
  11
11.3
  21
-5.623722
  31
0
  0
LINE
  5
164
  100
AcDbEntity
  8
1
  100
AcDbLine
  10
11.3
  20
-5.623722
  30
0
  11
11.2
  21
-5.603338
  31
0
  0
LINE
  5
165
  100
AcDbEntity
  8
1
  100
AcDbLine
  10
11.2
  20
-5.603338
  30
0
  11
11.1
  21
-5.582435
  31
0
  0
LINE
  5
166
  100
AcDbEntity
  8
1
  100
AcDbLine
  10
11.1
  20
-5.582435
  30
0
  11
11
  21
-5.561015
  31
0
  0
LINE
  5
167
  100
AcDbEntity
  8
1
  100
AcDbLine
  10
11
  20
-5.561015
  30
0
  11
10.9
  21
-5.539081
  31
0
  0
LINE
  5
168
  100
AcDbEntity
  8
1
  100
AcDbLine
  10
10.9
  20
-5.539081
  30
0
  11
10.8
  21
-5.516633
  31
0
  0
LINE
  5
169
  100
AcDbEntity
  8
1
  100
AcDbLine
  10
10.8
  20
-5.516633
  30
0
  11
10.7
  21
-5.493675
  31
0
  0
LINE
  5
16a
  100
AcDbEntity
  8
1
  100
AcDbLine
  10
10.7
  20
-5.493675
  30
0
  11
10.6
  21
-5.470208
  31
0
  0
LINE
  5
16b
  100
AcDbEntity
  8
1
  100
AcDbLine
  10
10.6
  20
-5.470208
  30
0
  11
10.5
  21
-5.446234
  31
0
  0
LINE
  5
16c
  100
AcDbEntity
  8
1
  100
AcDbLine
  10
10.5
  20
-5.446234
  30
0
  11
10.4
  21
-5.421757
  31
0
  0
LINE
  5
16d
  100
AcDbEntity
  8
1
  100
AcDbLine
  10
10.4
  20
-5.421757
  30
0
  11
10.3
  21
-5.396777
  31
0
  0
LINE
  5
16e
  100
AcDbEntity
  8
1
  100
AcDbLine
  10
10.3
  20
-5.396777
  30
0
  11
10.2
  21
-5.371297
  31
0
  0
LINE
  5
16f
  100
AcDbEntity
  8
1
  100
AcDbLine
  10
10.2
  20
-5.371297
  30
0
  11
10.1
  21
-5.34532
  31
0
  0
LINE
  5
170
  100
AcDbEntity
  8
1
  100
AcDbLine
  10
10.1
  20
-5.34532
  30
0
  11
10
  21
-5.318849
  31
0
  0
LINE
  5
171
  100
AcDbEntity
  8
1
  100
AcDbLine
  10
10
  20
-5.318849
  30
0
  11
9.9
  21
-5.291884
  31
0
  0
LINE
  5
172
  100
AcDbEntity
  8
1
  100
AcDbLine
  10
9.9
  20
-5.291884
  30
0
  11
9.8
  21
-5.26443
  31
0
  0
LINE
  5
173
  100
AcDbEntity
  8
1
  100
AcDbLine
  10
9.8
  20
-5.26443
  30
0
  11
9.7
  21
-5.236488
  31
0
  0
LINE
  5
174
  100
AcDbEntity
  8
1
  100
AcDbLine
  10
9.7
  20
-5.236488
  30
0
  11
9.6
  21
-5.208062
  31
0
  0
LINE
  5
175
  100
AcDbEntity
  8
1
  100
AcDbLine
  10
9.6
  20
-5.208062
  30
0
  11
9.5
  21
-5.179153
  31
0
  0
LINE
  5
176
  100
AcDbEntity
  8
1
  100
AcDbLine
  10
9.5
  20
-5.179153
  30
0
  11
9.4
  21
-5.149765
  31
0
  0
LINE
  5
177
  100
AcDbEntity
  8
1
  100
AcDbLine
  10
9.4
  20
-5.149765
  30
0
  11
9.3
  21
-5.1199
  31
0
  0
LINE
  5
178
  100
AcDbEntity
  8
1
  100
AcDbLine
  10
9.3
  20
-5.1199
  30
0
  11
9.2
  21
-5.08956
  31
0
  0
LINE
  5
179
  100
AcDbEntity
  8
1
  100
AcDbLine
  10
9.2
  20
-5.08956
  30
0
  11
9.1
  21
-5.05875
  31
0
  0
LINE
  5
17a
  100
AcDbEntity
  8
1
  100
AcDbLine
  10
9.1
  20
-5.05875
  30
0
  11
9
  21
-5.027471
  31
0
  0
LINE
  5
17b
  100
AcDbEntity
  8
1
  100
AcDbLine
  10
9
  20
-5.027471
  30
0
  11
8.9
  21
-4.995727
  31
0
  0
LINE
  5
17c
  100
AcDbEntity
  8
1
  100
AcDbLine
  10
8.9
  20
-4.995727
  30
0
  11
8.8
  21
-4.96352
  31
0
  0
LINE
  5
17d
  100
AcDbEntity
  8
1
  100
AcDbLine
  10
8.8
  20
-4.96352
  30
0
  11
8.7
  21
-4.930853
  31
0
  0
LINE
  5
17e
  100
AcDbEntity
  8
1
  100
AcDbLine
  10
8.7
  20
-4.930853
  30
0
  11
8.6
  21
-4.89773
  31
0
  0
LINE
  5
17f
  100
AcDbEntity
  8
1
  100
AcDbLine
  10
8.6
  20
-4.89773
  30
0
  11
8.5
  21
-4.864154
  31
0
  0
LINE
  5
180
  100
AcDbEntity
  8
1
  100
AcDbLine
  10
8.5
  20
-4.864154
  30
0
  11
8.4
  21
-4.830127
  31
0
  0
LINE
  5
181
  100
AcDbEntity
  8
1
  100
AcDbLine
  10
8.4
  20
-4.830127
  30
0
  11
8.3
  21
-4.795652
  31
0
  0
LINE
  5
182
  100
AcDbEntity
  8
1
  100
AcDbLine
  10
8.3
  20
-4.795652
  30
0
  11
8.2
  21
-4.760734
  31
0
  0
LINE
  5
183
  100
AcDbEntity
  8
1
  100
AcDbLine
  10
8.2
  20
-4.760734
  30
0
  11
8.1
  21
-4.725375
  31
0
  0
LINE
  5
184
  100
AcDbEntity
  8
1
  100
AcDbLine
  10
8.1
  20
-4.725375
  30
0
  11
8
  21
-4.689579
  31
0
  0
LINE
  5
185
  100
AcDbEntity
  8
1
  100
AcDbLine
  10
8
  20
-4.689579
  30
0
  11
7.9
  21
-4.653348
  31
0
  0
LINE
  5
186
  100
AcDbEntity
  8
1
  100
AcDbLine
  10
7.9
  20
-4.653348
  30
0
  11
7.8
  21
-4.616686
  31
0
  0
LINE
  5
187
  100
AcDbEntity
  8
1
  100
AcDbLine
  10
7.8
  20
-4.616686
  30
0
  11
7.7
  21
-4.579597
  31
0
  0
LINE
  5
188
  100
AcDbEntity
  8
1
  100
AcDbLine
  10
7.7
  20
-4.579597
  30
0
  11
7.6
  21
-4.542084
  31
0
  0
LINE
  5
189
  100
AcDbEntity
  8
1
  100
AcDbLine
  10
7.6
  20
-4.542084
  30
0
  11
7.5
  21
-4.50415
  31
0
  0
LINE
  5
18a
  100
AcDbEntity
  8
1
  100
AcDbLine
  10
7.5
  20
-4.50415
  30
0
  11
7.4
  21
-4.4658
  31
0
  0
LINE
  5
18b
  100
AcDbEntity
  8
1
  100
AcDbLine
  10
7.4
  20
-4.4658
  30
0
  11
7.3
  21
-4.427035
  31
0
  0
LINE
  5
18c
  100
AcDbEntity
  8
1
  100
AcDbLine
  10
7.3
  20
-4.427035
  30
0
  11
7.2
  21
-4.387861
  31
0
  0
LINE
  5
18d
  100
AcDbEntity
  8
1
  100
AcDbLine
  10
7.2
  20
-4.387861
  30
0
  11
7.1
  21
-4.348281
  31
0
  0
LINE
  5
18e
  100
AcDbEntity
  8
1
  100
AcDbLine
  10
7.1
  20
-4.348281
  30
0
  11
7
  21
-4.308298
  31
0
  0
LINE
  5
18f
  100
AcDbEntity
  8
1
  100
AcDbLine
  10
7
  20
-4.308298
  30
0
  11
6.9
  21
-4.267916
  31
0
  0
LINE
  5
190
  100
AcDbEntity
  8
1
  100
AcDbLine
  10
6.9
  20
-4.267916
  30
0
  11
6.8
  21
-4.227139
  31
0
  0
LINE
  5
191
  100
AcDbEntity
  8
1
  100
AcDbLine
  10
6.8
  20
-4.227139
  30
0
  11
6.7
  21
-4.18597
  31
0
  0
LINE
  5
192
  100
AcDbEntity
  8
1
  100
AcDbLine
  10
6.7
  20
-4.18597
  30
0
  11
6.6
  21
-4.144414
  31
0
  0
LINE
  5
193
  100
AcDbEntity
  8
1
  100
AcDbLine
  10
6.6
  20
-4.144414
  30
0
  11
6.5
  21
-4.102474
  31
0
  0
LINE
  5
194
  100
AcDbEntity
  8
1
  100
AcDbLine
  10
6.5
  20
-4.102474
  30
0
  11
6.4
  21
-4.060155
  31
0
  0
LINE
  5
195
  100
AcDbEntity
  8
1
  100
AcDbLine
  10
6.4
  20
-4.060155
  30
0
  11
6.3
  21
-4.017459
  31
0
  0
LINE
  5
196
  100
AcDbEntity
  8
1
  100
AcDbLine
  10
6.3
  20
-4.017459
  30
0
  11
6.2
  21
-3.974391
  31
0
  0
LINE
  5
197
  100
AcDbEntity
  8
1
  100
AcDbLine
  10
6.2
  20
-3.974391
  30
0
  11
6.1
  21
-3.930956
  31
0
  0
LINE
  5
198
  100
AcDbEntity
  8
1
  100
AcDbLine
  10
6.1
  20
-3.930956
  30
0
  11
6
  21
-3.887156
  31
0
  0
LINE
  5
199
  100
AcDbEntity
  8
1
  100
AcDbLine
  10
6
  20
-3.887156
  30
0
  11
5.9
  21
-3.842997
  31
0
  0
LINE
  5
19a
  100
AcDbEntity
  8
1
  100
AcDbLine
  10
5.9
  20
-3.842997
  30
0
  11
5.8
  21
-3.798481
  31
0
  0
LINE
  5
19b
  100
AcDbEntity
  8
1
  100
AcDbLine
  10
5.8
  20
-3.798481
  30
0
  11
5.7
  21
-3.753614
  31
0
  0
LINE
  5
19c
  100
AcDbEntity
  8
1
  100
AcDbLine
  10
5.7
  20
-3.753614
  30
0
  11
5.6
  21
-3.7084
  31
0
  0
LINE
  5
19d
  100
AcDbEntity
  8
1
  100
AcDbLine
  10
5.6
  20
-3.7084
  30
0
  11
5.5
  21
-3.662842
  31
0
  0
LINE
  5
19e
  100
AcDbEntity
  8
1
  100
AcDbLine
  10
5.5
  20
-3.662842
  30
0
  11
5.4
  21
-3.616944
  31
0
  0
LINE
  5
19f
  100
AcDbEntity
  8
1
  100
AcDbLine
  10
5.4
  20
-3.616944
  30
0
  11
5.3
  21
-3.570712
  31
0
  0
LINE
  5
1a0
  100
AcDbEntity
  8
1
  100
AcDbLine
  10
5.3
  20
-3.570712
  30
0
  11
5.2
  21
-3.52415
  31
0
  0
LINE
  5
1a1
  100
AcDbEntity
  8
1
  100
AcDbLine
  10
5.2
  20
-3.52415
  30
0
  11
5.1
  21
-3.477261
  31
0
  0
LINE
  5
1a2
  100
AcDbEntity
  8
1
  100
AcDbLine
  10
5.1
  20
-3.477261
  30
0
  11
5
  21
-3.43005
  31
0
  0
LINE
  5
1a3
  100
AcDbEntity
  8
1
  100
AcDbLine
  10
5
  20
-3.43005
  30
0
  11
4.9
  21
-3.382521
  31
0
  0
LINE
  5
1a4
  100
AcDbEntity
  8
1
  100
AcDbLine
  10
4.9
  20
-3.382521
  30
0
  11
4.8
  21
-3.33468
  31
0
  0
LINE
  5
1a5
  100
AcDbEntity
  8
1
  100
AcDbLine
  10
4.8
  20
-3.33468
  30
0
  11
4.7
  21
-3.286529
  31
0
  0
LINE
  5
1a6
  100
AcDbEntity
  8
1
  100
AcDbLine
  10
4.7
  20
-3.286529
  30
0
  11
4.6
  21
-3.238074
  31
0
  0
LINE
  5
1a7
  100
AcDbEntity
  8
1
  100
AcDbLine
  10
4.6
  20
-3.238074
  30
0
  11
4.5
  21
-3.18932
  31
0
  0
LINE
  5
1a8
  100
AcDbEntity
  8
1
  100
AcDbLine
  10
4.5
  20
-3.18932
  30
0
  11
4.4
  21
-3.14027
  31
0
  0
LINE
  5
1a9
  100
AcDbEntity
  8
1
  100
AcDbLine
  10
4.4
  20
-3.14027
  30
0
  11
4.3
  21
-3.090929
  31
0
  0
LINE
  5
1aa
  100
AcDbEntity
  8
1
  100
AcDbLine
  10
4.3
  20
-3.090929
  30
0
  11
4.2
  21
-3.041302
  31
0
  0
LINE
  5
1ab
  100
AcDbEntity
  8
1
  100
AcDbLine
  10
4.2
  20
-3.041302
  30
0
  11
4.1
  21
-2.991394
  31
0
  0
LINE
  5
1ac
  100
AcDbEntity
  8
1
  100
AcDbLine
  10
4.1
  20
-2.991394
  30
0
  11
4
  21
-2.941209
  31
0
  0
LINE
  5
1ad
  100
AcDbEntity
  8
1
  100
AcDbLine
  10
4
  20
-2.941209
  30
0
  11
3.9
  21
-2.890751
  31
0
  0
LINE
  5
1ae
  100
AcDbEntity
  8
1
  100
AcDbLine
  10
3.9
  20
-2.890751
  30
0
  11
3.8
  21
-2.840025
  31
0
  0
LINE
  5
1af
  100
AcDbEntity
  8
1
  100
AcDbLine
  10
3.8
  20
-2.840025
  30
0
  11
3.7
  21
-2.789037
  31
0
  0
LINE
  5
1b0
  100
AcDbEntity
  8
1
  100
AcDbLine
  10
3.7
  20
-2.789037
  30
0
  11
3.6
  21
-2.73779
  31
0
  0
LINE
  5
1b1
  100
AcDbEntity
  8
1
  100
AcDbLine
  10
3.6
  20
-2.73779
  30
0
  11
3.5
  21
-2.68629
  31
0
  0
LINE
  5
1b2
  100
AcDbEntity
  8
1
  100
AcDbLine
  10
3.5
  20
-2.68629
  30
0
  11
3.4
  21
-2.634541
  31
0
  0
LINE
  5
1b3
  100
AcDbEntity
  8
1
  100
AcDbLine
  10
3.4
  20
-2.634541
  30
0
  11
3.3
  21
-2.582549
  31
0
  0
LINE
  5
1b4
  100
AcDbEntity
  8
1
  100
AcDbLine
  10
3.3
  20
-2.582549
  30
0
  11
3.2
  21
-2.530317
  31
0
  0
LINE
  5
1b5
  100
AcDbEntity
  8
1
  100
AcDbLine
  10
3.2
  20
-2.530317
  30
0
  11
3.1
  21
-2.47785
  31
0
  0
LINE
  5
1b6
  100
AcDbEntity
  8
1
  100
AcDbLine
  10
3.1
  20
-2.47785
  30
0
  11
3
  21
-2.425155
  31
0
  0
LINE
  5
1b7
  100
AcDbEntity
  8
1
  100
AcDbLine
  10
3
  20
-2.425155
  30
0
  11
2.9
  21
-2.372235
  31
0
  0
LINE
  5
1b8
  100
AcDbEntity
  8
1
  100
AcDbLine
  10
2.9
  20
-2.372235
  30
0
  11
2.8
  21
-2.319095
  31
0
  0
LINE
  5
1b9
  100
AcDbEntity
  8
1
  100
AcDbLine
  10
2.8
  20
-2.319095
  30
0
  11
2.7
  21
-2.26574
  31
0
  0
LINE
  5
1ba
  100
AcDbEntity
  8
1
  100
AcDbLine
  10
2.7
  20
-2.26574
  30
0
  11
2.6
  21
-2.212176
  31
0
  0
LINE
  5
1bb
  100
AcDbEntity
  8
1
  100
AcDbLine
  10
2.6
  20
-2.212176
  30
0
  11
2.5
  21
-2.158407
  31
0
  0
LINE
  5
1bc
  100
AcDbEntity
  8
1
  100
AcDbLine
  10
2.5
  20
-2.158407
  30
0
  11
2.4
  21
-2.104438
  31
0
  0
LINE
  5
1bd
  100
AcDbEntity
  8
1
  100
AcDbLine
  10
2.4
  20
-2.104438
  30
0
  11
2.3
  21
-2.050274
  31
0
  0
LINE
  5
1be
  100
AcDbEntity
  8
1
  100
AcDbLine
  10
2.3
  20
-2.050274
  30
0
  11
2.2
  21
-1.99592
  31
0
  0
LINE
  5
1bf
  100
AcDbEntity
  8
1
  100
AcDbLine
  10
2.2
  20
-1.99592
  30
0
  11
2.1
  21
-1.941381
  31
0
  0
LINE
  5
1c0
  100
AcDbEntity
  8
1
  100
AcDbLine
  10
2.1
  20
-1.941381
  30
0
  11
2
  21
-1.886663
  31
0
  0
LINE
  5
1c1
  100
AcDbEntity
  8
1
  100
AcDbLine
  10
2
  20
-1.886663
  30
0
  11
1.9
  21
-1.83177
  31
0
  0
LINE
  5
1c2
  100
AcDbEntity
  8
1
  100
AcDbLine
  10
1.9
  20
-1.83177
  30
0
  11
1.8
  21
-1.776708
  31
0
  0
LINE
  5
1c3
  100
AcDbEntity
  8
1
  100
AcDbLine
  10
1.8
  20
-1.776708
  30
0
  11
1.7
  21
-1.721481
  31
0
  0
LINE
  5
1c4
  100
AcDbEntity
  8
1
  100
AcDbLine
  10
1.7
  20
-1.721481
  30
0
  11
1.6
  21
-1.666094
  31
0
  0
LINE
  5
1c5
  100
AcDbEntity
  8
1
  100
AcDbLine
  10
1.6
  20
-1.666094
  30
0
  11
1.5
  21
-1.610553
  31
0
  0
LINE
  5
1c6
  100
AcDbEntity
  8
1
  100
AcDbLine
  10
1.5
  20
-1.610553
  30
0
  11
1.4
  21
-1.554863
  31
0
  0
LINE
  5
1c7
  100
AcDbEntity
  8
1
  100
AcDbLine
  10
1.4
  20
-1.554863
  30
0
  11
1.3
  21
-1.49903
  31
0
  0
LINE
  5
1c8
  100
AcDbEntity
  8
1
  100
AcDbLine
  10
1.3
  20
-1.49903
  30
0
  11
1.2
  21
-1.443057
  31
0
  0
LINE
  5
1c9
  100
AcDbEntity
  8
1
  100
AcDbLine
  10
1.2
  20
-1.443057
  30
0
  11
1.1
  21
-1.386951
  31
0
  0
LINE
  5
1ca
  100
AcDbEntity
  8
1
  100
AcDbLine
  10
1.1
  20
-1.386951
  30
0
  11
1
  21
-1.330716
  31
0
  0
LINE
  5
1cb
  100
AcDbEntity
  8
1
  100
AcDbLine
  10
1
  20
-1.330716
  30
0
  11
0.9
  21
-1.274358
  31
0
  0
LINE
  5
1cc
  100
AcDbEntity
  8
1
  100
AcDbLine
  10
0.9
  20
-1.274358
  30
0
  11
0.8
  21
-1.217882
  31
0
  0
LINE
  5
1cd
  100
AcDbEntity
  8
1
  100
AcDbLine
  10
0.8
  20
-1.217882
  30
0
  11
0.7
  21
-1.161294
  31
0
  0
LINE
  5
1ce
  100
AcDbEntity
  8
1
  100
AcDbLine
  10
0.7
  20
-1.161294
  30
0
  11
0.6
  21
-1.104597
  31
0
  0
LINE
  5
1cf
  100
AcDbEntity
  8
1
  100
AcDbLine
  10
0.6
  20
-1.104597
  30
0
  11
0.5
  21
-1.047799
  31
0
  0
LINE
  5
1d0
  100
AcDbEntity
  8
1
  100
AcDbLine
  10
0.5
  20
-1.047799
  30
0
  11
0.4
  21
-0.990903
  31
0
  0
LINE
  5
1d1
  100
AcDbEntity
  8
1
  100
AcDbLine
  10
0.4
  20
-0.990903
  30
0
  11
0.3
  21
-0.933916
  31
0
  0
LINE
  5
1d2
  100
AcDbEntity
  8
1
  100
AcDbLine
  10
0.3
  20
-0.933916
  30
0
  11
0.2
  21
-0.876842
  31
0
  0
LINE
  5
1d3
  100
AcDbEntity
  8
1
  100
AcDbLine
  10
0.2
  20
-0.876842
  30
0
  11
0.1
  21
-0.819688
  31
0
  0
LINE
  5
1d4
  100
AcDbEntity
  8
1
  100
AcDbLine
  10
0.1
  20
-0.819688
  30
0
  11
0
  21
-0.762457
  31
0
  0
LINE
  5
1d5
  100
AcDbEntity
  8
1
  100
AcDbLine
  10
0
  20
0.136545
  30
0
  11
0.1
  21
0.07968
  31
0
  0
LINE
  5
1d6
  100
AcDbEntity
  8
1
  100
AcDbLine
  10
0.1
  20
0.07968
  30
0
  11
0.2
  21
0.022808
  31
0
  0
LINE
  5
1d7
  100
AcDbEntity
  8
1
  100
AcDbLine
  10
0.2
  20
0.022808
  30
0
  11
0.3
  21
-0.034066
  31
0
  0
LINE
  5
1d8
  100
AcDbEntity
  8
1
  100
AcDbLine
  10
0.3
  20
-0.034066
  30
0
  11
0.4
  21
-0.090937
  31
0
  0
LINE
  5
1d9
  100
AcDbEntity
  8
1
  100
AcDbLine
  10
0.4
  20
-0.090937
  30
0
  11
0.5
  21
-0.147799
  31
0
  0
LINE
  5
1da
  100
AcDbEntity
  8
1
  100
AcDbLine
  10
0.5
  20
-0.147799
  30
0
  11
0.6
  21
-0.204648
  31
0
  0
LINE
  5
1db
  100
AcDbEntity
  8
1
  100
AcDbLine
  10
0.6
  20
-0.204648
  30
0
  11
0.7
  21
-0.261478
  31
0
  0
LINE
  5
1dc
  100
AcDbEntity
  8
1
  100
AcDbLine
  10
0.7
  20
-0.261478
  30
0
  11
0.8
  21
-0.318284
  31
0
  0
LINE
  5
1dd
  100
AcDbEntity
  8
1
  100
AcDbLine
  10
0.8
  20
-0.318284
  30
0
  11
0.9
  21
-0.37506
  31
0
  0
LINE
  5
1de
  100
AcDbEntity
  8
1
  100
AcDbLine
  10
0.9
  20
-0.37506
  30
0
  11
1
  21
-0.431801
  31
0
  0
LINE
  5
1df
  100
AcDbEntity
  8
1
  100
AcDbLine
  10
1
  20
-0.431801
  30
0
  11
1.1
  21
-0.488503
  31
0
  0
LINE
  5
1e0
  100
AcDbEntity
  8
1
  100
AcDbLine
  10
1.1
  20
-0.488503
  30
0
  11
1.2
  21
-0.545159
  31
0
  0
LINE
  5
1e1
  100
AcDbEntity
  8
1
  100
AcDbLine
  10
1.2
  20
-0.545159
  30
0
  11
1.3
  21
-0.601765
  31
0
  0
LINE
  5
1e2
  100
AcDbEntity
  8
1
  100
AcDbLine
  10
1.3
  20
-0.601765
  30
0
  11
1.4
  21
-0.658315
  31
0
  0
LINE
  5
1e3
  100
AcDbEntity
  8
1
  100
AcDbLine
  10
1.4
  20
-0.658315
  30
0
  11
1.5
  21
-0.714804
  31
0
  0
LINE
  5
1e4
  100
AcDbEntity
  8
1
  100
AcDbLine
  10
1.5
  20
-0.714804
  30
0
  11
1.6
  21
-0.771227
  31
0
  0
LINE
  5
1e5
  100
AcDbEntity
  8
1
  100
AcDbLine
  10
1.6
  20
-0.771227
  30
0
  11
1.7
  21
-0.827578
  31
0
  0
LINE
  5
1e6
  100
AcDbEntity
  8
1
  100
AcDbLine
  10
1.7
  20
-0.827578
  30
0
  11
1.8
  21
-0.883853
  31
0
  0
LINE
  5
1e7
  100
AcDbEntity
  8
1
  100
AcDbLine
  10
1.8
  20
-0.883853
  30
0
  11
1.9
  21
-0.940046
  31
0
  0
LINE
  5
1e8
  100
AcDbEntity
  8
1
  100
AcDbLine
  10
1.9
  20
-0.940046
  30
0
  11
2
  21
-0.996152
  31
0
  0
LINE
  5
1e9
  100
AcDbEntity
  8
1
  100
AcDbLine
  10
2
  20
-0.996152
  30
0
  11
2.1
  21
-1.052166
  31
0
  0
LINE
  5
1ea
  100
AcDbEntity
  8
1
  100
AcDbLine
  10
2.1
  20
-1.052166
  30
0
  11
2.2
  21
-1.108082
  31
0
  0
LINE
  5
1eb
  100
AcDbEntity
  8
1
  100
AcDbLine
  10
2.2
  20
-1.108082
  30
0
  11
2.3
  21
-1.163896
  31
0
  0
LINE
  5
1ec
  100
AcDbEntity
  8
1
  100
AcDbLine
  10
2.3
  20
-1.163896
  30
0
  11
2.4
  21
-1.219602
  31
0
  0
LINE
  5
1ed
  100
AcDbEntity
  8
1
  100
AcDbLine
  10
2.4
  20
-1.219602
  30
0
  11
2.5
  21
-1.275195
  31
0
  0
LINE
  5
1ee
  100
AcDbEntity
  8
1
  100
AcDbLine
  10
2.5
  20
-1.275195
  30
0
  11
2.6
  21
-1.33067
  31
0
  0
LINE
  5
1ef
  100
AcDbEntity
  8
1
  100
AcDbLine
  10
2.6
  20
-1.33067
  30
0
  11
2.7
  21
-1.386021
  31
0
  0
LINE
  5
1f0
  100
AcDbEntity
  8
1
  100
AcDbLine
  10
2.7
  20
-1.386021
  30
0
  11
2.8
  21
-1.441245
  31
0
  0
LINE
  5
1f1
  100
AcDbEntity
  8
1
  100
AcDbLine
  10
2.8
  20
-1.441245
  30
0
  11
2.9
  21
-1.496335
  31
0
  0
LINE
  5
1f2
  100
AcDbEntity
  8
1
  100
AcDbLine
  10
2.9
  20
-1.496335
  30
0
  11
3
  21
-1.551286
  31
0
  0
LINE
  5
1f3
  100
AcDbEntity
  8
1
  100
AcDbLine
  10
3
  20
-1.551286
  30
0
  11
3.1
  21
-1.606094
  31
0
  0
LINE
  5
1f4
  100
AcDbEntity
  8
1
  100
AcDbLine
  10
3.1
  20
-1.606094
  30
0
  11
3.2
  21
-1.660753
  31
0
  0
LINE
  5
1f5
  100
AcDbEntity
  8
1
  100
AcDbLine
  10
3.2
  20
-1.660753
  30
0
  11
3.3
  21
-1.715258
  31
0
  0
LINE
  5
1f6
  100
AcDbEntity
  8
1
  100
AcDbLine
  10
3.3
  20
-1.715258
  30
0
  11
3.4
  21
-1.769605
  31
0
  0
LINE
  5
1f7
  100
AcDbEntity
  8
1
  100
AcDbLine
  10
3.4
  20
-1.769605
  30
0
  11
3.5
  21
-1.823787
  31
0
  0
LINE
  5
1f8
  100
AcDbEntity
  8
1
  100
AcDbLine
  10
3.5
  20
-1.823787
  30
0
  11
3.6
  21
-1.877801
  31
0
  0
LINE
  5
1f9
  100
AcDbEntity
  8
1
  100
AcDbLine
  10
3.6
  20
-1.877801
  30
0
  11
3.7
  21
-1.931641
  31
0
  0
LINE
  5
1fa
  100
AcDbEntity
  8
1
  100
AcDbLine
  10
3.7
  20
-1.931641
  30
0
  11
3.8
  21
-1.985302
  31
0
  0
LINE
  5
1fb
  100
AcDbEntity
  8
1
  100
AcDbLine
  10
3.8
  20
-1.985302
  30
0
  11
3.9
  21
-2.038779
  31
0
  0
LINE
  5
1fc
  100
AcDbEntity
  8
1
  100
AcDbLine
  10
3.9
  20
-2.038779
  30
0
  11
4
  21
-2.092067
  31
0
  0
LINE
  5
1fd
  100
AcDbEntity
  8
1
  100
AcDbLine
  10
4
  20
-2.092067
  30
0
  11
4.1
  21
-2.145162
  31
0
  0
LINE
  5
1fe
  100
AcDbEntity
  8
1
  100
AcDbLine
  10
4.1
  20
-2.145162
  30
0
  11
4.2
  21
-2.198058
  31
0
  0
LINE
  5
1ff
  100
AcDbEntity
  8
1
  100
AcDbLine
  10
4.2
  20
-2.198058
  30
0
  11
4.3
  21
-2.250751
  31
0
  0
LINE
  5
200
  100
AcDbEntity
  8
1
  100
AcDbLine
  10
4.3
  20
-2.250751
  30
0
  11
4.4
  21
-2.303235
  31
0
  0
LINE
  5
201
  100
AcDbEntity
  8
1
  100
AcDbLine
  10
4.4
  20
-2.303235
  30
0
  11
4.5
  21
-2.355506
  31
0
  0
LINE
  5
202
  100
AcDbEntity
  8
1
  100
AcDbLine
  10
4.5
  20
-2.355506
  30
0
  11
4.6
  21
-2.407559
  31
0
  0
LINE
  5
203
  100
AcDbEntity
  8
1
  100
AcDbLine
  10
4.6
  20
-2.407559
  30
0
  11
4.7
  21
-2.459389
  31
0
  0
LINE
  5
204
  100
AcDbEntity
  8
1
  100
AcDbLine
  10
4.7
  20
-2.459389
  30
0
  11
4.8
  21
-2.510991
  31
0
  0
LINE
  5
205
  100
AcDbEntity
  8
1
  100
AcDbLine
  10
4.8
  20
-2.510991
  30
0
  11
4.9
  21
-2.562361
  31
0
  0
LINE
  5
206
  100
AcDbEntity
  8
1
  100
AcDbLine
  10
4.9
  20
-2.562361
  30
0
  11
5
  21
-2.613493
  31
0
  0
LINE
  5
207
  100
AcDbEntity
  8
1
  100
AcDbLine
  10
5
  20
-2.613493
  30
0
  11
5.1
  21
-2.664383
  31
0
  0
LINE
  5
208
  100
AcDbEntity
  8
1
  100
AcDbLine
  10
5.1
  20
-2.664383
  30
0
  11
5.2
  21
-2.715027
  31
0
  0
LINE
  5
209
  100
AcDbEntity
  8
1
  100
AcDbLine
  10
5.2
  20
-2.715027
  30
0
  11
5.3
  21
-2.765419
  31
0
  0
LINE
  5
20a
  100
AcDbEntity
  8
1
  100
AcDbLine
  10
5.3
  20
-2.765419
  30
0
  11
5.4
  21
-2.815556
  31
0
  0
LINE
  5
20b
  100
AcDbEntity
  8
1
  100
AcDbLine
  10
5.4
  20
-2.815556
  30
0
  11
5.5
  21
-2.865431
  31
0
  0
LINE
  5
20c
  100
AcDbEntity
  8
1
  100
AcDbLine
  10
5.5
  20
-2.865431
  30
0
  11
5.6
  21
-2.915042
  31
0
  0
LINE
  5
20d
  100
AcDbEntity
  8
1
  100
AcDbLine
  10
5.6
  20
-2.915042
  30
0
  11
5.7
  21
-2.964382
  31
0
  0
LINE
  5
20e
  100
AcDbEntity
  8
1
  100
AcDbLine
  10
5.7
  20
-2.964382
  30
0
  11
5.8
  21
-3.013448
  31
0
  0
LINE
  5
20f
  100
AcDbEntity
  8
1
  100
AcDbLine
  10
5.8
  20
-3.013448
  30
0
  11
5.9
  21
-3.062235
  31
0
  0
LINE
  5
210
  100
AcDbEntity
  8
1
  100
AcDbLine
  10
5.9
  20
-3.062235
  30
0
  11
6
  21
-3.110738
  31
0
  0
LINE
  5
211
  100
AcDbEntity
  8
1
  100
AcDbLine
  10
6
  20
-3.110738
  30
0
  11
6.1
  21
-3.158953
  31
0
  0
LINE
  5
212
  100
AcDbEntity
  8
1
  100
AcDbLine
  10
6.1
  20
-3.158953
  30
0
  11
6.2
  21
-3.206876
  31
0
  0
LINE
  5
213
  100
AcDbEntity
  8
1
  100
AcDbLine
  10
6.2
  20
-3.206876
  30
0
  11
6.3
  21
-3.254502
  31
0
  0
LINE
  5
214
  100
AcDbEntity
  8
1
  100
AcDbLine
  10
6.3
  20
-3.254502
  30
0
  11
6.4
  21
-3.301827
  31
0
  0
LINE
  5
215
  100
AcDbEntity
  8
1
  100
AcDbLine
  10
6.4
  20
-3.301827
  30
0
  11
6.5
  21
-3.348845
  31
0
  0
LINE
  5
216
  100
AcDbEntity
  8
1
  100
AcDbLine
  10
6.5
  20
-3.348845
  30
0
  11
6.6
  21
-3.395554
  31
0
  0
LINE
  5
217
  100
AcDbEntity
  8
1
  100
AcDbLine
  10
6.6
  20
-3.395554
  30
0
  11
6.7
  21
-3.441948
  31
0
  0
LINE
  5
218
  100
AcDbEntity
  8
1
  100
AcDbLine
  10
6.7
  20
-3.441948
  30
0
  11
6.8
  21
-3.488024
  31
0
  0
LINE
  5
219
  100
AcDbEntity
  8
1
  100
AcDbLine
  10
6.8
  20
-3.488024
  30
0
  11
6.9
  21
-3.533777
  31
0
  0
LINE
  5
21a
  100
AcDbEntity
  8
1
  100
AcDbLine
  10
6.9
  20
-3.533777
  30
0
  11
7
  21
-3.579202
  31
0
  0
LINE
  5
21b
  100
AcDbEntity
  8
1
  100
AcDbLine
  10
7
  20
-3.579202
  30
0
  11
7.1
  21
-3.624296
  31
0
  0
LINE
  5
21c
  100
AcDbEntity
  8
1
  100
AcDbLine
  10
7.1
  20
-3.624296
  30
0
  11
7.2
  21
-3.669055
  31
0
  0
LINE
  5
21d
  100
AcDbEntity
  8
1
  100
AcDbLine
  10
7.2
  20
-3.669055
  30
0
  11
7.3
  21
-3.713474
  31
0
  0
LINE
  5
21e
  100
AcDbEntity
  8
1
  100
AcDbLine
  10
7.3
  20
-3.713474
  30
0
  11
7.4
  21
-3.757548
  31
0
  0
LINE
  5
21f
  100
AcDbEntity
  8
1
  100
AcDbLine
  10
7.4
  20
-3.757548
  30
0
  11
7.5
  21
-3.801275
  31
0
  0
LINE
  5
220
  100
AcDbEntity
  8
1
  100
AcDbLine
  10
7.5
  20
-3.801275
  30
0
  11
7.6
  21
-3.84465
  31
0
  0
LINE
  5
221
  100
AcDbEntity
  8
1
  100
AcDbLine
  10
7.6
  20
-3.84465
  30
0
  11
7.7
  21
-3.88767
  31
0
  0
LINE
  5
222
  100
AcDbEntity
  8
1
  100
AcDbLine
  10
7.7
  20
-3.88767
  30
0
  11
7.8
  21
-3.930329
  31
0
  0
LINE
  5
223
  100
AcDbEntity
  8
1
  100
AcDbLine
  10
7.8
  20
-3.930329
  30
0
  11
7.9
  21
-3.972624
  31
0
  0
LINE
  5
224
  100
AcDbEntity
  8
1
  100
AcDbLine
  10
7.9
  20
-3.972624
  30
0
  11
8
  21
-4.014551
  31
0
  0
LINE
  5
225
  100
AcDbEntity
  8
1
  100
AcDbLine
  10
8
  20
-4.014551
  30
0
  11
8.1
  21
-4.056107
  31
0
  0
LINE
  5
226
  100
AcDbEntity
  8
1
  100
AcDbLine
  10
8.1
  20
-4.056107
  30
0
  11
8.2
  21
-4.097287
  31
0
  0
LINE
  5
227
  100
AcDbEntity
  8
1
  100
AcDbLine
  10
8.2
  20
-4.097287
  30
0
  11
8.3
  21
-4.138088
  31
0
  0
LINE
  5
228
  100
AcDbEntity
  8
1
  100
AcDbLine
  10
8.3
  20
-4.138088
  30
0
  11
8.4
  21
-4.178505
  31
0
  0
LINE
  5
229
  100
AcDbEntity
  8
1
  100
AcDbLine
  10
8.4
  20
-4.178505
  30
0
  11
8.5
  21
-4.218536
  31
0
  0
LINE
  5
22a
  100
AcDbEntity
  8
1
  100
AcDbLine
  10
8.5
  20
-4.218536
  30
0
  11
8.6
  21
-4.258176
  31
0
  0
LINE
  5
22b
  100
AcDbEntity
  8
1
  100
AcDbLine
  10
8.6
  20
-4.258176
  30
0
  11
8.7
  21
-4.297422
  31
0
  0
LINE
  5
22c
  100
AcDbEntity
  8
1
  100
AcDbLine
  10
8.7
  20
-4.297422
  30
0
  11
8.8
  21
-4.336269
  31
0
  0
LINE
  5
22d
  100
AcDbEntity
  8
1
  100
AcDbLine
  10
8.8
  20
-4.336269
  30
0
  11
8.9
  21
-4.374716
  31
0
  0
LINE
  5
22e
  100
AcDbEntity
  8
1
  100
AcDbLine
  10
8.9
  20
-4.374716
  30
0
  11
9
  21
-4.412757
  31
0
  0
LINE
  5
22f
  100
AcDbEntity
  8
1
  100
AcDbLine
  10
9
  20
-4.412757
  30
0
  11
9.1
  21
-4.45039
  31
0
  0
LINE
  5
230
  100
AcDbEntity
  8
1
  100
AcDbLine
  10
9.1
  20
-4.45039
  30
0
  11
9.2
  21
-4.48761
  31
0
  0
LINE
  5
231
  100
AcDbEntity
  8
1
  100
AcDbLine
  10
9.2
  20
-4.48761
  30
0
  11
9.3
  21
-4.524416
  31
0
  0
LINE
  5
232
  100
AcDbEntity
  8
1
  100
AcDbLine
  10
9.3
  20
-4.524416
  30
0
  11
9.4
  21
-4.560802
  31
0
  0
LINE
  5
233
  100
AcDbEntity
  8
1
  100
AcDbLine
  10
9.4
  20
-4.560802
  30
0
  11
9.5
  21
-4.596766
  31
0
  0
LINE
  5
234
  100
AcDbEntity
  8
1
  100
AcDbLine
  10
9.5
  20
-4.596766
  30
0
  11
9.6
  21
-4.632304
  31
0
  0
LINE
  5
235
  100
AcDbEntity
  8
1
  100
AcDbLine
  10
9.6
  20
-4.632304
  30
0
  11
9.7
  21
-4.667413
  31
0
  0
LINE
  5
236
  100
AcDbEntity
  8
1
  100
AcDbLine
  10
9.7
  20
-4.667413
  30
0
  11
9.8
  21
-4.70209
  31
0
  0
LINE
  5
237
  100
AcDbEntity
  8
1
  100
AcDbLine
  10
9.8
  20
-4.70209
  30
0
  11
9.9
  21
-4.736332
  31
0
  0
LINE
  5
238
  100
AcDbEntity
  8
1
  100
AcDbLine
  10
9.9
  20
-4.736332
  30
0
  11
10
  21
-4.770136
  31
0
  0
LINE
  5
239
  100
AcDbEntity
  8
1
  100
AcDbLine
  10
10
  20
-4.770136
  30
0
  11
10.1
  21
-4.803497
  31
0
  0
LINE
  5
23a
  100
AcDbEntity
  8
1
  100
AcDbLine
  10
10.1
  20
-4.803497
  30
0
  11
10.2
  21
-4.836414
  31
0
  0
LINE
  5
23b
  100
AcDbEntity
  8
1
  100
AcDbLine
  10
10.2
  20
-4.836414
  30
0
  11
10.3
  21
-4.868883
  31
0
  0
LINE
  5
23c
  100
AcDbEntity
  8
1
  100
AcDbLine
  10
10.3
  20
-4.868883
  30
0
  11
10.4
  21
-4.900901
  31
0
  0
LINE
  5
23d
  100
AcDbEntity
  8
1
  100
AcDbLine
  10
10.4
  20
-4.900901
  30
0
  11
10.5
  21
-4.932466
  31
0
  0
LINE
  5
23e
  100
AcDbEntity
  8
1
  100
AcDbLine
  10
10.5
  20
-4.932466
  30
0
  11
10.6
  21
-4.963573
  31
0
  0
LINE
  5
23f
  100
AcDbEntity
  8
1
  100
AcDbLine
  10
10.6
  20
-4.963573
  30
0
  11
10.7
  21
-4.994222
  31
0
  0
LINE
  5
240
  100
AcDbEntity
  8
1
  100
AcDbLine
  10
10.7
  20
-4.994222
  30
0
  11
10.8
  21
-5.024407
  31
0
  0
LINE
  5
241
  100
AcDbEntity
  8
1
  100
AcDbLine
  10
10.8
  20
-5.024407
  30
0
  11
10.9
  21
-5.054128
  31
0
  0
LINE
  5
242
  100
AcDbEntity
  8
1
  100
AcDbLine
  10
10.9
  20
-5.054128
  30
0
  11
11
  21
-5.08338
  31
0
  0
LINE
  5
243
  100
AcDbEntity
  8
1
  100
AcDbLine
  10
11
  20
-5.08338
  30
0
  11
11.1
  21
-5.112162
  31
0
  0
LINE
  5
244
  100
AcDbEntity
  8
1
  100
AcDbLine
  10
11.1
  20
-5.112162
  30
0
  11
11.2
  21
-5.140471
  31
0
  0
LINE
  5
245
  100
AcDbEntity
  8
1
  100
AcDbLine
  10
11.2
  20
-5.140471
  30
0
  11
11.3
  21
-5.168303
  31
0
  0
LINE
  5
246
  100
AcDbEntity
  8
1
  100
AcDbLine
  10
11.3
  20
-5.168303
  30
0
  11
11.4
  21
-5.195657
  31
0
  0
LINE
  5
247
  100
AcDbEntity
  8
1
  100
AcDbLine
  10
11.4
  20
-5.195657
  30
0
  11
11.5
  21
-5.22253
  31
0
  0
LINE
  5
248
  100
AcDbEntity
  8
1
  100
AcDbLine
  10
11.5
  20
-5.22253
  30
0
  11
11.6
  21
-5.248919
  31
0
  0
LINE
  5
249
  100
AcDbEntity
  8
1
  100
AcDbLine
  10
11.6
  20
-5.248919
  30
0
  11
11.7
  21
-5.274823
  31
0
  0
LINE
  5
24a
  100
AcDbEntity
  8
1
  100
AcDbLine
  10
11.7
  20
-5.274823
  30
0
  11
11.8
  21
-5.300238
  31
0
  0
LINE
  5
24b
  100
AcDbEntity
  8
1
  100
AcDbLine
  10
11.8
  20
-5.300238
  30
0
  11
11.9
  21
-5.325162
  31
0
  0
LINE
  5
24c
  100
AcDbEntity
  8
1
  100
AcDbLine
  10
11.9
  20
-5.325162
  30
0
  11
12
  21
-5.349593
  31
0
  0
LINE
  5
24d
  100
AcDbEntity
  8
1
  100
AcDbLine
  10
12
  20
-5.349593
  30
0
  11
12.1
  21
-5.373529
  31
0
  0
LINE
  5
24e
  100
AcDbEntity
  8
1
  100
AcDbLine
  10
12.1
  20
-5.373529
  30
0
  11
12.2
  21
-5.396967
  31
0
  0
LINE
  5
24f
  100
AcDbEntity
  8
1
  100
AcDbLine
  10
12.2
  20
-5.396967
  30
0
  11
12.3
  21
-5.419905
  31
0
  0
LINE
  5
250
  100
AcDbEntity
  8
1
  100
AcDbLine
  10
12.3
  20
-5.419905
  30
0
  11
12.4
  21
-5.442342
  31
0
  0
LINE
  5
251
  100
AcDbEntity
  8
1
  100
AcDbLine
  10
12.4
  20
-5.442342
  30
0
  11
12.5
  21
-5.464275
  31
0
  0
LINE
  5
252
  100
AcDbEntity
  8
1
  100
AcDbLine
  10
12.5
  20
-5.464275
  30
0
  11
12.6
  21
-5.485702
  31
0
  0
LINE
  5
253
  100
AcDbEntity
  8
1
  100
AcDbLine
  10
12.6
  20
-5.485702
  30
0
  11
12.7
  21
-5.506621
  31
0
  0
LINE
  5
254
  100
AcDbEntity
  8
1
  100
AcDbLine
  10
12.7
  20
-5.506621
  30
0
  11
12.8
  21
-5.52703
  31
0
  0
LINE
  5
255
  100
AcDbEntity
  8
1
  100
AcDbLine
  10
12.8
  20
-5.52703
  30
0
  11
12.9
  21
-5.546927
  31
0
  0
LINE
  5
256
  100
AcDbEntity
  8
1
  100
AcDbLine
  10
12.9
  20
-5.546927
  30
0
  11
13
  21
-5.566311
  31
0
  0
LINE
  5
257
  100
AcDbEntity
  8
1
  100
AcDbLine
  10
13
  20
-5.566311
  30
0
  11
13.1
  21
-5.585179
  31
0
  0
LINE
  5
258
  100
AcDbEntity
  8
1
  100
AcDbLine
  10
13.1
  20
-5.585179
  30
0
  11
13.2
  21
-5.60353
  31
0
  0
LINE
  5
259
  100
AcDbEntity
  8
1
  100
AcDbLine
  10
13.2
  20
-5.60353
  30
0
  11
13.3
  21
-5.621362
  31
0
  0
LINE
  5
25a
  100
AcDbEntity
  8
1
  100
AcDbLine
  10
13.3
  20
-5.621362
  30
0
  11
13.4
  21
-5.638674
  31
0
  0
LINE
  5
25b
  100
AcDbEntity
  8
1
  100
AcDbLine
  10
13.4
  20
-5.638674
  30
0
  11
13.5
  21
-5.655464
  31
0
  0
LINE
  5
25c
  100
AcDbEntity
  8
1
  100
AcDbLine
  10
13.5
  20
-5.655464
  30
0
  11
13.6
  21
-5.67173
  31
0
  0
LINE
  5
25d
  100
AcDbEntity
  8
1
  100
AcDbLine
  10
13.6
  20
-5.67173
  30
0
  11
13.7
  21
-5.687471
  31
0
  0
LINE
  5
25e
  100
AcDbEntity
  8
1
  100
AcDbLine
  10
13.7
  20
-5.687471
  30
0
  11
13.8
  21
-5.702685
  31
0
  0
LINE
  5
25f
  100
AcDbEntity
  8
1
  100
AcDbLine
  10
13.8
  20
-5.702685
  30
0
  11
13.9
  21
-5.717371
  31
0
  0
LINE
  5
260
  100
AcDbEntity
  8
1
  100
AcDbLine
  10
13.9
  20
-5.717371
  30
0
  11
14
  21
-5.731528
  31
0
  0
LINE
  5
261
  100
AcDbEntity
  8
1
  100
AcDbLine
  10
14
  20
-5.731528
  30
0
  11
14.1
  21
-5.745154
  31
0
  0
LINE
  5
262
  100
AcDbEntity
  8
1
  100
AcDbLine
  10
14.1
  20
-5.745154
  30
0
  11
14.2
  21
-5.758248
  31
0
  0
LINE
  5
263
  100
AcDbEntity
  8
1
  100
AcDbLine
  10
14.2
  20
-5.758248
  30
0
  11
14.3
  21
-5.770809
  31
0
  0
LINE
  5
264
  100
AcDbEntity
  8
1
  100
AcDbLine
  10
14.3
  20
-5.770809
  30
0
  11
14.4
  21
-5.782836
  31
0
  0
LINE
  5
265
  100
AcDbEntity
  8
1
  100
AcDbLine
  10
14.4
  20
-5.782836
  30
0
  11
14.5
  21
-5.794327
  31
0
  0
LINE
  5
266
  100
AcDbEntity
  8
1
  100
AcDbLine
  10
14.5
  20
-5.794327
  30
0
  11
14.6
  21
-5.805282
  31
0
  0
LINE
  5
267
  100
AcDbEntity
  8
1
  100
AcDbLine
  10
14.6
  20
-5.805282
  30
0
  11
14.7
  21
-5.815699
  31
0
  0
LINE
  5
268
  100
AcDbEntity
  8
1
  100
AcDbLine
  10
14.7
  20
-5.815699
  30
0
  11
14.8
  21
-5.825578
  31
0
  0
LINE
  5
269
  100
AcDbEntity
  8
1
  100
AcDbLine
  10
14.8
  20
-5.825578
  30
0
  11
14.9
  21
-5.834918
  31
0
  0
LINE
  5
26a
  100
AcDbEntity
  8
1
  100
AcDbLine
  10
14.9
  20
-5.834918
  30
0
  11
15
  21
-5.843717
  31
0
  0
LINE
  5
26b
  100
AcDbEntity
  8
1
  100
AcDbLine
  10
15
  20
-5.088289
  30
0
  11
14.9
  21
-5.057459
  31
0
  0
LINE
  5
26c
  100
AcDbEntity
  8
1
  100
AcDbLine
  10
14.9
  20
-5.057459
  30
0
  11
14.8
  21
-5.02616
  31
0
  0
LINE
  5
26d
  100
AcDbEntity
  8
1
  100
AcDbLine
  10
14.8
  20
-5.02616
  30
0
  11
14.7
  21
-4.994397
  31
0
  0
LINE
  5
26e
  100
AcDbEntity
  8
1
  100
AcDbLine
  10
14.7
  20
-4.994397
  30
0
  11
14.6
  21
-4.962171
  31
0
  0
LINE
  5
26f
  100
AcDbEntity
  8
1
  100
AcDbLine
  10
14.6
  20
-4.962171
  30
0
  11
14.5
  21
-4.929485
  31
0
  0
LINE
  5
270
  100
AcDbEntity
  8
1
  100
AcDbLine
  10
14.5
  20
-4.929485
  30
0
  11
14.4
  21
-4.896343
  31
0
  0
LINE
  5
271
  100
AcDbEntity
  8
1
  100
AcDbLine
  10
14.4
  20
-4.896343
  30
0
  11
14.3
  21
-4.862748
  31
0
  0
LINE
  5
272
  100
AcDbEntity
  8
1
  100
AcDbLine
  10
14.3
  20
-4.862748
  30
0
  11
14.2
  21
-4.828702
  31
0
  0
LINE
  5
273
  100
AcDbEntity
  8
1
  100
AcDbLine
  10
14.2
  20
-4.828702
  30
0
  11
14.1
  21
-4.794209
  31
0
  0
LINE
  5
274
  100
AcDbEntity
  8
1
  100
AcDbLine
  10
14.1
  20
-4.794209
  30
0
  11
14
  21
-4.759273
  31
0
  0
LINE
  5
275
  100
AcDbEntity
  8
1
  100
AcDbLine
  10
14
  20
-4.759273
  30
0
  11
13.9
  21
-4.723895
  31
0
  0
LINE
  5
276
  100
AcDbEntity
  8
1
  100
AcDbLine
  10
13.9
  20
-4.723895
  30
0
  11
13.8
  21
-4.688081
  31
0
  0
LINE
  5
277
  100
AcDbEntity
  8
1
  100
AcDbLine
  10
13.8
  20
-4.688081
  30
0
  11
13.7
  21
-4.651832
  31
0
  0
LINE
  5
278
  100
AcDbEntity
  8
1
  100
AcDbLine
  10
13.7
  20
-4.651832
  30
0
  11
13.6
  21
-4.615153
  31
0
  0
LINE
  5
279
  100
AcDbEntity
  8
1
  100
AcDbLine
  10
13.6
  20
-4.615153
  30
0
  11
13.5
  21
-4.578046
  31
0
  0
LINE
  5
27a
  100
AcDbEntity
  8
1
  100
AcDbLine
  10
13.5
  20
-4.578046
  30
0
  11
13.4
  21
-4.540515
  31
0
  0
LINE
  5
27b
  100
AcDbEntity
  8
1
  100
AcDbLine
  10
13.4
  20
-4.540515
  30
0
  11
13.3
  21
-4.502564
  31
0
  0
LINE
  5
27c
  100
AcDbEntity
  8
1
  100
AcDbLine
  10
13.3
  20
-4.502564
  30
0
  11
13.2
  21
-4.464196
  31
0
  0
LINE
  5
27d
  100
AcDbEntity
  8
1
  100
AcDbLine
  10
13.2
  20
-4.464196
  30
0
  11
13.1
  21
-4.425415
  31
0
  0
LINE
  5
27e
  100
AcDbEntity
  8
1
  100
AcDbLine
  10
13.1
  20
-4.425415
  30
0
  11
13
  21
-4.386224
  31
0
  0
LINE
  5
27f
  100
AcDbEntity
  8
1
  100
AcDbLine
  10
13
  20
-4.386224
  30
0
  11
12.9
  21
-4.346626
  31
0
  0
LINE
  5
280
  100
AcDbEntity
  8
1
  100
AcDbLine
  10
12.9
  20
-4.346626
  30
0
  11
12.8
  21
-4.306627
  31
0
  0
LINE
  5
281
  100
AcDbEntity
  8
1
  100
AcDbLine
  10
12.8
  20
-4.306627
  30
0
  11
12.7
  21
-4.266228
  31
0
  0
LINE
  5
282
  100
AcDbEntity
  8
1
  100
AcDbLine
  10
12.7
  20
-4.266228
  30
0
  11
12.6
  21
-4.225435
  31
0
  0
LINE
  5
283
  100
AcDbEntity
  8
1
  100
AcDbLine
  10
12.6
  20
-4.225435
  30
0
  11
12.5
  21
-4.18425
  31
0
  0
LINE
  5
284
  100
AcDbEntity
  8
1
  100
AcDbLine
  10
12.5
  20
-4.18425
  30
0
  11
12.4
  21
-4.142678
  31
0
  0
LINE
  5
285
  100
AcDbEntity
  8
1
  100
AcDbLine
  10
12.4
  20
-4.142678
  30
0
  11
12.3
  21
-4.100722
  31
0
  0
LINE
  5
286
  100
AcDbEntity
  8
1
  100
AcDbLine
  10
12.3
  20
-4.100722
  30
0
  11
12.2
  21
-4.058387
  31
0
  0
LINE
  5
287
  100
AcDbEntity
  8
1
  100
AcDbLine
  10
12.2
  20
-4.058387
  30
0
  11
12.1
  21
-4.015676
  31
0
  0
LINE
  5
288
  100
AcDbEntity
  8
1
  100
AcDbLine
  10
12.1
  20
-4.015676
  30
0
  11
12
  21
-3.972593
  31
0
  0
LINE
  5
289
  100
AcDbEntity
  8
1
  100
AcDbLine
  10
12
  20
-3.972593
  30
0
  11
11.9
  21
-3.929142
  31
0
  0
LINE
  5
28a
  100
AcDbEntity
  8
1
  100
AcDbLine
  10
11.9
  20
-3.929142
  30
0
  11
11.8
  21
-3.885327
  31
0
  0
LINE
  5
28b
  100
AcDbEntity
  8
1
  100
AcDbLine
  10
11.8
  20
-3.885327
  30
0
  11
11.7
  21
-3.841153
  31
0
  0
LINE
  5
28c
  100
AcDbEntity
  8
1
  100
AcDbLine
  10
11.7
  20
-3.841153
  30
0
  11
11.6
  21
-3.796623
  31
0
  0
LINE
  5
28d
  100
AcDbEntity
  8
1
  100
AcDbLine
  10
11.6
  20
-3.796623
  30
0
  11
11.5
  21
-3.751741
  31
0
  0
LINE
  5
28e
  100
AcDbEntity
  8
1
  100
AcDbLine
  10
11.5
  20
-3.751741
  30
0
  11
11.4
  21
-3.706512
  31
0
  0
LINE
  5
28f
  100
AcDbEntity
  8
1
  100
AcDbLine
  10
11.4
  20
-3.706512
  30
0
  11
11.3
  21
-3.66094
  31
0
  0
LINE
  5
290
  100
AcDbEntity
  8
1
  100
AcDbLine
  10
11.3
  20
-3.66094
  30
0
  11
11.2
  21
-3.615029
  31
0
  0
LINE
  5
291
  100
AcDbEntity
  8
1
  100
AcDbLine
  10
11.2
  20
-3.615029
  30
0
  11
11.1
  21
-3.568783
  31
0
  0
LINE
  5
292
  100
AcDbEntity
  8
1
  100
AcDbLine
  10
11.1
  20
-3.568783
  30
0
  11
11
  21
-3.522207
  31
0
  0
LINE
  5
293
  100
AcDbEntity
  8
1
  100
AcDbLine
  10
11
  20
-3.522207
  30
0
  11
10.9
  21
-3.475304
  31
0
  0
LINE
  5
294
  100
AcDbEntity
  8
1
  100
AcDbLine
  10
10.9
  20
-3.475304
  30
0
  11
10.8
  21
-3.42808
  31
0
  0
LINE
  5
295
  100
AcDbEntity
  8
1
  100
AcDbLine
  10
10.8
  20
-3.42808
  30
0
  11
10.7
  21
-3.380538
  31
0
  0
LINE
  5
296
  100
AcDbEntity
  8
1
  100
AcDbLine
  10
10.7
  20
-3.380538
  30
0
  11
10.6
  21
-3.332684
  31
0
  0
LINE
  5
297
  100
AcDbEntity
  8
1
  100
AcDbLine
  10
10.6
  20
-3.332684
  30
0
  11
10.5
  21
-3.284521
  31
0
  0
LINE
  5
298
  100
AcDbEntity
  8
1
  100
AcDbLine
  10
10.5
  20
-3.284521
  30
0
  11
10.4
  21
-3.236053
  31
0
  0
LINE
  5
299
  100
AcDbEntity
  8
1
  100
AcDbLine
  10
10.4
  20
-3.236053
  30
0
  11
10.3
  21
-3.187286
  31
0
  0
LINE
  5
29a
  100
AcDbEntity
  8
1
  100
AcDbLine
  10
10.3
  20
-3.187286
  30
0
  11
10.2
  21
-3.138224
  31
0
  0
LINE
  5
29b
  100
AcDbEntity
  8
1
  100
AcDbLine
  10
10.2
  20
-3.138224
  30
0
  11
10.1
  21
-3.088872
  31
0
  0
LINE
  5
29c
  100
AcDbEntity
  8
1
  100
AcDbLine
  10
10.1
  20
-3.088872
  30
0
  11
10
  21
-3.039233
  31
0
  0
LINE
  5
29d
  100
AcDbEntity
  8
1
  100
AcDbLine
  10
10
  20
-3.039233
  30
0
  11
9.9
  21
-2.989313
  31
0
  0
LINE
  5
29e
  100
AcDbEntity
  8
1
  100
AcDbLine
  10
9.9
  20
-2.989313
  30
0
  11
9.8
  21
-2.939116
  31
0
  0
LINE
  5
29f
  100
AcDbEntity
  8
1
  100
AcDbLine
  10
9.8
  20
-2.939116
  30
0
  11
9.7
  21
-2.888647
  31
0
  0
LINE
  5
2a0
  100
AcDbEntity
  8
1
  100
AcDbLine
  10
9.7
  20
-2.888647
  30
0
  11
9.6
  21
-2.83791
  31
0
  0
LINE
  5
2a1
  100
AcDbEntity
  8
1
  100
AcDbLine
  10
9.6
  20
-2.83791
  30
0
  11
9.5
  21
-2.786911
  31
0
  0
LINE
  5
2a2
  100
AcDbEntity
  8
1
  100
AcDbLine
  10
9.5
  20
-2.786911
  30
0
  11
9.4
  21
-2.735654
  31
0
  0
LINE
  5
2a3
  100
AcDbEntity
  8
1
  100
AcDbLine
  10
9.4
  20
-2.735654
  30
0
  11
9.3
  21
-2.684143
  31
0
  0
LINE
  5
2a4
  100
AcDbEntity
  8
1
  100
AcDbLine
  10
9.3
  20
-2.684143
  30
0
  11
9.2
  21
-2.632384
  31
0
  0
LINE
  5
2a5
  100
AcDbEntity
  8
1
  100
AcDbLine
  10
9.2
  20
-2.632384
  30
0
  11
9.1
  21
-2.580381
  31
0
  0
LINE
  5
2a6
  100
AcDbEntity
  8
1
  100
AcDbLine
  10
9.1
  20
-2.580381
  30
0
  11
9
  21
-2.52814
  31
0
  0
LINE
  5
2a7
  100
AcDbEntity
  8
1
  100
AcDbLine
  10
9
  20
-2.52814
  30
0
  11
8.9
  21
-2.475664
  31
0
  0
LINE
  5
2a8
  100
AcDbEntity
  8
1
  100
AcDbLine
  10
8.9
  20
-2.475664
  30
0
  11
8.8
  21
-2.422959
  31
0
  0
LINE
  5
2a9
  100
AcDbEntity
  8
1
  100
AcDbLine
  10
8.8
  20
-2.422959
  30
0
  11
8.7
  21
-2.370029
  31
0
  0
LINE
  5
2aa
  100
AcDbEntity
  8
1
  100
AcDbLine
  10
8.7
  20
-2.370029
  30
0
  11
8.6
  21
-2.316881
  31
0
  0
LINE
  5
2ab
  100
AcDbEntity
  8
1
  100
AcDbLine
  10
8.6
  20
-2.316881
  30
0
  11
8.5
  21
-2.263517
  31
0
  0
LINE
  5
2ac
  100
AcDbEntity
  8
1
  100
AcDbLine
  10
8.5
  20
-2.263517
  30
0
  11
8.4
  21
-2.209944
  31
0
  0
LINE
  5
2ad
  100
AcDbEntity
  8
1
  100
AcDbLine
  10
8.4
  20
-2.209944
  30
0
  11
8.3
  21
-2.156167
  31
0
  0
LINE
  5
2ae
  100
AcDbEntity
  8
1
  100
AcDbLine
  10
8.3
  20
-2.156167
  30
0
  11
8.2
  21
-2.102189
  31
0
  0
LINE
  5
2af
  100
AcDbEntity
  8
1
  100
AcDbLine
  10
8.2
  20
-2.102189
  30
0
  11
8.1
  21
-2.048017
  31
0
  0
LINE
  5
2b0
  100
AcDbEntity
  8
1
  100
AcDbLine
  10
8.1
  20
-2.048017
  30
0
  11
8
  21
-1.993656
  31
0
  0
LINE
  5
2b1
  100
AcDbEntity
  8
1
  100
AcDbLine
  10
8
  20
-1.993656
  30
0
  11
7.9
  21
-1.93911
  31
0
  0
LINE
  5
2b2
  100
AcDbEntity
  8
1
  100
AcDbLine
  10
7.9
  20
-1.93911
  30
0
  11
7.8
  21
-1.884384
  31
0
  0
LINE
  5
2b3
  100
AcDbEntity
  8
1
  100
AcDbLine
  10
7.8
  20
-1.884384
  30
0
  11
7.7
  21
-1.829484
  31
0
  0
LINE
  5
2b4
  100
AcDbEntity
  8
1
  100
AcDbLine
  10
7.7
  20
-1.829484
  30
0
  11
7.6
  21
-1.774415
  31
0
  0
LINE
  5
2b5
  100
AcDbEntity
  8
1
  100
AcDbLine
  10
7.6
  20
-1.774415
  30
0
  11
7.5
  21
-1.719181
  31
0
  0
LINE
  5
2b6
  100
AcDbEntity
  8
1
  100
AcDbLine
  10
7.5
  20
-1.719181
  30
0
  11
7.4
  21
-1.663788
  31
0
  0
LINE
  5
2b7
  100
AcDbEntity
  8
1
  100
AcDbLine
  10
7.4
  20
-1.663788
  30
0
  11
7.3
  21
-1.608241
  31
0
  0
LINE
  5
2b8
  100
AcDbEntity
  8
1
  100
AcDbLine
  10
7.3
  20
-1.608241
  30
0
  11
7.2
  21
-1.552545
  31
0
  0
LINE
  5
2b9
  100
AcDbEntity
  8
1
  100
AcDbLine
  10
7.2
  20
-1.552545
  30
0
  11
7.1
  21
-1.496705
  31
0
  0
LINE
  5
2ba
  100
AcDbEntity
  8
1
  100
AcDbLine
  10
7.1
  20
-1.496705
  30
0
  11
7
  21
-1.440727
  31
0
  0
LINE
  5
2bb
  100
AcDbEntity
  8
1
  100
AcDbLine
  10
7
  20
-1.440727
  30
0
  11
6.9
  21
-1.384615
  31
0
  0
LINE
  5
2bc
  100
AcDbEntity
  8
1
  100
AcDbLine
  10
6.9
  20
-1.384615
  30
0
  11
6.8
  21
-1.328375
  31
0
  0
LINE
  5
2bd
  100
AcDbEntity
  8
1
  100
AcDbLine
  10
6.8
  20
-1.328375
  30
0
  11
6.7
  21
-1.272012
  31
0
  0
LINE
  5
2be
  100
AcDbEntity
  8
1
  100
AcDbLine
  10
6.7
  20
-1.272012
  30
0
  11
6.6
  21
-1.215531
  31
0
  0
LINE
  5
2bf
  100
AcDbEntity
  8
1
  100
AcDbLine
  10
6.6
  20
-1.215531
  30
0
  11
6.5
  21
-1.158938
  31
0
  0
LINE
  5
2c0
  100
AcDbEntity
  8
1
  100
AcDbLine
  10
6.5
  20
-1.158938
  30
0
  11
6.4
  21
-1.102238
  31
0
  0
LINE
  5
2c1
  100
AcDbEntity
  8
1
  100
AcDbLine
  10
6.4
  20
-1.102238
  30
0
  11
6.3
  21
-1.045435
  31
0
  0
LINE
  5
2c2
  100
AcDbEntity
  8
1
  100
AcDbLine
  10
6.3
  20
-1.045435
  30
0
  11
6.2
  21
-0.988536
  31
0
  0
LINE
  5
2c3
  100
AcDbEntity
  8
1
  100
AcDbLine
  10
6.2
  20
-0.988536
  30
0
  11
6.1
  21
-0.931545
  31
0
  0
LINE
  5
2c4
  100
AcDbEntity
  8
1
  100
AcDbLine
  10
6.1
  20
-0.931545
  30
0
  11
6
  21
-0.874468
  31
0
  0
LINE
  5
2c5
  100
AcDbEntity
  8
1
  100
AcDbLine
  10
6
  20
-0.874468
  30
0
  11
5.9
  21
-0.817309
  31
0
  0
LINE
  5
2c6
  100
AcDbEntity
  8
1
  100
AcDbLine
  10
5.9
  20
-0.817309
  30
0
  11
5.8
  21
-0.760076
  31
0
  0
LINE
  5
2c7
  100
AcDbEntity
  8
1
  100
AcDbLine
  10
5.8
  20
-0.760076
  30
0
  11
5.7
  21
-0.702771
  31
0
  0
LINE
  5
2c8
  100
AcDbEntity
  8
1
  100
AcDbLine
  10
5.7
  20
-0.702771
  30
0
  11
5.6
  21
-0.645402
  31
0
  0
LINE
  5
2c9
  100
AcDbEntity
  8
1
  100
AcDbLine
  10
5.6
  20
-0.645402
  30
0
  11
5.5
  21
-0.587973
  31
0
  0
LINE
  5
2ca
  100
AcDbEntity
  8
1
  100
AcDbLine
  10
5.5
  20
-0.587973
  30
0
  11
5.4
  21
-0.53049
  31
0
  0
LINE
  5
2cb
  100
AcDbEntity
  8
1
  100
AcDbLine
  10
5.4
  20
-0.53049
  30
0
  11
5.3
  21
-0.472957
  31
0
  0
LINE
  5
2cc
  100
AcDbEntity
  8
1
  100
AcDbLine
  10
5.3
  20
-0.472957
  30
0
  11
5.2
  21
-0.415381
  31
0
  0
LINE
  5
2cd
  100
AcDbEntity
  8
1
  100
AcDbLine
  10
5.2
  20
-0.415381
  30
0
  11
5.1
  21
-0.357766
  31
0
  0
LINE
  5
2ce
  100
AcDbEntity
  8
1
  100
AcDbLine
  10
5.1
  20
-0.357766
  30
0
  11
5
  21
-0.300118
  31
0
  0
LINE
  5
2cf
  100
AcDbEntity
  8
1
  100
AcDbLine
  10
5
  20
-0.300118
  30
0
  11
4.9
  21
-0.242442
  31
0
  0
LINE
  5
2d0
  100
AcDbEntity
  8
1
  100
AcDbLine
  10
4.9
  20
-0.242442
  30
0
  11
4.8
  21
-0.184744
  31
0
  0
LINE
  5
2d1
  100
AcDbEntity
  8
1
  100
AcDbLine
  10
4.8
  20
-0.184744
  30
0
  11
4.7
  21
-0.127029
  31
0
  0
LINE
  5
2d2
  100
AcDbEntity
  8
1
  100
AcDbLine
  10
4.7
  20
-0.127029
  30
0
  11
4.6
  21
-0.069301
  31
0
  0
LINE
  5
2d3
  100
AcDbEntity
  8
1
  100
AcDbLine
  10
4.6
  20
-0.069301
  30
0
  11
4.5
  21
-0.011568
  31
0
  0
LINE
  5
2d4
  100
AcDbEntity
  8
1
  100
AcDbLine
  10
4.5
  20
-0.011568
  30
0
  11
4.4
  21
0.046167
  31
0
  0
LINE
  5
2d5
  100
AcDbEntity
  8
1
  100
AcDbLine
  10
4.4
  20
0.046167
  30
0
  11
4.3
  21
0.103897
  31
0
  0
LINE
  5
2d6
  100
AcDbEntity
  8
1
  100
AcDbLine
  10
4.3
  20
0.103897
  30
0
  11
4.2
  21
0.161618
  31
0
  0
LINE
  5
2d7
  100
AcDbEntity
  8
1
  100
AcDbLine
  10
4.2
  20
0.161618
  30
0
  11
4.1
  21
0.219323
  31
0
  0
LINE
  5
2d8
  100
AcDbEntity
  8
1
  100
AcDbLine
  10
4.1
  20
0.219323
  30
0
  11
4
  21
0.277009
  31
0
  0
LINE
  5
2d9
  100
AcDbEntity
  8
1
  100
AcDbLine
  10
4
  20
0.277009
  30
0
  11
3.9
  21
0.334668
  31
0
  0
LINE
  5
2da
  100
AcDbEntity
  8
1
  100
AcDbLine
  10
3.9
  20
0.334668
  30
0
  11
3.8
  21
0.392297
  31
0
  0
LINE
  5
2db
  100
AcDbEntity
  8
1
  100
AcDbLine
  10
3.8
  20
0.392297
  30
0
  11
3.7
  21
0.44989
  31
0
  0
LINE
  5
2dc
  100
AcDbEntity
  8
1
  100
AcDbLine
  10
3.7
  20
0.44989
  30
0
  11
3.6
  21
0.50744
  31
0
  0
LINE
  5
2dd
  100
AcDbEntity
  8
1
  100
AcDbLine
  10
3.6
  20
0.50744
  30
0
  11
3.5
  21
0.564944
  31
0
  0
LINE
  5
2de
  100
AcDbEntity
  8
1
  100
AcDbLine
  10
3.5
  20
0.564944
  30
0
  11
3.4
  21
0.622396
  31
0
  0
LINE
  5
2df
  100
AcDbEntity
  8
1
  100
AcDbLine
  10
3.4
  20
0.622396
  30
0
  11
3.3
  21
0.67979
  31
0
  0
LINE
  5
2e0
  100
AcDbEntity
  8
1
  100
AcDbLine
  10
3.3
  20
0.67979
  30
0
  11
3.2
  21
0.73712
  31
0
  0
LINE
  5
2e1
  100
AcDbEntity
  8
1
  100
AcDbLine
  10
3.2
  20
0.73712
  30
0
  11
3.1
  21
0.794383
  31
0
  0
LINE
  5
2e2
  100
AcDbEntity
  8
1
  100
AcDbLine
  10
3.1
  20
0.794383
  30
0
  11
3
  21
0.851572
  31
0
  0
LINE
  5
2e3
  100
AcDbEntity
  8
1
  100
AcDbLine
  10
3
  20
0.851572
  30
0
  11
2.9
  21
0.908682
  31
0
  0
LINE
  5
2e4
  100
AcDbEntity
  8
1
  100
AcDbLine
  10
2.9
  20
0.908682
  30
0
  11
2.8
  21
0.965709
  31
0
  0
LINE
  5
2e5
  100
AcDbEntity
  8
1
  100
AcDbLine
  10
2.8
  20
0.965709
  30
0
  11
2.7
  21
1.022645
  31
0
  0
LINE
  5
2e6
  100
AcDbEntity
  8
1
  100
AcDbLine
  10
2.7
  20
1.022645
  30
0
  11
2.6
  21
1.079487
  31
0
  0
LINE
  5
2e7
  100
AcDbEntity
  8
1
  100
AcDbLine
  10
2.6
  20
1.079487
  30
0
  11
2.5
  21
1.136229
  31
0
  0
LINE
  5
2e8
  100
AcDbEntity
  8
1
  100
AcDbLine
  10
2.5
  20
1.136229
  30
0
  11
2.4
  21
1.192866
  31
0
  0
LINE
  5
2e9
  100
AcDbEntity
  8
1
  100
AcDbLine
  10
2.4
  20
1.192866
  30
0
  11
2.3
  21
1.249393
  31
0
  0
LINE
  5
2ea
  100
AcDbEntity
  8
1
  100
AcDbLine
  10
2.3
  20
1.249393
  30
0
  11
2.2
  21
1.305803
  31
0
  0
LINE
  5
2eb
  100
AcDbEntity
  8
1
  100
AcDbLine
  10
2.2
  20
1.305803
  30
0
  11
2.1
  21
1.362093
  31
0
  0
LINE
  5
2ec
  100
AcDbEntity
  8
1
  100
AcDbLine
  10
2.1
  20
1.362093
  30
0
  11
2
  21
1.418257
  31
0
  0
LINE
  5
2ed
  100
AcDbEntity
  8
1
  100
AcDbLine
  10
2
  20
1.418257
  30
0
  11
1.9
  21
1.474289
  31
0
  0
LINE
  5
2ee
  100
AcDbEntity
  8
1
  100
AcDbLine
  10
1.9
  20
1.474289
  30
0
  11
1.8
  21
1.530185
  31
0
  0
LINE
  5
2ef
  100
AcDbEntity
  8
1
  100
AcDbLine
  10
1.8
  20
1.530185
  30
0
  11
1.7
  21
1.585939
  31
0
  0
LINE
  5
2f0
  100
AcDbEntity
  8
1
  100
AcDbLine
  10
1.7
  20
1.585939
  30
0
  11
1.6
  21
1.641547
  31
0
  0
LINE
  5
2f1
  100
AcDbEntity
  8
1
  100
AcDbLine
  10
1.6
  20
1.641547
  30
0
  11
1.5
  21
1.697002
  31
0
  0
LINE
  5
2f2
  100
AcDbEntity
  8
1
  100
AcDbLine
  10
1.5
  20
1.697002
  30
0
  11
1.4
  21
1.7523
  31
0
  0
LINE
  5
2f3
  100
AcDbEntity
  8
1
  100
AcDbLine
  10
1.4
  20
1.7523
  30
0
  11
1.3
  21
1.807436
  31
0
  0
LINE
  5
2f4
  100
AcDbEntity
  8
1
  100
AcDbLine
  10
1.3
  20
1.807436
  30
0
  11
1.2
  21
1.862405
  31
0
  0
LINE
  5
2f5
  100
AcDbEntity
  8
1
  100
AcDbLine
  10
1.2
  20
1.862405
  30
0
  11
1.1
  21
1.917201
  31
0
  0
LINE
  5
2f6
  100
AcDbEntity
  8
1
  100
AcDbLine
  10
1.1
  20
1.917201
  30
0
  11
1
  21
1.97182
  31
0
  0
LINE
  5
2f7
  100
AcDbEntity
  8
1
  100
AcDbLine
  10
1
  20
1.97182
  30
0
  11
0.9
  21
2.026256
  31
0
  0
LINE
  5
2f8
  100
AcDbEntity
  8
1
  100
AcDbLine
  10
0.9
  20
2.026256
  30
0
  11
0.8
  21
2.080504
  31
0
  0
LINE
  5
2f9
  100
AcDbEntity
  8
1
  100
AcDbLine
  10
0.8
  20
2.080504
  30
0
  11
0.7
  21
2.13456
  31
0
  0
LINE
  5
2fa
  100
AcDbEntity
  8
1
  100
AcDbLine
  10
0.7
  20
2.13456
  30
0
  11
0.6
  21
2.188418
  31
0
  0
LINE
  5
2fb
  100
AcDbEntity
  8
1
  100
AcDbLine
  10
0.6
  20
2.188418
  30
0
  11
0.5
  21
2.242074
  31
0
  0
LINE
  5
2fc
  100
AcDbEntity
  8
1
  100
AcDbLine
  10
0.5
  20
2.242074
  30
0
  11
0.4
  21
2.295522
  31
0
  0
LINE
  5
2fd
  100
AcDbEntity
  8
1
  100
AcDbLine
  10
0.4
  20
2.295522
  30
0
  11
0.3
  21
2.348757
  31
0
  0
LINE
  5
2fe
  100
AcDbEntity
  8
1
  100
AcDbLine
  10
0.3
  20
2.348757
  30
0
  11
0.2
  21
2.401775
  31
0
  0
LINE
  5
2ff
  100
AcDbEntity
  8
1
  100
AcDbLine
  10
0.2
  20
2.401775
  30
0
  11
0.1
  21
2.454571
  31
0
  0
LINE
  5
300
  100
AcDbEntity
  8
1
  100
AcDbLine
  10
0.1
  20
2.454571
  30
0
  11
0
  21
2.507139
  31
0
  0
LINE
  5
301
  100
AcDbEntity
  8
1
  100
AcDbLine
  10
0
  20
6
  30
0
  11
0
  21
-6
  31
0
  0
LINE
  5
302
  100
AcDbEntity
  8
1
  100
AcDbLine
  10
0
  20
-6
  30
0
  11
0
  21
6
  31
0
  0
LINE
  5
303
  100
AcDbEntity
  8
SK1
  100
AcDbLine
  10
0
  20
6
  30
0
  11
-39.5
  21
6
  31
0
  0
LINE
  5
304
  100
AcDbEntity
  8
SK1
  100
AcDbLine
  10
-39.5
  20
6
  30
0
  11
-40
  21
5.5
  31
0
  0
LINE
  5
305
  100
AcDbEntity
  8
SK1
  100
AcDbLine
  10
-40
  20
5.5
  30
0
  11
-40
  21
-5.5
  31
0
  0
LINE
  5
306
  100
AcDbEntity
  8
SK1
  100
AcDbLine
  10
-40
  20
-5.5
  30
0
  11
-39.5
  21
-6
  31
0
  0
LINE
  5
307
  100
AcDbEntity
  8
SK1
  100
AcDbLine
  10
-39.5
  20
-6
  30
0
  11
0
  21
-6
  31
0
  0
LINE
  5
308
  100
AcDbEntity
  8
SK1
  100
AcDbLine
  10
0
  20
-6
  30
0
  11
0
  21
6
  31
0
  0
LINE
  5
309
  100
AcDbEntity
  8
SK1
  100
AcDbLine
  10
-39.5
  20
-6
  30
0
  11
-39.5
  21
6
  31
0
  0
LINE
  5
30a
  100
AcDbEntity
  8
SK1
  100
AcDbLine
  10
-5.602404
  20
6
  30
0
  11
-5.6
  21
5.99999
  31
0
  0
LINE
  5
30b
  100
AcDbEntity
  8
SK1
  100
AcDbLine
  10
-5.6
  20
5.99999
  30
0
  11
-5.5
  21
5.984087
  31
0
  0
LINE
  5
30c
  100
AcDbEntity
  8
SK1
  100
AcDbLine
  10
-5.5
  20
5.984087
  30
0
  11
-5.4
  21
5.94253
  31
0
  0
LINE
  5
30d
  100
AcDbEntity
  8
SK1
  100
AcDbLine
  10
-5.4
  20
5.94253
  30
0
  11
-5.3
  21
5.881313
  31
0
  0
LINE
  5
30e
  100
AcDbEntity
  8
SK1
  100
AcDbLine
  10
-5.3
  20
5.881313
  30
0
  11
-5.2
  21
5.805454
  31
0
  0
LINE
  5
30f
  100
AcDbEntity
  8
SK1
  100
AcDbLine
  10
-5.2
  20
5.805454
  30
0
  11
-5.1
  21
5.719103
  31
0
  0
LINE
  5
310
  100
AcDbEntity
  8
SK1
  100
AcDbLine
  10
-5.1
  20
5.719103
  30
0
  11
-5
  21
5.625649
  31
0
  0
LINE
  5
311
  100
AcDbEntity
  8
SK1
  100
AcDbLine
  10
-5
  20
5.625649
  30
0
  11
-4.9
  21
5.527821
  31
0
  0
LINE
  5
312
  100
AcDbEntity
  8
SK1
  100
AcDbLine
  10
-4.9
  20
5.527821
  30
0
  11
-4.8
  21
5.427786
  31
0
  0
LINE
  5
313
  100
AcDbEntity
  8
SK1
  100
AcDbLine
  10
-4.8
  20
5.427786
  30
0
  11
-4.7
  21
5.327238
  31
0
  0
LINE
  5
314
  100
AcDbEntity
  8
SK1
  100
AcDbLine
  10
-4.7
  20
5.327238
  30
0
  11
-4.6
  21
5.227473
  31
0
  0
LINE
  5
315
  100
AcDbEntity
  8
SK1
  100
AcDbLine
  10
-4.6
  20
5.227473
  30
0
  11
-4.5
  21
5.129459
  31
0
  0
LINE
  5
316
  100
AcDbEntity
  8
SK1
  100
AcDbLine
  10
-4.5
  20
5.129459
  30
0
  11
-4.4
  21
5.033894
  31
0
  0
LINE
  5
317
  100
AcDbEntity
  8
SK1
  100
AcDbLine
  10
-4.4
  20
5.033894
  30
0
  11
-4.3
  21
4.941258
  31
0
  0
LINE
  5
318
  100
AcDbEntity
  8
SK1
  100
AcDbLine
  10
-4.3
  20
4.941258
  30
0
  11
-4.2
  21
4.851853
  31
0
  0
LINE
  5
319
  100
AcDbEntity
  8
SK1
  100
AcDbLine
  10
-4.2
  20
4.851853
  30
0
  11
-4.1
  21
4.765843
  31
0
  0
LINE
  5
31a
  100
AcDbEntity
  8
SK1
  100
AcDbLine
  10
-4.1
  20
4.765843
  30
0
  11
-4
  21
4.683278
  31
0
  0
LINE
  5
31b
  100
AcDbEntity
  8
SK1
  100
AcDbLine
  10
-4
  20
4.683278
  30
0
  11
-3.9
  21
4.604127
  31
0
  0
LINE
  5
31c
  100
AcDbEntity
  8
SK1
  100
AcDbLine
  10
-3.9
  20
4.604127
  30
0
  11
-3.8
  21
4.52829
  31
0
  0
LINE
  5
31d
  100
AcDbEntity
  8
SK1
  100
AcDbLine
  10
-3.8
  20
4.52829
  30
0
  11
-3.7
  21
4.455624
  31
0
  0
LINE
  5
31e
  100
AcDbEntity
  8
SK1
  100
AcDbLine
  10
-3.7
  20
4.455624
  30
0
  11
-3.6
  21
4.385947
  31
0
  0
LINE
  5
31f
  100
AcDbEntity
  8
SK1
  100
AcDbLine
  10
-3.6
  20
4.385947
  30
0
  11
-3.5
  21
4.319058
  31
0
  0
LINE
  5
320
  100
AcDbEntity
  8
SK1
  100
AcDbLine
  10
-3.5
  20
4.319058
  30
0
  11
-3.4
  21
4.254739
  31
0
  0
LINE
  5
321
  100
AcDbEntity
  8
SK1
  100
AcDbLine
  10
-3.4
  20
4.254739
  30
0
  11
-3.3
  21
4.192767
  31
0
  0
LINE
  5
322
  100
AcDbEntity
  8
SK1
  100
AcDbLine
  10
-3.3
  20
4.192767
  30
0
  11
-3.2
  21
4.132918
  31
0
  0
LINE
  5
323
  100
AcDbEntity
  8
SK1
  100
AcDbLine
  10
-3.2
  20
4.132918
  30
0
  11
-3.1
  21
4.07497
  31
0
  0
LINE
  5
324
  100
AcDbEntity
  8
SK1
  100
AcDbLine
  10
-3.1
  20
4.07497
  30
0
  11
-3
  21
4.018708
  31
0
  0
LINE
  5
325
  100
AcDbEntity
  8
SK1
  100
AcDbLine
  10
-3
  20
4.018708
  30
0
  11
-2.9
  21
3.963927
  31
0
  0
LINE
  5
326
  100
AcDbEntity
  8
SK1
  100
AcDbLine
  10
-2.9
  20
3.963927
  30
0
  11
-2.8
  21
3.910431
  31
0
  0
LINE
  5
327
  100
AcDbEntity
  8
SK1
  100
AcDbLine
  10
-2.8
  20
3.910431
  30
0
  11
-2.7
  21
3.858037
  31
0
  0
LINE
  5
328
  100
AcDbEntity
  8
SK1
  100
AcDbLine
  10
-2.7
  20
3.858037
  30
0
  11
-2.6
  21
3.806575
  31
0
  0
LINE
  5
329
  100
AcDbEntity
  8
SK1
  100
AcDbLine
  10
-2.6
  20
3.806575
  30
0
  11
-2.5
  21
3.755887
  31
0
  0
LINE
  5
32a
  100
AcDbEntity
  8
SK1
  100
AcDbLine
  10
-2.5
  20
3.755887
  30
0
  11
-2.4
  21
3.705831
  31
0
  0
LINE
  5
32b
  100
AcDbEntity
  8
SK1
  100
AcDbLine
  10
-2.4
  20
3.705831
  30
0
  11
-2.3
  21
3.656276
  31
0
  0
LINE
  5
32c
  100
AcDbEntity
  8
SK1
  100
AcDbLine
  10
-2.3
  20
3.656276
  30
0
  11
-2.2
  21
3.607104
  31
0
  0
LINE
  5
32d
  100
AcDbEntity
  8
SK1
  100
AcDbLine
  10
-2.2
  20
3.607104
  30
0
  11
-2.1
  21
3.55821
  31
0
  0
LINE
  5
32e
  100
AcDbEntity
  8
SK1
  100
AcDbLine
  10
-2.1
  20
3.55821
  30
0
  11
-2
  21
3.509503
  31
0
  0
LINE
  5
32f
  100
AcDbEntity
  8
SK1
  100
AcDbLine
  10
-2
  20
3.509503
  30
0
  11
-1.9
  21
3.460899
  31
0
  0
LINE
  5
330
  100
AcDbEntity
  8
SK1
  100
AcDbLine
  10
-1.9
  20
3.460899
  30
0
  11
-1.8
  21
3.412328
  31
0
  0
LINE
  5
331
  100
AcDbEntity
  8
SK1
  100
AcDbLine
  10
-1.8
  20
3.412328
  30
0
  11
-1.7
  21
3.363729
  31
0
  0
LINE
  5
332
  100
AcDbEntity
  8
SK1
  100
AcDbLine
  10
-1.7
  20
3.363729
  30
0
  11
-1.6
  21
3.31505
  31
0
  0
LINE
  5
333
  100
AcDbEntity
  8
SK1
  100
AcDbLine
  10
-1.6
  20
3.31505
  30
0
  11
-1.5
  21
3.266248
  31
0
  0
LINE
  5
334
  100
AcDbEntity
  8
SK1
  100
AcDbLine
  10
-1.5
  20
3.266248
  30
0
  11
-1.4
  21
3.217287
  31
0
  0
LINE
  5
335
  100
AcDbEntity
  8
SK1
  100
AcDbLine
  10
-1.4
  20
3.217287
  30
0
  11
-1.3
  21
3.168139
  31
0
  0
LINE
  5
336
  100
AcDbEntity
  8
SK1
  100
AcDbLine
  10
-1.3
  20
3.168139
  30
0
  11
-1.2
  21
3.118779
  31
0
  0
LINE
  5
337
  100
AcDbEntity
  8
SK1
  100
AcDbLine
  10
-1.2
  20
3.118779
  30
0
  11
-1.1
  21
3.069191
  31
0
  0
LINE
  5
338
  100
AcDbEntity
  8
SK1
  100
AcDbLine
  10
-1.1
  20
3.069191
  30
0
  11
-1
  21
3.019363
  31
0
  0
LINE
  5
339
  100
AcDbEntity
  8
SK1
  100
AcDbLine
  10
-1
  20
3.019363
  30
0
  11
-0.9
  21
2.969284
  31
0
  0
LINE
  5
33a
  100
AcDbEntity
  8
SK1
  100
AcDbLine
  10
-0.9
  20
2.969284
  30
0
  11
-0.8
  21
2.918951
  31
0
  0
LINE
  5
33b
  100
AcDbEntity
  8
SK1
  100
AcDbLine
  10
-0.8
  20
2.918951
  30
0
  11
-0.7
  21
2.868359
  31
0
  0
LINE
  5
33c
  100
AcDbEntity
  8
SK1
  100
AcDbLine
  10
-0.7
  20
2.868359
  30
0
  11
-0.6
  21
2.81751
  31
0
  0
LINE
  5
33d
  100
AcDbEntity
  8
SK1
  100
AcDbLine
  10
-0.6
  20
2.81751
  30
0
  11
-0.5
  21
2.766403
  31
0
  0
LINE
  5
33e
  100
AcDbEntity
  8
SK1
  100
AcDbLine
  10
-0.5
  20
2.766403
  30
0
  11
-0.4
  21
2.715043
  31
0
  0
LINE
  5
33f
  100
AcDbEntity
  8
SK1
  100
AcDbLine
  10
-0.4
  20
2.715043
  30
0
  11
-0.3
  21
2.663432
  31
0
  0
LINE
  5
340
  100
AcDbEntity
  8
SK1
  100
AcDbLine
  10
-0.3
  20
2.663432
  30
0
  11
-0.2
  21
2.611574
  31
0
  0
LINE
  5
341
  100
AcDbEntity
  8
SK1
  100
AcDbLine
  10
-0.2
  20
2.611574
  30
0
  11
-0.1
  21
2.559475
  31
0
  0
LINE
  5
342
  100
AcDbEntity
  8
SK1
  100
AcDbLine
  10
-0.1
  20
2.559475
  30
0
  11
0
  21
2.507139
  31
0
  0
LINE
  5
343
  100
AcDbEntity
  8
SK1
  100
AcDbLine
  10
0
  20
-0.762457
  30
0
  11
-0.1
  21
-0.705155
  31
0
  0
LINE
  5
344
  100
AcDbEntity
  8
SK1
  100
AcDbLine
  10
-0.1
  20
-0.705155
  30
0
  11
-0.2
  21
-0.647789
  31
0
  0
LINE
  5
345
  100
AcDbEntity
  8
SK1
  100
AcDbLine
  10
-0.2
  20
-0.647789
  30
0
  11
-0.3
  21
-0.590362
  31
0
  0
LINE
  5
346
  100
AcDbEntity
  8
SK1
  100
AcDbLine
  10
-0.3
  20
-0.590362
  30
0
  11
-0.4
  21
-0.532881
  31
0
  0
LINE
  5
347
  100
AcDbEntity
  8
SK1
  100
AcDbLine
  10
-0.4
  20
-0.532881
  30
0
  11
-0.5
  21
-0.47535
  31
0
  0
LINE
  5
348
  100
AcDbEntity
  8
SK1
  100
AcDbLine
  10
-0.5
  20
-0.47535
  30
0
  11
-0.6
  21
-0.417775
  31
0
  0
LINE
  5
349
  100
AcDbEntity
  8
SK1
  100
AcDbLine
  10
-0.6
  20
-0.417775
  30
0
  11
-0.7
  21
-0.360162
  31
0
  0
LINE
  5
34a
  100
AcDbEntity
  8
SK1
  100
AcDbLine
  10
-0.7
  20
-0.360162
  30
0
  11
-0.8
  21
-0.302515
  31
0
  0
LINE
  5
34b
  100
AcDbEntity
  8
SK1
  100
AcDbLine
  10
-0.8
  20
-0.302515
  30
0
  11
-0.9
  21
-0.244841
  31
0
  0
LINE
  5
34c
  100
AcDbEntity
  8
SK1
  100
AcDbLine
  10
-0.9
  20
-0.244841
  30
0
  11
-1
  21
-0.187143
  31
0
  0
LINE
  5
34d
  100
AcDbEntity
  8
SK1
  100
AcDbLine
  10
-1
  20
-0.187143
  30
0
  11
-1.1
  21
-0.129429
  31
0
  0
LINE
  5
34e
  100
AcDbEntity
  8
SK1
  100
AcDbLine
  10
-1.1
  20
-0.129429
  30
0
  11
-1.2
  21
-0.071702
  31
0
  0
LINE
  5
34f
  100
AcDbEntity
  8
SK1
  100
AcDbLine
  10
-1.2
  20
-0.071702
  30
0
  11
-1.3
  21
-0.013969
  31
0
  0
LINE
  5
350
  100
AcDbEntity
  8
SK1
  100
AcDbLine
  10
-1.3
  20
-0.013969
  30
0
  11
-1.4
  21
0.043766
  31
0
  0
LINE
  5
351
  100
AcDbEntity
  8
SK1
  100
AcDbLine
  10
-1.4
  20
0.043766
  30
0
  11
-1.5
  21
0.101496
  31
0
  0
LINE
  5
352
  100
AcDbEntity
  8
SK1
  100
AcDbLine
  10
-1.5
  20
0.101496
  30
0
  11
-1.6
  21
0.159217
  31
0
  0
LINE
  5
353
  100
AcDbEntity
  8
SK1
  100
AcDbLine
  10
-1.6
  20
0.159217
  30
0
  11
-1.7
  21
0.216923
  31
0
  0
LINE
  5
354
  100
AcDbEntity
  8
SK1
  100
AcDbLine
  10
-1.7
  20
0.216923
  30
0
  11
-1.8
  21
0.274609
  31
0
  0
LINE
  5
355
  100
AcDbEntity
  8
SK1
  100
AcDbLine
  10
-1.8
  20
0.274609
  30
0
  11
-1.9
  21
0.332268
  31
0
  0
LINE
  5
356
  100
AcDbEntity
  8
SK1
  100
AcDbLine
  10
-1.9
  20
0.332268
  30
0
  11
-2
  21
0.389895
  31
0
  0
LINE
  5
357
  100
AcDbEntity
  8
SK1
  100
AcDbLine
  10
-2
  20
0.389895
  30
0
  11
-2.1
  21
0.447484
  31
0
  0
LINE
  5
358
  100
AcDbEntity
  8
SK1
  100
AcDbLine
  10
-2.1
  20
0.447484
  30
0
  11
-2.2
  21
0.505027
  31
0
  0
LINE
  5
359
  100
AcDbEntity
  8
SK1
  100
AcDbLine
  10
-2.2
  20
0.505027
  30
0
  11
-2.3
  21
0.562518
  31
0
  0
LINE
  5
35a
  100
AcDbEntity
  8
SK1
  100
AcDbLine
  10
-2.3
  20
0.562518
  30
0
  11
-2.4
  21
0.619948
  31
0
  0
LINE
  5
35b
  100
AcDbEntity
  8
SK1
  100
AcDbLine
  10
-2.4
  20
0.619948
  30
0
  11
-2.5
  21
0.677307
  31
0
  0
LINE
  5
35c
  100
AcDbEntity
  8
SK1
  100
AcDbLine
  10
-2.5
  20
0.677307
  30
0
  11
-2.6
  21
0.734582
  31
0
  0
LINE
  5
35d
  100
AcDbEntity
  8
SK1
  100
AcDbLine
  10
-2.6
  20
0.734582
  30
0
  11
-2.7
  21
0.791758
  31
0
  0
LINE
  5
35e
  100
AcDbEntity
  8
SK1
  100
AcDbLine
  10
-2.7
  20
0.791758
  30
0
  11
-2.8
  21
0.848816
  31
0
  0
LINE
  5
35f
  100
AcDbEntity
  8
SK1
  100
AcDbLine
  10
-2.8
  20
0.848816
  30
0
  11
-2.9
  21
0.905732
  31
0
  0
LINE
  5
360
  100
AcDbEntity
  8
SK1
  100
AcDbLine
  10
-2.9
  20
0.905732
  30
0
  11
-3
  21
0.962473
  31
0
  0
LINE
  5
361
  100
AcDbEntity
  8
SK1
  100
AcDbLine
  10
-3
  20
0.962473
  30
0
  11
-3.1
  21
1.018998
  31
0
  0
LINE
  5
362
  100
AcDbEntity
  8
SK1
  100
AcDbLine
  10
-3.1
  20
1.018998
  30
0
  11
-3.2
  21
1.075253
  31
0
  0
LINE
  5
363
  100
AcDbEntity
  8
SK1
  100
AcDbLine
  10
-3.2
  20
1.075253
  30
0
  11
-3.3
  21
1.131168
  31
0
  0
LINE
  5
364
  100
AcDbEntity
  8
SK1
  100
AcDbLine
  10
-3.3
  20
1.131168
  30
0
  11
-3.4
  21
1.186651
  31
0
  0
LINE
  5
365
  100
AcDbEntity
  8
SK1
  100
AcDbLine
  10
-3.4
  20
1.186651
  30
0
  11
-3.5
  21
1.241587
  31
0
  0
LINE
  5
366
  100
AcDbEntity
  8
SK1
  100
AcDbLine
  10
-3.5
  20
1.241587
  30
0
  11
-3.6
  21
1.295823
  31
0
  0
LINE
  5
367
  100
AcDbEntity
  8
SK1
  100
AcDbLine
  10
-3.6
  20
1.295823
  30
0
  11
-3.7
  21
1.349167
  31
0
  0
LINE
  5
368
  100
AcDbEntity
  8
SK1
  100
AcDbLine
  10
-3.7
  20
1.349167
  30
0
  11
-3.8
  21
1.401375
  31
0
  0
LINE
  5
369
  100
AcDbEntity
  8
SK1
  100
AcDbLine
  10
-3.8
  20
1.401375
  30
0
  11
-3.9
  21
1.452136
  31
0
  0
LINE
  5
36a
  100
AcDbEntity
  8
SK1
  100
AcDbLine
  10
-3.9
  20
1.452136
  30
0
  11
-4
  21
1.501061
  31
0
  0
LINE
  5
36b
  100
AcDbEntity
  8
SK1
  100
AcDbLine
  10
-4
  20
1.501061
  30
0
  11
-4.1
  21
1.547661
  31
0
  0
LINE
  5
36c
  100
AcDbEntity
  8
SK1
  100
AcDbLine
  10
-4.1
  20
1.547661
  30
0
  11
-4.2
  21
1.591329
  31
0
  0
LINE
  5
36d
  100
AcDbEntity
  8
SK1
  100
AcDbLine
  10
-4.2
  20
1.591329
  30
0
  11
-4.3
  21
1.631309
  31
0
  0
LINE
  5
36e
  100
AcDbEntity
  8
SK1
  100
AcDbLine
  10
-4.3
  20
1.631309
  30
0
  11
-4.4
  21
1.666669
  31
0
  0
LINE
  5
36f
  100
AcDbEntity
  8
SK1
  100
AcDbLine
  10
-4.4
  20
1.666669
  30
0
  11
-4.5
  21
1.696259
  31
0
  0
LINE
  5
370
  100
AcDbEntity
  8
SK1
  100
AcDbLine
  10
-4.5
  20
1.696259
  30
0
  11
-4.6
  21
1.718669
  31
0
  0
LINE
  5
371
  100
AcDbEntity
  8
SK1
  100
AcDbLine
  10
-4.6
  20
1.718669
  30
0
  11
-4.7
  21
1.732173
  31
0
  0
LINE
  5
372
  100
AcDbEntity
  8
SK1
  100
AcDbLine
  10
-4.7
  20
1.732173
  30
0
  11
-4.8
  21
1.734659
  31
0
  0
LINE
  5
373
  100
AcDbEntity
  8
SK1
  100
AcDbLine
  10
-4.8
  20
1.734659
  30
0
  11
-4.9
  21
1.723552
  31
0
  0
LINE
  5
374
  100
AcDbEntity
  8
SK1
  100
AcDbLine
  10
-4.9
  20
1.723552
  30
0
  11
-5
  21
1.695713
  31
0
  0
LINE
  5
375
  100
AcDbEntity
  8
SK1
  100
AcDbLine
  10
-5
  20
1.695713
  30
0
  11
-5.1
  21
1.647317
  31
0
  0
LINE
  5
376
  100
AcDbEntity
  8
SK1
  100
AcDbLine
  10
-5.1
  20
1.647317
  30
0
  11
-5.2
  21
1.573713
  31
0
  0
LINE
  5
377
  100
AcDbEntity
  8
SK1
  100
AcDbLine
  10
-5.2
  20
1.573713
  30
0
  11
-5.3
  21
1.469244
  31
0
  0
LINE
  5
378
  100
AcDbEntity
  8
SK1
  100
AcDbLine
  10
-5.3
  20
1.469244
  30
0
  11
-5.4
  21
1.327056
  31
0
  0
LINE
  5
379
  100
AcDbEntity
  8
SK1
  100
AcDbLine
  10
-5.4
  20
1.327056
  30
0
  11
-5.5
  21
1.138884
  31
0
  0
LINE
  5
37a
  100
AcDbEntity
  8
SK1
  100
AcDbLine
  10
-5.5
  20
1.138884
  30
0
  11
-5.6
  21
0.894861
  31
0
  0
LINE
  5
37b
  100
AcDbEntity
  8
SK1
  100
AcDbLine
  10
-5.6
  20
0.894861
  30
0
  11
-5.7
  21
0.583405
  31
0
  0
LINE
  5
37c
  100
AcDbEntity
  8
SK1
  100
AcDbLine
  10
-5.7
  20
0.583405
  30
0
  11
-5.8
  21
0.191328
  31
0
  0
LINE
  5
37d
  100
AcDbEntity
  8
SK1
  100
AcDbLine
  10
-5.8
  20
0.191328
  30
0
  11
-5.9
  21
-0.295586
  31
0
  0
LINE
  5
37e
  100
AcDbEntity
  8
SK1
  100
AcDbLine
  10
-5.9
  20
-0.295586
  30
0
  11
-6
  21
-0.891096
  31
0
  0
LINE
  5
37f
  100
AcDbEntity
  8
SK1
  100
AcDbLine
  10
-6
  20
-0.891096
  30
0
  11
-6
  21
-1.072909
  31
0
  0
LINE
  5
380
  100
AcDbEntity
  8
SK1
  100
AcDbLine
  10
-6
  20
-1.072909
  30
0
  11
-5.9
  21
-1.636974
  31
0
  0
LINE
  5
381
  100
AcDbEntity
  8
SK1
  100
AcDbLine
  10
-5.9
  20
-1.636974
  30
0
  11
-5.8
  21
-2.146274
  31
0
  0
LINE
  5
382
  100
AcDbEntity
  8
SK1
  100
AcDbLine
  10
-5.8
  20
-2.146274
  30
0
  11
-5.7
  21
-2.602799
  31
0
  0
LINE
  5
383
  100
AcDbEntity
  8
SK1
  100
AcDbLine
  10
-5.7
  20
-2.602799
  30
0
  11
-5.6
  21
-3.009573
  31
0
  0
LINE
  5
384
  100
AcDbEntity
  8
SK1
  100
AcDbLine
  10
-5.6
  20
-3.009573
  30
0
  11
-5.5
  21
-3.370235
  31
0
  0
LINE
  5
385
  100
AcDbEntity
  8
SK1
  100
AcDbLine
  10
-5.5
  20
-3.370235
  30
0
  11
-5.4
  21
-3.688726
  31
0
  0
LINE
  5
386
  100
AcDbEntity
  8
SK1
  100
AcDbLine
  10
-5.4
  20
-3.688726
  30
0
  11
-5.3
  21
-3.969062
  31
0
  0
LINE
  5
387
  100
AcDbEntity
  8
SK1
  100
AcDbLine
  10
-5.3
  20
-3.969062
  30
0
  11
-5.2
  21
-4.215178
  31
0
  0
LINE
  5
388
  100
AcDbEntity
  8
SK1
  100
AcDbLine
  10
-5.2
  20
-4.215178
  30
0
  11
-5.1
  21
-4.430823
  31
0
  0
LINE
  5
389
  100
AcDbEntity
  8
SK1
  100
AcDbLine
  10
-5.1
  20
-4.430823
  30
0
  11
-5
  21
-4.619494
  31
0
  0
LINE
  5
38a
  100
AcDbEntity
  8
SK1
  100
AcDbLine
  10
-5
  20
-4.619494
  30
0
  11
-4.9
  21
-4.784405
  31
0
  0
LINE
  5
38b
  100
AcDbEntity
  8
SK1
  100
AcDbLine
  10
-4.9
  20
-4.784405
  30
0
  11
-4.8
  21
-4.92847
  31
0
  0
LINE
  5
38c
  100
AcDbEntity
  8
SK1
  100
AcDbLine
  10
-4.8
  20
-4.92847
  30
0
  11
-4.7
  21
-5.054309
  31
0
  0
LINE
  5
38d
  100
AcDbEntity
  8
SK1
  100
AcDbLine
  10
-4.7
  20
-5.054309
  30
0
  11
-4.6
  21
-5.164255
  31
0
  0
LINE
  5
38e
  100
AcDbEntity
  8
SK1
  100
AcDbLine
  10
-4.6
  20
-5.164255
  30
0
  11
-4.5
  21
-5.260372
  31
0
  0
LINE
  5
38f
  100
AcDbEntity
  8
SK1
  100
AcDbLine
  10
-4.5
  20
-5.260372
  30
0
  11
-4.4
  21
-5.344478
  31
0
  0
LINE
  5
390
  100
AcDbEntity
  8
SK1
  100
AcDbLine
  10
-4.4
  20
-5.344478
  30
0
  11
-4.3
  21
-5.418166
  31
0
  0
LINE
  5
391
  100
AcDbEntity
  8
SK1
  100
AcDbLine
  10
-4.3
  20
-5.418166
  30
0
  11
-4.2
  21
-5.482827
  31
0
  0
LINE
  5
392
  100
AcDbEntity
  8
SK1
  100
AcDbLine
  10
-4.2
  20
-5.482827
  30
0
  11
-4.1
  21
-5.539669
  31
0
  0
LINE
  5
393
  100
AcDbEntity
  8
SK1
  100
AcDbLine
  10
-4.1
  20
-5.539669
  30
0
  11
-4
  21
-5.589743
  31
0
  0
LINE
  5
394
  100
AcDbEntity
  8
SK1
  100
AcDbLine
  10
-4
  20
-5.589743
  30
0
  11
-3.9
  21
-5.633957
  31
0
  0
LINE
  5
395
  100
AcDbEntity
  8
SK1
  100
AcDbLine
  10
-3.9
  20
-5.633957
  30
0
  11
-3.8
  21
-5.673095
  31
0
  0
LINE
  5
396
  100
AcDbEntity
  8
SK1
  100
AcDbLine
  10
-3.8
  20
-5.673095
  30
0
  11
-3.7
  21
-5.707835
  31
0
  0
LINE
  5
397
  100
AcDbEntity
  8
SK1
  100
AcDbLine
  10
-3.7
  20
-5.707835
  30
0
  11
-3.6
  21
-5.73876
  31
0
  0
LINE
  5
398
  100
AcDbEntity
  8
SK1
  100
AcDbLine
  10
-3.6
  20
-5.73876
  30
0
  11
-3.5
  21
-5.76637
  31
0
  0
LINE
  5
399
  100
AcDbEntity
  8
SK1
  100
AcDbLine
  10
-3.5
  20
-5.76637
  30
0
  11
-3.4
  21
-5.791097
  31
0
  0
LINE
  5
39a
  100
AcDbEntity
  8
SK1
  100
AcDbLine
  10
-3.4
  20
-5.791097
  30
0
  11
-3.3
  21
-5.813308
  31
0
  0
LINE
  5
39b
  100
AcDbEntity
  8
SK1
  100
AcDbLine
  10
-3.3
  20
-5.813308
  30
0
  11
-3.2
  21
-5.83332
  31
0
  0
LINE
  5
39c
  100
AcDbEntity
  8
SK1
  100
AcDbLine
  10
-3.2
  20
-5.83332
  30
0
  11
-3.1
  21
-5.851402
  31
0
  0
LINE
  5
39d
  100
AcDbEntity
  8
SK1
  100
AcDbLine
  10
-3.1
  20
-5.851402
  30
0
  11
-3
  21
-5.867785
  31
0
  0
LINE
  5
39e
  100
AcDbEntity
  8
SK1
  100
AcDbLine
  10
-3
  20
-5.867785
  30
0
  11
-2.9
  21
-5.882664
  31
0
  0
LINE
  5
39f
  100
AcDbEntity
  8
SK1
  100
AcDbLine
  10
-2.9
  20
-5.882664
  30
0
  11
-2.8
  21
-5.896205
  31
0
  0
LINE
  5
3a0
  100
AcDbEntity
  8
SK1
  100
AcDbLine
  10
-2.8
  20
-5.896205
  30
0
  11
-2.7
  21
-5.908549
  31
0
  0
LINE
  5
3a1
  100
AcDbEntity
  8
SK1
  100
AcDbLine
  10
-2.7
  20
-5.908549
  30
0
  11
-2.6
  21
-5.919815
  31
0
  0
LINE
  5
3a2
  100
AcDbEntity
  8
SK1
  100
AcDbLine
  10
-2.6
  20
-5.919815
  30
0
  11
-2.5
  21
-5.930101
  31
0
  0
LINE
  5
3a3
  100
AcDbEntity
  8
SK1
  100
AcDbLine
  10
-2.5
  20
-5.930101
  30
0
  11
-2.4
  21
-5.939493
  31
0
  0
LINE
  5
3a4
  100
AcDbEntity
  8
SK1
  100
AcDbLine
  10
-2.4
  20
-5.939493
  30
0
  11
-2.3
  21
-5.948057
  31
0
  0
LINE
  5
3a5
  100
AcDbEntity
  8
SK1
  100
AcDbLine
  10
-2.3
  20
-5.948057
  30
0
  11
-2.2
  21
-5.955853
  31
0
  0
LINE
  5
3a6
  100
AcDbEntity
  8
SK1
  100
AcDbLine
  10
-2.2
  20
-5.955853
  30
0
  11
-2.1
  21
-5.962926
  31
0
  0
LINE
  5
3a7
  100
AcDbEntity
  8
SK1
  100
AcDbLine
  10
-2.1
  20
-5.962926
  30
0
  11
-2
  21
-5.969315
  31
0
  0
LINE
  5
3a8
  100
AcDbEntity
  8
SK1
  100
AcDbLine
  10
-2
  20
-5.969315
  30
0
  11
-1.9
  21
-5.97505
  31
0
  0
LINE
  5
3a9
  100
AcDbEntity
  8
SK1
  100
AcDbLine
  10
-1.9
  20
-5.97505
  30
0
  11
-1.8
  21
-5.980157
  31
0
  0
LINE
  5
3aa
  100
AcDbEntity
  8
SK1
  100
AcDbLine
  10
-1.8
  20
-5.980157
  30
0
  11
-1.7
  21
-5.984654
  31
0
  0
LINE
  5
3ab
  100
AcDbEntity
  8
SK1
  100
AcDbLine
  10
-1.7
  20
-5.984654
  30
0
  11
-1.6
  21
-5.988556
  31
0
  0
LINE
  5
3ac
  100
AcDbEntity
  8
SK1
  100
AcDbLine
  10
-1.6
  20
-5.988556
  30
0
  11
-1.5
  21
-5.991876
  31
0
  0
LINE
  5
3ad
  100
AcDbEntity
  8
SK1
  100
AcDbLine
  10
-1.5
  20
-5.991876
  30
0
  11
-1.4
  21
-5.994621
  31
0
  0
LINE
  5
3ae
  100
AcDbEntity
  8
SK1
  100
AcDbLine
  10
-1.4
  20
-5.994621
  30
0
  11
-1.3
  21
-5.996798
  31
0
  0
LINE
  5
3af
  100
AcDbEntity
  8
SK1
  100
AcDbLine
  10
-1.3
  20
-5.996798
  30
0
  11
-1.2
  21
-5.998411
  31
0
  0
LINE
  5
3b0
  100
AcDbEntity
  8
SK1
  100
AcDbLine
  10
-1.2
  20
-5.998411
  30
0
  11
-1.1
  21
-5.999464
  31
0
  0
LINE
  5
3b1
  100
AcDbEntity
  8
SK1
  100
AcDbLine
  10
-1.1
  20
-5.999464
  30
0
  11
-1
  21
-5.999958
  31
0
  0
LINE
  5
3b2
  100
AcDbEntity
  8
SK1
  100
AcDbLine
  10
-1
  20
-5.999958
  30
0
  11
-0.961269
  21
-6
  31
0
  0
LINE
  5
3b3
  100
AcDbEntity
  8
SK1
  100
AcDbLine
  10
0
  20
-6
  30
0
  11
0
  21
6
  31
0
  0
LINE
  5
3b4
  100
AcDbEntity
  8
SK1
  100
AcDbLine
  10
0
  20
6
  30
0
  11
0
  21
-6
  31
0
  0
LINE
  5
3ed
  100
AcDbEntity
  8
CUT
  100
AcDbLine
  10
15
  20
0
  30
0
  11
15
  21
6
  31
0
  0
LINE
  5
3ee
  100
AcDbEntity
  8
CUT
  100
AcDbLine
  10
15
  20
6
  30
0
  11
0
  21
6
  31
0
  0
LINE
  5
3ef
  100
AcDbEntity
  8
CUT
  100
AcDbLine
  10
0
  20
6
  30
0
  11
0
  21
0
  31
0
  0
LINE
  5
3f0
  100
AcDbEntity
  8
CUT
  100
AcDbLine
  10
0
  20
0
  30
0
  11
15
  21
0
  31
0
  0
LINE
  5
3f1
  100
AcDbEntity
  8
4
  100
AcDbLine
  10
0
  20
0
  30
0
  11
15
  21
0
  31
0
  0
LINE
  5
3f2
  100
AcDbEntity
  8
INFTOTAL
  100
AcDbLine
  10
-53.446575
  20
9.7
  30
0
  11
27.953425
  21
9.7
  31
0
  0
LINE
  5
3f3
  100
AcDbEntity
  8
INFTOTAL
  100
AcDbLine
  10
27.953425
  20
9.7
  30
0
  11
27.953425
  21
-30.7
  31
0
  0
LINE
  5
3f4
  100
AcDbEntity
  8
INFTOTAL
  100
AcDbLine
  10
27.953425
  20
-30.7
  30
0
  11
-53.446575
  21
-30.7
  31
0
  0
LINE
  5
3f5
  100
AcDbEntity
  8
INFTOTAL
  100
AcDbLine
  10
-53.446575
  20
-30.7
  30
0
  11
-53.446575
  21
9.7
  31
0
  0
ENDSEC
  0
SECTION
  2
OBJECTS
  0
DICTIONARY
  5
3f6
  330
0
100
AcDbDictionary
281
    1
  3
ACAD_GROUP
  350
3f7
  0
DICTIONARY
  5
3f7
102
{ACAD_REACTORS
  330
3f6
102
}
  330
3f6
100
AcDbDictionary
281
    1
  0
ENDSEC
  0
EOF
