  0
SECTION
  2
HEADER
  9
$ACADVER
  1
AC1015
  9
$DWGCODEPAGE
  3
ansi_1252
  9
$HANDSEED
  5
106AB90
  0
ENDSEC
  0
SECTION
  2
TABLES
  0
TABLE
  2
VPORT
  5
2
  330
0
  100
AcDbSymbolTable
  70
    0
  0
ENDTAB
  0
TABLE
  2
LTYPE
  5
3
  330
0
  100
AcDbSymbolTable
  70
    4
  0
LTYPE
  5
4
  330
3
  100
AcDbSymbolTableRecord
  100
AcDbLinetypeTableRecord
  2
ByBlock
  70
    0
  3

  72
65
  73
    0
  40
0
  0
LTYPE
  5
5
  330
3
  100
AcDbSymbolTableRecord
  100
AcDbLinetypeTableRecord
  2
ByLayer
  70
    0
  3

  72
65
  73
    0
  40
0
  0
LTYPE
  5
6
  330
3
  100
AcDbSymbolTableRecord
  100
AcDbLinetypeTableRecord
  2
CONTINUOUS
  70
    0
  3
Solid Line
  72
65
  73
    0
  40
0
  0
LTYPE
  5
7
  330
3
  100
AcDbSymbolTableRecord
  100
AcDbLinetypeTableRecord
  2
DASH
  70
    0
  3
Hidden
  72
65
  73
2
  40
2.5
  49
1.5
  74
0
  49
-1
  74
0
  0
LTYPE
  5
8
  330
3
  100
AcDbSymbolTableRecord
  100
AcDbLinetypeTableRecord
  2
LONGDASHDASH
  70
    0
  3
__ . __
  72
65
  73
    4
  40
7
  49
4
  74
    0
  49
-1
  74
    0
  49
1
  74
    0
  49
-1
  74
    0
  0
ENDTAB
  0
TABLE
  2
LAYER
  5
9
  330
0
  100
AcDbSymbolTable
  70
    40
  0
LAYER
  5
a
  330
9
  100
AcDbSymbolTableRecord
  100
AcDbLayerTableRecord
  2
0
  70
    0
  62
    0
  6
CONTINUOUS
  390
0
  0
LAYER
  5
c
  330
9
  100
AcDbSymbolTableRecord
  100
AcDbLayerTableRecord
  2
1
  70
    0
  62
    4
  6
CONTINUOUS
  370
50
  390
0
  0
LAYER
  5
d
  330
9
  100
AcDbSymbolTableRecord
  100
AcDbLayerTableRecord
  2
2
  70
    0
  62
    7
  6
CONTINUOUS
  370
25
  390
0
  0
LAYER
  5
f
  330
9
  100
AcDbSymbolTableRecord
  100
AcDbLayerTableRecord
  2
4
  70
    0
  62
    2
  6
LONGDASHDASH
  370
25
  390
0
  0
LAYER
  5
13
  330
9
  100
AcDbSymbolTableRecord
  100
AcDbLayerTableRecord
  2
SK1
  70
    0
  62
    4
  6
CONTINUOUS
  370
50
  390
0
  0
LAYER
  5
14
  330
9
  100
AcDbSymbolTableRecord
  100
AcDbLayerTableRecord
  2
SK2
  70
    0
  62
    7
  6
CONTINUOUS
  370
25
  390
0
  0
LAYER
  5
22
  330
9
  100
AcDbSymbolTableRecord
  100
AcDbLayerTableRecord
  2
CUT
  70
    0
  62
    1
  6
CONTINUOUS
  370
25
  390
0
  0
LAYER
  5
25
  330
9
  100
AcDbSymbolTableRecord
  100
AcDbLayerTableRecord
  2
INFTEXT
  70
    0
  62
    5
  6
CONTINUOUS
  390
0
  0
LAYER
  5
26
  330
9
  100
AcDbSymbolTableRecord
  100
AcDbLayerTableRecord
  2
INFTOTAL
  70
    0
  62
    9
  6
CONTINUOUS
  370
18
  390
0
  0
ENDTAB
  0
TABLE
  2
STYLE
  5
27
  330
0
  100
AcDbSymbolTable
  70
    1
  0
STYLE
  5
28
  330
27
  100
AcDbSymbolTableRecord
  100
AcDbTextStyleTableRecord
  2
Monospac821 BT
  70
    0
  40
    3.5
  41
1
  50
0
  71
0
  42
3
  3

  4

  1001
ACAD
  1000
Monospac821 BT
  1071
256
  0
ENDTAB
  0
TABLE
  2
VIEW
  5
29
  330
0
  100
AcDbSymbolTable
  70
    0
  0
ENDTAB
  0
TABLE
  2
UCS
  5
2a
  330
0
  100
AcDbSymbolTable
  70
    0
  0
ENDTAB
  0
TABLE
  2
APPID
  5
2b
  330
0
  100
AcDbSymbolTable
  70
    1
  0
APPID
  5
2c
  330
2b
  100
AcDbSymbolTableRecord
  100
AcDbRegAppTableRecord
  2
ACAD
  70
    0
  0
ENDTAB
  0
TABLE
  2
DIMSTYLE
  5
2d
  330
0
  100
AcDbSymbolTable
  70
    1
  100
AcDbDimStyleTable
  0
DIMSTYLE
  105
2e
  330
2d
  100
AcDbSymbolTableRecord
  100
AcDbDimStyleTableRecord
  2
ISBEtdSketcher
  70
    0
  41
    3
  42
0.5
  44
1
  73
0
  77
1
  78
1
  140
3.5
  141
2.5
  143
0.03937
  147
0.8
  172
1
  174
1
  178
0
  179
1
  271
2
  279
1
  284
1
  340
28
  0
ENDTAB
  0
TABLE
  2
BLOCK_RECORD
  5
2f
  330
0
  100
AcDbSymbolTable
  70
    2
  0
BLOCK_RECORD
  5
30
  330
2f
  100
AcDbSymbolTableRecord
  100
AcDbBlockTableRecord
  2
*Model_Space
  0
BLOCK_RECORD
  5
31
  330
2f
  100
AcDbSymbolTableRecord
  100
AcDbBlockTableRecord
  2
*Paper_Space
  0
BLOCK_RECORD
  5
339
  330
2f
  100
AcDbSymbolTableRecord
  100
AcDbBlockTableRecord
  2
*D338
  340
0
  0
BLOCK_RECORD
  5
347
  330
2f
  100
AcDbSymbolTableRecord
  100
AcDbBlockTableRecord
  2
*D346
  340
0
  0
BLOCK_RECORD
  5
355
  330
2f
  100
AcDbSymbolTableRecord
  100
AcDbBlockTableRecord
  2
*D354
  340
0
  0
BLOCK_RECORD
  5
363
  330
2f
  100
AcDbSymbolTableRecord
  100
AcDbBlockTableRecord
  2
*D362
  340
0
  0
ENDTAB
  0
ENDSEC
  0
SECTION
  2
BLOCKS
  0
BLOCK
  5
32
  330
30
  100
AcDbEntity
  8
0
  100
AcDbBlockBegin
  2
*Model_Space
  70
    0
  10
0
  20
0
  30
0
  3
*Model_Space
  1

  0
ENDBLK
  5
33
  330
30
  100
AcDbEntity
  8
0
  100
AcDbBlockEnd
  0
BLOCK
  5
34
  330
31
  100
AcDbEntity
  8
0
  100
AcDbBlockBegin
  2
*Paper_Space
  70
    0
  10
0
  20
0
  30
0
  3
*Paper_Space
  1

  0
ENDBLK
  5
35
  330
31
  100
AcDbEntity
  8
0
  100
AcDbBlockEnd
  0
BLOCK
  5
337
  330
339
  100
AcDbEntity
  8
SK2
  100
AcDbBlockBegin
  2
*D338
  70
1
  10
0
  20
0
  30
0
  3
*D338
  1

  0
LINE
  5
33a
  330
339
  100
AcDbEntity
  8
SK2
  100
AcDbLine
  10
-37
  20
-33.506849
  30
0
  11
-37
  21
4.5
  31
0
  0
LINE
  5
33b
  330
339
  100
AcDbEntity
  8
SK2
  100
AcDbLine
  10
13
  20
-33.506849
  30
0
  11
13
  21
5
  31
0
  0
LINE
  5
33c
  330
339
  100
AcDbEntity
  8
SK2
  100
AcDbLine
  10
-37
  20
-31.506849
  30
0
  11
13
  21
-31.506849
  31
0
  0
SOLID
  5
33d
  330
339
  100
AcDbEntity
  8
SK2
  100
AcDbTrace
  10
-37
  20
-31.506849
  30
0
  11
-34.521388
  21
-31.180534
  31
0
  12
-34.521388
  22
-31.833165
  32
0
  13
-34.521388
  23
-31.833165
  33
0
  0
SOLID
  5
33e
  330
339
  100
AcDbEntity
  8
SK2
  100
AcDbTrace
  10
13
  20
-31.506849
  30
0
  11
10.521388
  21
-31.833165
  31
0
  12
10.521388
  22
-31.180534
  32
0
  13
10.521388
  23
-31.180534
  33
0
  0
MTEXT
  5
33f
  330
339
  100
AcDbEntity
  8
SK2
  100
AcDbMText
  10
-14.719178
  20
-31.506849
  30
0
  11
1
  21
0
  31
0
  40
2
  41
0
  71
8
  72
1
  1
50
  0
POINT
  5
340
  330
339
  100
AcDbEntity
  8
SK2
  62
0
  100
AcDbPoint
  10
-37
  20
4.5
  30
0
  0
POINT
  5
341
  330
339
  100
AcDbEntity
  8
SK2
  62
0
  100
AcDbPoint
  10
13
  20
5
  30
0
  0
POINT
  5
342
  330
339
  100
AcDbEntity
  8
SK2
  62
0
  100
AcDbPoint
  10
13
  20
-31.506849
  30
0
  0
ENDBLK
  5
343
  330
339
  100
AcDbEntity
  8
SK2
  100
AcDbBlockEnd
  0
BLOCK
  5
345
  330
347
  100
AcDbEntity
  8
SK2
  100
AcDbBlockBegin
  2
*D346
  70
1
  10
0
  20
0
  30
0
  3
*D346
  1

  0
LINE
  5
348
  330
347
  100
AcDbEntity
  8
SK2
  100
AcDbLine
  10
-36.5
  20
-5
  30
0
  11
-45.152209
  21
-5
  31
0
  0
LINE
  5
349
  330
347
  100
AcDbEntity
  8
SK2
  100
AcDbLine
  10
-36.5
  20
5
  30
0
  11
-45.152209
  21
5
  31
0
  0
LINE
  5
34a
  330
347
  100
AcDbEntity
  8
SK2
  100
AcDbLine
  10
-43.152209
  20
-5
  30
0
  11
-43.152209
  21
5
  31
0
  0
SOLID
  5
34b
  330
347
  100
AcDbEntity
  8
SK2
  100
AcDbTrace
  10
-43.152209
  20
-5
  30
0
  11
-43.478524
  21
-2.521388
  31
0
  12
-42.825893
  22
-2.521388
  32
0
  13
-42.825893
  23
-2.521388
  33
0
  0
SOLID
  5
34c
  330
347
  100
AcDbEntity
  8
SK2
  100
AcDbTrace
  10
-43.152209
  20
5
  30
0
  11
-42.825893
  21
2.521388
  31
0
  12
-43.478524
  22
2.521388
  32
0
  13
-43.478524
  23
2.521388
  33
0
  0
MTEXT
  5
34d
  330
347
  100
AcDbEntity
  8
SK2
  100
AcDbMText
  10
-43.152209
  20
-0.287049
  30
0
  11
0
  21
1
  31
0
  40
2
  41
0
  71
8
  72
1
  1
Ø10h6
  0
POINT
  5
34e
  330
347
  100
AcDbEntity
  8
SK2
  62
0
  100
AcDbPoint
  10
-36.5
  20
-5
  30
0
  0
POINT
  5
34f
  330
347
  100
AcDbEntity
  8
SK2
  62
0
  100
AcDbPoint
  10
-36.5
  20
5
  30
0
  0
POINT
  5
350
  330
347
  100
AcDbEntity
  8
SK2
  62
0
  100
AcDbPoint
  10
-43.152209
  20
5
  30
0
  0
ENDBLK
  5
351
  330
347
  100
AcDbEntity
  8
SK2
  100
AcDbBlockEnd
  0
BLOCK
  5
353
  330
355
  100
AcDbEntity
  8
2
  100
AcDbBlockBegin
  2
*D354
  70
1
  10
0
  20
0
  30
0
  3
*D354
  1

  0
LINE
  5
356
  330
355
  100
AcDbEntity
  8
2
  100
AcDbLine
  10
13
  20
-5
  30
0
  11
25
  21
-5
  31
0
  0
LINE
  5
357
  330
355
  100
AcDbEntity
  8
2
  100
AcDbLine
  10
13
  20
5
  30
0
  11
25
  21
5
  31
0
  0
LINE
  5
358
  330
355
  100
AcDbEntity
  8
2
  100
AcDbLine
  10
23
  20
-5
  30
0
  11
23
  21
5
  31
0
  0
SOLID
  5
359
  330
355
  100
AcDbEntity
  8
2
  100
AcDbTrace
  10
23
  20
-5
  30
0
  11
22.673685
  21
-2.521388
  31
0
  12
23.326315
  22
-2.521388
  32
0
  13
23.326315
  23
-2.521388
  33
0
  0
SOLID
  5
35a
  330
355
  100
AcDbEntity
  8
2
  100
AcDbTrace
  10
23
  20
5
  30
0
  11
23.326315
  21
2.521388
  31
0
  12
22.673685
  22
2.521388
  32
0
  13
22.673685
  23
2.521388
  33
0
  0
MTEXT
  5
35b
  330
355
  100
AcDbEntity
  8
2
  100
AcDbMText
  10
23
  20
0
  30
0
  11
0
  21
1
  31
0
  40
2
  41
0
  71
8
  72
1
  1
Ø10 e8
  0
POINT
  5
35c
  330
355
  100
AcDbEntity
  8
2
  62
0
  100
AcDbPoint
  10
13
  20
-5
  30
0
  0
POINT
  5
35d
  330
355
  100
AcDbEntity
  8
2
  62
0
  100
AcDbPoint
  10
13
  20
5
  30
0
  0
POINT
  5
35e
  330
355
  100
AcDbEntity
  8
2
  62
0
  100
AcDbPoint
  10
23
  20
5
  30
0
  0
ENDBLK
  5
35f
  330
355
  100
AcDbEntity
  8
2
  100
AcDbBlockEnd
  0
BLOCK
  5
361
  330
363
  100
AcDbEntity
  8
2
  100
AcDbBlockBegin
  2
*D362
  70
1
  10
0
  20
0
  30
0
  3
*D362
  1

  0
LINE
  5
364
  330
363
  100
AcDbEntity
  8
2
  100
AcDbLine
  10
13
  20
-33.506849
  30
0
  11
13
  21
5
  31
0
  0
LINE
  5
365
  330
363
  100
AcDbEntity
  8
2
  100
AcDbLine
  10
0
  20
-20.767123
  30
0
  11
0
  21
5
  31
0
  0
LINE
  5
366
  330
363
  100
AcDbEntity
  8
2
  100
AcDbLine
  10
13
  20
-18.767123
  30
0
  11
0
  21
-18.767123
  31
0
  0
SOLID
  5
367
  330
363
  100
AcDbEntity
  8
2
  100
AcDbTrace
  10
13
  20
-18.767123
  30
0
  11
15.478612
  21
-18.440808
  31
0
  12
15.478612
  22
-19.093439
  32
0
  13
15.478612
  23
-19.093439
  33
0
  0
SOLID
  5
368
  330
363
  100
AcDbEntity
  8
2
  100
AcDbTrace
  10
0
  20
-18.767123
  30
0
  11
-2.478612
  21
-19.093439
  31
0
  12
-2.478612
  22
-18.440808
  32
0
  13
-2.478612
  23
-18.440808
  33
0
  0
MTEXT
  5
369
  330
363
  100
AcDbEntity
  8
2
  100
AcDbMText
  10
7.130137
  20
-18.767123
  30
0
  11
1
  21
-0
  31
0
  40
2
  41
0
  71
8
  72
1
  1
13
  0
POINT
  5
36a
  330
363
  100
AcDbEntity
  8
2
  62
0
  100
AcDbPoint
  10
13
  20
5
  30
0
  0
POINT
  5
36b
  330
363
  100
AcDbEntity
  8
2
  62
0
  100
AcDbPoint
  10
0
  20
5
  30
0
  0
POINT
  5
36c
  330
363
  100
AcDbEntity
  8
2
  62
0
  100
AcDbPoint
  10
0
  20
-18.767123
  30
0
  0
ENDBLK
  5
36d
  330
363
  100
AcDbEntity
  8
2
  100
AcDbBlockEnd
  0
ENDSEC
  0
SECTION
  2
ENTITIES
  0
DIMENSION
  5
344
  100
AcDbEntity
  8
SK2
  100
AcDbDimension
  2
*D338
  10
13
  20
-31.506849
  30
0
  11
-14.719178
  21
-31.506849
  31
0
  70
160
  1
<>
  71
5
  3
ISBEtdSketcher
  42
50
  100
AcDbAlignedDimension
  13
-37
  23
4.5
  33
0
  14
13
  24
5
  34
0
  50
0
  100
AcDbRotatedDimension
  0
DIMENSION
  5
352
  100
AcDbEntity
  8
SK2
  100
AcDbDimension
  2
*D346
  10
-43.152209
  20
5
  30
0
  11
-43.152209
  21
-0.287049
  31
0
  70
160
  1
%%c<>h6
  71
5
  3
ISBEtdSketcher
  42
10
  100
AcDbAlignedDimension
  13
-36.5
  23
-5
  33
0
  14
-36.5
  24
5
  34
0
  50
-90
  100
AcDbRotatedDimension
  0
DIMENSION
  5
360
  100
AcDbEntity
  8
2
  100
AcDbDimension
  2
*D354
  10
23
  20
5
  30
0
  11
23
  21
0
  31
0
  70
160
  1
%%c<> e8
  71
5
  3
ISBEtdSketcher
  42
10
  100
AcDbAlignedDimension
  13
13
  23
-5
  33
0
  14
13
  24
5
  34
0
  50
-90
  100
AcDbRotatedDimension
  0
DIMENSION
  5
36e
  100
AcDbEntity
  8
2
  100
AcDbDimension
  2
*D362
  10
0
  20
-18.767123
  30
0
  11
7.130137
  21
-18.767123
  31
0
  70
160
  1
<>
  71
5
  3
ISBEtdSketcher
  42
13
  100
AcDbAlignedDimension
  13
13
  23
5
  33
0
  14
0
  24
5
  34
0
  50
0
  100
AcDbRotatedDimension
  0
LINE
  5
36
  100
AcDbEntity
  8
1
  100
AcDbLine
  10
14
  20
0
  30
0
  11
13.7
  21
0
  31
0
  0
LINE
  5
37
  100
AcDbEntity
  8
1
  100
AcDbLine
  10
13.5725
  20
0
  30
0
  11
13.4875
  21
0
  31
0
  0
LINE
  5
38
  100
AcDbEntity
  8
1
  100
AcDbLine
  10
13.275
  20
0
  30
0
  11
12.85
  21
0
  31
0
  0
LINE
  5
39
  100
AcDbEntity
  8
1
  100
AcDbLine
  10
12.7225
  20
0
  30
0
  11
12.6375
  21
0
  31
0
  0
LINE
  5
3a
  100
AcDbEntity
  8
1
  100
AcDbLine
  10
12.425
  20
0
  30
0
  11
12
  21
0
  31
0
  0
LINE
  5
3b
  100
AcDbEntity
  8
1
  100
AcDbLine
  10
13
  20
2.5
  30
0
  11
12.9
  21
2.549832
  31
0
  0
LINE
  5
3c
  100
AcDbEntity
  8
1
  100
AcDbLine
  10
12.9
  20
2.549832
  30
0
  11
12.8
  21
2.599324
  31
0
  0
LINE
  5
3d
  100
AcDbEntity
  8
1
  100
AcDbLine
  10
12.8
  20
2.599324
  30
0
  11
12.7
  21
2.64847
  31
0
  0
LINE
  5
3e
  100
AcDbEntity
  8
1
  100
AcDbLine
  10
12.7
  20
2.64847
  30
0
  11
12.6
  21
2.697263
  31
0
  0
LINE
  5
3f
  100
AcDbEntity
  8
1
  100
AcDbLine
  10
12.6
  20
2.697263
  30
0
  11
12.5
  21
2.745696
  31
0
  0
LINE
  5
40
  100
AcDbEntity
  8
1
  100
AcDbLine
  10
12.5
  20
2.745696
  30
0
  11
12.4
  21
2.793762
  31
0
  0
LINE
  5
41
  100
AcDbEntity
  8
1
  100
AcDbLine
  10
12.4
  20
2.793762
  30
0
  11
12.3
  21
2.841457
  31
0
  0
LINE
  5
42
  100
AcDbEntity
  8
1
  100
AcDbLine
  10
12.3
  20
2.841457
  30
0
  11
12.2
  21
2.888772
  31
0
  0
LINE
  5
43
  100
AcDbEntity
  8
1
  100
AcDbLine
  10
12.2
  20
2.888772
  30
0
  11
12.1
  21
2.935703
  31
0
  0
LINE
  5
44
  100
AcDbEntity
  8
1
  100
AcDbLine
  10
12.1
  20
2.935703
  30
0
  11
12
  21
2.982241
  31
0
  0
LINE
  5
45
  100
AcDbEntity
  8
1
  100
AcDbLine
  10
12
  20
2.982241
  30
0
  11
11.9
  21
3.028383
  31
0
  0
LINE
  5
46
  100
AcDbEntity
  8
1
  100
AcDbLine
  10
11.9
  20
3.028383
  30
0
  11
11.8
  21
3.07412
  31
0
  0
LINE
  5
47
  100
AcDbEntity
  8
1
  100
AcDbLine
  10
11.8
  20
3.07412
  30
0
  11
11.7
  21
3.119448
  31
0
  0
LINE
  5
48
  100
AcDbEntity
  8
1
  100
AcDbLine
  10
11.7
  20
3.119448
  30
0
  11
11.6
  21
3.16436
  31
0
  0
LINE
  5
49
  100
AcDbEntity
  8
1
  100
AcDbLine
  10
11.6
  20
3.16436
  30
0
  11
11.5
  21
3.208849
  31
0
  0
LINE
  5
4a
  100
AcDbEntity
  8
1
  100
AcDbLine
  10
11.5
  20
3.208849
  30
0
  11
11.4
  21
3.252911
  31
0
  0
LINE
  5
4b
  100
AcDbEntity
  8
1
  100
AcDbLine
  10
11.4
  20
3.252911
  30
0
  11
11.3
  21
3.296539
  31
0
  0
LINE
  5
4c
  100
AcDbEntity
  8
1
  100
AcDbLine
  10
11.3
  20
3.296539
  30
0
  11
11.2
  21
3.339728
  31
0
  0
LINE
  5
4d
  100
AcDbEntity
  8
1
  100
AcDbLine
  10
11.2
  20
3.339728
  30
0
  11
11.1
  21
3.382471
  31
0
  0
LINE
  5
4e
  100
AcDbEntity
  8
1
  100
AcDbLine
  10
11.1
  20
3.382471
  30
0
  11
11
  21
3.424764
  31
0
  0
LINE
  5
4f
  100
AcDbEntity
  8
1
  100
AcDbLine
  10
11
  20
3.424764
  30
0
  11
10.9
  21
3.4666
  31
0
  0
LINE
  5
50
  100
AcDbEntity
  8
1
  100
AcDbLine
  10
10.9
  20
3.4666
  30
0
  11
10.8
  21
3.507973
  31
0
  0
LINE
  5
51
  100
AcDbEntity
  8
1
  100
AcDbLine
  10
10.8
  20
3.507973
  30
0
  11
10.7
  21
3.548879
  31
0
  0
LINE
  5
52
  100
AcDbEntity
  8
1
  100
AcDbLine
  10
10.7
  20
3.548879
  30
0
  11
10.6
  21
3.589312
  31
0
  0
LINE
  5
53
  100
AcDbEntity
  8
1
  100
AcDbLine
  10
10.6
  20
3.589312
  30
0
  11
10.5
  21
3.629266
  31
0
  0
LINE
  5
54
  100
AcDbEntity
  8
1
  100
AcDbLine
  10
10.5
  20
3.629266
  30
0
  11
10.4
  21
3.668736
  31
0
  0
LINE
  5
55
  100
AcDbEntity
  8
1
  100
AcDbLine
  10
10.4
  20
3.668736
  30
0
  11
10.3
  21
3.707717
  31
0
  0
LINE
  5
56
  100
AcDbEntity
  8
1
  100
AcDbLine
  10
10.3
  20
3.707717
  30
0
  11
10.2
  21
3.746204
  31
0
  0
LINE
  5
57
  100
AcDbEntity
  8
1
  100
AcDbLine
  10
10.2
  20
3.746204
  30
0
  11
10.1
  21
3.784191
  31
0
  0
LINE
  5
58
  100
AcDbEntity
  8
1
  100
AcDbLine
  10
10.1
  20
3.784191
  30
0
  11
10
  21
3.821673
  31
0
  0
LINE
  5
59
  100
AcDbEntity
  8
1
  100
AcDbLine
  10
10
  20
3.821673
  30
0
  11
9.9
  21
3.858647
  31
0
  0
LINE
  5
5a
  100
AcDbEntity
  8
1
  100
AcDbLine
  10
9.9
  20
3.858647
  30
0
  11
9.8
  21
3.895105
  31
0
  0
LINE
  5
5b
  100
AcDbEntity
  8
1
  100
AcDbLine
  10
9.8
  20
3.895105
  30
0
  11
9.7
  21
3.931044
  31
0
  0
LINE
  5
5c
  100
AcDbEntity
  8
1
  100
AcDbLine
  10
9.7
  20
3.931044
  30
0
  11
9.6
  21
3.96646
  31
0
  0
LINE
  5
5d
  100
AcDbEntity
  8
1
  100
AcDbLine
  10
9.6
  20
3.96646
  30
0
  11
9.5
  21
4.001346
  31
0
  0
LINE
  5
5e
  100
AcDbEntity
  8
1
  100
AcDbLine
  10
9.5
  20
4.001346
  30
0
  11
9.4
  21
4.035699
  31
0
  0
LINE
  5
5f
  100
AcDbEntity
  8
1
  100
AcDbLine
  10
9.4
  20
4.035699
  30
0
  11
9.3
  21
4.069513
  31
0
  0
LINE
  5
60
  100
AcDbEntity
  8
1
  100
AcDbLine
  10
9.3
  20
4.069513
  30
0
  11
9.2
  21
4.102785
  31
0
  0
LINE
  5
61
  100
AcDbEntity
  8
1
  100
AcDbLine
  10
9.2
  20
4.102785
  30
0
  11
9.1
  21
4.13551
  31
0
  0
LINE
  5
62
  100
AcDbEntity
  8
1
  100
AcDbLine
  10
9.1
  20
4.13551
  30
0
  11
9
  21
4.167684
  31
0
  0
LINE
  5
63
  100
AcDbEntity
  8
1
  100
AcDbLine
  10
9
  20
4.167684
  30
0
  11
8.9
  21
4.199302
  31
0
  0
LINE
  5
64
  100
AcDbEntity
  8
1
  100
AcDbLine
  10
8.9
  20
4.199302
  30
0
  11
8.8
  21
4.23036
  31
0
  0
LINE
  5
65
  100
AcDbEntity
  8
1
  100
AcDbLine
  10
8.8
  20
4.23036
  30
0
  11
8.7
  21
4.260854
  31
0
  0
LINE
  5
66
  100
AcDbEntity
  8
1
  100
AcDbLine
  10
8.7
  20
4.260854
  30
0
  11
8.6
  21
4.29078
  31
0
  0
LINE
  5
67
  100
AcDbEntity
  8
1
  100
AcDbLine
  10
8.6
  20
4.29078
  30
0
  11
8.5
  21
4.320134
  31
0
  0
LINE
  5
68
  100
AcDbEntity
  8
1
  100
AcDbLine
  10
8.5
  20
4.320134
  30
0
  11
8.4
  21
4.348912
  31
0
  0
LINE
  5
69
  100
AcDbEntity
  8
1
  100
AcDbLine
  10
8.4
  20
4.348912
  30
0
  11
8.3
  21
4.37711
  31
0
  0
LINE
  5
6a
  100
AcDbEntity
  8
1
  100
AcDbLine
  10
8.3
  20
4.37711
  30
0
  11
8.2
  21
4.404724
  31
0
  0
LINE
  5
6b
  100
AcDbEntity
  8
1
  100
AcDbLine
  10
8.2
  20
4.404724
  30
0
  11
8.1
  21
4.431751
  31
0
  0
LINE
  5
6c
  100
AcDbEntity
  8
1
  100
AcDbLine
  10
8.1
  20
4.431751
  30
0
  11
8
  21
4.458187
  31
0
  0
LINE
  5
6d
  100
AcDbEntity
  8
1
  100
AcDbLine
  10
8
  20
4.458187
  30
0
  11
7.9
  21
4.484029
  31
0
  0
LINE
  5
6e
  100
AcDbEntity
  8
1
  100
AcDbLine
  10
7.9
  20
4.484029
  30
0
  11
7.8
  21
4.509273
  31
0
  0
LINE
  5
6f
  100
AcDbEntity
  8
1
  100
AcDbLine
  10
7.8
  20
4.509273
  30
0
  11
7.7
  21
4.533916
  31
0
  0
LINE
  5
70
  100
AcDbEntity
  8
1
  100
AcDbLine
  10
7.7
  20
4.533916
  30
0
  11
7.6
  21
4.557954
  31
0
  0
LINE
  5
71
  100
AcDbEntity
  8
1
  100
AcDbLine
  10
7.6
  20
4.557954
  30
0
  11
7.5
  21
4.581384
  31
0
  0
LINE
  5
72
  100
AcDbEntity
  8
1
  100
AcDbLine
  10
7.5
  20
4.581384
  30
0
  11
7.4
  21
4.604204
  31
0
  0
LINE
  5
73
  100
AcDbEntity
  8
1
  100
AcDbLine
  10
7.4
  20
4.604204
  30
0
  11
7.3
  21
4.626409
  31
0
  0
LINE
  5
74
  100
AcDbEntity
  8
1
  100
AcDbLine
  10
7.3
  20
4.626409
  30
0
  11
7.2
  21
4.647998
  31
0
  0
LINE
  5
75
  100
AcDbEntity
  8
1
  100
AcDbLine
  10
7.2
  20
4.647998
  30
0
  11
7.1
  21
4.668967
  31
0
  0
LINE
  5
76
  100
AcDbEntity
  8
1
  100
AcDbLine
  10
7.1
  20
4.668967
  30
0
  11
7
  21
4.689314
  31
0
  0
LINE
  5
77
  100
AcDbEntity
  8
1
  100
AcDbLine
  10
7
  20
4.689314
  30
0
  11
6.9
  21
4.709035
  31
0
  0
LINE
  5
78
  100
AcDbEntity
  8
1
  100
AcDbLine
  10
6.9
  20
4.709035
  30
0
  11
6.8
  21
4.728129
  31
0
  0
LINE
  5
79
  100
AcDbEntity
  8
1
  100
AcDbLine
  10
6.8
  20
4.728129
  30
0
  11
6.7
  21
4.746592
  31
0
  0
LINE
  5
7a
  100
AcDbEntity
  8
1
  100
AcDbLine
  10
6.7
  20
4.746592
  30
0
  11
6.6
  21
4.764422
  31
0
  0
LINE
  5
7b
  100
AcDbEntity
  8
1
  100
AcDbLine
  10
6.6
  20
4.764422
  30
0
  11
6.5
  21
4.781617
  31
0
  0
LINE
  5
7c
  100
AcDbEntity
  8
1
  100
AcDbLine
  10
6.5
  20
4.781617
  30
0
  11
6.4
  21
4.798174
  31
0
  0
LINE
  5
7d
  100
AcDbEntity
  8
1
  100
AcDbLine
  10
6.4
  20
4.798174
  30
0
  11
6.3
  21
4.814092
  31
0
  0
LINE
  5
7e
  100
AcDbEntity
  8
1
  100
AcDbLine
  10
6.3
  20
4.814092
  30
0
  11
6.2
  21
4.829368
  31
0
  0
LINE
  5
7f
  100
AcDbEntity
  8
1
  100
AcDbLine
  10
6.2
  20
4.829368
  30
0
  11
6.1
  21
4.844
  31
0
  0
LINE
  5
80
  100
AcDbEntity
  8
1
  100
AcDbLine
  10
6.1
  20
4.844
  30
0
  11
6
  21
4.857986
  31
0
  0
LINE
  5
81
  100
AcDbEntity
  8
1
  100
AcDbLine
  10
6
  20
4.857986
  30
0
  11
5.9
  21
4.871324
  31
0
  0
LINE
  5
82
  100
AcDbEntity
  8
1
  100
AcDbLine
  10
5.9
  20
4.871324
  30
0
  11
5.8
  21
4.884013
  31
0
  0
LINE
  5
83
  100
AcDbEntity
  8
1
  100
AcDbLine
  10
5.8
  20
4.884013
  30
0
  11
5.7
  21
4.896051
  31
0
  0
LINE
  5
84
  100
AcDbEntity
  8
1
  100
AcDbLine
  10
5.7
  20
4.896051
  30
0
  11
5.6
  21
4.907435
  31
0
  0
LINE
  5
85
  100
AcDbEntity
  8
1
  100
AcDbLine
  10
5.6
  20
4.907435
  30
0
  11
5.5
  21
4.918166
  31
0
  0
LINE
  5
86
  100
AcDbEntity
  8
1
  100
AcDbLine
  10
5.5
  20
4.918166
  30
0
  11
5.4
  21
4.928241
  31
0
  0
LINE
  5
87
  100
AcDbEntity
  8
1
  100
AcDbLine
  10
5.4
  20
4.928241
  30
0
  11
5.3
  21
4.937658
  31
0
  0
LINE
  5
88
  100
AcDbEntity
  8
1
  100
AcDbLine
  10
5.3
  20
4.937658
  30
0
  11
5.2
  21
4.946418
  31
0
  0
LINE
  5
89
  100
AcDbEntity
  8
1
  100
AcDbLine
  10
5.2
  20
4.946418
  30
0
  11
5.1
  21
4.954517
  31
0
  0
LINE
  5
8a
  100
AcDbEntity
  8
1
  100
AcDbLine
  10
5.1
  20
4.954517
  30
0
  11
5
  21
4.961957
  31
0
  0
LINE
  5
8b
  100
AcDbEntity
  8
1
  100
AcDbLine
  10
5
  20
4.961957
  30
0
  11
4.9
  21
4.968734
  31
0
  0
LINE
  5
8c
  100
AcDbEntity
  8
1
  100
AcDbLine
  10
4.9
  20
4.968734
  30
0
  11
4.8
  21
4.974849
  31
0
  0
LINE
  5
8d
  100
AcDbEntity
  8
1
  100
AcDbLine
  10
4.8
  20
4.974849
  30
0
  11
4.7
  21
4.980301
  31
0
  0
LINE
  5
8e
  100
AcDbEntity
  8
1
  100
AcDbLine
  10
4.7
  20
4.980301
  30
0
  11
4.6
  21
4.985089
  31
0
  0
LINE
  5
8f
  100
AcDbEntity
  8
1
  100
AcDbLine
  10
4.6
  20
4.985089
  30
0
  11
4.5
  21
4.989212
  31
0
  0
LINE
  5
90
  100
AcDbEntity
  8
1
  100
AcDbLine
  10
4.5
  20
4.989212
  30
0
  11
4.4
  21
4.99267
  31
0
  0
LINE
  5
91
  100
AcDbEntity
  8
1
  100
AcDbLine
  10
4.4
  20
4.99267
  30
0
  11
4.3
  21
4.995462
  31
0
  0
LINE
  5
92
  100
AcDbEntity
  8
1
  100
AcDbLine
  10
4.3
  20
4.995462
  30
0
  11
4.2
  21
4.997588
  31
0
  0
LINE
  5
93
  100
AcDbEntity
  8
1
  100
AcDbLine
  10
4.2
  20
4.997588
  30
0
  11
4.1
  21
4.999048
  31
0
  0
LINE
  5
94
  100
AcDbEntity
  8
1
  100
AcDbLine
  10
4.1
  20
4.999048
  30
0
  11
4
  21
4.999841
  31
0
  0
LINE
  5
95
  100
AcDbEntity
  8
1
  100
AcDbLine
  10
4
  20
4.999841
  30
0
  11
3.931003
  21
5
  31
0
  0
LINE
  5
96
  100
AcDbEntity
  8
1
  100
AcDbLine
  10
13
  20
3.074533
  30
0
  11
12.9
  21
3.118761
  31
0
  0
LINE
  5
97
  100
AcDbEntity
  8
1
  100
AcDbLine
  10
12.9
  20
3.118761
  30
0
  11
12.8
  21
3.162572
  31
0
  0
LINE
  5
98
  100
AcDbEntity
  8
1
  100
AcDbLine
  10
12.8
  20
3.162572
  30
0
  11
12.7
  21
3.205962
  31
0
  0
LINE
  5
99
  100
AcDbEntity
  8
1
  100
AcDbLine
  10
12.7
  20
3.205962
  30
0
  11
12.6
  21
3.248924
  31
0
  0
LINE
  5
9a
  100
AcDbEntity
  8
1
  100
AcDbLine
  10
12.6
  20
3.248924
  30
0
  11
12.5
  21
3.291454
  31
0
  0
LINE
  5
9b
  100
AcDbEntity
  8
1
  100
AcDbLine
  10
12.5
  20
3.291454
  30
0
  11
12.4
  21
3.333544
  31
0
  0
LINE
  5
9c
  100
AcDbEntity
  8
1
  100
AcDbLine
  10
12.4
  20
3.333544
  30
0
  11
12.3
  21
3.37519
  31
0
  0
LINE
  5
9d
  100
AcDbEntity
  8
1
  100
AcDbLine
  10
12.3
  20
3.37519
  30
0
  11
12.2
  21
3.416386
  31
0
  0
LINE
  5
9e
  100
AcDbEntity
  8
1
  100
AcDbLine
  10
12.2
  20
3.416386
  30
0
  11
12.1
  21
3.457126
  31
0
  0
LINE
  5
9f
  100
AcDbEntity
  8
1
  100
AcDbLine
  10
12.1
  20
3.457126
  30
0
  11
12
  21
3.497405
  31
0
  0
LINE
  5
a0
  100
AcDbEntity
  8
1
  100
AcDbLine
  10
12
  20
3.497405
  30
0
  11
11.9
  21
3.537219
  31
0
  0
LINE
  5
a1
  100
AcDbEntity
  8
1
  100
AcDbLine
  10
11.9
  20
3.537219
  30
0
  11
11.8
  21
3.57656
  31
0
  0
LINE
  5
a2
  100
AcDbEntity
  8
1
  100
AcDbLine
  10
11.8
  20
3.57656
  30
0
  11
11.7
  21
3.615425
  31
0
  0
LINE
  5
a3
  100
AcDbEntity
  8
1
  100
AcDbLine
  10
11.7
  20
3.615425
  30
0
  11
11.6
  21
3.653807
  31
0
  0
LINE
  5
a4
  100
AcDbEntity
  8
1
  100
AcDbLine
  10
11.6
  20
3.653807
  30
0
  11
11.5
  21
3.691702
  31
0
  0
LINE
  5
a5
  100
AcDbEntity
  8
1
  100
AcDbLine
  10
11.5
  20
3.691702
  30
0
  11
11.4
  21
3.729106
  31
0
  0
LINE
  5
a6
  100
AcDbEntity
  8
1
  100
AcDbLine
  10
11.4
  20
3.729106
  30
0
  11
11.3
  21
3.766012
  31
0
  0
LINE
  5
a7
  100
AcDbEntity
  8
1
  100
AcDbLine
  10
11.3
  20
3.766012
  30
0
  11
11.2
  21
3.802415
  31
0
  0
LINE
  5
a8
  100
AcDbEntity
  8
1
  100
AcDbLine
  10
11.2
  20
3.802415
  30
0
  11
11.1
  21
3.838312
  31
0
  0
LINE
  5
a9
  100
AcDbEntity
  8
1
  100
AcDbLine
  10
11.1
  20
3.838312
  30
0
  11
11
  21
3.873697
  31
0
  0
LINE
  5
aa
  100
AcDbEntity
  8
1
  100
AcDbLine
  10
11
  20
3.873697
  30
0
  11
10.9
  21
3.908566
  31
0
  0
LINE
  5
ab
  100
AcDbEntity
  8
1
  100
AcDbLine
  10
10.9
  20
3.908566
  30
0
  11
10.8
  21
3.942913
  31
0
  0
LINE
  5
ac
  100
AcDbEntity
  8
1
  100
AcDbLine
  10
10.8
  20
3.942913
  30
0
  11
10.7
  21
3.976735
  31
0
  0
LINE
  5
ad
  100
AcDbEntity
  8
1
  100
AcDbLine
  10
10.7
  20
3.976735
  30
0
  11
10.6
  21
4.010026
  31
0
  0
LINE
  5
ae
  100
AcDbEntity
  8
1
  100
AcDbLine
  10
10.6
  20
4.010026
  30
0
  11
10.5
  21
4.042783
  31
0
  0
LINE
  5
af
  100
AcDbEntity
  8
1
  100
AcDbLine
  10
10.5
  20
4.042783
  30
0
  11
10.4
  21
4.075001
  31
0
  0
LINE
  5
b0
  100
AcDbEntity
  8
1
  100
AcDbLine
  10
10.4
  20
4.075001
  30
0
  11
10.3
  21
4.106676
  31
0
  0
LINE
  5
b1
  100
AcDbEntity
  8
1
  100
AcDbLine
  10
10.3
  20
4.106676
  30
0
  11
10.2
  21
4.137802
  31
0
  0
LINE
  5
b2
  100
AcDbEntity
  8
1
  100
AcDbLine
  10
10.2
  20
4.137802
  30
0
  11
10.1
  21
4.168378
  31
0
  0
LINE
  5
b3
  100
AcDbEntity
  8
1
  100
AcDbLine
  10
10.1
  20
4.168378
  30
0
  11
10
  21
4.198397
  31
0
  0
LINE
  5
b4
  100
AcDbEntity
  8
1
  100
AcDbLine
  10
10
  20
4.198397
  30
0
  11
9.9
  21
4.227857
  31
0
  0
LINE
  5
b5
  100
AcDbEntity
  8
1
  100
AcDbLine
  10
9.9
  20
4.227857
  30
0
  11
9.8
  21
4.256753
  31
0
  0
LINE
  5
b6
  100
AcDbEntity
  8
1
  100
AcDbLine
  10
9.8
  20
4.256753
  30
0
  11
9.7
  21
4.285081
  31
0
  0
LINE
  5
b7
  100
AcDbEntity
  8
1
  100
AcDbLine
  10
9.7
  20
4.285081
  30
0
  11
9.6
  21
4.312838
  31
0
  0
LINE
  5
b8
  100
AcDbEntity
  8
1
  100
AcDbLine
  10
9.6
  20
4.312838
  30
0
  11
9.5
  21
4.34002
  31
0
  0
LINE
  5
b9
  100
AcDbEntity
  8
1
  100
AcDbLine
  10
9.5
  20
4.34002
  30
0
  11
9.4
  21
4.366624
  31
0
  0
LINE
  5
ba
  100
AcDbEntity
  8
1
  100
AcDbLine
  10
9.4
  20
4.366624
  30
0
  11
9.3
  21
4.392645
  31
0
  0
LINE
  5
bb
  100
AcDbEntity
  8
1
  100
AcDbLine
  10
9.3
  20
4.392645
  30
0
  11
9.2
  21
4.41808
  31
0
  0
LINE
  5
bc
  100
AcDbEntity
  8
1
  100
AcDbLine
  10
9.2
  20
4.41808
  30
0
  11
9.1
  21
4.442927
  31
0
  0
LINE
  5
bd
  100
AcDbEntity
  8
1
  100
AcDbLine
  10
9.1
  20
4.442927
  30
0
  11
9
  21
4.467181
  31
0
  0
LINE
  5
be
  100
AcDbEntity
  8
1
  100
AcDbLine
  10
9
  20
4.467181
  30
0
  11
8.9
  21
4.490839
  31
0
  0
LINE
  5
bf
  100
AcDbEntity
  8
1
  100
AcDbLine
  10
8.9
  20
4.490839
  30
0
  11
8.8
  21
4.513899
  31
0
  0
LINE
  5
c0
  100
AcDbEntity
  8
1
  100
AcDbLine
  10
8.8
  20
4.513899
  30
0
  11
8.7
  21
4.536356
  31
0
  0
LINE
  5
c1
  100
AcDbEntity
  8
1
  100
AcDbLine
  10
8.7
  20
4.536356
  30
0
  11
8.6
  21
4.558209
  31
0
  0
LINE
  5
c2
  100
AcDbEntity
  8
1
  100
AcDbLine
  10
8.6
  20
4.558209
  30
0
  11
8.5
  21
4.579454
  31
0
  0
LINE
  5
c3
  100
AcDbEntity
  8
1
  100
AcDbLine
  10
8.5
  20
4.579454
  30
0
  11
8.4
  21
4.600089
  31
0
  0
LINE
  5
c4
  100
AcDbEntity
  8
1
  100
AcDbLine
  10
8.4
  20
4.600089
  30
0
  11
8.3
  21
4.62011
  31
0
  0
LINE
  5
c5
  100
AcDbEntity
  8
1
  100
AcDbLine
  10
8.3
  20
4.62011
  30
0
  11
8.2
  21
4.639515
  31
0
  0
LINE
  5
c6
  100
AcDbEntity
  8
1
  100
AcDbLine
  10
8.2
  20
4.639515
  30
0
  11
8.1
  21
4.658302
  31
0
  0
LINE
  5
c7
  100
AcDbEntity
  8
1
  100
AcDbLine
  10
8.1
  20
4.658302
  30
0
  11
8
  21
4.676468
  31
0
  0
LINE
  5
c8
  100
AcDbEntity
  8
1
  100
AcDbLine
  10
8
  20
4.676468
  30
0
  11
7.9
  21
4.69401
  31
0
  0
LINE
  5
c9
  100
AcDbEntity
  8
1
  100
AcDbLine
  10
7.9
  20
4.69401
  30
0
  11
7.8
  21
4.710926
  31
0
  0
LINE
  5
ca
  100
AcDbEntity
  8
1
  100
AcDbLine
  10
7.8
  20
4.710926
  30
0
  11
7.7
  21
4.727214
  31
0
  0
LINE
  5
cb
  100
AcDbEntity
  8
1
  100
AcDbLine
  10
7.7
  20
4.727214
  30
0
  11
7.6
  21
4.742872
  31
0
  0
LINE
  5
cc
  100
AcDbEntity
  8
1
  100
AcDbLine
  10
7.6
  20
4.742872
  30
0
  11
7.5
  21
4.757897
  31
0
  0
LINE
  5
cd
  100
AcDbEntity
  8
1
  100
AcDbLine
  10
7.5
  20
4.757897
  30
0
  11
7.4
  21
4.772288
  31
0
  0
LINE
  5
ce
  100
AcDbEntity
  8
1
  100
AcDbLine
  10
7.4
  20
4.772288
  30
0
  11
7.3
  21
4.786043
  31
0
  0
LINE
  5
cf
  100
AcDbEntity
  8
1
  100
AcDbLine
  10
7.3
  20
4.786043
  30
0
  11
7.2
  21
4.799159
  31
0
  0
LINE
  5
d0
  100
AcDbEntity
  8
1
  100
AcDbLine
  10
7.2
  20
4.799159
  30
0
  11
7.1
  21
4.811636
  31
0
  0
LINE
  5
d1
  100
AcDbEntity
  8
1
  100
AcDbLine
  10
7.1
  20
4.811636
  30
0
  11
7
  21
4.823471
  31
0
  0
LINE
  5
d2
  100
AcDbEntity
  8
1
  100
AcDbLine
  10
7
  20
4.823471
  30
0
  11
6.9
  21
4.834663
  31
0
  0
LINE
  5
d3
  100
AcDbEntity
  8
1
  100
AcDbLine
  10
6.9
  20
4.834663
  30
0
  11
6.8
  21
4.845211
  31
0
  0
LINE
  5
d4
  100
AcDbEntity
  8
1
  100
AcDbLine
  10
6.8
  20
4.845211
  30
0
  11
6.7
  21
4.855112
  31
0
  0
LINE
  5
d5
  100
AcDbEntity
  8
1
  100
AcDbLine
  10
6.7
  20
4.855112
  30
0
  11
6.6
  21
4.864366
  31
0
  0
LINE
  5
d6
  100
AcDbEntity
  8
1
  100
AcDbLine
  10
6.6
  20
4.864366
  30
0
  11
6.5
  21
4.872972
  31
0
  0
LINE
  5
d7
  100
AcDbEntity
  8
1
  100
AcDbLine
  10
6.5
  20
4.872972
  30
0
  11
6.4
  21
4.880927
  31
0
  0
LINE
  5
d8
  100
AcDbEntity
  8
1
  100
AcDbLine
  10
6.4
  20
4.880927
  30
0
  11
6.3
  21
4.888232
  31
0
  0
LINE
  5
d9
  100
AcDbEntity
  8
1
  100
AcDbLine
  10
6.3
  20
4.888232
  30
0
  11
6.2
  21
4.894885
  31
0
  0
LINE
  5
da
  100
AcDbEntity
  8
1
  100
AcDbLine
  10
6.2
  20
4.894885
  30
0
  11
6.1
  21
4.900886
  31
0
  0
LINE
  5
db
  100
AcDbEntity
  8
1
  100
AcDbLine
  10
6.1
  20
4.900886
  30
0
  11
6
  21
4.906233
  31
0
  0
LINE
  5
dc
  100
AcDbEntity
  8
1
  100
AcDbLine
  10
6
  20
4.906233
  30
0
  11
5.9
  21
4.910926
  31
0
  0
LINE
  5
dd
  100
AcDbEntity
  8
1
  100
AcDbLine
  10
5.9
  20
4.910926
  30
0
  11
5.8
  21
4.914964
  31
0
  0
LINE
  5
de
  100
AcDbEntity
  8
1
  100
AcDbLine
  10
5.8
  20
4.914964
  30
0
  11
5.7
  21
4.918347
  31
0
  0
LINE
  5
df
  100
AcDbEntity
  8
1
  100
AcDbLine
  10
5.7
  20
4.918347
  30
0
  11
5.6
  21
4.921074
  31
0
  0
LINE
  5
e0
  100
AcDbEntity
  8
1
  100
AcDbLine
  10
5.6
  20
4.921074
  30
0
  11
5.5
  21
4.923145
  31
0
  0
LINE
  5
e1
  100
AcDbEntity
  8
1
  100
AcDbLine
  10
5.5
  20
4.923145
  30
0
  11
5.4
  21
4.92456
  31
0
  0
LINE
  5
e2
  100
AcDbEntity
  8
1
  100
AcDbLine
  10
5.4
  20
4.92456
  30
0
  11
5.3
  21
4.925318
  31
0
  0
LINE
  5
e3
  100
AcDbEntity
  8
1
  100
AcDbLine
  10
5.3
  20
4.925318
  30
0
  11
5.234584
  21
5
  31
0
  0
LINE
  5
e4
  100
AcDbEntity
  8
1
  100
AcDbLine
  10
8.767801
  20
5
  30
0
  11
8.8
  21
4.999965
  31
0
  0
LINE
  5
e5
  100
AcDbEntity
  8
1
  100
AcDbLine
  10
8.8
  20
4.999965
  30
0
  11
8.9
  21
4.999417
  31
0
  0
LINE
  5
e6
  100
AcDbEntity
  8
1
  100
AcDbLine
  10
8.9
  20
4.999417
  30
0
  11
9
  21
4.998203
  31
0
  0
LINE
  5
e7
  100
AcDbEntity
  8
1
  100
AcDbLine
  10
9
  20
4.998203
  30
0
  11
9.1
  21
4.996322
  31
0
  0
LINE
  5
e8
  100
AcDbEntity
  8
1
  100
AcDbLine
  10
9.1
  20
4.996322
  30
0
  11
9.2
  21
4.993775
  31
0
  0
LINE
  5
e9
  100
AcDbEntity
  8
1
  100
AcDbLine
  10
9.2
  20
4.993775
  30
0
  11
9.3
  21
4.990562
  31
0
  0
LINE
  5
ea
  100
AcDbEntity
  8
1
  100
AcDbLine
  10
9.3
  20
4.990562
  30
0
  11
9.4
  21
4.986683
  31
0
  0
LINE
  5
eb
  100
AcDbEntity
  8
1
  100
AcDbLine
  10
9.4
  20
4.986683
  30
0
  11
9.5
  21
4.98214
  31
0
  0
LINE
  5
ec
  100
AcDbEntity
  8
1
  100
AcDbLine
  10
9.5
  20
4.98214
  30
0
  11
9.6
  21
4.976933
  31
0
  0
LINE
  5
ed
  100
AcDbEntity
  8
1
  100
AcDbLine
  10
9.6
  20
4.976933
  30
0
  11
9.7
  21
4.971061
  31
0
  0
LINE
  5
ee
  100
AcDbEntity
  8
1
  100
AcDbLine
  10
9.7
  20
4.971061
  30
0
  11
9.8
  21
4.964528
  31
0
  0
LINE
  5
ef
  100
AcDbEntity
  8
1
  100
AcDbLine
  10
9.8
  20
4.964528
  30
0
  11
9.9
  21
4.957332
  31
0
  0
LINE
  5
f0
  100
AcDbEntity
  8
1
  100
AcDbLine
  10
9.9
  20
4.957332
  30
0
  11
10
  21
4.949475
  31
0
  0
LINE
  5
f1
  100
AcDbEntity
  8
1
  100
AcDbLine
  10
10
  20
4.949475
  30
0
  11
10.1
  21
4.940958
  31
0
  0
LINE
  5
f2
  100
AcDbEntity
  8
1
  100
AcDbLine
  10
10.1
  20
4.940958
  30
0
  11
10.2
  21
4.931783
  31
0
  0
LINE
  5
f3
  100
AcDbEntity
  8
1
  100
AcDbLine
  10
10.2
  20
4.931783
  30
0
  11
10.3
  21
4.92195
  31
0
  0
LINE
  5
f4
  100
AcDbEntity
  8
1
  100
AcDbLine
  10
10.3
  20
4.92195
  30
0
  11
10.4
  21
4.91146
  31
0
  0
LINE
  5
f5
  100
AcDbEntity
  8
1
  100
AcDbLine
  10
10.4
  20
4.91146
  30
0
  11
10.5
  21
4.900316
  31
0
  0
LINE
  5
f6
  100
AcDbEntity
  8
1
  100
AcDbLine
  10
10.5
  20
4.900316
  30
0
  11
10.6
  21
4.888518
  31
0
  0
LINE
  5
f7
  100
AcDbEntity
  8
1
  100
AcDbLine
  10
10.6
  20
4.888518
  30
0
  11
10.7
  21
4.876069
  31
0
  0
LINE
  5
f8
  100
AcDbEntity
  8
1
  100
AcDbLine
  10
10.7
  20
4.876069
  30
0
  11
10.8
  21
4.862969
  31
0
  0
LINE
  5
f9
  100
AcDbEntity
  8
1
  100
AcDbLine
  10
10.8
  20
4.862969
  30
0
  11
10.9
  21
4.849222
  31
0
  0
LINE
  5
fa
  100
AcDbEntity
  8
1
  100
AcDbLine
  10
10.9
  20
4.849222
  30
0
  11
11
  21
4.834827
  31
0
  0
LINE
  5
fb
  100
AcDbEntity
  8
1
  100
AcDbLine
  10
11
  20
4.834827
  30
0
  11
11.1
  21
4.819788
  31
0
  0
LINE
  5
fc
  100
AcDbEntity
  8
1
  100
AcDbLine
  10
11.1
  20
4.819788
  30
0
  11
11.2
  21
4.804106
  31
0
  0
LINE
  5
fd
  100
AcDbEntity
  8
1
  100
AcDbLine
  10
11.2
  20
4.804106
  30
0
  11
11.3
  21
4.787784
  31
0
  0
LINE
  5
fe
  100
AcDbEntity
  8
1
  100
AcDbLine
  10
11.3
  20
4.787784
  30
0
  11
11.4
  21
4.770823
  31
0
  0
LINE
  5
ff
  100
AcDbEntity
  8
1
  100
AcDbLine
  10
11.4
  20
4.770823
  30
0
  11
11.5
  21
4.753227
  31
0
  0
LINE
  5
100
  100
AcDbEntity
  8
1
  100
AcDbLine
  10
11.5
  20
4.753227
  30
0
  11
11.6
  21
4.734996
  31
0
  0
LINE
  5
101
  100
AcDbEntity
  8
1
  100
AcDbLine
  10
11.6
  20
4.734996
  30
0
  11
11.7
  21
4.716134
  31
0
  0
LINE
  5
102
  100
AcDbEntity
  8
1
  100
AcDbLine
  10
11.7
  20
4.716134
  30
0
  11
11.8
  21
4.696644
  31
0
  0
LINE
  5
103
  100
AcDbEntity
  8
1
  100
AcDbLine
  10
11.8
  20
4.696644
  30
0
  11
11.9
  21
4.676527
  31
0
  0
LINE
  5
104
  100
AcDbEntity
  8
1
  100
AcDbLine
  10
11.9
  20
4.676527
  30
0
  11
12
  21
4.655787
  31
0
  0
LINE
  5
105
  100
AcDbEntity
  8
1
  100
AcDbLine
  10
12
  20
4.655787
  30
0
  11
12.1
  21
4.634426
  31
0
  0
LINE
  5
106
  100
AcDbEntity
  8
1
  100
AcDbLine
  10
12.1
  20
4.634426
  30
0
  11
12.2
  21
4.612447
  31
0
  0
LINE
  5
107
  100
AcDbEntity
  8
1
  100
AcDbLine
  10
12.2
  20
4.612447
  30
0
  11
12.3
  21
4.589852
  31
0
  0
LINE
  5
108
  100
AcDbEntity
  8
1
  100
AcDbLine
  10
12.3
  20
4.589852
  30
0
  11
12.4
  21
4.566646
  31
0
  0
LINE
  5
109
  100
AcDbEntity
  8
1
  100
AcDbLine
  10
12.4
  20
4.566646
  30
0
  11
12.5
  21
4.542832
  31
0
  0
LINE
  5
10a
  100
AcDbEntity
  8
1
  100
AcDbLine
  10
12.5
  20
4.542832
  30
0
  11
12.6
  21
4.518411
  31
0
  0
LINE
  5
10b
  100
AcDbEntity
  8
1
  100
AcDbLine
  10
12.6
  20
4.518411
  30
0
  11
12.7
  21
4.493388
  31
0
  0
LINE
  5
10c
  100
AcDbEntity
  8
1
  100
AcDbLine
  10
12.7
  20
4.493388
  30
0
  11
12.8
  21
4.467766
  31
0
  0
LINE
  5
10d
  100
AcDbEntity
  8
1
  100
AcDbLine
  10
12.8
  20
4.467766
  30
0
  11
12.9
  21
4.441548
  31
0
  0
LINE
  5
10e
  100
AcDbEntity
  8
1
  100
AcDbLine
  10
12.9
  20
4.441548
  30
0
  11
13
  21
4.414738
  31
0
  0
LINE
  5
10f
  100
AcDbEntity
  8
1
  100
AcDbLine
  10
13
  20
5
  30
0
  11
13
  21
-5
  31
0
  0
LINE
  5
110
  100
AcDbEntity
  8
1
  100
AcDbLine
  10
13
  20
-5
  30
0
  11
13
  21
0
  31
0
  0
LINE
  5
111
  100
AcDbEntity
  8
1
  100
AcDbLine
  10
13
  20
0
  30
0
  11
13
  21
5
  31
0
  0
LINE
  5
112
  100
AcDbEntity
  8
1
  100
AcDbLine
  10
13
  20
5
  30
0
  11
0
  21
5
  31
0
  0
LINE
  5
113
  100
AcDbEntity
  8
1
  100
AcDbLine
  10
0
  20
5
  30
0
  11
0
  21
-5
  31
0
  0
LINE
  5
114
  100
AcDbEntity
  8
1
  100
AcDbLine
  10
0
  20
-5
  30
0
  11
13
  21
-5
  31
0
  0
LINE
  5
115
  100
AcDbEntity
  8
1
  100
AcDbLine
  10
13
  20
-5
  30
0
  11
12.9
  21
-4.999667
  31
0
  0
LINE
  5
116
  100
AcDbEntity
  8
1
  100
AcDbLine
  10
12.9
  20
-4.999667
  30
0
  11
12.8
  21
-4.998667
  31
0
  0
LINE
  5
117
  100
AcDbEntity
  8
1
  100
AcDbLine
  10
12.8
  20
-4.998667
  30
0
  11
12.7
  21
-4.997
  31
0
  0
LINE
  5
118
  100
AcDbEntity
  8
1
  100
AcDbLine
  10
12.7
  20
-4.997
  30
0
  11
12.6
  21
-4.994668
  31
0
  0
LINE
  5
119
  100
AcDbEntity
  8
1
  100
AcDbLine
  10
12.6
  20
-4.994668
  30
0
  11
12.5
  21
-4.991669
  31
0
  0
LINE
  5
11a
  100
AcDbEntity
  8
1
  100
AcDbLine
  10
12.5
  20
-4.991669
  30
0
  11
12.4
  21
-4.988005
  31
0
  0
LINE
  5
11b
  100
AcDbEntity
  8
1
  100
AcDbLine
  10
12.4
  20
-4.988005
  30
0
  11
12.3
  21
-4.983676
  31
0
  0
LINE
  5
11c
  100
AcDbEntity
  8
1
  100
AcDbLine
  10
12.3
  20
-4.983676
  30
0
  11
12.2
  21
-4.978682
  31
0
  0
LINE
  5
11d
  100
AcDbEntity
  8
1
  100
AcDbLine
  10
12.2
  20
-4.978682
  30
0
  11
12.1
  21
-4.973024
  31
0
  0
LINE
  5
11e
  100
AcDbEntity
  8
1
  100
AcDbLine
  10
12.1
  20
-4.973024
  30
0
  11
12
  21
-4.966704
  31
0
  0
LINE
  5
11f
  100
AcDbEntity
  8
1
  100
AcDbLine
  10
12
  20
-4.966704
  30
0
  11
11.9
  21
-4.959721
  31
0
  0
LINE
  5
120
  100
AcDbEntity
  8
1
  100
AcDbLine
  10
11.9
  20
-4.959721
  30
0
  11
11.8
  21
-4.952077
  31
0
  0
LINE
  5
121
  100
AcDbEntity
  8
1
  100
AcDbLine
  10
11.8
  20
-4.952077
  30
0
  11
11.7
  21
-4.943772
  31
0
  0
LINE
  5
122
  100
AcDbEntity
  8
1
  100
AcDbLine
  10
11.7
  20
-4.943772
  30
0
  11
11.6
  21
-4.934809
  31
0
  0
LINE
  5
123
  100
AcDbEntity
  8
1
  100
AcDbLine
  10
11.6
  20
-4.934809
  30
0
  11
11.5
  21
-4.925187
  31
0
  0
LINE
  5
124
  100
AcDbEntity
  8
1
  100
AcDbLine
  10
11.5
  20
-4.925187
  30
0
  11
11.4
  21
-4.914909
  31
0
  0
LINE
  5
125
  100
AcDbEntity
  8
1
  100
AcDbLine
  10
11.4
  20
-4.914909
  30
0
  11
11.3
  21
-4.903976
  31
0
  0
LINE
  5
126
  100
AcDbEntity
  8
1
  100
AcDbLine
  10
11.3
  20
-4.903976
  30
0
  11
11.2
  21
-4.892388
  31
0
  0
LINE
  5
127
  100
AcDbEntity
  8
1
  100
AcDbLine
  10
11.2
  20
-4.892388
  30
0
  11
11.1
  21
-4.880149
  31
0
  0
LINE
  5
128
  100
AcDbEntity
  8
1
  100
AcDbLine
  10
11.1
  20
-4.880149
  30
0
  11
11
  21
-4.867258
  31
0
  0
LINE
  5
129
  100
AcDbEntity
  8
1
  100
AcDbLine
  10
11
  20
-4.867258
  30
0
  11
10.9
  21
-4.853719
  31
0
  0
LINE
  5
12a
  100
AcDbEntity
  8
1
  100
AcDbLine
  10
10.9
  20
-4.853719
  30
0
  11
10.8
  21
-4.839532
  31
0
  0
LINE
  5
12b
  100
AcDbEntity
  8
1
  100
AcDbLine
  10
10.8
  20
-4.839532
  30
0
  11
10.7
  21
-4.824701
  31
0
  0
LINE
  5
12c
  100
AcDbEntity
  8
1
  100
AcDbLine
  10
10.7
  20
-4.824701
  30
0
  11
10.6
  21
-4.809226
  31
0
  0
LINE
  5
12d
  100
AcDbEntity
  8
1
  100
AcDbLine
  10
10.6
  20
-4.809226
  30
0
  11
10.5
  21
-4.793109
  31
0
  0
LINE
  5
12e
  100
AcDbEntity
  8
1
  100
AcDbLine
  10
10.5
  20
-4.793109
  30
0
  11
10.4
  21
-4.776354
  31
0
  0
LINE
  5
12f
  100
AcDbEntity
  8
1
  100
AcDbLine
  10
10.4
  20
-4.776354
  30
0
  11
10.3
  21
-4.758962
  31
0
  0
LINE
  5
130
  100
AcDbEntity
  8
1
  100
AcDbLine
  10
10.3
  20
-4.758962
  30
0
  11
10.2
  21
-4.740935
  31
0
  0
LINE
  5
131
  100
AcDbEntity
  8
1
  100
AcDbLine
  10
10.2
  20
-4.740935
  30
0
  11
10.1
  21
-4.722276
  31
0
  0
LINE
  5
132
  100
AcDbEntity
  8
1
  100
AcDbLine
  10
10.1
  20
-4.722276
  30
0
  11
10
  21
-4.702988
  31
0
  0
LINE
  5
133
  100
AcDbEntity
  8
1
  100
AcDbLine
  10
10
  20
-4.702988
  30
0
  11
9.9
  21
-4.683073
  31
0
  0
LINE
  5
134
  100
AcDbEntity
  8
1
  100
AcDbLine
  10
9.9
  20
-4.683073
  30
0
  11
9.8
  21
-4.662533
  31
0
  0
LINE
  5
135
  100
AcDbEntity
  8
1
  100
AcDbLine
  10
9.8
  20
-4.662533
  30
0
  11
9.7
  21
-4.641371
  31
0
  0
LINE
  5
136
  100
AcDbEntity
  8
1
  100
AcDbLine
  10
9.7
  20
-4.641371
  30
0
  11
9.6
  21
-4.619591
  31
0
  0
LINE
  5
137
  100
AcDbEntity
  8
1
  100
AcDbLine
  10
9.6
  20
-4.619591
  30
0
  11
9.5
  21
-4.597194
  31
0
  0
LINE
  5
138
  100
AcDbEntity
  8
1
  100
AcDbLine
  10
9.5
  20
-4.597194
  30
0
  11
9.4
  21
-4.574185
  31
0
  0
LINE
  5
139
  100
AcDbEntity
  8
1
  100
AcDbLine
  10
9.4
  20
-4.574185
  30
0
  11
9.3
  21
-4.550566
  31
0
  0
LINE
  5
13a
  100
AcDbEntity
  8
1
  100
AcDbLine
  10
9.3
  20
-4.550566
  30
0
  11
9.2
  21
-4.52634
  31
0
  0
LINE
  5
13b
  100
AcDbEntity
  8
1
  100
AcDbLine
  10
9.2
  20
-4.52634
  30
0
  11
9.1
  21
-4.501511
  31
0
  0
LINE
  5
13c
  100
AcDbEntity
  8
1
  100
AcDbLine
  10
9.1
  20
-4.501511
  30
0
  11
9
  21
-4.476081
  31
0
  0
LINE
  5
13d
  100
AcDbEntity
  8
1
  100
AcDbLine
  10
9
  20
-4.476081
  30
0
  11
8.9
  21
-4.450055
  31
0
  0
LINE
  5
13e
  100
AcDbEntity
  8
1
  100
AcDbLine
  10
8.9
  20
-4.450055
  30
0
  11
8.8
  21
-4.423435
  31
0
  0
LINE
  5
13f
  100
AcDbEntity
  8
1
  100
AcDbLine
  10
8.8
  20
-4.423435
  30
0
  11
8.7
  21
-4.396225
  31
0
  0
LINE
  5
140
  100
AcDbEntity
  8
1
  100
AcDbLine
  10
8.7
  20
-4.396225
  30
0
  11
8.6
  21
-4.36843
  31
0
  0
LINE
  5
141
  100
AcDbEntity
  8
1
  100
AcDbLine
  10
8.6
  20
-4.36843
  30
0
  11
8.5
  21
-4.340051
  31
0
  0
LINE
  5
142
  100
AcDbEntity
  8
1
  100
AcDbLine
  10
8.5
  20
-4.340051
  30
0
  11
8.4
  21
-4.311095
  31
0
  0
LINE
  5
143
  100
AcDbEntity
  8
1
  100
AcDbLine
  10
8.4
  20
-4.311095
  30
0
  11
8.3
  21
-4.281563
  31
0
  0
LINE
  5
144
  100
AcDbEntity
  8
1
  100
AcDbLine
  10
8.3
  20
-4.281563
  30
0
  11
8.2
  21
-4.251461
  31
0
  0
LINE
  5
145
  100
AcDbEntity
  8
1
  100
AcDbLine
  10
8.2
  20
-4.251461
  30
0
  11
8.1
  21
-4.220791
  31
0
  0
LINE
  5
146
  100
AcDbEntity
  8
1
  100
AcDbLine
  10
8.1
  20
-4.220791
  30
0
  11
8
  21
-4.189559
  31
0
  0
LINE
  5
147
  100
AcDbEntity
  8
1
  100
AcDbLine
  10
8
  20
-4.189559
  30
0
  11
7.9
  21
-4.157768
  31
0
  0
LINE
  5
148
  100
AcDbEntity
  8
1
  100
AcDbLine
  10
7.9
  20
-4.157768
  30
0
  11
7.8
  21
-4.125423
  31
0
  0
LINE
  5
149
  100
AcDbEntity
  8
1
  100
AcDbLine
  10
7.8
  20
-4.125423
  30
0
  11
7.7
  21
-4.092528
  31
0
  0
LINE
  5
14a
  100
AcDbEntity
  8
1
  100
AcDbLine
  10
7.7
  20
-4.092528
  30
0
  11
7.6
  21
-4.059087
  31
0
  0
LINE
  5
14b
  100
AcDbEntity
  8
1
  100
AcDbLine
  10
7.6
  20
-4.059087
  30
0
  11
7.5
  21
-4.025105
  31
0
  0
LINE
  5
14c
  100
AcDbEntity
  8
1
  100
AcDbLine
  10
7.5
  20
-4.025105
  30
0
  11
7.4
  21
-3.990587
  31
0
  0
LINE
  5
14d
  100
AcDbEntity
  8
1
  100
AcDbLine
  10
7.4
  20
-3.990587
  30
0
  11
7.3
  21
-3.955536
  31
0
  0
LINE
  5
14e
  100
AcDbEntity
  8
1
  100
AcDbLine
  10
7.3
  20
-3.955536
  30
0
  11
7.2
  21
-3.919958
  31
0
  0
LINE
  5
14f
  100
AcDbEntity
  8
1
  100
AcDbLine
  10
7.2
  20
-3.919958
  30
0
  11
7.1
  21
-3.883857
  31
0
  0
LINE
  5
150
  100
AcDbEntity
  8
1
  100
AcDbLine
  10
7.1
  20
-3.883857
  30
0
  11
7
  21
-3.847239
  31
0
  0
LINE
  5
151
  100
AcDbEntity
  8
1
  100
AcDbLine
  10
7
  20
-3.847239
  30
0
  11
6.9
  21
-3.810107
  31
0
  0
LINE
  5
152
  100
AcDbEntity
  8
1
  100
AcDbLine
  10
6.9
  20
-3.810107
  30
0
  11
6.8
  21
-3.772467
  31
0
  0
LINE
  5
153
  100
AcDbEntity
  8
1
  100
AcDbLine
  10
6.8
  20
-3.772467
  30
0
  11
6.7
  21
-3.734325
  31
0
  0
LINE
  5
154
  100
AcDbEntity
  8
1
  100
AcDbLine
  10
6.7
  20
-3.734325
  30
0
  11
6.6
  21
-3.695684
  31
0
  0
LINE
  5
155
  100
AcDbEntity
  8
1
  100
AcDbLine
  10
6.6
  20
-3.695684
  30
0
  11
6.5
  21
-3.656551
  31
0
  0
LINE
  5
156
  100
AcDbEntity
  8
1
  100
AcDbLine
  10
6.5
  20
-3.656551
  30
0
  11
6.4
  21
-3.61693
  31
0
  0
LINE
  5
157
  100
AcDbEntity
  8
1
  100
AcDbLine
  10
6.4
  20
-3.61693
  30
0
  11
6.3
  21
-3.576827
  31
0
  0
LINE
  5
158
  100
AcDbEntity
  8
1
  100
AcDbLine
  10
6.3
  20
-3.576827
  30
0
  11
6.2
  21
-3.536247
  31
0
  0
LINE
  5
159
  100
AcDbEntity
  8
1
  100
AcDbLine
  10
6.2
  20
-3.536247
  30
0
  11
6.1
  21
-3.495196
  31
0
  0
LINE
  5
15a
  100
AcDbEntity
  8
1
  100
AcDbLine
  10
6.1
  20
-3.495196
  30
0
  11
6
  21
-3.453678
  31
0
  0
LINE
  5
15b
  100
AcDbEntity
  8
1
  100
AcDbLine
  10
6
  20
-3.453678
  30
0
  11
5.9
  21
-3.4117
  31
0
  0
LINE
  5
15c
  100
AcDbEntity
  8
1
  100
AcDbLine
  10
5.9
  20
-3.4117
  30
0
  11
5.8
  21
-3.369268
  31
0
  0
LINE
  5
15d
  100
AcDbEntity
  8
1
  100
AcDbLine
  10
5.8
  20
-3.369268
  30
0
  11
5.7
  21
-3.326386
  31
0
  0
LINE
  5
15e
  100
AcDbEntity
  8
1
  100
AcDbLine
  10
5.7
  20
-3.326386
  30
0
  11
5.6
  21
-3.28306
  31
0
  0
LINE
  5
15f
  100
AcDbEntity
  8
1
  100
AcDbLine
  10
5.6
  20
-3.28306
  30
0
  11
5.5
  21
-3.239297
  31
0
  0
LINE
  5
160
  100
AcDbEntity
  8
1
  100
AcDbLine
  10
5.5
  20
-3.239297
  30
0
  11
5.4
  21
-3.195102
  31
0
  0
LINE
  5
161
  100
AcDbEntity
  8
1
  100
AcDbLine
  10
5.4
  20
-3.195102
  30
0
  11
5.3
  21
-3.15048
  31
0
  0
LINE
  5
162
  100
AcDbEntity
  8
1
  100
AcDbLine
  10
5.3
  20
-3.15048
  30
0
  11
5.2
  21
-3.105439
  31
0
  0
LINE
  5
163
  100
AcDbEntity
  8
1
  100
AcDbLine
  10
5.2
  20
-3.105439
  30
0
  11
5.1
  21
-3.059984
  31
0
  0
LINE
  5
164
  100
AcDbEntity
  8
1
  100
AcDbLine
  10
5.1
  20
-3.059984
  30
0
  11
5
  21
-3.01412
  31
0
  0
LINE
  5
165
  100
AcDbEntity
  8
1
  100
AcDbLine
  10
5
  20
-3.01412
  30
0
  11
4.9
  21
-2.967855
  31
0
  0
LINE
  5
166
  100
AcDbEntity
  8
1
  100
AcDbLine
  10
4.9
  20
-2.967855
  30
0
  11
4.8
  21
-2.921194
  31
0
  0
LINE
  5
167
  100
AcDbEntity
  8
1
  100
AcDbLine
  10
4.8
  20
-2.921194
  30
0
  11
4.7
  21
-2.874144
  31
0
  0
LINE
  5
168
  100
AcDbEntity
  8
1
  100
AcDbLine
  10
4.7
  20
-2.874144
  30
0
  11
4.6
  21
-2.82671
  31
0
  0
LINE
  5
169
  100
AcDbEntity
  8
1
  100
AcDbLine
  10
4.6
  20
-2.82671
  30
0
  11
4.5
  21
-2.7789
  31
0
  0
LINE
  5
16a
  100
AcDbEntity
  8
1
  100
AcDbLine
  10
4.5
  20
-2.7789
  30
0
  11
4.4
  21
-2.730719
  31
0
  0
LINE
  5
16b
  100
AcDbEntity
  8
1
  100
AcDbLine
  10
4.4
  20
-2.730719
  30
0
  11
4.3
  21
-2.682174
  31
0
  0
LINE
  5
16c
  100
AcDbEntity
  8
1
  100
AcDbLine
  10
4.3
  20
-2.682174
  30
0
  11
4.2
  21
-2.633271
  31
0
  0
LINE
  5
16d
  100
AcDbEntity
  8
1
  100
AcDbLine
  10
4.2
  20
-2.633271
  30
0
  11
4.1
  21
-2.584017
  31
0
  0
LINE
  5
16e
  100
AcDbEntity
  8
1
  100
AcDbLine
  10
4.1
  20
-2.584017
  30
0
  11
4
  21
-2.534419
  31
0
  0
LINE
  5
16f
  100
AcDbEntity
  8
1
  100
AcDbLine
  10
4
  20
-2.534419
  30
0
  11
3.9
  21
-2.484482
  31
0
  0
LINE
  5
170
  100
AcDbEntity
  8
1
  100
AcDbLine
  10
3.9
  20
-2.484482
  30
0
  11
3.8
  21
-2.434215
  31
0
  0
LINE
  5
171
  100
AcDbEntity
  8
1
  100
AcDbLine
  10
3.8
  20
-2.434215
  30
0
  11
3.7
  21
-2.383623
  31
0
  0
LINE
  5
172
  100
AcDbEntity
  8
1
  100
AcDbLine
  10
3.7
  20
-2.383623
  30
0
  11
3.6
  21
-2.332713
  31
0
  0
LINE
  5
173
  100
AcDbEntity
  8
1
  100
AcDbLine
  10
3.6
  20
-2.332713
  30
0
  11
3.5
  21
-2.281492
  31
0
  0
LINE
  5
174
  100
AcDbEntity
  8
1
  100
AcDbLine
  10
3.5
  20
-2.281492
  30
0
  11
3.4
  21
-2.229967
  31
0
  0
LINE
  5
175
  100
AcDbEntity
  8
1
  100
AcDbLine
  10
3.4
  20
-2.229967
  30
0
  11
3.3
  21
-2.178144
  31
0
  0
LINE
  5
176
  100
AcDbEntity
  8
1
  100
AcDbLine
  10
3.3
  20
-2.178144
  30
0
  11
3.2
  21
-2.126031
  31
0
  0
LINE
  5
177
  100
AcDbEntity
  8
1
  100
AcDbLine
  10
3.2
  20
-2.126031
  30
0
  11
3.1
  21
-2.073635
  31
0
  0
LINE
  5
178
  100
AcDbEntity
  8
1
  100
AcDbLine
  10
3.1
  20
-2.073635
  30
0
  11
3
  21
-2.020962
  31
0
  0
LINE
  5
179
  100
AcDbEntity
  8
1
  100
AcDbLine
  10
3
  20
-2.020962
  30
0
  11
2.9
  21
-1.96802
  31
0
  0
LINE
  5
17a
  100
AcDbEntity
  8
1
  100
AcDbLine
  10
2.9
  20
-1.96802
  30
0
  11
2.8
  21
-1.914815
  31
0
  0
LINE
  5
17b
  100
AcDbEntity
  8
1
  100
AcDbLine
  10
2.8
  20
-1.914815
  30
0
  11
2.7
  21
-1.861355
  31
0
  0
LINE
  5
17c
  100
AcDbEntity
  8
1
  100
AcDbLine
  10
2.7
  20
-1.861355
  30
0
  11
2.6
  21
-1.807647
  31
0
  0
LINE
  5
17d
  100
AcDbEntity
  8
1
  100
AcDbLine
  10
2.6
  20
-1.807647
  30
0
  11
2.5
  21
-1.753698
  31
0
  0
LINE
  5
17e
  100
AcDbEntity
  8
1
  100
AcDbLine
  10
2.5
  20
-1.753698
  30
0
  11
2.4
  21
-1.699515
  31
0
  0
LINE
  5
17f
  100
AcDbEntity
  8
1
  100
AcDbLine
  10
2.4
  20
-1.699515
  30
0
  11
2.3
  21
-1.645105
  31
0
  0
LINE
  5
180
  100
AcDbEntity
  8
1
  100
AcDbLine
  10
2.3
  20
-1.645105
  30
0
  11
2.2
  21
-1.590476
  31
0
  0
LINE
  5
181
  100
AcDbEntity
  8
1
  100
AcDbLine
  10
2.2
  20
-1.590476
  30
0
  11
2.1
  21
-1.535635
  31
0
  0
LINE
  5
182
  100
AcDbEntity
  8
1
  100
AcDbLine
  10
2.1
  20
-1.535635
  30
0
  11
2
  21
-1.48059
  31
0
  0
LINE
  5
183
  100
AcDbEntity
  8
1
  100
AcDbLine
  10
2
  20
-1.48059
  30
0
  11
1.9
  21
-1.425347
  31
0
  0
LINE
  5
184
  100
AcDbEntity
  8
1
  100
AcDbLine
  10
1.9
  20
-1.425347
  30
0
  11
1.8
  21
-1.369913
  31
0
  0
LINE
  5
185
  100
AcDbEntity
  8
1
  100
AcDbLine
  10
1.8
  20
-1.369913
  30
0
  11
1.7
  21
-1.314297
  31
0
  0
LINE
  5
186
  100
AcDbEntity
  8
1
  100
AcDbLine
  10
1.7
  20
-1.314297
  30
0
  11
1.6
  21
-1.258506
  31
0
  0
LINE
  5
187
  100
AcDbEntity
  8
1
  100
AcDbLine
  10
1.6
  20
-1.258506
  30
0
  11
1.5
  21
-1.202547
  31
0
  0
LINE
  5
188
  100
AcDbEntity
  8
1
  100
AcDbLine
  10
1.5
  20
-1.202547
  30
0
  11
1.4
  21
-1.146428
  31
0
  0
LINE
  5
189
  100
AcDbEntity
  8
1
  100
AcDbLine
  10
1.4
  20
-1.146428
  30
0
  11
1.3
  21
-1.090156
  31
0
  0
LINE
  5
18a
  100
AcDbEntity
  8
1
  100
AcDbLine
  10
1.3
  20
-1.090156
  30
0
  11
1.2
  21
-1.033739
  31
0
  0
LINE
  5
18b
  100
AcDbEntity
  8
1
  100
AcDbLine
  10
1.2
  20
-1.033739
  30
0
  11
1.1
  21
-0.977183
  31
0
  0
LINE
  5
18c
  100
AcDbEntity
  8
1
  100
AcDbLine
  10
1.1
  20
-0.977183
  30
0
  11
1
  21
-0.920498
  31
0
  0
LINE
  5
18d
  100
AcDbEntity
  8
1
  100
AcDbLine
  10
1
  20
-0.920498
  30
0
  11
0.9
  21
-0.863689
  31
0
  0
LINE
  5
18e
  100
AcDbEntity
  8
1
  100
AcDbLine
  10
0.9
  20
-0.863689
  30
0
  11
0.8
  21
-0.806766
  31
0
  0
LINE
  5
18f
  100
AcDbEntity
  8
1
  100
AcDbLine
  10
0.8
  20
-0.806766
  30
0
  11
0.7
  21
-0.749735
  31
0
  0
LINE
  5
190
  100
AcDbEntity
  8
1
  100
AcDbLine
  10
0.7
  20
-0.749735
  30
0
  11
0.6
  21
-0.692604
  31
0
  0
LINE
  5
191
  100
AcDbEntity
  8
1
  100
AcDbLine
  10
0.6
  20
-0.692604
  30
0
  11
0.5
  21
-0.635381
  31
0
  0
LINE
  5
192
  100
AcDbEntity
  8
1
  100
AcDbLine
  10
0.5
  20
-0.635381
  30
0
  11
0.4
  21
-0.578073
  31
0
  0
LINE
  5
193
  100
AcDbEntity
  8
1
  100
AcDbLine
  10
0.4
  20
-0.578073
  30
0
  11
0.3
  21
-0.520687
  31
0
  0
LINE
  5
194
  100
AcDbEntity
  8
1
  100
AcDbLine
  10
0.3
  20
-0.520687
  30
0
  11
0.2
  21
-0.463233
  31
0
  0
LINE
  5
195
  100
AcDbEntity
  8
1
  100
AcDbLine
  10
0.2
  20
-0.463233
  30
0
  11
0.1
  21
-0.405717
  31
0
  0
LINE
  5
196
  100
AcDbEntity
  8
1
  100
AcDbLine
  10
0.1
  20
-0.405717
  30
0
  11
0
  21
-0.348146
  31
0
  0
LINE
  5
197
  100
AcDbEntity
  8
1
  100
AcDbLine
  10
0
  20
0.397735
  30
0
  11
0.1
  21
0.341021
  31
0
  0
LINE
  5
198
  100
AcDbEntity
  8
1
  100
AcDbLine
  10
0.1
  20
0.341021
  30
0
  11
0.2
  21
0.284262
  31
0
  0
LINE
  5
199
  100
AcDbEntity
  8
1
  100
AcDbLine
  10
0.2
  20
0.284262
  30
0
  11
0.3
  21
0.227465
  31
0
  0
LINE
  5
19a
  100
AcDbEntity
  8
1
  100
AcDbLine
  10
0.3
  20
0.227465
  30
0
  11
0.4
  21
0.170637
  31
0
  0
LINE
  5
19b
  100
AcDbEntity
  8
1
  100
AcDbLine
  10
0.4
  20
0.170637
  30
0
  11
0.5
  21
0.113787
  31
0
  0
LINE
  5
19c
  100
AcDbEntity
  8
1
  100
AcDbLine
  10
0.5
  20
0.113787
  30
0
  11
0.6
  21
0.056922
  31
0
  0
LINE
  5
19d
  100
AcDbEntity
  8
1
  100
AcDbLine
  10
0.6
  20
0.056922
  30
0
  11
0.7
  21
0.000049
  31
0
  0
LINE
  5
19e
  100
AcDbEntity
  8
1
  100
AcDbLine
  10
0.7
  20
0.000049
  30
0
  11
0.8
  21
-0.056824
  31
0
  0
LINE
  5
19f
  100
AcDbEntity
  8
1
  100
AcDbLine
  10
0.8
  20
-0.056824
  30
0
  11
0.9
  21
-0.11369
  31
0
  0
LINE
  5
1a0
  100
AcDbEntity
  8
1
  100
AcDbLine
  10
0.9
  20
-0.11369
  30
0
  11
1
  21
-0.17054
  31
0
  0
LINE
  5
1a1
  100
AcDbEntity
  8
1
  100
AcDbLine
  10
1
  20
-0.17054
  30
0
  11
1.1
  21
-0.227368
  31
0
  0
LINE
  5
1a2
  100
AcDbEntity
  8
1
  100
AcDbLine
  10
1.1
  20
-0.227368
  30
0
  11
1.2
  21
-0.284165
  31
0
  0
LINE
  5
1a3
  100
AcDbEntity
  8
1
  100
AcDbLine
  10
1.2
  20
-0.284165
  30
0
  11
1.3
  21
-0.340924
  31
0
  0
LINE
  5
1a4
  100
AcDbEntity
  8
1
  100
AcDbLine
  10
1.3
  20
-0.340924
  30
0
  11
1.4
  21
-0.397638
  31
0
  0
LINE
  5
1a5
  100
AcDbEntity
  8
1
  100
AcDbLine
  10
1.4
  20
-0.397638
  30
0
  11
1.5
  21
-0.454299
  31
0
  0
LINE
  5
1a6
  100
AcDbEntity
  8
1
  100
AcDbLine
  10
1.5
  20
-0.454299
  30
0
  11
1.6
  21
-0.510899
  31
0
  0
LINE
  5
1a7
  100
AcDbEntity
  8
1
  100
AcDbLine
  10
1.6
  20
-0.510899
  30
0
  11
1.7
  21
-0.567432
  31
0
  0
LINE
  5
1a8
  100
AcDbEntity
  8
1
  100
AcDbLine
  10
1.7
  20
-0.567432
  30
0
  11
1.8
  21
-0.623888
  31
0
  0
LINE
  5
1a9
  100
AcDbEntity
  8
1
  100
AcDbLine
  10
1.8
  20
-0.623888
  30
0
  11
1.9
  21
-0.680261
  31
0
  0
LINE
  5
1aa
  100
AcDbEntity
  8
1
  100
AcDbLine
  10
1.9
  20
-0.680261
  30
0
  11
2
  21
-0.736544
  31
0
  0
LINE
  5
1ab
  100
AcDbEntity
  8
1
  100
AcDbLine
  10
2
  20
-0.736544
  30
0
  11
2.1
  21
-0.792729
  31
0
  0
LINE
  5
1ac
  100
AcDbEntity
  8
1
  100
AcDbLine
  10
2.1
  20
-0.792729
  30
0
  11
2.2
  21
-0.848807
  31
0
  0
LINE
  5
1ad
  100
AcDbEntity
  8
1
  100
AcDbLine
  10
2.2
  20
-0.848807
  30
0
  11
2.3
  21
-0.904773
  31
0
  0
LINE
  5
1ae
  100
AcDbEntity
  8
1
  100
AcDbLine
  10
2.3
  20
-0.904773
  30
0
  11
2.4
  21
-0.960618
  31
0
  0
LINE
  5
1af
  100
AcDbEntity
  8
1
  100
AcDbLine
  10
2.4
  20
-0.960618
  30
0
  11
2.5
  21
-1.016335
  31
0
  0
LINE
  5
1b0
  100
AcDbEntity
  8
1
  100
AcDbLine
  10
2.5
  20
-1.016335
  30
0
  11
2.6
  21
-1.071916
  31
0
  0
LINE
  5
1b1
  100
AcDbEntity
  8
1
  100
AcDbLine
  10
2.6
  20
-1.071916
  30
0
  11
2.7
  21
-1.127354
  31
0
  0
LINE
  5
1b2
  100
AcDbEntity
  8
1
  100
AcDbLine
  10
2.7
  20
-1.127354
  30
0
  11
2.8
  21
-1.182643
  31
0
  0
LINE
  5
1b3
  100
AcDbEntity
  8
1
  100
AcDbLine
  10
2.8
  20
-1.182643
  30
0
  11
2.9
  21
-1.237773
  31
0
  0
LINE
  5
1b4
  100
AcDbEntity
  8
1
  100
AcDbLine
  10
2.9
  20
-1.237773
  30
0
  11
3
  21
-1.292738
  31
0
  0
LINE
  5
1b5
  100
AcDbEntity
  8
1
  100
AcDbLine
  10
3
  20
-1.292738
  30
0
  11
3.1
  21
-1.347531
  31
0
  0
LINE
  5
1b6
  100
AcDbEntity
  8
1
  100
AcDbLine
  10
3.1
  20
-1.347531
  30
0
  11
3.2
  21
-1.402145
  31
0
  0
LINE
  5
1b7
  100
AcDbEntity
  8
1
  100
AcDbLine
  10
3.2
  20
-1.402145
  30
0
  11
3.3
  21
-1.456571
  31
0
  0
LINE
  5
1b8
  100
AcDbEntity
  8
1
  100
AcDbLine
  10
3.3
  20
-1.456571
  30
0
  11
3.4
  21
-1.510803
  31
0
  0
LINE
  5
1b9
  100
AcDbEntity
  8
1
  100
AcDbLine
  10
3.4
  20
-1.510803
  30
0
  11
3.5
  21
-1.564834
  31
0
  0
LINE
  5
1ba
  100
AcDbEntity
  8
1
  100
AcDbLine
  10
3.5
  20
-1.564834
  30
0
  11
3.6
  21
-1.618656
  31
0
  0
LINE
  5
1bb
  100
AcDbEntity
  8
1
  100
AcDbLine
  10
3.6
  20
-1.618656
  30
0
  11
3.7
  21
-1.672263
  31
0
  0
LINE
  5
1bc
  100
AcDbEntity
  8
1
  100
AcDbLine
  10
3.7
  20
-1.672263
  30
0
  11
3.8
  21
-1.725646
  31
0
  0
LINE
  5
1bd
  100
AcDbEntity
  8
1
  100
AcDbLine
  10
3.8
  20
-1.725646
  30
0
  11
3.9
  21
-1.778799
  31
0
  0
LINE
  5
1be
  100
AcDbEntity
  8
1
  100
AcDbLine
  10
3.9
  20
-1.778799
  30
0
  11
4
  21
-1.831715
  31
0
  0
LINE
  5
1bf
  100
AcDbEntity
  8
1
  100
AcDbLine
  10
4
  20
-1.831715
  30
0
  11
4.1
  21
-1.884387
  31
0
  0
LINE
  5
1c0
  100
AcDbEntity
  8
1
  100
AcDbLine
  10
4.1
  20
-1.884387
  30
0
  11
4.2
  21
-1.936808
  31
0
  0
LINE
  5
1c1
  100
AcDbEntity
  8
1
  100
AcDbLine
  10
4.2
  20
-1.936808
  30
0
  11
4.3
  21
-1.98897
  31
0
  0
LINE
  5
1c2
  100
AcDbEntity
  8
1
  100
AcDbLine
  10
4.3
  20
-1.98897
  30
0
  11
4.4
  21
-2.040867
  31
0
  0
LINE
  5
1c3
  100
AcDbEntity
  8
1
  100
AcDbLine
  10
4.4
  20
-2.040867
  30
0
  11
4.5
  21
-2.092492
  31
0
  0
LINE
  5
1c4
  100
AcDbEntity
  8
1
  100
AcDbLine
  10
4.5
  20
-2.092492
  30
0
  11
4.6
  21
-2.143838
  31
0
  0
LINE
  5
1c5
  100
AcDbEntity
  8
1
  100
AcDbLine
  10
4.6
  20
-2.143838
  30
0
  11
4.7
  21
-2.194899
  31
0
  0
LINE
  5
1c6
  100
AcDbEntity
  8
1
  100
AcDbLine
  10
4.7
  20
-2.194899
  30
0
  11
4.8
  21
-2.245666
  31
0
  0
LINE
  5
1c7
  100
AcDbEntity
  8
1
  100
AcDbLine
  10
4.8
  20
-2.245666
  30
0
  11
4.9
  21
-2.296134
  31
0
  0
LINE
  5
1c8
  100
AcDbEntity
  8
1
  100
AcDbLine
  10
4.9
  20
-2.296134
  30
0
  11
5
  21
-2.346296
  31
0
  0
LINE
  5
1c9
  100
AcDbEntity
  8
1
  100
AcDbLine
  10
5
  20
-2.346296
  30
0
  11
5.1
  21
-2.396146
  31
0
  0
LINE
  5
1ca
  100
AcDbEntity
  8
1
  100
AcDbLine
  10
5.1
  20
-2.396146
  30
0
  11
5.2
  21
-2.445675
  31
0
  0
LINE
  5
1cb
  100
AcDbEntity
  8
1
  100
AcDbLine
  10
5.2
  20
-2.445675
  30
0
  11
5.3
  21
-2.494879
  31
0
  0
LINE
  5
1cc
  100
AcDbEntity
  8
1
  100
AcDbLine
  10
5.3
  20
-2.494879
  30
0
  11
5.4
  21
-2.54375
  31
0
  0
LINE
  5
1cd
  100
AcDbEntity
  8
1
  100
AcDbLine
  10
5.4
  20
-2.54375
  30
0
  11
5.5
  21
-2.592282
  31
0
  0
LINE
  5
1ce
  100
AcDbEntity
  8
1
  100
AcDbLine
  10
5.5
  20
-2.592282
  30
0
  11
5.6
  21
-2.640468
  31
0
  0
LINE
  5
1cf
  100
AcDbEntity
  8
1
  100
AcDbLine
  10
5.6
  20
-2.640468
  30
0
  11
5.7
  21
-2.688302
  31
0
  0
LINE
  5
1d0
  100
AcDbEntity
  8
1
  100
AcDbLine
  10
5.7
  20
-2.688302
  30
0
  11
5.8
  21
-2.735778
  31
0
  0
LINE
  5
1d1
  100
AcDbEntity
  8
1
  100
AcDbLine
  10
5.8
  20
-2.735778
  30
0
  11
5.9
  21
-2.782889
  31
0
  0
LINE
  5
1d2
  100
AcDbEntity
  8
1
  100
AcDbLine
  10
5.9
  20
-2.782889
  30
0
  11
6
  21
-2.829628
  31
0
  0
LINE
  5
1d3
  100
AcDbEntity
  8
1
  100
AcDbLine
  10
6
  20
-2.829628
  30
0
  11
6.1
  21
-2.875991
  31
0
  0
LINE
  5
1d4
  100
AcDbEntity
  8
1
  100
AcDbLine
  10
6.1
  20
-2.875991
  30
0
  11
6.2
  21
-2.92197
  31
0
  0
LINE
  5
1d5
  100
AcDbEntity
  8
1
  100
AcDbLine
  10
6.2
  20
-2.92197
  30
0
  11
6.3
  21
-2.96756
  31
0
  0
LINE
  5
1d6
  100
AcDbEntity
  8
1
  100
AcDbLine
  10
6.3
  20
-2.96756
  30
0
  11
6.4
  21
-3.012753
  31
0
  0
LINE
  5
1d7
  100
AcDbEntity
  8
1
  100
AcDbLine
  10
6.4
  20
-3.012753
  30
0
  11
6.5
  21
-3.057546
  31
0
  0
LINE
  5
1d8
  100
AcDbEntity
  8
1
  100
AcDbLine
  10
6.5
  20
-3.057546
  30
0
  11
6.6
  21
-3.10193
  31
0
  0
LINE
  5
1d9
  100
AcDbEntity
  8
1
  100
AcDbLine
  10
6.6
  20
-3.10193
  30
0
  11
6.7
  21
-3.145901
  31
0
  0
LINE
  5
1da
  100
AcDbEntity
  8
1
  100
AcDbLine
  10
6.7
  20
-3.145901
  30
0
  11
6.8
  21
-3.189452
  31
0
  0
LINE
  5
1db
  100
AcDbEntity
  8
1
  100
AcDbLine
  10
6.8
  20
-3.189452
  30
0
  11
6.9
  21
-3.232579
  31
0
  0
LINE
  5
1dc
  100
AcDbEntity
  8
1
  100
AcDbLine
  10
6.9
  20
-3.232579
  30
0
  11
7
  21
-3.275274
  31
0
  0
LINE
  5
1dd
  100
AcDbEntity
  8
1
  100
AcDbLine
  10
7
  20
-3.275274
  30
0
  11
7.1
  21
-3.317532
  31
0
  0
LINE
  5
1de
  100
AcDbEntity
  8
1
  100
AcDbLine
  10
7.1
  20
-3.317532
  30
0
  11
7.2
  21
-3.359349
  31
0
  0
LINE
  5
1df
  100
AcDbEntity
  8
1
  100
AcDbLine
  10
7.2
  20
-3.359349
  30
0
  11
7.3
  21
-3.400717
  31
0
  0
LINE
  5
1e0
  100
AcDbEntity
  8
1
  100
AcDbLine
  10
7.3
  20
-3.400717
  30
0
  11
7.4
  21
-3.441632
  31
0
  0
LINE
  5
1e1
  100
AcDbEntity
  8
1
  100
AcDbLine
  10
7.4
  20
-3.441632
  30
0
  11
7.5
  21
-3.482088
  31
0
  0
LINE
  5
1e2
  100
AcDbEntity
  8
1
  100
AcDbLine
  10
7.5
  20
-3.482088
  30
0
  11
7.6
  21
-3.522079
  31
0
  0
LINE
  5
1e3
  100
AcDbEntity
  8
1
  100
AcDbLine
  10
7.6
  20
-3.522079
  30
0
  11
7.7
  21
-3.561601
  31
0
  0
LINE
  5
1e4
  100
AcDbEntity
  8
1
  100
AcDbLine
  10
7.7
  20
-3.561601
  30
0
  11
7.8
  21
-3.600649
  31
0
  0
LINE
  5
1e5
  100
AcDbEntity
  8
1
  100
AcDbLine
  10
7.8
  20
-3.600649
  30
0
  11
7.9
  21
-3.639216
  31
0
  0
LINE
  5
1e6
  100
AcDbEntity
  8
1
  100
AcDbLine
  10
7.9
  20
-3.639216
  30
0
  11
8
  21
-3.677298
  31
0
  0
LINE
  5
1e7
  100
AcDbEntity
  8
1
  100
AcDbLine
  10
8
  20
-3.677298
  30
0
  11
8.1
  21
-3.714889
  31
0
  0
LINE
  5
1e8
  100
AcDbEntity
  8
1
  100
AcDbLine
  10
8.1
  20
-3.714889
  30
0
  11
8.2
  21
-3.751985
  31
0
  0
LINE
  5
1e9
  100
AcDbEntity
  8
1
  100
AcDbLine
  10
8.2
  20
-3.751985
  30
0
  11
8.3
  21
-3.788581
  31
0
  0
LINE
  5
1ea
  100
AcDbEntity
  8
1
  100
AcDbLine
  10
8.3
  20
-3.788581
  30
0
  11
8.4
  21
-3.824672
  31
0
  0
LINE
  5
1eb
  100
AcDbEntity
  8
1
  100
AcDbLine
  10
8.4
  20
-3.824672
  30
0
  11
8.5
  21
-3.860253
  31
0
  0
LINE
  5
1ec
  100
AcDbEntity
  8
1
  100
AcDbLine
  10
8.5
  20
-3.860253
  30
0
  11
8.6
  21
-3.895319
  31
0
  0
LINE
  5
1ed
  100
AcDbEntity
  8
1
  100
AcDbLine
  10
8.6
  20
-3.895319
  30
0
  11
8.7
  21
-3.929866
  31
0
  0
LINE
  5
1ee
  100
AcDbEntity
  8
1
  100
AcDbLine
  10
8.7
  20
-3.929866
  30
0
  11
8.8
  21
-3.963889
  31
0
  0
LINE
  5
1ef
  100
AcDbEntity
  8
1
  100
AcDbLine
  10
8.8
  20
-3.963889
  30
0
  11
8.9
  21
-3.997384
  31
0
  0
LINE
  5
1f0
  100
AcDbEntity
  8
1
  100
AcDbLine
  10
8.9
  20
-3.997384
  30
0
  11
9
  21
-4.030345
  31
0
  0
LINE
  5
1f1
  100
AcDbEntity
  8
1
  100
AcDbLine
  10
9
  20
-4.030345
  30
0
  11
9.1
  21
-4.062769
  31
0
  0
LINE
  5
1f2
  100
AcDbEntity
  8
1
  100
AcDbLine
  10
9.1
  20
-4.062769
  30
0
  11
9.2
  21
-4.094651
  31
0
  0
LINE
  5
1f3
  100
AcDbEntity
  8
1
  100
AcDbLine
  10
9.2
  20
-4.094651
  30
0
  11
9.3
  21
-4.125988
  31
0
  0
LINE
  5
1f4
  100
AcDbEntity
  8
1
  100
AcDbLine
  10
9.3
  20
-4.125988
  30
0
  11
9.4
  21
-4.156774
  31
0
  0
LINE
  5
1f5
  100
AcDbEntity
  8
1
  100
AcDbLine
  10
9.4
  20
-4.156774
  30
0
  11
9.5
  21
-4.187006
  31
0
  0
LINE
  5
1f6
  100
AcDbEntity
  8
1
  100
AcDbLine
  10
9.5
  20
-4.187006
  30
0
  11
9.6
  21
-4.21668
  31
0
  0
LINE
  5
1f7
  100
AcDbEntity
  8
1
  100
AcDbLine
  10
9.6
  20
-4.21668
  30
0
  11
9.7
  21
-4.245791
  31
0
  0
LINE
  5
1f8
  100
AcDbEntity
  8
1
  100
AcDbLine
  10
9.7
  20
-4.245791
  30
0
  11
9.8
  21
-4.274337
  31
0
  0
LINE
  5
1f9
  100
AcDbEntity
  8
1
  100
AcDbLine
  10
9.8
  20
-4.274337
  30
0
  11
9.9
  21
-4.302312
  31
0
  0
LINE
  5
1fa
  100
AcDbEntity
  8
1
  100
AcDbLine
  10
9.9
  20
-4.302312
  30
0
  11
10
  21
-4.329714
  31
0
  0
LINE
  5
1fb
  100
AcDbEntity
  8
1
  100
AcDbLine
  10
10
  20
-4.329714
  30
0
  11
10.1
  21
-4.356539
  31
0
  0
LINE
  5
1fc
  100
AcDbEntity
  8
1
  100
AcDbLine
  10
10.1
  20
-4.356539
  30
0
  11
10.2
  21
-4.382783
  31
0
  0
LINE
  5
1fd
  100
AcDbEntity
  8
1
  100
AcDbLine
  10
10.2
  20
-4.382783
  30
0
  11
10.3
  21
-4.408442
  31
0
  0
LINE
  5
1fe
  100
AcDbEntity
  8
1
  100
AcDbLine
  10
10.3
  20
-4.408442
  30
0
  11
10.4
  21
-4.433514
  31
0
  0
LINE
  5
1ff
  100
AcDbEntity
  8
1
  100
AcDbLine
  10
10.4
  20
-4.433514
  30
0
  11
10.5
  21
-4.457994
  31
0
  0
LINE
  5
200
  100
AcDbEntity
  8
1
  100
AcDbLine
  10
10.5
  20
-4.457994
  30
0
  11
10.6
  21
-4.48188
  31
0
  0
LINE
  5
201
  100
AcDbEntity
  8
1
  100
AcDbLine
  10
10.6
  20
-4.48188
  30
0
  11
10.7
  21
-4.505169
  31
0
  0
LINE
  5
202
  100
AcDbEntity
  8
1
  100
AcDbLine
  10
10.7
  20
-4.505169
  30
0
  11
10.8
  21
-4.527857
  31
0
  0
LINE
  5
203
  100
AcDbEntity
  8
1
  100
AcDbLine
  10
10.8
  20
-4.527857
  30
0
  11
10.9
  21
-4.549941
  31
0
  0
LINE
  5
204
  100
AcDbEntity
  8
1
  100
AcDbLine
  10
10.9
  20
-4.549941
  30
0
  11
11
  21
-4.571418
  31
0
  0
LINE
  5
205
  100
AcDbEntity
  8
1
  100
AcDbLine
  10
11
  20
-4.571418
  30
0
  11
11.1
  21
-4.592286
  31
0
  0
LINE
  5
206
  100
AcDbEntity
  8
1
  100
AcDbLine
  10
11.1
  20
-4.592286
  30
0
  11
11.2
  21
-4.612542
  31
0
  0
LINE
  5
207
  100
AcDbEntity
  8
1
  100
AcDbLine
  10
11.2
  20
-4.612542
  30
0
  11
11.3
  21
-4.632182
  31
0
  0
LINE
  5
208
  100
AcDbEntity
  8
1
  100
AcDbLine
  10
11.3
  20
-4.632182
  30
0
  11
11.4
  21
-4.651205
  31
0
  0
LINE
  5
209
  100
AcDbEntity
  8
1
  100
AcDbLine
  10
11.4
  20
-4.651205
  30
0
  11
11.5
  21
-4.669608
  31
0
  0
LINE
  5
20a
  100
AcDbEntity
  8
1
  100
AcDbLine
  10
11.5
  20
-4.669608
  30
0
  11
11.6
  21
-4.687389
  31
0
  0
LINE
  5
20b
  100
AcDbEntity
  8
1
  100
AcDbLine
  10
11.6
  20
-4.687389
  30
0
  11
11.7
  21
-4.704544
  31
0
  0
LINE
  5
20c
  100
AcDbEntity
  8
1
  100
AcDbLine
  10
11.7
  20
-4.704544
  30
0
  11
11.8
  21
-4.721072
  31
0
  0
LINE
  5
20d
  100
AcDbEntity
  8
1
  100
AcDbLine
  10
11.8
  20
-4.721072
  30
0
  11
11.9
  21
-4.73697
  31
0
  0
LINE
  5
20e
  100
AcDbEntity
  8
1
  100
AcDbLine
  10
11.9
  20
-4.73697
  30
0
  11
12
  21
-4.752237
  31
0
  0
LINE
  5
20f
  100
AcDbEntity
  8
1
  100
AcDbLine
  10
12
  20
-4.752237
  30
0
  11
12.1
  21
-4.766871
  31
0
  0
LINE
  5
210
  100
AcDbEntity
  8
1
  100
AcDbLine
  10
12.1
  20
-4.766871
  30
0
  11
12.2
  21
-4.780868
  31
0
  0
LINE
  5
211
  100
AcDbEntity
  8
1
  100
AcDbLine
  10
12.2
  20
-4.780868
  30
0
  11
12.3
  21
-4.794229
  31
0
  0
LINE
  5
212
  100
AcDbEntity
  8
1
  100
AcDbLine
  10
12.3
  20
-4.794229
  30
0
  11
12.4
  21
-4.80695
  31
0
  0
LINE
  5
213
  100
AcDbEntity
  8
1
  100
AcDbLine
  10
12.4
  20
-4.80695
  30
0
  11
12.5
  21
-4.81903
  31
0
  0
LINE
  5
214
  100
AcDbEntity
  8
1
  100
AcDbLine
  10
12.5
  20
-4.81903
  30
0
  11
12.6
  21
-4.830468
  31
0
  0
LINE
  5
215
  100
AcDbEntity
  8
1
  100
AcDbLine
  10
12.6
  20
-4.830468
  30
0
  11
12.7
  21
-4.841261
  31
0
  0
LINE
  5
216
  100
AcDbEntity
  8
1
  100
AcDbLine
  10
12.7
  20
-4.841261
  30
0
  11
12.8
  21
-4.851409
  31
0
  0
LINE
  5
217
  100
AcDbEntity
  8
1
  100
AcDbLine
  10
12.8
  20
-4.851409
  30
0
  11
12.9
  21
-4.860911
  31
0
  0
LINE
  5
218
  100
AcDbEntity
  8
1
  100
AcDbLine
  10
12.9
  20
-4.860911
  30
0
  11
13
  21
-4.869764
  31
0
  0
LINE
  5
219
  100
AcDbEntity
  8
1
  100
AcDbLine
  10
13
  20
-4.24024
  30
0
  11
12.9
  21
-4.209364
  31
0
  0
LINE
  5
21a
  100
AcDbEntity
  8
1
  100
AcDbLine
  10
12.9
  20
-4.209364
  30
0
  11
12.8
  21
-4.177925
  31
0
  0
LINE
  5
21b
  100
AcDbEntity
  8
1
  100
AcDbLine
  10
12.8
  20
-4.177925
  30
0
  11
12.7
  21
-4.14593
  31
0
  0
LINE
  5
21c
  100
AcDbEntity
  8
1
  100
AcDbLine
  10
12.7
  20
-4.14593
  30
0
  11
12.6
  21
-4.113382
  31
0
  0
LINE
  5
21d
  100
AcDbEntity
  8
1
  100
AcDbLine
  10
12.6
  20
-4.113382
  30
0
  11
12.5
  21
-4.080286
  31
0
  0
LINE
  5
21e
  100
AcDbEntity
  8
1
  100
AcDbLine
  10
12.5
  20
-4.080286
  30
0
  11
12.4
  21
-4.046645
  31
0
  0
LINE
  5
21f
  100
AcDbEntity
  8
1
  100
AcDbLine
  10
12.4
  20
-4.046645
  30
0
  11
12.3
  21
-4.012465
  31
0
  0
LINE
  5
220
  100
AcDbEntity
  8
1
  100
AcDbLine
  10
12.3
  20
-4.012465
  30
0
  11
12.2
  21
-3.97775
  31
0
  0
LINE
  5
221
  100
AcDbEntity
  8
1
  100
AcDbLine
  10
12.2
  20
-3.97775
  30
0
  11
12.1
  21
-3.942505
  31
0
  0
LINE
  5
222
  100
AcDbEntity
  8
1
  100
AcDbLine
  10
12.1
  20
-3.942505
  30
0
  11
12
  21
-3.906734
  31
0
  0
LINE
  5
223
  100
AcDbEntity
  8
1
  100
AcDbLine
  10
12
  20
-3.906734
  30
0
  11
11.9
  21
-3.870442
  31
0
  0
LINE
  5
224
  100
AcDbEntity
  8
1
  100
AcDbLine
  10
11.9
  20
-3.870442
  30
0
  11
11.8
  21
-3.833634
  31
0
  0
LINE
  5
225
  100
AcDbEntity
  8
1
  100
AcDbLine
  10
11.8
  20
-3.833634
  30
0
  11
11.7
  21
-3.796315
  31
0
  0
LINE
  5
226
  100
AcDbEntity
  8
1
  100
AcDbLine
  10
11.7
  20
-3.796315
  30
0
  11
11.6
  21
-3.75849
  31
0
  0
LINE
  5
227
  100
AcDbEntity
  8
1
  100
AcDbLine
  10
11.6
  20
-3.75849
  30
0
  11
11.5
  21
-3.720163
  31
0
  0
LINE
  5
228
  100
AcDbEntity
  8
1
  100
AcDbLine
  10
11.5
  20
-3.720163
  30
0
  11
11.4
  21
-3.681341
  31
0
  0
LINE
  5
229
  100
AcDbEntity
  8
1
  100
AcDbLine
  10
11.4
  20
-3.681341
  30
0
  11
11.3
  21
-3.642028
  31
0
  0
LINE
  5
22a
  100
AcDbEntity
  8
1
  100
AcDbLine
  10
11.3
  20
-3.642028
  30
0
  11
11.2
  21
-3.602229
  31
0
  0
LINE
  5
22b
  100
AcDbEntity
  8
1
  100
AcDbLine
  10
11.2
  20
-3.602229
  30
0
  11
11.1
  21
-3.56195
  31
0
  0
LINE
  5
22c
  100
AcDbEntity
  8
1
  100
AcDbLine
  10
11.1
  20
-3.56195
  30
0
  11
11
  21
-3.521196
  31
0
  0
LINE
  5
22d
  100
AcDbEntity
  8
1
  100
AcDbLine
  10
11
  20
-3.521196
  30
0
  11
10.9
  21
-3.479972
  31
0
  0
LINE
  5
22e
  100
AcDbEntity
  8
1
  100
AcDbLine
  10
10.9
  20
-3.479972
  30
0
  11
10.8
  21
-3.438284
  31
0
  0
LINE
  5
22f
  100
AcDbEntity
  8
1
  100
AcDbLine
  10
10.8
  20
-3.438284
  30
0
  11
10.7
  21
-3.396139
  31
0
  0
LINE
  5
230
  100
AcDbEntity
  8
1
  100
AcDbLine
  10
10.7
  20
-3.396139
  30
0
  11
10.6
  21
-3.35354
  31
0
  0
LINE
  5
231
  100
AcDbEntity
  8
1
  100
AcDbLine
  10
10.6
  20
-3.35354
  30
0
  11
10.5
  21
-3.310494
  31
0
  0
LINE
  5
232
  100
AcDbEntity
  8
1
  100
AcDbLine
  10
10.5
  20
-3.310494
  30
0
  11
10.4
  21
-3.267006
  31
0
  0
LINE
  5
233
  100
AcDbEntity
  8
1
  100
AcDbLine
  10
10.4
  20
-3.267006
  30
0
  11
10.3
  21
-3.223084
  31
0
  0
LINE
  5
234
  100
AcDbEntity
  8
1
  100
AcDbLine
  10
10.3
  20
-3.223084
  30
0
  11
10.2
  21
-3.178731
  31
0
  0
LINE
  5
235
  100
AcDbEntity
  8
1
  100
AcDbLine
  10
10.2
  20
-3.178731
  30
0
  11
10.1
  21
-3.133954
  31
0
  0
LINE
  5
236
  100
AcDbEntity
  8
1
  100
AcDbLine
  10
10.1
  20
-3.133954
  30
0
  11
10
  21
-3.08876
  31
0
  0
LINE
  5
237
  100
AcDbEntity
  8
1
  100
AcDbLine
  10
10
  20
-3.08876
  30
0
  11
9.9
  21
-3.043154
  31
0
  0
LINE
  5
238
  100
AcDbEntity
  8
1
  100
AcDbLine
  10
9.9
  20
-3.043154
  30
0
  11
9.8
  21
-2.997142
  31
0
  0
LINE
  5
239
  100
AcDbEntity
  8
1
  100
AcDbLine
  10
9.8
  20
-2.997142
  30
0
  11
9.7
  21
-2.95073
  31
0
  0
LINE
  5
23a
  100
AcDbEntity
  8
1
  100
AcDbLine
  10
9.7
  20
-2.95073
  30
0
  11
9.6
  21
-2.903925
  31
0
  0
LINE
  5
23b
  100
AcDbEntity
  8
1
  100
AcDbLine
  10
9.6
  20
-2.903925
  30
0
  11
9.5
  21
-2.856733
  31
0
  0
LINE
  5
23c
  100
AcDbEntity
  8
1
  100
AcDbLine
  10
9.5
  20
-2.856733
  30
0
  11
9.4
  21
-2.80916
  31
0
  0
LINE
  5
23d
  100
AcDbEntity
  8
1
  100
AcDbLine
  10
9.4
  20
-2.80916
  30
0
  11
9.3
  21
-2.761213
  31
0
  0
LINE
  5
23e
  100
AcDbEntity
  8
1
  100
AcDbLine
  10
9.3
  20
-2.761213
  30
0
  11
9.2
  21
-2.712897
  31
0
  0
LINE
  5
23f
  100
AcDbEntity
  8
1
  100
AcDbLine
  10
9.2
  20
-2.712897
  30
0
  11
9.1
  21
-2.664219
  31
0
  0
LINE
  5
240
  100
AcDbEntity
  8
1
  100
AcDbLine
  10
9.1
  20
-2.664219
  30
0
  11
9
  21
-2.615187
  31
0
  0
LINE
  5
241
  100
AcDbEntity
  8
1
  100
AcDbLine
  10
9
  20
-2.615187
  30
0
  11
8.9
  21
-2.565805
  31
0
  0
LINE
  5
242
  100
AcDbEntity
  8
1
  100
AcDbLine
  10
8.9
  20
-2.565805
  30
0
  11
8.8
  21
-2.516082
  31
0
  0
LINE
  5
243
  100
AcDbEntity
  8
1
  100
AcDbLine
  10
8.8
  20
-2.516082
  30
0
  11
8.7
  21
-2.466023
  31
0
  0
LINE
  5
244
  100
AcDbEntity
  8
1
  100
AcDbLine
  10
8.7
  20
-2.466023
  30
0
  11
8.6
  21
-2.415635
  31
0
  0
LINE
  5
245
  100
AcDbEntity
  8
1
  100
AcDbLine
  10
8.6
  20
-2.415635
  30
0
  11
8.5
  21
-2.364925
  31
0
  0
LINE
  5
246
  100
AcDbEntity
  8
1
  100
AcDbLine
  10
8.5
  20
-2.364925
  30
0
  11
8.4
  21
-2.3139
  31
0
  0
LINE
  5
247
  100
AcDbEntity
  8
1
  100
AcDbLine
  10
8.4
  20
-2.3139
  30
0
  11
8.3
  21
-2.262567
  31
0
  0
LINE
  5
248
  100
AcDbEntity
  8
1
  100
AcDbLine
  10
8.3
  20
-2.262567
  30
0
  11
8.2
  21
-2.210931
  31
0
  0
LINE
  5
249
  100
AcDbEntity
  8
1
  100
AcDbLine
  10
8.2
  20
-2.210931
  30
0
  11
8.1
  21
-2.159001
  31
0
  0
LINE
  5
24a
  100
AcDbEntity
  8
1
  100
AcDbLine
  10
8.1
  20
-2.159001
  30
0
  11
8
  21
-2.106783
  31
0
  0
LINE
  5
24b
  100
AcDbEntity
  8
1
  100
AcDbLine
  10
8
  20
-2.106783
  30
0
  11
7.9
  21
-2.054284
  31
0
  0
LINE
  5
24c
  100
AcDbEntity
  8
1
  100
AcDbLine
  10
7.9
  20
-2.054284
  30
0
  11
7.8
  21
-2.001511
  31
0
  0
LINE
  5
24d
  100
AcDbEntity
  8
1
  100
AcDbLine
  10
7.8
  20
-2.001511
  30
0
  11
7.7
  21
-1.948472
  31
0
  0
LINE
  5
24e
  100
AcDbEntity
  8
1
  100
AcDbLine
  10
7.7
  20
-1.948472
  30
0
  11
7.6
  21
-1.895172
  31
0
  0
LINE
  5
24f
  100
AcDbEntity
  8
1
  100
AcDbLine
  10
7.6
  20
-1.895172
  30
0
  11
7.5
  21
-1.84162
  31
0
  0
LINE
  5
250
  100
AcDbEntity
  8
1
  100
AcDbLine
  10
7.5
  20
-1.84162
  30
0
  11
7.4
  21
-1.787822
  31
0
  0
LINE
  5
251
  100
AcDbEntity
  8
1
  100
AcDbLine
  10
7.4
  20
-1.787822
  30
0
  11
7.3
  21
-1.733786
  31
0
  0
LINE
  5
252
  100
AcDbEntity
  8
1
  100
AcDbLine
  10
7.3
  20
-1.733786
  30
0
  11
7.2
  21
-1.679519
  31
0
  0
LINE
  5
253
  100
AcDbEntity
  8
1
  100
AcDbLine
  10
7.2
  20
-1.679519
  30
0
  11
7.1
  21
-1.625028
  31
0
  0
LINE
  5
254
  100
AcDbEntity
  8
1
  100
AcDbLine
  10
7.1
  20
-1.625028
  30
0
  11
7
  21
-1.57032
  31
0
  0
LINE
  5
255
  100
AcDbEntity
  8
1
  100
AcDbLine
  10
7
  20
-1.57032
  30
0
  11
6.9
  21
-1.515403
  31
0
  0
LINE
  5
256
  100
AcDbEntity
  8
1
  100
AcDbLine
  10
6.9
  20
-1.515403
  30
0
  11
6.8
  21
-1.460284
  31
0
  0
LINE
  5
257
  100
AcDbEntity
  8
1
  100
AcDbLine
  10
6.8
  20
-1.460284
  30
0
  11
6.7
  21
-1.40497
  31
0
  0
LINE
  5
258
  100
AcDbEntity
  8
1
  100
AcDbLine
  10
6.7
  20
-1.40497
  30
0
  11
6.6
  21
-1.349468
  31
0
  0
LINE
  5
259
  100
AcDbEntity
  8
1
  100
AcDbLine
  10
6.6
  20
-1.349468
  30
0
  11
6.5
  21
-1.293787
  31
0
  0
LINE
  5
25a
  100
AcDbEntity
  8
1
  100
AcDbLine
  10
6.5
  20
-1.293787
  30
0
  11
6.4
  21
-1.237934
  31
0
  0
LINE
  5
25b
  100
AcDbEntity
  8
1
  100
AcDbLine
  10
6.4
  20
-1.237934
  30
0
  11
6.3
  21
-1.181915
  31
0
  0
LINE
  5
25c
  100
AcDbEntity
  8
1
  100
AcDbLine
  10
6.3
  20
-1.181915
  30
0
  11
6.2
  21
-1.125738
  31
0
  0
LINE
  5
25d
  100
AcDbEntity
  8
1
  100
AcDbLine
  10
6.2
  20
-1.125738
  30
0
  11
6.1
  21
-1.069412
  31
0
  0
LINE
  5
25e
  100
AcDbEntity
  8
1
  100
AcDbLine
  10
6.1
  20
-1.069412
  30
0
  11
6
  21
-1.012943
  31
0
  0
LINE
  5
25f
  100
AcDbEntity
  8
1
  100
AcDbLine
  10
6
  20
-1.012943
  30
0
  11
5.9
  21
-0.956339
  31
0
  0
LINE
  5
260
  100
AcDbEntity
  8
1
  100
AcDbLine
  10
5.9
  20
-0.956339
  30
0
  11
5.8
  21
-0.899607
  31
0
  0
LINE
  5
261
  100
AcDbEntity
  8
1
  100
AcDbLine
  10
5.8
  20
-0.899607
  30
0
  11
5.7
  21
-0.842756
  31
0
  0
LINE
  5
262
  100
AcDbEntity
  8
1
  100
AcDbLine
  10
5.7
  20
-0.842756
  30
0
  11
5.6
  21
-0.785792
  31
0
  0
LINE
  5
263
  100
AcDbEntity
  8
1
  100
AcDbLine
  10
5.6
  20
-0.785792
  30
0
  11
5.5
  21
-0.728723
  31
0
  0
LINE
  5
264
  100
AcDbEntity
  8
1
  100
AcDbLine
  10
5.5
  20
-0.728723
  30
0
  11
5.4
  21
-0.671557
  31
0
  0
LINE
  5
265
  100
AcDbEntity
  8
1
  100
AcDbLine
  10
5.4
  20
-0.671557
  30
0
  11
5.3
  21
-0.614302
  31
0
  0
LINE
  5
266
  100
AcDbEntity
  8
1
  100
AcDbLine
  10
5.3
  20
-0.614302
  30
0
  11
5.2
  21
-0.556964
  31
0
  0
LINE
  5
267
  100
AcDbEntity
  8
1
  100
AcDbLine
  10
5.2
  20
-0.556964
  30
0
  11
5.1
  21
-0.499553
  31
0
  0
LINE
  5
268
  100
AcDbEntity
  8
1
  100
AcDbLine
  10
5.1
  20
-0.499553
  30
0
  11
5
  21
-0.442075
  31
0
  0
LINE
  5
269
  100
AcDbEntity
  8
1
  100
AcDbLine
  10
5
  20
-0.442075
  30
0
  11
4.9
  21
-0.384538
  31
0
  0
LINE
  5
26a
  100
AcDbEntity
  8
1
  100
AcDbLine
  10
4.9
  20
-0.384538
  30
0
  11
4.8
  21
-0.326949
  31
0
  0
LINE
  5
26b
  100
AcDbEntity
  8
1
  100
AcDbLine
  10
4.8
  20
-0.326949
  30
0
  11
4.7
  21
-0.269317
  31
0
  0
LINE
  5
26c
  100
AcDbEntity
  8
1
  100
AcDbLine
  10
4.7
  20
-0.269317
  30
0
  11
4.6
  21
-0.211649
  31
0
  0
LINE
  5
26d
  100
AcDbEntity
  8
1
  100
AcDbLine
  10
4.6
  20
-0.211649
  30
0
  11
4.5
  21
-0.153953
  31
0
  0
LINE
  5
26e
  100
AcDbEntity
  8
1
  100
AcDbLine
  10
4.5
  20
-0.153953
  30
0
  11
4.4
  21
-0.096237
  31
0
  0
LINE
  5
26f
  100
AcDbEntity
  8
1
  100
AcDbLine
  10
4.4
  20
-0.096237
  30
0
  11
4.3
  21
-0.038507
  31
0
  0
LINE
  5
270
  100
AcDbEntity
  8
1
  100
AcDbLine
  10
4.3
  20
-0.038507
  30
0
  11
4.2
  21
0.019227
  31
0
  0
LINE
  5
271
  100
AcDbEntity
  8
1
  100
AcDbLine
  10
4.2
  20
0.019227
  30
0
  11
4.1
  21
0.07696
  31
0
  0
LINE
  5
272
  100
AcDbEntity
  8
1
  100
AcDbLine
  10
4.1
  20
0.07696
  30
0
  11
4
  21
0.134681
  31
0
  0
LINE
  5
273
  100
AcDbEntity
  8
1
  100
AcDbLine
  10
4
  20
0.134681
  30
0
  11
3.9
  21
0.192385
  31
0
  0
LINE
  5
274
  100
AcDbEntity
  8
1
  100
AcDbLine
  10
3.9
  20
0.192385
  30
0
  11
3.8
  21
0.250063
  31
0
  0
LINE
  5
275
  100
AcDbEntity
  8
1
  100
AcDbLine
  10
3.8
  20
0.250063
  30
0
  11
3.7
  21
0.307708
  31
0
  0
LINE
  5
276
  100
AcDbEntity
  8
1
  100
AcDbLine
  10
3.7
  20
0.307708
  30
0
  11
3.6
  21
0.365312
  31
0
  0
LINE
  5
277
  100
AcDbEntity
  8
1
  100
AcDbLine
  10
3.6
  20
0.365312
  30
0
  11
3.5
  21
0.422867
  31
0
  0
LINE
  5
278
  100
AcDbEntity
  8
1
  100
AcDbLine
  10
3.5
  20
0.422867
  30
0
  11
3.4
  21
0.480366
  31
0
  0
LINE
  5
279
  100
AcDbEntity
  8
1
  100
AcDbLine
  10
3.4
  20
0.480366
  30
0
  11
3.3
  21
0.5378
  31
0
  0
LINE
  5
27a
  100
AcDbEntity
  8
1
  100
AcDbLine
  10
3.3
  20
0.5378
  30
0
  11
3.2
  21
0.595163
  31
0
  0
LINE
  5
27b
  100
AcDbEntity
  8
1
  100
AcDbLine
  10
3.2
  20
0.595163
  30
0
  11
3.1
  21
0.652447
  31
0
  0
LINE
  5
27c
  100
AcDbEntity
  8
1
  100
AcDbLine
  10
3.1
  20
0.652447
  30
0
  11
3
  21
0.709644
  31
0
  0
LINE
  5
27d
  100
AcDbEntity
  8
1
  100
AcDbLine
  10
3
  20
0.709644
  30
0
  11
2.9
  21
0.766746
  31
0
  0
LINE
  5
27e
  100
AcDbEntity
  8
1
  100
AcDbLine
  10
2.9
  20
0.766746
  30
0
  11
2.8
  21
0.823745
  31
0
  0
LINE
  5
27f
  100
AcDbEntity
  8
1
  100
AcDbLine
  10
2.8
  20
0.823745
  30
0
  11
2.7
  21
0.880635
  31
0
  0
LINE
  5
280
  100
AcDbEntity
  8
1
  100
AcDbLine
  10
2.7
  20
0.880635
  30
0
  11
2.6
  21
0.937408
  31
0
  0
LINE
  5
281
  100
AcDbEntity
  8
1
  100
AcDbLine
  10
2.6
  20
0.937408
  30
0
  11
2.5
  21
0.994055
  31
0
  0
LINE
  5
282
  100
AcDbEntity
  8
1
  100
AcDbLine
  10
2.5
  20
0.994055
  30
0
  11
2.4
  21
1.05057
  31
0
  0
LINE
  5
283
  100
AcDbEntity
  8
1
  100
AcDbLine
  10
2.4
  20
1.05057
  30
0
  11
2.3
  21
1.106945
  31
0
  0
LINE
  5
284
  100
AcDbEntity
  8
1
  100
AcDbLine
  10
2.3
  20
1.106945
  30
0
  11
2.2
  21
1.163172
  31
0
  0
LINE
  5
285
  100
AcDbEntity
  8
1
  100
AcDbLine
  10
2.2
  20
1.163172
  30
0
  11
2.1
  21
1.219245
  31
0
  0
LINE
  5
286
  100
AcDbEntity
  8
1
  100
AcDbLine
  10
2.1
  20
1.219245
  30
0
  11
2
  21
1.275154
  31
0
  0
LINE
  5
287
  100
AcDbEntity
  8
1
  100
AcDbLine
  10
2
  20
1.275154
  30
0
  11
1.9
  21
1.330894
  31
0
  0
LINE
  5
288
  100
AcDbEntity
  8
1
  100
AcDbLine
  10
1.9
  20
1.330894
  30
0
  11
1.8
  21
1.386456
  31
0
  0
LINE
  5
289
  100
AcDbEntity
  8
1
  100
AcDbLine
  10
1.8
  20
1.386456
  30
0
  11
1.7
  21
1.441834
  31
0
  0
LINE
  5
28a
  100
AcDbEntity
  8
1
  100
AcDbLine
  10
1.7
  20
1.441834
  30
0
  11
1.6
  21
1.497019
  31
0
  0
LINE
  5
28b
  100
AcDbEntity
  8
1
  100
AcDbLine
  10
1.6
  20
1.497019
  30
0
  11
1.5
  21
1.552004
  31
0
  0
LINE
  5
28c
  100
AcDbEntity
  8
1
  100
AcDbLine
  10
1.5
  20
1.552004
  30
0
  11
1.4
  21
1.606783
  31
0
  0
LINE
  5
28d
  100
AcDbEntity
  8
1
  100
AcDbLine
  10
1.4
  20
1.606783
  30
0
  11
1.3
  21
1.661347
  31
0
  0
LINE
  5
28e
  100
AcDbEntity
  8
1
  100
AcDbLine
  10
1.3
  20
1.661347
  30
0
  11
1.2
  21
1.71569
  31
0
  0
LINE
  5
28f
  100
AcDbEntity
  8
1
  100
AcDbLine
  10
1.2
  20
1.71569
  30
0
  11
1.1
  21
1.769804
  31
0
  0
LINE
  5
290
  100
AcDbEntity
  8
1
  100
AcDbLine
  10
1.1
  20
1.769804
  30
0
  11
1
  21
1.823682
  31
0
  0
LINE
  5
291
  100
AcDbEntity
  8
1
  100
AcDbLine
  10
1
  20
1.823682
  30
0
  11
0.9
  21
1.877317
  31
0
  0
LINE
  5
292
  100
AcDbEntity
  8
1
  100
AcDbLine
  10
0.9
  20
1.877317
  30
0
  11
0.8
  21
1.930702
  31
0
  0
LINE
  5
293
  100
AcDbEntity
  8
1
  100
AcDbLine
  10
0.8
  20
1.930702
  30
0
  11
0.7
  21
1.983829
  31
0
  0
LINE
  5
294
  100
AcDbEntity
  8
1
  100
AcDbLine
  10
0.7
  20
1.983829
  30
0
  11
0.6
  21
2.036691
  31
0
  0
LINE
  5
295
  100
AcDbEntity
  8
1
  100
AcDbLine
  10
0.6
  20
2.036691
  30
0
  11
0.5
  21
2.089283
  31
0
  0
LINE
  5
296
  100
AcDbEntity
  8
1
  100
AcDbLine
  10
0.5
  20
2.089283
  30
0
  11
0.4
  21
2.141595
  31
0
  0
LINE
  5
297
  100
AcDbEntity
  8
1
  100
AcDbLine
  10
0.4
  20
2.141595
  30
0
  11
0.3
  21
2.193622
  31
0
  0
LINE
  5
298
  100
AcDbEntity
  8
1
  100
AcDbLine
  10
0.3
  20
2.193622
  30
0
  11
0.2
  21
2.245357
  31
0
  0
LINE
  5
299
  100
AcDbEntity
  8
1
  100
AcDbLine
  10
0.2
  20
2.245357
  30
0
  11
0.1
  21
2.296792
  31
0
  0
LINE
  5
29a
  100
AcDbEntity
  8
1
  100
AcDbLine
  10
0.1
  20
2.296792
  30
0
  11
0
  21
2.347921
  31
0
  0
LINE
  5
29b
  100
AcDbEntity
  8
1
  100
AcDbLine
  10
0
  20
-5
  30
0
  11
0
  21
5
  31
0
  0
LINE
  5
29c
  100
AcDbEntity
  8
1
  100
AcDbLine
  10
0
  20
5
  30
0
  11
0
  21
-5
  31
0
  0
LINE
  5
29d
  100
AcDbEntity
  8
SK1
  100
AcDbLine
  10
0
  20
5
  30
0
  11
-36.5
  21
5
  31
0
  0
LINE
  5
29e
  100
AcDbEntity
  8
SK1
  100
AcDbLine
  10
-36.5
  20
5
  30
0
  11
-37
  21
4.5
  31
0
  0
LINE
  5
29f
  100
AcDbEntity
  8
SK1
  100
AcDbLine
  10
-37
  20
4.5
  30
0
  11
-37
  21
-4.5
  31
0
  0
LINE
  5
2a0
  100
AcDbEntity
  8
SK1
  100
AcDbLine
  10
-37
  20
-4.5
  30
0
  11
-36.5
  21
-5
  31
0
  0
LINE
  5
2a1
  100
AcDbEntity
  8
SK1
  100
AcDbLine
  10
-36.5
  20
-5
  30
0
  11
0
  21
-5
  31
0
  0
LINE
  5
2a2
  100
AcDbEntity
  8
SK1
  100
AcDbLine
  10
0
  20
-5
  30
0
  11
0
  21
5
  31
0
  0
LINE
  5
2a3
  100
AcDbEntity
  8
SK1
  100
AcDbLine
  10
-36.5
  20
-5
  30
0
  11
-36.5
  21
5
  31
0
  0
LINE
  5
2a4
  100
AcDbEntity
  8
SK1
  100
AcDbLine
  10
-4.60155
  20
5
  30
0
  11
-4.6
  21
4.999995
  31
0
  0
LINE
  5
2a5
  100
AcDbEntity
  8
SK1
  100
AcDbLine
  10
-4.6
  20
4.999995
  30
0
  11
-4.5
  21
4.983694
  31
0
  0
LINE
  5
2a6
  100
AcDbEntity
  8
SK1
  100
AcDbLine
  10
-4.5
  20
4.983694
  30
0
  11
-4.4
  21
4.941533
  31
0
  0
LINE
  5
2a7
  100
AcDbEntity
  8
SK1
  100
AcDbLine
  10
-4.4
  20
4.941533
  30
0
  11
-4.3
  21
4.880742
  31
0
  0
LINE
  5
2a8
  100
AcDbEntity
  8
SK1
  100
AcDbLine
  10
-4.3
  20
4.880742
  30
0
  11
-4.2
  21
4.807118
  31
0
  0
LINE
  5
2a9
  100
AcDbEntity
  8
SK1
  100
AcDbLine
  10
-4.2
  20
4.807118
  30
0
  11
-4.1
  21
4.725222
  31
0
  0
LINE
  5
2aa
  100
AcDbEntity
  8
SK1
  100
AcDbLine
  10
-4.1
  20
4.725222
  30
0
  11
-4
  21
4.638582
  31
0
  0
LINE
  5
2ab
  100
AcDbEntity
  8
SK1
  100
AcDbLine
  10
-4
  20
4.638582
  30
0
  11
-3.9
  21
4.549874
  31
0
  0
LINE
  5
2ac
  100
AcDbEntity
  8
SK1
  100
AcDbLine
  10
-3.9
  20
4.549874
  30
0
  11
-3.8
  21
4.461074
  31
0
  0
LINE
  5
2ad
  100
AcDbEntity
  8
SK1
  100
AcDbLine
  10
-3.8
  20
4.461074
  30
0
  11
-3.7
  21
4.373602
  31
0
  0
LINE
  5
2ae
  100
AcDbEntity
  8
SK1
  100
AcDbLine
  10
-3.7
  20
4.373602
  30
0
  11
-3.6
  21
4.288437
  31
0
  0
LINE
  5
2af
  100
AcDbEntity
  8
SK1
  100
AcDbLine
  10
-3.6
  20
4.288437
  30
0
  11
-3.5
  21
4.206208
  31
0
  0
LINE
  5
2b0
  100
AcDbEntity
  8
SK1
  100
AcDbLine
  10
-3.5
  20
4.206208
  30
0
  11
-3.4
  21
4.127279
  31
0
  0
LINE
  5
2b1
  100
AcDbEntity
  8
SK1
  100
AcDbLine
  10
-3.4
  20
4.127279
  30
0
  11
-3.3
  21
4.051811
  31
0
  0
LINE
  5
2b2
  100
AcDbEntity
  8
SK1
  100
AcDbLine
  10
-3.3
  20
4.051811
  30
0
  11
-3.2
  21
3.979812
  31
0
  0
LINE
  5
2b3
  100
AcDbEntity
  8
SK1
  100
AcDbLine
  10
-3.2
  20
3.979812
  30
0
  11
-3.1
  21
3.911183
  31
0
  0
LINE
  5
2b4
  100
AcDbEntity
  8
SK1
  100
AcDbLine
  10
-3.1
  20
3.911183
  30
0
  11
-3
  21
3.845745
  31
0
  0
LINE
  5
2b5
  100
AcDbEntity
  8
SK1
  100
AcDbLine
  10
-3
  20
3.845745
  30
0
  11
-2.9
  21
3.783269
  31
0
  0
LINE
  5
2b6
  100
AcDbEntity
  8
SK1
  100
AcDbLine
  10
-2.9
  20
3.783269
  30
0
  11
-2.8
  21
3.723493
  31
0
  0
LINE
  5
2b7
  100
AcDbEntity
  8
SK1
  100
AcDbLine
  10
-2.8
  20
3.723493
  30
0
  11
-2.7
  21
3.666141
  31
0
  0
LINE
  5
2b8
  100
AcDbEntity
  8
SK1
  100
AcDbLine
  10
-2.7
  20
3.666141
  30
0
  11
-2.6
  21
3.61093
  31
0
  0
LINE
  5
2b9
  100
AcDbEntity
  8
SK1
  100
AcDbLine
  10
-2.6
  20
3.61093
  30
0
  11
-2.5
  21
3.557582
  31
0
  0
LINE
  5
2ba
  100
AcDbEntity
  8
SK1
  100
AcDbLine
  10
-2.5
  20
3.557582
  30
0
  11
-2.4
  21
3.505828
  31
0
  0
LINE
  5
2bb
  100
AcDbEntity
  8
SK1
  100
AcDbLine
  10
-2.4
  20
3.505828
  30
0
  11
-2.3
  21
3.455414
  31
0
  0
LINE
  5
2bc
  100
AcDbEntity
  8
SK1
  100
AcDbLine
  10
-2.3
  20
3.455414
  30
0
  11
-2.2
  21
3.406106
  31
0
  0
LINE
  5
2bd
  100
AcDbEntity
  8
SK1
  100
AcDbLine
  10
-2.2
  20
3.406106
  30
0
  11
-2.1
  21
3.357684
  31
0
  0
LINE
  5
2be
  100
AcDbEntity
  8
SK1
  100
AcDbLine
  10
-2.1
  20
3.357684
  30
0
  11
-2
  21
3.309953
  31
0
  0
LINE
  5
2bf
  100
AcDbEntity
  8
SK1
  100
AcDbLine
  10
-2
  20
3.309953
  30
0
  11
-1.9
  21
3.262737
  31
0
  0
LINE
  5
2c0
  100
AcDbEntity
  8
SK1
  100
AcDbLine
  10
-1.9
  20
3.262737
  30
0
  11
-1.8
  21
3.215878
  31
0
  0
LINE
  5
2c1
  100
AcDbEntity
  8
SK1
  100
AcDbLine
  10
-1.8
  20
3.215878
  30
0
  11
-1.7
  21
3.169242
  31
0
  0
LINE
  5
2c2
  100
AcDbEntity
  8
SK1
  100
AcDbLine
  10
-1.7
  20
3.169242
  30
0
  11
-1.6
  21
3.122709
  31
0
  0
LINE
  5
2c3
  100
AcDbEntity
  8
SK1
  100
AcDbLine
  10
-1.6
  20
3.122709
  30
0
  11
-1.5
  21
3.07618
  31
0
  0
LINE
  5
2c4
  100
AcDbEntity
  8
SK1
  100
AcDbLine
  10
-1.5
  20
3.07618
  30
0
  11
-1.4
  21
3.029571
  31
0
  0
LINE
  5
2c5
  100
AcDbEntity
  8
SK1
  100
AcDbLine
  10
-1.4
  20
3.029571
  30
0
  11
-1.3
  21
2.982811
  31
0
  0
LINE
  5
2c6
  100
AcDbEntity
  8
SK1
  100
AcDbLine
  10
-1.3
  20
2.982811
  30
0
  11
-1.2
  21
2.935845
  31
0
  0
LINE
  5
2c7
  100
AcDbEntity
  8
SK1
  100
AcDbLine
  10
-1.2
  20
2.935845
  30
0
  11
-1.1
  21
2.888628
  31
0
  0
LINE
  5
2c8
  100
AcDbEntity
  8
SK1
  100
AcDbLine
  10
-1.1
  20
2.888628
  30
0
  11
-1
  21
2.841128
  31
0
  0
LINE
  5
2c9
  100
AcDbEntity
  8
SK1
  100
AcDbLine
  10
-1
  20
2.841128
  30
0
  11
-0.9
  21
2.793318
  31
0
  0
LINE
  5
2ca
  100
AcDbEntity
  8
SK1
  100
AcDbLine
  10
-0.9
  20
2.793318
  30
0
  11
-0.8
  21
2.745182
  31
0
  0
LINE
  5
2cb
  100
AcDbEntity
  8
SK1
  100
AcDbLine
  10
-0.8
  20
2.745182
  30
0
  11
-0.7
  21
2.69671
  31
0
  0
LINE
  5
2cc
  100
AcDbEntity
  8
SK1
  100
AcDbLine
  10
-0.7
  20
2.69671
  30
0
  11
-0.6
  21
2.647896
  31
0
  0
LINE
  5
2cd
  100
AcDbEntity
  8
SK1
  100
AcDbLine
  10
-0.6
  20
2.647896
  30
0
  11
-0.5
  21
2.598739
  31
0
  0
LINE
  5
2ce
  100
AcDbEntity
  8
SK1
  100
AcDbLine
  10
-0.5
  20
2.598739
  30
0
  11
-0.4
  21
2.54924
  31
0
  0
LINE
  5
2cf
  100
AcDbEntity
  8
SK1
  100
AcDbLine
  10
-0.4
  20
2.54924
  30
0
  11
-0.3
  21
2.499402
  31
0
  0
LINE
  5
2d0
  100
AcDbEntity
  8
SK1
  100
AcDbLine
  10
-0.3
  20
2.499402
  30
0
  11
-0.2
  21
2.449233
  31
0
  0
LINE
  5
2d1
  100
AcDbEntity
  8
SK1
  100
AcDbLine
  10
-0.2
  20
2.449233
  30
0
  11
-0.1
  21
2.398737
  31
0
  0
LINE
  5
2d2
  100
AcDbEntity
  8
SK1
  100
AcDbLine
  10
-0.1
  20
2.398737
  30
0
  11
0
  21
2.347921
  31
0
  0
LINE
  5
2d3
  100
AcDbEntity
  8
SK1
  100
AcDbLine
  10
0
  20
-0.348146
  30
0
  11
-0.1
  21
-0.290529
  31
0
  0
LINE
  5
2d4
  100
AcDbEntity
  8
SK1
  100
AcDbLine
  10
-0.1
  20
-0.290529
  30
0
  11
-0.2
  21
-0.232874
  31
0
  0
LINE
  5
2d5
  100
AcDbEntity
  8
SK1
  100
AcDbLine
  10
-0.2
  20
-0.232874
  30
0
  11
-0.3
  21
-0.175187
  31
0
  0
LINE
  5
2d6
  100
AcDbEntity
  8
SK1
  100
AcDbLine
  10
-0.3
  20
-0.175187
  30
0
  11
-0.4
  21
-0.117477
  31
0
  0
LINE
  5
2d7
  100
AcDbEntity
  8
SK1
  100
AcDbLine
  10
-0.4
  20
-0.117477
  30
0
  11
-0.5
  21
-0.059752
  31
0
  0
LINE
  5
2d8
  100
AcDbEntity
  8
SK1
  100
AcDbLine
  10
-0.5
  20
-0.059752
  30
0
  11
-0.6
  21
-0.002018
  31
0
  0
LINE
  5
2d9
  100
AcDbEntity
  8
SK1
  100
AcDbLine
  10
-0.6
  20
-0.002018
  30
0
  11
-0.7
  21
0.055716
  31
0
  0
LINE
  5
2da
  100
AcDbEntity
  8
SK1
  100
AcDbLine
  10
-0.7
  20
0.055716
  30
0
  11
-0.8
  21
0.113442
  31
0
  0
LINE
  5
2db
  100
AcDbEntity
  8
SK1
  100
AcDbLine
  10
-0.8
  20
0.113442
  30
0
  11
-0.9
  21
0.171154
  31
0
  0
LINE
  5
2dc
  100
AcDbEntity
  8
SK1
  100
AcDbLine
  10
-0.9
  20
0.171154
  30
0
  11
-1
  21
0.228842
  31
0
  0
LINE
  5
2dd
  100
AcDbEntity
  8
SK1
  100
AcDbLine
  10
-1
  20
0.228842
  30
0
  11
-1.1
  21
0.2865
  31
0
  0
LINE
  5
2de
  100
AcDbEntity
  8
SK1
  100
AcDbLine
  10
-1.1
  20
0.2865
  30
0
  11
-1.2
  21
0.34412
  31
0
  0
LINE
  5
2df
  100
AcDbEntity
  8
SK1
  100
AcDbLine
  10
-1.2
  20
0.34412
  30
0
  11
-1.3
  21
0.401694
  31
0
  0
LINE
  5
2e0
  100
AcDbEntity
  8
SK1
  100
AcDbLine
  10
-1.3
  20
0.401694
  30
0
  11
-1.4
  21
0.459214
  31
0
  0
LINE
  5
2e1
  100
AcDbEntity
  8
SK1
  100
AcDbLine
  10
-1.4
  20
0.459214
  30
0
  11
-1.5
  21
0.516672
  31
0
  0
LINE
  5
2e2
  100
AcDbEntity
  8
SK1
  100
AcDbLine
  10
-1.5
  20
0.516672
  30
0
  11
-1.6
  21
0.57406
  31
0
  0
LINE
  5
2e3
  100
AcDbEntity
  8
SK1
  100
AcDbLine
  10
-1.6
  20
0.57406
  30
0
  11
-1.7
  21
0.63137
  31
0
  0
LINE
  5
2e4
  100
AcDbEntity
  8
SK1
  100
AcDbLine
  10
-1.7
  20
0.63137
  30
0
  11
-1.8
  21
0.688593
  31
0
  0
LINE
  5
2e5
  100
AcDbEntity
  8
SK1
  100
AcDbLine
  10
-1.8
  20
0.688593
  30
0
  11
-1.9
  21
0.745718
  31
0
  0
LINE
  5
2e6
  100
AcDbEntity
  8
SK1
  100
AcDbLine
  10
-1.9
  20
0.745718
  30
0
  11
-2
  21
0.802733
  31
0
  0
LINE
  5
2e7
  100
AcDbEntity
  8
SK1
  100
AcDbLine
  10
-2
  20
0.802733
  30
0
  11
-2.1
  21
0.859625
  31
0
  0
LINE
  5
2e8
  100
AcDbEntity
  8
SK1
  100
AcDbLine
  10
-2.1
  20
0.859625
  30
0
  11
-2.2
  21
0.916375
  31
0
  0
LINE
  5
2e9
  100
AcDbEntity
  8
SK1
  100
AcDbLine
  10
-2.2
  20
0.916375
  30
0
  11
-2.3
  21
0.972961
  31
0
  0
LINE
  5
2ea
  100
AcDbEntity
  8
SK1
  100
AcDbLine
  10
-2.3
  20
0.972961
  30
0
  11
-2.4
  21
1.029351
  31
0
  0
LINE
  5
2eb
  100
AcDbEntity
  8
SK1
  100
AcDbLine
  10
-2.4
  20
1.029351
  30
0
  11
-2.5
  21
1.085503
  31
0
  0
LINE
  5
2ec
  100
AcDbEntity
  8
SK1
  100
AcDbLine
  10
-2.5
  20
1.085503
  30
0
  11
-2.6
  21
1.14136
  31
0
  0
LINE
  5
2ed
  100
AcDbEntity
  8
SK1
  100
AcDbLine
  10
-2.6
  20
1.14136
  30
0
  11
-2.7
  21
1.196842
  31
0
  0
LINE
  5
2ee
  100
AcDbEntity
  8
SK1
  100
AcDbLine
  10
-2.7
  20
1.196842
  30
0
  11
-2.8
  21
1.251842
  31
0
  0
LINE
  5
2ef
  100
AcDbEntity
  8
SK1
  100
AcDbLine
  10
-2.8
  20
1.251842
  30
0
  11
-2.9
  21
1.306214
  31
0
  0
LINE
  5
2f0
  100
AcDbEntity
  8
SK1
  100
AcDbLine
  10
-2.9
  20
1.306214
  30
0
  11
-3
  21
1.359759
  31
0
  0
LINE
  5
2f1
  100
AcDbEntity
  8
SK1
  100
AcDbLine
  10
-3
  20
1.359759
  30
0
  11
-3.1
  21
1.412211
  31
0
  0
LINE
  5
2f2
  100
AcDbEntity
  8
SK1
  100
AcDbLine
  10
-3.1
  20
1.412211
  30
0
  11
-3.2
  21
1.463216
  31
0
  0
LINE
  5
2f3
  100
AcDbEntity
  8
SK1
  100
AcDbLine
  10
-3.2
  20
1.463216
  30
0
  11
-3.3
  21
1.512304
  31
0
  0
LINE
  5
2f4
  100
AcDbEntity
  8
SK1
  100
AcDbLine
  10
-3.3
  20
1.512304
  30
0
  11
-3.4
  21
1.55886
  31
0
  0
LINE
  5
2f5
  100
AcDbEntity
  8
SK1
  100
AcDbLine
  10
-3.4
  20
1.55886
  30
0
  11
-3.5
  21
1.60208
  31
0
  0
LINE
  5
2f6
  100
AcDbEntity
  8
SK1
  100
AcDbLine
  10
-3.5
  20
1.60208
  30
0
  11
-3.6
  21
1.640923
  31
0
  0
LINE
  5
2f7
  100
AcDbEntity
  8
SK1
  100
AcDbLine
  10
-3.6
  20
1.640923
  30
0
  11
-3.7
  21
1.674044
  31
0
  0
LINE
  5
2f8
  100
AcDbEntity
  8
SK1
  100
AcDbLine
  10
-3.7
  20
1.674044
  30
0
  11
-3.8
  21
1.699722
  31
0
  0
LINE
  5
2f9
  100
AcDbEntity
  8
SK1
  100
AcDbLine
  10
-3.8
  20
1.699722
  30
0
  11
-3.9
  21
1.715755
  31
0
  0
LINE
  5
2fa
  100
AcDbEntity
  8
SK1
  100
AcDbLine
  10
-3.9
  20
1.715755
  30
0
  11
-4
  21
1.719334
  31
0
  0
LINE
  5
2fb
  100
AcDbEntity
  8
SK1
  100
AcDbLine
  10
-4
  20
1.719334
  30
0
  11
-4.1
  21
1.706888
  31
0
  0
LINE
  5
2fc
  100
AcDbEntity
  8
SK1
  100
AcDbLine
  10
-4.1
  20
1.706888
  30
0
  11
-4.2
  21
1.673874
  31
0
  0
LINE
  5
2fd
  100
AcDbEntity
  8
SK1
  100
AcDbLine
  10
-4.2
  20
1.673874
  30
0
  11
-4.3
  21
1.614514
  31
0
  0
LINE
  5
2fe
  100
AcDbEntity
  8
SK1
  100
AcDbLine
  10
-4.3
  20
1.614514
  30
0
  11
-4.4
  21
1.521465
  31
0
  0
LINE
  5
2ff
  100
AcDbEntity
  8
SK1
  100
AcDbLine
  10
-4.4
  20
1.521465
  30
0
  11
-4.5
  21
1.385407
  31
0
  0
LINE
  5
300
  100
AcDbEntity
  8
SK1
  100
AcDbLine
  10
-4.5
  20
1.385407
  30
0
  11
-4.6
  21
1.194561
  31
0
  0
LINE
  5
301
  100
AcDbEntity
  8
SK1
  100
AcDbLine
  10
-4.6
  20
1.194561
  30
0
  11
-4.7
  21
0.934221
  31
0
  0
LINE
  5
302
  100
AcDbEntity
  8
SK1
  100
AcDbLine
  10
-4.7
  20
0.934221
  30
0
  11
-4.8
  21
0.586444
  31
0
  0
LINE
  5
303
  100
AcDbEntity
  8
SK1
  100
AcDbLine
  10
-4.8
  20
0.586444
  30
0
  11
-4.9
  21
0.130359
  31
0
  0
LINE
  5
304
  100
AcDbEntity
  8
SK1
  100
AcDbLine
  10
-4.9
  20
0.130359
  30
0
  11
-5
  21
-0.456027
  31
0
  0
LINE
  5
305
  100
AcDbEntity
  8
SK1
  100
AcDbLine
  10
-5
  20
-0.456027
  30
0
  11
-5
  21
-0.608737
  31
0
  0
LINE
  5
306
  100
AcDbEntity
  8
SK1
  100
AcDbLine
  10
-5
  20
-0.608737
  30
0
  11
-4.9
  21
-1.174151
  31
0
  0
LINE
  5
307
  100
AcDbEntity
  8
SK1
  100
AcDbLine
  10
-4.9
  20
-1.174151
  30
0
  11
-4.8
  21
-1.676877
  31
0
  0
LINE
  5
308
  100
AcDbEntity
  8
SK1
  100
AcDbLine
  10
-4.8
  20
-1.676877
  30
0
  11
-4.7
  21
-2.119393
  31
0
  0
LINE
  5
309
  100
AcDbEntity
  8
SK1
  100
AcDbLine
  10
-4.7
  20
-2.119393
  30
0
  11
-4.6
  21
-2.505846
  31
0
  0
LINE
  5
30a
  100
AcDbEntity
  8
SK1
  100
AcDbLine
  10
-4.6
  20
-2.505846
  30
0
  11
-4.5
  21
-2.841267
  31
0
  0
LINE
  5
30b
  100
AcDbEntity
  8
SK1
  100
AcDbLine
  10
-4.5
  20
-2.841267
  30
0
  11
-4.4
  21
-3.131024
  31
0
  0
LINE
  5
30c
  100
AcDbEntity
  8
SK1
  100
AcDbLine
  10
-4.4
  20
-3.131024
  30
0
  11
-4.3
  21
-3.380459
  31
0
  0
LINE
  5
30d
  100
AcDbEntity
  8
SK1
  100
AcDbLine
  10
-4.3
  20
-3.380459
  30
0
  11
-4.2
  21
-3.594657
  31
0
  0
LINE
  5
30e
  100
AcDbEntity
  8
SK1
  100
AcDbLine
  10
-4.2
  20
-3.594657
  30
0
  11
-4.1
  21
-3.778312
  31
0
  0
LINE
  5
30f
  100
AcDbEntity
  8
SK1
  100
AcDbLine
  10
-4.1
  20
-3.778312
  30
0
  11
-4
  21
-3.935665
  31
0
  0
LINE
  5
310
  100
AcDbEntity
  8
SK1
  100
AcDbLine
  10
-4
  20
-3.935665
  30
0
  11
-3.9
  21
-4.070483
  31
0
  0
LINE
  5
311
  100
AcDbEntity
  8
SK1
  100
AcDbLine
  10
-3.9
  20
-4.070483
  30
0
  11
-3.8
  21
-4.186071
  31
0
  0
LINE
  5
312
  100
AcDbEntity
  8
SK1
  100
AcDbLine
  10
-3.8
  20
-4.186071
  30
0
  11
-3.7
  21
-4.285301
  31
0
  0
LINE
  5
313
  100
AcDbEntity
  8
SK1
  100
AcDbLine
  10
-3.7
  20
-4.285301
  30
0
  11
-3.6
  21
-4.370647
  31
0
  0
LINE
  5
314
  100
AcDbEntity
  8
SK1
  100
AcDbLine
  10
-3.6
  20
-4.370647
  30
0
  11
-3.5
  21
-4.444228
  31
0
  0
LINE
  5
315
  100
AcDbEntity
  8
SK1
  100
AcDbLine
  10
-3.5
  20
-4.444228
  30
0
  11
-3.4
  21
-4.507852
  31
0
  0
LINE
  5
316
  100
AcDbEntity
  8
SK1
  100
AcDbLine
  10
-3.4
  20
-4.507852
  30
0
  11
-3.3
  21
-4.563054
  31
0
  0
LINE
  5
317
  100
AcDbEntity
  8
SK1
  100
AcDbLine
  10
-3.3
  20
-4.563054
  30
0
  11
-3.2
  21
-4.611131
  31
0
  0
LINE
  5
318
  100
AcDbEntity
  8
SK1
  100
AcDbLine
  10
-3.2
  20
-4.611131
  30
0
  11
-3.1
  21
-4.65318
  31
0
  0
LINE
  5
319
  100
AcDbEntity
  8
SK1
  100
AcDbLine
  10
-3.1
  20
-4.65318
  30
0
  11
-3
  21
-4.690125
  31
0
  0
LINE
  5
31a
  100
AcDbEntity
  8
SK1
  100
AcDbLine
  10
-3
  20
-4.690125
  30
0
  11
-2.9
  21
-4.72274
  31
0
  0
LINE
  5
31b
  100
AcDbEntity
  8
SK1
  100
AcDbLine
  10
-2.9
  20
-4.72274
  30
0
  11
-2.8
  21
-4.751677
  31
0
  0
LINE
  5
31c
  100
AcDbEntity
  8
SK1
  100
AcDbLine
  10
-2.8
  20
-4.751677
  30
0
  11
-2.7
  21
-4.777482
  31
0
  0
LINE
  5
31d
  100
AcDbEntity
  8
SK1
  100
AcDbLine
  10
-2.7
  20
-4.777482
  30
0
  11
-2.6
  21
-4.800609
  31
0
  0
LINE
  5
31e
  100
AcDbEntity
  8
SK1
  100
AcDbLine
  10
-2.6
  20
-4.800609
  30
0
  11
-2.5
  21
-4.821439
  31
0
  0
LINE
  5
31f
  100
AcDbEntity
  8
SK1
  100
AcDbLine
  10
-2.5
  20
-4.821439
  30
0
  11
-2.4
  21
-4.840288
  31
0
  0
LINE
  5
320
  100
AcDbEntity
  8
SK1
  100
AcDbLine
  10
-2.4
  20
-4.840288
  30
0
  11
-2.3
  21
-4.857417
  31
0
  0
LINE
  5
321
  100
AcDbEntity
  8
SK1
  100
AcDbLine
  10
-2.3
  20
-4.857417
  30
0
  11
-2.2
  21
-4.873042
  31
0
  0
LINE
  5
322
  100
AcDbEntity
  8
SK1
  100
AcDbLine
  10
-2.2
  20
-4.873042
  30
0
  11
-2.1
  21
-4.887341
  31
0
  0
LINE
  5
323
  100
AcDbEntity
  8
SK1
  100
AcDbLine
  10
-2.1
  20
-4.887341
  30
0
  11
-2
  21
-4.900459
  31
0
  0
LINE
  5
324
  100
AcDbEntity
  8
SK1
  100
AcDbLine
  10
-2
  20
-4.900459
  30
0
  11
-1.9
  21
-4.912513
  31
0
  0
LINE
  5
325
  100
AcDbEntity
  8
SK1
  100
AcDbLine
  10
-1.9
  20
-4.912513
  30
0
  11
-1.8
  21
-4.923598
  31
0
  0
LINE
  5
326
  100
AcDbEntity
  8
SK1
  100
AcDbLine
  10
-1.8
  20
-4.923598
  30
0
  11
-1.7
  21
-4.933789
  31
0
  0
LINE
  5
327
  100
AcDbEntity
  8
SK1
  100
AcDbLine
  10
-1.7
  20
-4.933789
  30
0
  11
-1.6
  21
-4.943146
  31
0
  0
LINE
  5
328
  100
AcDbEntity
  8
SK1
  100
AcDbLine
  10
-1.6
  20
-4.943146
  30
0
  11
-1.5
  21
-4.951715
  31
0
  0
LINE
  5
329
  100
AcDbEntity
  8
SK1
  100
AcDbLine
  10
-1.5
  20
-4.951715
  30
0
  11
-1.4
  21
-4.959531
  31
0
  0
LINE
  5
32a
  100
AcDbEntity
  8
SK1
  100
AcDbLine
  10
-1.4
  20
-4.959531
  30
0
  11
-1.3
  21
-4.966622
  31
0
  0
LINE
  5
32b
  100
AcDbEntity
  8
SK1
  100
AcDbLine
  10
-1.3
  20
-4.966622
  30
0
  11
-1.2
  21
-4.973006
  31
0
  0
LINE
  5
32c
  100
AcDbEntity
  8
SK1
  100
AcDbLine
  10
-1.2
  20
-4.973006
  30
0
  11
-1.1
  21
-4.978698
  31
0
  0
LINE
  5
32d
  100
AcDbEntity
  8
SK1
  100
AcDbLine
  10
-1.1
  20
-4.978698
  30
0
  11
-1
  21
-4.983708
  31
0
  0
LINE
  5
32e
  100
AcDbEntity
  8
SK1
  100
AcDbLine
  10
-1
  20
-4.983708
  30
0
  11
-0.9
  21
-4.988042
  31
0
  0
LINE
  5
32f
  100
AcDbEntity
  8
SK1
  100
AcDbLine
  10
-0.9
  20
-4.988042
  30
0
  11
-0.8
  21
-4.991704
  31
0
  0
LINE
  5
330
  100
AcDbEntity
  8
SK1
  100
AcDbLine
  10
-0.8
  20
-4.991704
  30
0
  11
-0.7
  21
-4.994698
  31
0
  0
LINE
  5
331
  100
AcDbEntity
  8
SK1
  100
AcDbLine
  10
-0.7
  20
-4.994698
  30
0
  11
-0.6
  21
-4.997024
  31
0
  0
LINE
  5
332
  100
AcDbEntity
  8
SK1
  100
AcDbLine
  10
-0.6
  20
-4.997024
  30
0
  11
-0.5
  21
-4.998683
  31
0
  0
LINE
  5
333
  100
AcDbEntity
  8
SK1
  100
AcDbLine
  10
-0.5
  20
-4.998683
  30
0
  11
-0.4
  21
-4.999675
  31
0
  0
LINE
  5
334
  100
AcDbEntity
  8
SK1
  100
AcDbLine
  10
-0.4
  20
-4.999675
  30
0
  11
-0.301195
  21
-5
  31
0
  0
LINE
  5
335
  100
AcDbEntity
  8
SK1
  100
AcDbLine
  10
0
  20
-5
  30
0
  11
0
  21
5
  31
0
  0
LINE
  5
336
  100
AcDbEntity
  8
SK1
  100
AcDbLine
  10
0
  20
5
  30
0
  11
0
  21
-5
  31
0
  0
LINE
  5
36f
  100
AcDbEntity
  8
CUT
  100
AcDbLine
  10
13
  20
0
  30
0
  11
13
  21
5
  31
0
  0
LINE
  5
370
  100
AcDbEntity
  8
CUT
  100
AcDbLine
  10
13
  20
5
  30
0
  11
0
  21
5
  31
0
  0
LINE
  5
371
  100
AcDbEntity
  8
CUT
  100
AcDbLine
  10
0
  20
5
  30
0
  11
0
  21
0
  31
0
  0
LINE
  5
372
  100
AcDbEntity
  8
CUT
  100
AcDbLine
  10
0
  20
0
  30
0
  11
13
  21
0
  31
0
  0
LINE
  5
373
  100
AcDbEntity
  8
4
  100
AcDbLine
  10
0
  20
0
  30
0
  11
13
  21
0
  31
0
  0
LINE
  5
374
  100
AcDbEntity
  8
INFTEXT
  100
AcDbLine
  10
-137.648987
  20
-63.285024
  30
0
  11
-137.648987
  21
-59.285024
  31
0
  0
LINE
  5
375
  100
AcDbEntity
  8
INFTEXT
  100
AcDbLine
  10
-137.648987
  20
-59.285024
  30
0
  11
-117.648987
  21
-59.285024
  31
0
  0
LINE
  5
376
  100
AcDbEntity
  8
INFTEXT
  100
AcDbLine
  10
-117.648987
  20
-59.285024
  30
0
  11
-117.648987
  21
-63.285024
  31
0
  0
LINE
  5
377
  100
AcDbEntity
  8
INFTEXT
  100
AcDbLine
  10
-117.648987
  20
-63.285024
  30
0
  11
-137.648987
  21
-63.285024
  31
0
  0
MTEXT
  5
378
  100
AcDbEntity
  8
INFTEXT
  100
AcDbMText
  10
-136.648987
  20
-63.301831
  30
0
  11
1
  21
0
  31
0
  40
2
  41
0
  71
7
  72
1
  1
Bearbeitung
  0
LINE
  5
379
  100
AcDbEntity
  8
INFTEXT
  100
AcDbLine
  10
-117.648987
  20
-63.285024
  30
0
  11
-117.648987
  21
-59.285024
  31
0
  0
LINE
  5
37a
  100
AcDbEntity
  8
INFTEXT
  100
AcDbLine
  10
-117.648987
  20
-59.285024
  30
0
  11
-82.648987
  21
-59.285024
  31
0
  0
LINE
  5
37b
  100
AcDbEntity
  8
INFTEXT
  100
AcDbLine
  10
-82.648987
  20
-59.285024
  30
0
  11
-82.648987
  21
-63.285024
  31
0
  0
LINE
  5
37c
  100
AcDbEntity
  8
INFTEXT
  100
AcDbLine
  10
-82.648987
  20
-63.285024
  30
0
  11
-117.648987
  21
-63.285024
  31
0
  0
MTEXT
  5
37d
  100
AcDbEntity
  8
INFTEXT
  100
AcDbMText
  10
-116.648987
  20
-63.301831
  30
0
  11
1
  21
0
  31
0
  40
2
  41
0
  71
7
  72
1
  1
Scheibendaten
  0
LINE
  5
37e
  100
AcDbEntity
  8
INFTEXT
  100
AcDbLine
  10
-137.648987
  20
-67.285024
  30
0
  11
-137.648987
  21
-63.285024
  31
0
  0
LINE
  5
37f
  100
AcDbEntity
  8
INFTEXT
  100
AcDbLine
  10
-137.648987
  20
-63.285024
  30
0
  11
-117.648987
  21
-63.285024
  31
0
  0
LINE
  5
380
  100
AcDbEntity
  8
INFTEXT
  100
AcDbLine
  10
-117.648987
  20
-63.285024
  30
0
  11
-117.648987
  21
-67.285024
  31
0
  0
LINE
  5
381
  100
AcDbEntity
  8
INFTEXT
  100
AcDbLine
  10
-117.648987
  20
-67.285024
  30
0
  11
-137.648987
  21
-67.285024
  31
0
  0
MTEXT
  5
382
  100
AcDbEntity
  8
INFTEXT
  100
AcDbMText
  10
-136.648987
  20
-67.301831
  30
0
  11
1
  21
0
  31
0
  40
2
  41
0
  71
7
  72
1
  1
Nut
  0
LINE
  5
383
  100
AcDbEntity
  8
INFTEXT
  100
AcDbLine
  10
-117.648987
  20
-67.285024
  30
0
  11
-117.648987
  21
-63.285024
  31
0
  0
LINE
  5
384
  100
AcDbEntity
  8
INFTEXT
  100
AcDbLine
  10
-117.648987
  20
-63.285024
  30
0
  11
-82.648987
  21
-63.285024
  31
0
  0
LINE
  5
385
  100
AcDbEntity
  8
INFTEXT
  100
AcDbLine
  10
-82.648987
  20
-63.285024
  30
0
  11
-82.648987
  21
-67.285024
  31
0
  0
LINE
  5
386
  100
AcDbEntity
  8
INFTEXT
  100
AcDbLine
  10
-82.648987
  20
-67.285024
  30
0
  11
-117.648987
  21
-67.285024
  31
0
  0
MTEXT
  5
387
  100
AcDbEntity
  8
INFTEXT
  100
AcDbMText
  10
-116.648987
  20
-67.301831
  30
0
  11
1
  21
0
  31
0
  40
2
  41
0
  71
7
  72
1
  1
1A1 ø125 B10 
  0
LINE
  5
388
  100
AcDbEntity
  8
INFTEXT
  100
AcDbLine
  10
-137.648987
  20
-71.285024
  30
0
  11
-137.648987
  21
-67.285024
  31
0
  0
LINE
  5
389
  100
AcDbEntity
  8
INFTEXT
  100
AcDbLine
  10
-137.648987
  20
-67.285024
  30
0
  11
-117.648987
  21
-67.285024
  31
0
  0
LINE
  5
38a
  100
AcDbEntity
  8
INFTEXT
  100
AcDbLine
  10
-117.648987
  20
-67.285024
  30
0
  11
-117.648987
  21
-71.285024
  31
0
  0
LINE
  5
38b
  100
AcDbEntity
  8
INFTEXT
  100
AcDbLine
  10
-117.648987
  20
-71.285024
  30
0
  11
-137.648987
  21
-71.285024
  31
0
  0
MTEXT
  5
38c
  100
AcDbEntity
  8
INFTEXT
  100
AcDbMText
  10
-136.648987
  20
-71.301831
  30
0
  11
1
  21
0
  31
0
  40
2
  41
0
  71
7
  72
1
  1
Rücken
  0
LINE
  5
38d
  100
AcDbEntity
  8
INFTEXT
  100
AcDbLine
  10
-117.648987
  20
-71.285024
  30
0
  11
-117.648987
  21
-67.285024
  31
0
  0
LINE
  5
38e
  100
AcDbEntity
  8
INFTEXT
  100
AcDbLine
  10
-117.648987
  20
-67.285024
  30
0
  11
-82.648987
  21
-67.285024
  31
0
  0
LINE
  5
38f
  100
AcDbEntity
  8
INFTEXT
  100
AcDbLine
  10
-82.648987
  20
-67.285024
  30
0
  11
-82.648987
  21
-71.285024
  31
0
  0
LINE
  5
390
  100
AcDbEntity
  8
INFTEXT
  100
AcDbLine
  10
-82.648987
  20
-71.285024
  30
0
  11
-117.648987
  21
-71.285024
  31
0
  0
MTEXT
  5
391
  100
AcDbEntity
  8
INFTEXT
  100
AcDbMText
  10
-116.648987
  20
-71.301831
  30
0
  11
1
  21
0
  31
0
  40
2
  41
0
  71
7
  72
1
  1
1A1 ø125 B3 
  0
LINE
  5
392
  100
AcDbEntity
  8
INFTEXT
  100
AcDbLine
  10
-137.648987
  20
-75.285024
  30
0
  11
-137.648987
  21
-71.285024
  31
0
  0
LINE
  5
393
  100
AcDbEntity
  8
INFTEXT
  100
AcDbLine
  10
-137.648987
  20
-71.285024
  30
0
  11
-117.648987
  21
-71.285024
  31
0
  0
LINE
  5
394
  100
AcDbEntity
  8
INFTEXT
  100
AcDbLine
  10
-117.648987
  20
-71.285024
  30
0
  11
-117.648987
  21
-75.285024
  31
0
  0
LINE
  5
395
  100
AcDbEntity
  8
INFTEXT
  100
AcDbLine
  10
-117.648987
  20
-75.285024
  30
0
  11
-137.648987
  21
-75.285024
  31
0
  0
MTEXT
  5
396
  100
AcDbEntity
  8
INFTEXT
  100
AcDbMText
  10
-136.648987
  20
-75.301831
  30
0
  11
1
  21
0
  31
0
  40
2
  41
0
  71
7
  72
1
  1
Radial
  0
LINE
  5
397
  100
AcDbEntity
  8
INFTEXT
  100
AcDbLine
  10
-117.648987
  20
-75.285024
  30
0
  11
-117.648987
  21
-71.285024
  31
0
  0
LINE
  5
398
  100
AcDbEntity
  8
INFTEXT
  100
AcDbLine
  10
-117.648987
  20
-71.285024
  30
0
  11
-82.648987
  21
-71.285024
  31
0
  0
LINE
  5
399
  100
AcDbEntity
  8
INFTEXT
  100
AcDbLine
  10
-82.648987
  20
-71.285024
  30
0
  11
-82.648987
  21
-75.285024
  31
0
  0
LINE
  5
39a
  100
AcDbEntity
  8
INFTEXT
  100
AcDbLine
  10
-82.648987
  20
-75.285024
  30
0
  11
-117.648987
  21
-75.285024
  31
0
  0
MTEXT
  5
39b
  100
AcDbEntity
  8
INFTEXT
  100
AcDbMText
  10
-116.648987
  20
-75.301831
  30
0
  11
1
  21
0
  31
0
  40
2
  41
0
  71
7
  72
1
  1
1A1 ø70 B4 
  0
LINE
  5
39c
  100
AcDbEntity
  8
INFTEXT
  100
AcDbLine
  10
-137.648987
  20
-79.285024
  30
0
  11
-137.648987
  21
-75.285024
  31
0
  0
LINE
  5
39d
  100
AcDbEntity
  8
INFTEXT
  100
AcDbLine
  10
-137.648987
  20
-75.285024
  30
0
  11
-117.648987
  21
-75.285024
  31
0
  0
LINE
  5
39e
  100
AcDbEntity
  8
INFTEXT
  100
AcDbLine
  10
-117.648987
  20
-75.285024
  30
0
  11
-117.648987
  21
-79.285024
  31
0
  0
LINE
  5
39f
  100
AcDbEntity
  8
INFTEXT
  100
AcDbLine
  10
-117.648987
  20
-79.285024
  30
0
  11
-137.648987
  21
-79.285024
  31
0
  0
MTEXT
  5
3a0
  100
AcDbEntity
  8
INFTEXT
  100
AcDbMText
  10
-136.648987
  20
-79.301831
  30
0
  11
1
  21
0
  31
0
  40
2
  41
0
  71
7
  72
1
  1
Ausspitz
  0
LINE
  5
3a1
  100
AcDbEntity
  8
INFTEXT
  100
AcDbLine
  10
-117.648987
  20
-79.285024
  30
0
  11
-117.648987
  21
-75.285024
  31
0
  0
LINE
  5
3a2
  100
AcDbEntity
  8
INFTEXT
  100
AcDbLine
  10
-117.648987
  20
-75.285024
  30
0
  11
-82.648987
  21
-75.285024
  31
0
  0
LINE
  5
3a3
  100
AcDbEntity
  8
INFTEXT
  100
AcDbLine
  10
-82.648987
  20
-75.285024
  30
0
  11
-82.648987
  21
-79.285024
  31
0
  0
LINE
  5
3a4
  100
AcDbEntity
  8
INFTEXT
  100
AcDbLine
  10
-82.648987
  20
-79.285024
  30
0
  11
-117.648987
  21
-79.285024
  31
0
  0
MTEXT
  5
3a5
  100
AcDbEntity
  8
INFTEXT
  100
AcDbMText
  10
-116.648987
  20
-79.301831
  30
0
  11
1
  21
0
  31
0
  40
2
  41
0
  71
7
  72
1
  1
12V9 ø125 B25  45°
  0
LINE
  5
3a6
  100
AcDbEntity
  8
INFTEXT
  100
AcDbLine
  10
-137.648987
  20
-83.285024
  30
0
  11
-137.648987
  21
-79.285024
  31
0
  0
LINE
  5
3a7
  100
AcDbEntity
  8
INFTEXT
  100
AcDbLine
  10
-137.648987
  20
-79.285024
  30
0
  11
-117.648987
  21
-79.285024
  31
0
  0
LINE
  5
3a8
  100
AcDbEntity
  8
INFTEXT
  100
AcDbLine
  10
-117.648987
  20
-79.285024
  30
0
  11
-117.648987
  21
-83.285024
  31
0
  0
LINE
  5
3a9
  100
AcDbEntity
  8
INFTEXT
  100
AcDbLine
  10
-117.648987
  20
-83.285024
  30
0
  11
-137.648987
  21
-83.285024
  31
0
  0
MTEXT
  5
3aa
  100
AcDbEntity
  8
INFTEXT
  100
AcDbMText
  10
-136.648987
  20
-83.301831
  30
0
  11
1
  21
0
  31
0
  40
2
  41
0
  71
7
  72
1
  1
Stirn
  0
LINE
  5
3ab
  100
AcDbEntity
  8
INFTEXT
  100
AcDbLine
  10
-117.648987
  20
-83.285024
  30
0
  11
-117.648987
  21
-79.285024
  31
0
  0
LINE
  5
3ac
  100
AcDbEntity
  8
INFTEXT
  100
AcDbLine
  10
-117.648987
  20
-79.285024
  30
0
  11
-82.648987
  21
-79.285024
  31
0
  0
LINE
  5
3ad
  100
AcDbEntity
  8
INFTEXT
  100
AcDbLine
  10
-82.648987
  20
-79.285024
  30
0
  11
-82.648987
  21
-83.285024
  31
0
  0
LINE
  5
3ae
  100
AcDbEntity
  8
INFTEXT
  100
AcDbLine
  10
-82.648987
  20
-83.285024
  30
0
  11
-117.648987
  21
-83.285024
  31
0
  0
MTEXT
  5
3af
  100
AcDbEntity
  8
INFTEXT
  100
AcDbMText
  10
-116.648987
  20
-83.301831
  30
0
  11
1
  21
0
  31
0
  40
2
  41
0
  71
7
  72
1
  1
11V9 ø100 B35 
  0
LINE
  5
3b0
  100
AcDbEntity
  8
INFTOTAL
  100
AcDbLine
  10
-145.781436
  20
13.132449
  30
0
  11
33.132449
  21
13.132449
  31
0
  0
LINE
  5
3b1
  100
AcDbEntity
  8
INFTOTAL
  100
AcDbLine
  10
33.132449
  20
13.132449
  30
0
  11
33.132449
  21
-91.417474
  31
0
  0
LINE
  5
3b2
  100
AcDbEntity
  8
INFTOTAL
  100
AcDbLine
  10
33.132449
  20
-91.417474
  30
0
  11
-145.781436
  21
-91.417474
  31
0
  0
LINE
  5
3b3
  100
AcDbEntity
  8
INFTOTAL
  100
AcDbLine
  10
-145.781436
  20
-91.417474
  30
0
  11
-145.781436
  21
13.132449
  31
0
  0
ENDSEC
  0
SECTION
  2
OBJECTS
  0
DICTIONARY
  5
3b4
  330
0
100
AcDbDictionary
281
    1
  3
ACAD_GROUP
  350
3b5
  0
DICTIONARY
  5
3b5
102
{ACAD_REACTORS
  330
3b4
102
}
  330
3b4
100
AcDbDictionary
281
    1
  0
ENDSEC
  0
EOF
