  0
SECTION
  2
HEADER
  9
$ACADVER
  1
AC1015
  9
$DWGCODEPAGE
  3
ansi_1252
  9
$HANDSEED
  5
106AB90
  0
ENDSEC
  0
SECTION
  2
TABLES
  0
TABLE
  2
VPORT
  5
2
  330
0
  100
AcDbSymbolTable
  70
    0
  0
ENDTAB
  0
TABLE
  2
LTYPE
  5
3
  330
0
  100
AcDbSymbolTable
  70
    4
  0
LTYPE
  5
4
  330
3
  100
AcDbSymbolTableRecord
  100
AcDbLinetypeTableRecord
  2
ByBlock
  70
    0
  3

  72
65
  73
    0
  40
0
  0
LTYPE
  5
5
  330
3
  100
AcDbSymbolTableRecord
  100
AcDbLinetypeTableRecord
  2
ByLayer
  70
    0
  3

  72
65
  73
    0
  40
0
  0
LTYPE
  5
6
  330
3
  100
AcDbSymbolTableRecord
  100
AcDbLinetypeTableRecord
  2
CONTINUOUS
  70
    0
  3
Solid Line
  72
65
  73
    0
  40
0
  0
LTYPE
  5
7
  330
3
  100
AcDbSymbolTableRecord
  100
AcDbLinetypeTableRecord
  2
DASH
  70
    0
  3
Hidden
  72
65
  73
2
  40
2.5
  49
1.5
  74
0
  49
-1
  74
0
  0
LTYPE
  5
8
  330
3
  100
AcDbSymbolTableRecord
  100
AcDbLinetypeTableRecord
  2
LONGDASHDASH
  70
    0
  3
__ . __
  72
65
  73
    4
  40
7
  49
4
  74
    0
  49
-1
  74
    0
  49
1
  74
    0
  49
-1
  74
    0
  0
ENDTAB
  0
TABLE
  2
LAYER
  5
9
  330
0
  100
AcDbSymbolTable
  70
    40
  0
LAYER
  5
a
  330
9
  100
AcDbSymbolTableRecord
  100
AcDbLayerTableRecord
  2
0
  70
    0
  62
    0
  6
CONTINUOUS
  390
0
  0
LAYER
  5
c
  330
9
  100
AcDbSymbolTableRecord
  100
AcDbLayerTableRecord
  2
1
  70
    0
  62
    4
  6
CONTINUOUS
  370
50
  390
0
  0
LAYER
  5
d
  330
9
  100
AcDbSymbolTableRecord
  100
AcDbLayerTableRecord
  2
2
  70
    0
  62
    7
  6
CONTINUOUS
  370
25
  390
0
  0
LAYER
  5
f
  330
9
  100
AcDbSymbolTableRecord
  100
AcDbLayerTableRecord
  2
4
  70
    0
  62
    2
  6
LONGDASHDASH
  370
25
  390
0
  0
LAYER
  5
13
  330
9
  100
AcDbSymbolTableRecord
  100
AcDbLayerTableRecord
  2
SK1
  70
    0
  62
    4
  6
CONTINUOUS
  370
50
  390
0
  0
LAYER
  5
14
  330
9
  100
AcDbSymbolTableRecord
  100
AcDbLayerTableRecord
  2
SK2
  70
    0
  62
    7
  6
CONTINUOUS
  370
25
  390
0
  0
LAYER
  5
21
  330
9
  100
AcDbSymbolTableRecord
  100
AcDbLayerTableRecord
  2
NOCUT
  70
    0
  62
    7
  6
CONTINUOUS
  370
25
  390
0
  0
LAYER
  5
22
  330
9
  100
AcDbSymbolTableRecord
  100
AcDbLayerTableRecord
  2
CUT
  70
    0
  62
    1
  6
CONTINUOUS
  370
25
  390
0
  0
LAYER
  5
25
  330
9
  100
AcDbSymbolTableRecord
  100
AcDbLayerTableRecord
  2
INFTEXT
  70
    0
  62
    5
  6
CONTINUOUS
  390
0
  0
LAYER
  5
26
  330
9
  100
AcDbSymbolTableRecord
  100
AcDbLayerTableRecord
  2
INFTOTAL
  70
    0
  62
    9
  6
CONTINUOUS
  370
18
  390
0
  0
ENDTAB
  0
TABLE
  2
STYLE
  5
27
  330
0
  100
AcDbSymbolTable
  70
    1
  0
STYLE
  5
28
  330
27
  100
AcDbSymbolTableRecord
  100
AcDbTextStyleTableRecord
  2
Monospac821 BT
  70
    0
  40
    3.5
  41
1
  50
0
  71
0
  42
3
  3

  4

  1001
ACAD
  1000
Monospac821 BT
  1071
256
  0
ENDTAB
  0
TABLE
  2
VIEW
  5
29
  330
0
  100
AcDbSymbolTable
  70
    0
  0
ENDTAB
  0
TABLE
  2
UCS
  5
2a
  330
0
  100
AcDbSymbolTable
  70
    0
  0
ENDTAB
  0
TABLE
  2
APPID
  5
2b
  330
0
  100
AcDbSymbolTable
  70
    1
  0
APPID
  5
2c
  330
2b
  100
AcDbSymbolTableRecord
  100
AcDbRegAppTableRecord
  2
ACAD
  70
    0
  0
ENDTAB
  0
TABLE
  2
DIMSTYLE
  5
2d
  330
0
  100
AcDbSymbolTable
  70
    1
  100
AcDbDimStyleTable
  0
DIMSTYLE
  105
2e
  330
2d
  100
AcDbSymbolTableRecord
  100
AcDbDimStyleTableRecord
  2
ISBEtdSketcher
  70
    0
  41
    3
  42
0.5
  44
1
  73
0
  77
1
  78
1
  140
3.5
  141
2.5
  143
0.03937
  147
0.8
  172
1
  174
1
  178
0
  179
1
  271
2
  279
1
  284
1
  340
28
  0
ENDTAB
  0
TABLE
  2
BLOCK_RECORD
  5
2f
  330
0
  100
AcDbSymbolTable
  70
    2
  0
BLOCK_RECORD
  5
30
  330
2f
  100
AcDbSymbolTableRecord
  100
AcDbBlockTableRecord
  2
*Model_Space
  0
BLOCK_RECORD
  5
31
  330
2f
  100
AcDbSymbolTableRecord
  100
AcDbBlockTableRecord
  2
*Paper_Space
  0
BLOCK_RECORD
  5
2a4
  330
2f
  100
AcDbSymbolTableRecord
  100
AcDbBlockTableRecord
  2
*D2a3
  340
0
  0
BLOCK_RECORD
  5
2b2
  330
2f
  100
AcDbSymbolTableRecord
  100
AcDbBlockTableRecord
  2
*D2b1
  340
0
  0
BLOCK_RECORD
  5
2c2
  330
2f
  100
AcDbSymbolTableRecord
  100
AcDbBlockTableRecord
  2
*D2c1
  340
0
  0
BLOCK_RECORD
  5
2d0
  330
2f
  100
AcDbSymbolTableRecord
  100
AcDbBlockTableRecord
  2
*D2cf
  340
0
  0
BLOCK_RECORD
  5
2de
  330
2f
  100
AcDbSymbolTableRecord
  100
AcDbBlockTableRecord
  2
*D2dd
  340
0
  0
ENDTAB
  0
ENDSEC
  0
SECTION
  2
BLOCKS
  0
BLOCK
  5
32
  330
30
  100
AcDbEntity
  8
0
  100
AcDbBlockBegin
  2
*Model_Space
  70
    0
  10
0
  20
0
  30
0
  3
*Model_Space
  1

  0
ENDBLK
  5
33
  330
30
  100
AcDbEntity
  8
0
  100
AcDbBlockEnd
  0
BLOCK
  5
34
  330
31
  100
AcDbEntity
  8
0
  100
AcDbBlockBegin
  2
*Paper_Space
  70
    0
  10
0
  20
0
  30
0
  3
*Paper_Space
  1

  0
ENDBLK
  5
35
  330
31
  100
AcDbEntity
  8
0
  100
AcDbBlockEnd
  0
BLOCK
  5
2a2
  330
2a4
  100
AcDbEntity
  8
SK2
  100
AcDbBlockBegin
  2
*D2a3
  70
1
  10
0
  20
0
  30
0
  3
*D2a3
  1

  0
LINE
  5
2a5
  330
2a4
  100
AcDbEntity
  8
SK2
  100
AcDbLine
  10
-31.783
  20
-25
  30
0
  11
-31.783
  21
3.5
  31
0
  0
LINE
  5
2a6
  330
2a4
  100
AcDbEntity
  8
SK2
  100
AcDbLine
  10
11.216506
  20
-25
  30
0
  11
11.216506
  21
3.875
  31
0
  0
LINE
  5
2a7
  330
2a4
  100
AcDbEntity
  8
SK2
  100
AcDbLine
  10
-31.783
  20
-23
  30
0
  11
11.216506
  21
-23
  31
0
  0
SOLID
  5
2a8
  330
2a4
  100
AcDbEntity
  8
SK2
  100
AcDbTrace
  10
-31.783
  20
-23
  30
0
  11
-29.304388
  21
-22.673685
  31
0
  12
-29.304388
  22
-23.326315
  32
0
  13
-29.304388
  23
-23.326315
  33
0
  0
SOLID
  5
2a9
  330
2a4
  100
AcDbEntity
  8
SK2
  100
AcDbTrace
  10
11.216506
  20
-23
  30
0
  11
8.737894
  21
-23.326315
  31
0
  12
8.737894
  22
-22.673685
  32
0
  13
8.737894
  23
-22.673685
  33
0
  0
MTEXT
  5
2aa
  330
2a4
  100
AcDbEntity
  8
SK2
  100
AcDbMText
  10
-11.205719
  20
-23
  30
0
  11
1
  21
0
  31
0
  40
2
  41
0
  71
8
  72
1
  1
43
  0
POINT
  5
2ab
  330
2a4
  100
AcDbEntity
  8
SK2
  62
0
  100
AcDbPoint
  10
-31.783
  20
3.5
  30
0
  0
POINT
  5
2ac
  330
2a4
  100
AcDbEntity
  8
SK2
  62
0
  100
AcDbPoint
  10
11.216506
  20
3.875
  30
0
  0
POINT
  5
2ad
  330
2a4
  100
AcDbEntity
  8
SK2
  62
0
  100
AcDbPoint
  10
11.216506
  20
-23
  30
0
  0
ENDBLK
  5
2ae
  330
2a4
  100
AcDbEntity
  8
SK2
  100
AcDbBlockEnd
  0
BLOCK
  5
2b0
  330
2b2
  100
AcDbEntity
  8
SK2
  100
AcDbBlockBegin
  2
*D2b1
  70
1
  10
0
  20
0
  30
0
  3
*D2b1
  1

  0
LINE
  5
2b3
  330
2b2
  100
AcDbEntity
  8
SK2
  100
AcDbLine
  10
-3.042279
  20
5.75646
  30
0
  11
-30.422787
  21
21.564604
  31
0
  0
LINE
  5
2b4
  330
2b2
  100
AcDbEntity
  8
SK2
  100
AcDbLine
  10
-3.512921
  20
4
  30
0
  11
-35.129209
  21
4
  31
0
  0
ARC
  5
2b5
  330
2b2
  100
AcDbEntity
  8
SK2
  100
AcDbCircle
  10
0
  20
4
  30
0
  40
33.129209
  100
AcDbArc
  50
150
  51
180
  0
SOLID
  5
2b6
  330
2b2
  100
AcDbEntity
  8
SK2
  100
AcDbTrace
  10
-28.690737
  20
20.564604
  30
0
  11
-29.647445
  21
18.254906
  31
0
  12
-30.21264
  22
18.581221
  32
0
  13
-30.21264
  23
18.581221
  33
0
  0
SOLID
  5
2b7
  330
2b2
  100
AcDbEntity
  8
SK2
  100
AcDbTrace
  10
-33.129209
  20
4
  30
0
  11
-33.455524
  21
6.478612
  31
0
  12
-32.802893
  22
6.478612
  32
0
  13
-32.802893
  23
6.478612
  33
0
  0
MTEXT
  5
2b8
  330
2b2
  100
AcDbEntity
  8
SK2
  100
AcDbMText
  10
-32.076463
  20
12.285228
  30
0
  11
0.250088
  21
0.968223
  31
0
  40
2
  41
0
  71
8
  72
1
  1
30°
  0
POINT
  5
2b9
  330
2b2
  100
AcDbEntity
  8
SK2
  62
0
  100
AcDbPoint
  10
-30.928781
  20
15.872447
  30
0
  0
POINT
  5
2ba
  330
2b2
  100
AcDbEntity
  8
SK2
  62
0
  100
AcDbPoint
  10
0
  20
4
  30
0
  0
POINT
  5
2bb
  330
2b2
  100
AcDbEntity
  8
SK2
  62
0
  100
AcDbPoint
  10
-3.042279
  20
5.75646
  30
0
  0
POINT
  5
2bc
  330
2b2
  100
AcDbEntity
  8
SK2
  62
0
  100
AcDbPoint
  10
0
  20
4
  30
0
  0
POINT
  5
2bd
  330
2b2
  100
AcDbEntity
  8
SK2
  62
0
  100
AcDbPoint
  10
-3.512921
  20
4
  30
0
  0
ENDBLK
  5
2be
  330
2b2
  100
AcDbEntity
  8
SK2
  100
AcDbBlockEnd
  0
BLOCK
  5
2c0
  330
2c2
  100
AcDbEntity
  8
SK2
  100
AcDbBlockBegin
  2
*D2c1
  70
1
  10
0
  20
0
  30
0
  3
*D2c1
  1

  0
LINE
  5
2c3
  330
2c2
  100
AcDbEntity
  8
SK2
  100
AcDbLine
  10
-31.283
  20
-4
  30
0
  11
-43.783494
  21
-4
  31
0
  0
LINE
  5
2c4
  330
2c2
  100
AcDbEntity
  8
SK2
  100
AcDbLine
  10
-31.283
  20
4
  30
0
  11
-43.783494
  21
4
  31
0
  0
LINE
  5
2c5
  330
2c2
  100
AcDbEntity
  8
SK2
  100
AcDbLine
  10
-41.783494
  20
-4
  30
0
  11
-41.783494
  21
4
  31
0
  0
SOLID
  5
2c6
  330
2c2
  100
AcDbEntity
  8
SK2
  100
AcDbTrace
  10
-41.783494
  20
-4
  30
0
  11
-42.109809
  21
-1.521388
  31
0
  12
-41.457178
  22
-1.521388
  32
0
  13
-41.457178
  23
-1.521388
  33
0
  0
SOLID
  5
2c7
  330
2c2
  100
AcDbEntity
  8
SK2
  100
AcDbTrace
  10
-41.783494
  20
4
  30
0
  11
-41.457178
  21
1.521388
  31
0
  12
-42.109809
  22
1.521388
  32
0
  13
-42.109809
  23
1.521388
  33
0
  0
MTEXT
  5
2c8
  330
2c2
  100
AcDbEntity
  8
SK2
  100
AcDbMText
  10
-41.783494
  20
-0.205479
  30
0
  11
0
  21
1
  31
0
  40
2
  41
0
  71
8
  72
1
  1
Ø8h6
  0
POINT
  5
2c9
  330
2c2
  100
AcDbEntity
  8
SK2
  62
0
  100
AcDbPoint
  10
-31.283
  20
-4
  30
0
  0
POINT
  5
2ca
  330
2c2
  100
AcDbEntity
  8
SK2
  62
0
  100
AcDbPoint
  10
-31.283
  20
4
  30
0
  0
POINT
  5
2cb
  330
2c2
  100
AcDbEntity
  8
SK2
  62
0
  100
AcDbPoint
  10
-41.783494
  20
4
  30
0
  0
ENDBLK
  5
2cc
  330
2c2
  100
AcDbEntity
  8
SK2
  100
AcDbBlockEnd
  0
BLOCK
  5
2ce
  330
2d0
  100
AcDbEntity
  8
2
  100
AcDbBlockBegin
  2
*D2cf
  70
1
  10
0
  20
0
  30
0
  3
*D2cf
  1

  0
LINE
  5
2d1
  330
2d0
  100
AcDbEntity
  8
2
  100
AcDbLine
  10
11.216506
  20
-3.875
  30
0
  11
23.216506
  21
-3.875
  31
0
  0
LINE
  5
2d2
  330
2d0
  100
AcDbEntity
  8
2
  100
AcDbLine
  10
11.216506
  20
3.875
  30
0
  11
23.216506
  21
3.875
  31
0
  0
LINE
  5
2d3
  330
2d0
  100
AcDbEntity
  8
2
  100
AcDbLine
  10
21.216506
  20
-11.97479
  30
0
  11
21.216506
  21
3.875
  31
0
  0
SOLID
  5
2d4
  330
2d0
  100
AcDbEntity
  8
2
  100
AcDbTrace
  10
21.216506
  20
-3.875
  30
0
  11
20.890191
  21
-1.396388
  31
0
  12
21.542822
  22
-1.396388
  32
0
  13
21.542822
  23
-1.396388
  33
0
  0
SOLID
  5
2d5
  330
2d0
  100
AcDbEntity
  8
2
  100
AcDbTrace
  10
21.216506
  20
3.875
  30
0
  11
21.542822
  21
1.396388
  31
0
  12
20.890191
  22
1.396388
  32
0
  13
20.890191
  23
1.396388
  33
0
  0
MTEXT
  5
2d6
  330
2d0
  100
AcDbEntity
  8
2
  100
AcDbMText
  10
21.216506
  20
-0.410959
  30
0
  11
0
  21
1
  31
0
  40
2
  41
0
  71
8
  72
1
  1
Ø7.75 e8
  0
POINT
  5
2d7
  330
2d0
  100
AcDbEntity
  8
2
  62
0
  100
AcDbPoint
  10
11.216506
  20
-3.875
  30
0
  0
POINT
  5
2d8
  330
2d0
  100
AcDbEntity
  8
2
  62
0
  100
AcDbPoint
  10
11.216506
  20
3.875
  30
0
  0
POINT
  5
2d9
  330
2d0
  100
AcDbEntity
  8
2
  62
0
  100
AcDbPoint
  10
21.216506
  20
3.875
  30
0
  0
ENDBLK
  5
2da
  330
2d0
  100
AcDbEntity
  8
2
  100
AcDbBlockEnd
  0
BLOCK
  5
2dc
  330
2de
  100
AcDbEntity
  8
2
  100
AcDbBlockBegin
  2
*D2dd
  70
1
  10
0
  20
0
  30
0
  3
*D2dd
  1

  0
LINE
  5
2df
  330
2de
  100
AcDbEntity
  8
2
  100
AcDbLine
  10
0.216506
  20
-16
  30
0
  11
0.216506
  21
-3.875
  31
0
  0
LINE
  5
2e0
  330
2de
  100
AcDbEntity
  8
2
  100
AcDbLine
  10
11.216506
  20
-25
  30
0
  11
11.216506
  21
3.875
  31
0
  0
LINE
  5
2e1
  330
2de
  100
AcDbEntity
  8
2
  100
AcDbLine
  10
0.216506
  20
-14
  30
0
  11
11.216506
  21
-14
  31
0
  0
SOLID
  5
2e2
  330
2de
  100
AcDbEntity
  8
2
  100
AcDbTrace
  10
0.216506
  20
-14
  30
0
  11
2.695119
  21
-13.673685
  31
0
  12
2.695119
  22
-14.326315
  32
0
  13
2.695119
  23
-14.326315
  33
0
  0
SOLID
  5
2e3
  330
2de
  100
AcDbEntity
  8
2
  100
AcDbTrace
  10
11.216506
  20
-14
  30
0
  11
8.737894
  21
-14.326315
  31
0
  12
8.737894
  22
-13.673685
  32
0
  13
8.737894
  23
-13.673685
  33
0
  0
MTEXT
  5
2e4
  330
2de
  100
AcDbEntity
  8
2
  100
AcDbMText
  10
5.716506
  20
-14
  30
0
  11
1
  21
0
  31
0
  40
2
  41
0
  71
8
  72
1
  1
11
  0
POINT
  5
2e5
  330
2de
  100
AcDbEntity
  8
2
  62
0
  100
AcDbPoint
  10
0.216506
  20
-3.875
  30
0
  0
POINT
  5
2e6
  330
2de
  100
AcDbEntity
  8
2
  62
0
  100
AcDbPoint
  10
11.216506
  20
3.875
  30
0
  0
POINT
  5
2e7
  330
2de
  100
AcDbEntity
  8
2
  62
0
  100
AcDbPoint
  10
11.216506
  20
-14
  30
0
  0
ENDBLK
  5
2e8
  330
2de
  100
AcDbEntity
  8
2
  100
AcDbBlockEnd
  0
ENDSEC
  0
SECTION
  2
ENTITIES
  0
DIMENSION
  5
2af
  100
AcDbEntity
  8
SK2
  100
AcDbDimension
  2
*D2a3
  10
11.216506
  20
-23
  30
0
  11
-11.205719
  21
-23
  31
0
  70
160
  1
<>
  71
5
  3
ISBEtdSketcher
  42
42.999506
  100
AcDbAlignedDimension
  13
-31.783
  23
3.5
  33
0
  14
11.216506
  24
3.875
  34
0
  50
0
  100
AcDbRotatedDimension
  0
DIMENSION
  5
2bf
  100
AcDbEntity
  8
SK2
  100
AcDbDimension
  2
*D2b1
  10
-3.512921
  20
4
  30
0
  11
-32.076463
  21
12.285228
  31
0
  70
162
  1
30°
  71
5
  53
75.517262
  3
ISBEtdSketcher
  100
AcDb2LineAngularDimension
  13
-3.042279
  23
5.75646
  33
0
  14
0
  24
4
  34
0
  15
0
  25
4
  35
0
  16
-30.928781
  26
15.872447
  36
0
  0
DIMENSION
  5
2cd
  100
AcDbEntity
  8
SK2
  100
AcDbDimension
  2
*D2c1
  10
-41.783494
  20
4
  30
0
  11
-41.783494
  21
-0.205479
  31
0
  70
160
  1
%%c<>h6
  71
5
  3
ISBEtdSketcher
  42
8
  100
AcDbAlignedDimension
  13
-31.283
  23
-4
  33
0
  14
-31.283
  24
4
  34
0
  50
-90
  100
AcDbRotatedDimension
  0
DIMENSION
  5
2db
  100
AcDbEntity
  8
2
  100
AcDbDimension
  2
*D2cf
  10
21.216506
  20
3.875
  30
0
  11
21.216506
  21
-0.410959
  31
0
  70
160
  1
%%c<> e8
  71
5
  3
ISBEtdSketcher
  42
7.75
  100
AcDbAlignedDimension
  13
11.216506
  23
-3.875
  33
0
  14
11.216506
  24
3.875
  34
0
  50
-90
  100
AcDbRotatedDimension
  0
DIMENSION
  5
2e9
  100
AcDbEntity
  8
2
  100
AcDbDimension
  2
*D2dd
  10
11.216506
  20
-14
  30
0
  11
5.716506
  21
-14
  31
0
  70
160
  1
<>
  71
5
  3
ISBEtdSketcher
  42
11
  100
AcDbAlignedDimension
  13
0.216506
  23
-3.875
  33
0
  14
11.216506
  24
3.875
  34
0
  50
0
  100
AcDbRotatedDimension
  0
LINE
  5
36
  100
AcDbEntity
  8
1
  100
AcDbLine
  10
11.216506
  20
0
  30
0
  11
11.216506
  21
3.875
  31
0
  0
LINE
  5
37
  100
AcDbEntity
  8
1
  100
AcDbLine
  10
11.216506
  20
3.875
  30
0
  11
0.216506
  21
3.875
  31
0
  0
LINE
  5
38
  100
AcDbEntity
  8
1
  100
AcDbLine
  10
0.216506
  20
3.875
  30
0
  11
0
  21
4
  31
0
  0
LINE
  5
39
  100
AcDbEntity
  8
1
  100
AcDbLine
  10
0
  20
4
  30
0
  11
0
  21
-4
  31
0
  0
LINE
  5
3a
  100
AcDbEntity
  8
1
  100
AcDbLine
  10
0
  20
-4
  30
0
  11
0.216506
  21
-3.875
  31
0
  0
LINE
  5
3b
  100
AcDbEntity
  8
1
  100
AcDbLine
  10
0.216506
  20
-3.875
  30
0
  11
11.216506
  21
-3.875
  31
0
  0
LINE
  5
3c
  100
AcDbEntity
  8
1
  100
AcDbLine
  10
11.216506
  20
-3.875
  30
0
  11
11.216506
  21
0
  31
0
  0
LINE
  5
3d
  100
AcDbEntity
  8
1
  100
AcDbLine
  10
12.216506
  20
0
  30
0
  11
11.916506
  21
0
  31
0
  0
LINE
  5
3e
  100
AcDbEntity
  8
1
  100
AcDbLine
  10
11.789006
  20
0
  30
0
  11
11.704006
  21
0
  31
0
  0
LINE
  5
3f
  100
AcDbEntity
  8
1
  100
AcDbLine
  10
11.491506
  20
0
  30
0
  11
11.066506
  21
0
  31
0
  0
LINE
  5
40
  100
AcDbEntity
  8
1
  100
AcDbLine
  10
10.939006
  20
0
  30
0
  11
10.854006
  21
0
  31
0
  0
LINE
  5
41
  100
AcDbEntity
  8
1
  100
AcDbLine
  10
10.641506
  20
0
  30
0
  11
10.216506
  21
0
  31
0
  0
LINE
  5
42
  100
AcDbEntity
  8
1
  100
AcDbLine
  10
11.216506
  20
1.952699
  30
0
  11
11.116506
  21
2.000804
  31
0
  0
LINE
  5
43
  100
AcDbEntity
  8
1
  100
AcDbLine
  10
11.116506
  20
2.000804
  30
0
  11
11.016506
  21
2.048492
  31
0
  0
LINE
  5
44
  100
AcDbEntity
  8
1
  100
AcDbLine
  10
11.016506
  20
2.048492
  30
0
  11
10.916506
  21
2.095754
  31
0
  0
LINE
  5
45
  100
AcDbEntity
  8
1
  100
AcDbLine
  10
10.916506
  20
2.095754
  30
0
  11
10.816506
  21
2.142579
  31
0
  0
LINE
  5
46
  100
AcDbEntity
  8
1
  100
AcDbLine
  10
10.816506
  20
2.142579
  30
0
  11
10.716506
  21
2.188957
  31
0
  0
LINE
  5
47
  100
AcDbEntity
  8
1
  100
AcDbLine
  10
10.716506
  20
2.188957
  30
0
  11
10.616506
  21
2.23488
  31
0
  0
LINE
  5
48
  100
AcDbEntity
  8
1
  100
AcDbLine
  10
10.616506
  20
2.23488
  30
0
  11
10.516506
  21
2.280337
  31
0
  0
LINE
  5
49
  100
AcDbEntity
  8
1
  100
AcDbLine
  10
10.516506
  20
2.280337
  30
0
  11
10.416506
  21
2.325319
  31
0
  0
LINE
  5
4a
  100
AcDbEntity
  8
1
  100
AcDbLine
  10
10.416506
  20
2.325319
  30
0
  11
10.316506
  21
2.369816
  31
0
  0
LINE
  5
4b
  100
AcDbEntity
  8
1
  100
AcDbLine
  10
10.316506
  20
2.369816
  30
0
  11
10.216506
  21
2.41382
  31
0
  0
LINE
  5
4c
  100
AcDbEntity
  8
1
  100
AcDbLine
  10
10.216506
  20
2.41382
  30
0
  11
10.116506
  21
2.457321
  31
0
  0
LINE
  5
4d
  100
AcDbEntity
  8
1
  100
AcDbLine
  10
10.116506
  20
2.457321
  30
0
  11
10.016506
  21
2.500309
  31
0
  0
LINE
  5
4e
  100
AcDbEntity
  8
1
  100
AcDbLine
  10
10.016506
  20
2.500309
  30
0
  11
9.916506
  21
2.542777
  31
0
  0
LINE
  5
4f
  100
AcDbEntity
  8
1
  100
AcDbLine
  10
9.916506
  20
2.542777
  30
0
  11
9.816506
  21
2.584716
  31
0
  0
LINE
  5
50
  100
AcDbEntity
  8
1
  100
AcDbLine
  10
9.816506
  20
2.584716
  30
0
  11
9.716506
  21
2.626116
  31
0
  0
LINE
  5
51
  100
AcDbEntity
  8
1
  100
AcDbLine
  10
9.716506
  20
2.626116
  30
0
  11
9.616506
  21
2.666968
  31
0
  0
LINE
  5
52
  100
AcDbEntity
  8
1
  100
AcDbLine
  10
9.616506
  20
2.666968
  30
0
  11
9.516506
  21
2.707265
  31
0
  0
LINE
  5
53
  100
AcDbEntity
  8
1
  100
AcDbLine
  10
9.516506
  20
2.707265
  30
0
  11
9.416506
  21
2.746999
  31
0
  0
LINE
  5
54
  100
AcDbEntity
  8
1
  100
AcDbLine
  10
9.416506
  20
2.746999
  30
0
  11
9.316506
  21
2.786159
  31
0
  0
LINE
  5
55
  100
AcDbEntity
  8
1
  100
AcDbLine
  10
9.316506
  20
2.786159
  30
0
  11
9.216506
  21
2.82474
  31
0
  0
LINE
  5
56
  100
AcDbEntity
  8
1
  100
AcDbLine
  10
9.216506
  20
2.82474
  30
0
  11
9.116506
  21
2.862732
  31
0
  0
LINE
  5
57
  100
AcDbEntity
  8
1
  100
AcDbLine
  10
9.116506
  20
2.862732
  30
0
  11
9.016506
  21
2.900127
  31
0
  0
LINE
  5
58
  100
AcDbEntity
  8
1
  100
AcDbLine
  10
9.016506
  20
2.900127
  30
0
  11
8.916506
  21
2.936919
  31
0
  0
LINE
  5
59
  100
AcDbEntity
  8
1
  100
AcDbLine
  10
8.916506
  20
2.936919
  30
0
  11
8.816506
  21
2.973098
  31
0
  0
LINE
  5
5a
  100
AcDbEntity
  8
1
  100
AcDbLine
  10
8.816506
  20
2.973098
  30
0
  11
8.716506
  21
3.008658
  31
0
  0
LINE
  5
5b
  100
AcDbEntity
  8
1
  100
AcDbLine
  10
8.716506
  20
3.008658
  30
0
  11
8.616506
  21
3.043591
  31
0
  0
LINE
  5
5c
  100
AcDbEntity
  8
1
  100
AcDbLine
  10
8.616506
  20
3.043591
  30
0
  11
8.516506
  21
3.077891
  31
0
  0
LINE
  5
5d
  100
AcDbEntity
  8
1
  100
AcDbLine
  10
8.516506
  20
3.077891
  30
0
  11
8.416506
  21
3.111549
  31
0
  0
LINE
  5
5e
  100
AcDbEntity
  8
1
  100
AcDbLine
  10
8.416506
  20
3.111549
  30
0
  11
8.316506
  21
3.144559
  31
0
  0
LINE
  5
5f
  100
AcDbEntity
  8
1
  100
AcDbLine
  10
8.316506
  20
3.144559
  30
0
  11
8.216506
  21
3.176913
  31
0
  0
LINE
  5
60
  100
AcDbEntity
  8
1
  100
AcDbLine
  10
8.216506
  20
3.176913
  30
0
  11
8.116506
  21
3.208606
  31
0
  0
LINE
  5
61
  100
AcDbEntity
  8
1
  100
AcDbLine
  10
8.116506
  20
3.208606
  30
0
  11
8.016506
  21
3.23963
  31
0
  0
LINE
  5
62
  100
AcDbEntity
  8
1
  100
AcDbLine
  10
8.016506
  20
3.23963
  30
0
  11
7.916506
  21
3.26998
  31
0
  0
LINE
  5
63
  100
AcDbEntity
  8
1
  100
AcDbLine
  10
7.916506
  20
3.26998
  30
0
  11
7.816506
  21
3.299648
  31
0
  0
LINE
  5
64
  100
AcDbEntity
  8
1
  100
AcDbLine
  10
7.816506
  20
3.299648
  30
0
  11
7.716506
  21
3.328629
  31
0
  0
LINE
  5
65
  100
AcDbEntity
  8
1
  100
AcDbLine
  10
7.716506
  20
3.328629
  30
0
  11
7.616506
  21
3.356916
  31
0
  0
LINE
  5
66
  100
AcDbEntity
  8
1
  100
AcDbLine
  10
7.616506
  20
3.356916
  30
0
  11
7.516506
  21
3.384505
  31
0
  0
LINE
  5
67
  100
AcDbEntity
  8
1
  100
AcDbLine
  10
7.516506
  20
3.384505
  30
0
  11
7.416506
  21
3.411387
  31
0
  0
LINE
  5
68
  100
AcDbEntity
  8
1
  100
AcDbLine
  10
7.416506
  20
3.411387
  30
0
  11
7.316506
  21
3.43756
  31
0
  0
LINE
  5
69
  100
AcDbEntity
  8
1
  100
AcDbLine
  10
7.316506
  20
3.43756
  30
0
  11
7.216506
  21
3.463016
  31
0
  0
LINE
  5
6a
  100
AcDbEntity
  8
1
  100
AcDbLine
  10
7.216506
  20
3.463016
  30
0
  11
7.116506
  21
3.48775
  31
0
  0
LINE
  5
6b
  100
AcDbEntity
  8
1
  100
AcDbLine
  10
7.116506
  20
3.48775
  30
0
  11
7.016506
  21
3.511759
  31
0
  0
LINE
  5
6c
  100
AcDbEntity
  8
1
  100
AcDbLine
  10
7.016506
  20
3.511759
  30
0
  11
6.916506
  21
3.535035
  31
0
  0
LINE
  5
6d
  100
AcDbEntity
  8
1
  100
AcDbLine
  10
6.916506
  20
3.535035
  30
0
  11
6.816506
  21
3.557575
  31
0
  0
LINE
  5
6e
  100
AcDbEntity
  8
1
  100
AcDbLine
  10
6.816506
  20
3.557575
  30
0
  11
6.716506
  21
3.579374
  31
0
  0
LINE
  5
6f
  100
AcDbEntity
  8
1
  100
AcDbLine
  10
6.716506
  20
3.579374
  30
0
  11
6.616506
  21
3.600427
  31
0
  0
LINE
  5
70
  100
AcDbEntity
  8
1
  100
AcDbLine
  10
6.616506
  20
3.600427
  30
0
  11
6.516506
  21
3.62073
  31
0
  0
LINE
  5
71
  100
AcDbEntity
  8
1
  100
AcDbLine
  10
6.516506
  20
3.62073
  30
0
  11
6.416506
  21
3.640279
  31
0
  0
LINE
  5
72
  100
AcDbEntity
  8
1
  100
AcDbLine
  10
6.416506
  20
3.640279
  30
0
  11
6.316506
  21
3.659069
  31
0
  0
LINE
  5
73
  100
AcDbEntity
  8
1
  100
AcDbLine
  10
6.316506
  20
3.659069
  30
0
  11
6.216506
  21
3.677097
  31
0
  0
LINE
  5
74
  100
AcDbEntity
  8
1
  100
AcDbLine
  10
6.216506
  20
3.677097
  30
0
  11
6.116506
  21
3.694359
  31
0
  0
LINE
  5
75
  100
AcDbEntity
  8
1
  100
AcDbLine
  10
6.116506
  20
3.694359
  30
0
  11
6.016506
  21
3.710852
  31
0
  0
LINE
  5
76
  100
AcDbEntity
  8
1
  100
AcDbLine
  10
6.016506
  20
3.710852
  30
0
  11
5.916506
  21
3.726571
  31
0
  0
LINE
  5
77
  100
AcDbEntity
  8
1
  100
AcDbLine
  10
5.916506
  20
3.726571
  30
0
  11
5.816506
  21
3.741514
  31
0
  0
LINE
  5
78
  100
AcDbEntity
  8
1
  100
AcDbLine
  10
5.816506
  20
3.741514
  30
0
  11
5.716506
  21
3.755678
  31
0
  0
LINE
  5
79
  100
AcDbEntity
  8
1
  100
AcDbLine
  10
5.716506
  20
3.755678
  30
0
  11
5.616506
  21
3.769059
  31
0
  0
LINE
  5
7a
  100
AcDbEntity
  8
1
  100
AcDbLine
  10
5.616506
  20
3.769059
  30
0
  11
5.516506
  21
3.781655
  31
0
  0
LINE
  5
7b
  100
AcDbEntity
  8
1
  100
AcDbLine
  10
5.516506
  20
3.781655
  30
0
  11
5.416506
  21
3.793463
  31
0
  0
LINE
  5
7c
  100
AcDbEntity
  8
1
  100
AcDbLine
  10
5.416506
  20
3.793463
  30
0
  11
5.316506
  21
3.804481
  31
0
  0
LINE
  5
7d
  100
AcDbEntity
  8
1
  100
AcDbLine
  10
5.316506
  20
3.804481
  30
0
  11
5.216506
  21
3.814706
  31
0
  0
LINE
  5
7e
  100
AcDbEntity
  8
1
  100
AcDbLine
  10
5.216506
  20
3.814706
  30
0
  11
5.116506
  21
3.824136
  31
0
  0
LINE
  5
7f
  100
AcDbEntity
  8
1
  100
AcDbLine
  10
5.116506
  20
3.824136
  30
0
  11
5.016506
  21
3.83277
  31
0
  0
LINE
  5
80
  100
AcDbEntity
  8
1
  100
AcDbLine
  10
5.016506
  20
3.83277
  30
0
  11
4.916506
  21
3.840605
  31
0
  0
LINE
  5
81
  100
AcDbEntity
  8
1
  100
AcDbLine
  10
4.916506
  20
3.840605
  30
0
  11
4.816506
  21
3.84764
  31
0
  0
LINE
  5
82
  100
AcDbEntity
  8
1
  100
AcDbLine
  10
4.816506
  20
3.84764
  30
0
  11
4.716506
  21
3.853874
  31
0
  0
LINE
  5
83
  100
AcDbEntity
  8
1
  100
AcDbLine
  10
4.716506
  20
3.853874
  30
0
  11
4.616506
  21
3.859305
  31
0
  0
LINE
  5
84
  100
AcDbEntity
  8
1
  100
AcDbLine
  10
4.616506
  20
3.859305
  30
0
  11
4.516506
  21
3.863932
  31
0
  0
LINE
  5
85
  100
AcDbEntity
  8
1
  100
AcDbLine
  10
4.516506
  20
3.863932
  30
0
  11
4.416506
  21
3.867753
  31
0
  0
LINE
  5
86
  100
AcDbEntity
  8
1
  100
AcDbLine
  10
4.416506
  20
3.867753
  30
0
  11
4.316506
  21
3.870769
  31
0
  0
LINE
  5
87
  100
AcDbEntity
  8
1
  100
AcDbLine
  10
4.316506
  20
3.870769
  30
0
  11
4.216506
  21
3.872979
  31
0
  0
LINE
  5
88
  100
AcDbEntity
  8
1
  100
AcDbLine
  10
4.216506
  20
3.872979
  30
0
  11
4.116506
  21
3.874382
  31
0
  0
LINE
  5
89
  100
AcDbEntity
  8
1
  100
AcDbLine
  10
4.116506
  20
3.874382
  30
0
  11
4.016506
  21
3.874977
  31
0
  0
LINE
  5
8a
  100
AcDbEntity
  8
1
  100
AcDbLine
  10
4.016506
  20
3.874977
  30
0
  11
3.992728
  21
3.875
  31
0
  0
LINE
  5
8b
  100
AcDbEntity
  8
1
  100
AcDbLine
  10
5.069618
  20
3.875
  30
0
  11
5.116506
  21
3.816739
  31
0
  0
LINE
  5
8c
  100
AcDbEntity
  8
1
  100
AcDbLine
  10
5.116506
  20
3.816739
  30
0
  11
5.216506
  21
3.815968
  31
0
  0
LINE
  5
8d
  100
AcDbEntity
  8
1
  100
AcDbLine
  10
5.216506
  20
3.815968
  30
0
  11
5.316506
  21
3.814403
  31
0
  0
LINE
  5
8e
  100
AcDbEntity
  8
1
  100
AcDbLine
  10
5.316506
  20
3.814403
  30
0
  11
5.416506
  21
3.812043
  31
0
  0
LINE
  5
8f
  100
AcDbEntity
  8
1
  100
AcDbLine
  10
5.416506
  20
3.812043
  30
0
  11
5.516506
  21
3.808889
  31
0
  0
LINE
  5
90
  100
AcDbEntity
  8
1
  100
AcDbLine
  10
5.516506
  20
3.808889
  30
0
  11
5.616506
  21
3.804941
  31
0
  0
LINE
  5
91
  100
AcDbEntity
  8
1
  100
AcDbLine
  10
5.616506
  20
3.804941
  30
0
  11
5.716506
  21
3.800201
  31
0
  0
LINE
  5
92
  100
AcDbEntity
  8
1
  100
AcDbLine
  10
5.716506
  20
3.800201
  30
0
  11
5.816506
  21
3.794668
  31
0
  0
LINE
  5
93
  100
AcDbEntity
  8
1
  100
AcDbLine
  10
5.816506
  20
3.794668
  30
0
  11
5.916506
  21
3.788346
  31
0
  0
LINE
  5
94
  100
AcDbEntity
  8
1
  100
AcDbLine
  10
5.916506
  20
3.788346
  30
0
  11
6.016506
  21
3.781234
  31
0
  0
LINE
  5
95
  100
AcDbEntity
  8
1
  100
AcDbLine
  10
6.016506
  20
3.781234
  30
0
  11
6.116506
  21
3.773334
  31
0
  0
LINE
  5
96
  100
AcDbEntity
  8
1
  100
AcDbLine
  10
6.116506
  20
3.773334
  30
0
  11
6.216506
  21
3.764649
  31
0
  0
LINE
  5
97
  100
AcDbEntity
  8
1
  100
AcDbLine
  10
6.216506
  20
3.764649
  30
0
  11
6.316506
  21
3.755179
  31
0
  0
LINE
  5
98
  100
AcDbEntity
  8
1
  100
AcDbLine
  10
6.316506
  20
3.755179
  30
0
  11
6.416506
  21
3.744927
  31
0
  0
LINE
  5
99
  100
AcDbEntity
  8
1
  100
AcDbLine
  10
6.416506
  20
3.744927
  30
0
  11
6.516506
  21
3.733894
  31
0
  0
LINE
  5
9a
  100
AcDbEntity
  8
1
  100
AcDbLine
  10
6.516506
  20
3.733894
  30
0
  11
6.616506
  21
3.722084
  31
0
  0
LINE
  5
9b
  100
AcDbEntity
  8
1
  100
AcDbLine
  10
6.616506
  20
3.722084
  30
0
  11
6.716506
  21
3.709498
  31
0
  0
LINE
  5
9c
  100
AcDbEntity
  8
1
  100
AcDbLine
  10
6.716506
  20
3.709498
  30
0
  11
6.816506
  21
3.696139
  31
0
  0
LINE
  5
9d
  100
AcDbEntity
  8
1
  100
AcDbLine
  10
6.816506
  20
3.696139
  30
0
  11
6.916506
  21
3.682011
  31
0
  0
LINE
  5
9e
  100
AcDbEntity
  8
1
  100
AcDbLine
  10
6.916506
  20
3.682011
  30
0
  11
7.016506
  21
3.667115
  31
0
  0
LINE
  5
9f
  100
AcDbEntity
  8
1
  100
AcDbLine
  10
7.016506
  20
3.667115
  30
0
  11
7.116506
  21
3.651456
  31
0
  0
LINE
  5
a0
  100
AcDbEntity
  8
1
  100
AcDbLine
  10
7.116506
  20
3.651456
  30
0
  11
7.216506
  21
3.635035
  31
0
  0
LINE
  5
a1
  100
AcDbEntity
  8
1
  100
AcDbLine
  10
7.216506
  20
3.635035
  30
0
  11
7.316506
  21
3.617858
  31
0
  0
LINE
  5
a2
  100
AcDbEntity
  8
1
  100
AcDbLine
  10
7.316506
  20
3.617858
  30
0
  11
7.416506
  21
3.599926
  31
0
  0
LINE
  5
a3
  100
AcDbEntity
  8
1
  100
AcDbLine
  10
7.416506
  20
3.599926
  30
0
  11
7.516506
  21
3.581245
  31
0
  0
LINE
  5
a4
  100
AcDbEntity
  8
1
  100
AcDbLine
  10
7.516506
  20
3.581245
  30
0
  11
7.616506
  21
3.561818
  31
0
  0
LINE
  5
a5
  100
AcDbEntity
  8
1
  100
AcDbLine
  10
7.616506
  20
3.561818
  30
0
  11
7.716506
  21
3.541648
  31
0
  0
LINE
  5
a6
  100
AcDbEntity
  8
1
  100
AcDbLine
  10
7.716506
  20
3.541648
  30
0
  11
7.816506
  21
3.520741
  31
0
  0
LINE
  5
a7
  100
AcDbEntity
  8
1
  100
AcDbLine
  10
7.816506
  20
3.520741
  30
0
  11
7.916506
  21
3.4991
  31
0
  0
LINE
  5
a8
  100
AcDbEntity
  8
1
  100
AcDbLine
  10
7.916506
  20
3.4991
  30
0
  11
8.016506
  21
3.476731
  31
0
  0
LINE
  5
a9
  100
AcDbEntity
  8
1
  100
AcDbLine
  10
8.016506
  20
3.476731
  30
0
  11
8.116506
  21
3.453637
  31
0
  0
LINE
  5
aa
  100
AcDbEntity
  8
1
  100
AcDbLine
  10
8.116506
  20
3.453637
  30
0
  11
8.216506
  21
3.429823
  31
0
  0
LINE
  5
ab
  100
AcDbEntity
  8
1
  100
AcDbLine
  10
8.216506
  20
3.429823
  30
0
  11
8.316506
  21
3.405295
  31
0
  0
LINE
  5
ac
  100
AcDbEntity
  8
1
  100
AcDbLine
  10
8.316506
  20
3.405295
  30
0
  11
8.416506
  21
3.380058
  31
0
  0
LINE
  5
ad
  100
AcDbEntity
  8
1
  100
AcDbLine
  10
8.416506
  20
3.380058
  30
0
  11
8.516506
  21
3.354116
  31
0
  0
LINE
  5
ae
  100
AcDbEntity
  8
1
  100
AcDbLine
  10
8.516506
  20
3.354116
  30
0
  11
8.616506
  21
3.327476
  31
0
  0
LINE
  5
af
  100
AcDbEntity
  8
1
  100
AcDbLine
  10
8.616506
  20
3.327476
  30
0
  11
8.716506
  21
3.300142
  31
0
  0
LINE
  5
b0
  100
AcDbEntity
  8
1
  100
AcDbLine
  10
8.716506
  20
3.300142
  30
0
  11
8.816506
  21
3.272121
  31
0
  0
LINE
  5
b1
  100
AcDbEntity
  8
1
  100
AcDbLine
  10
8.816506
  20
3.272121
  30
0
  11
8.916506
  21
3.243418
  31
0
  0
LINE
  5
b2
  100
AcDbEntity
  8
1
  100
AcDbLine
  10
8.916506
  20
3.243418
  30
0
  11
9.016506
  21
3.21404
  31
0
  0
LINE
  5
b3
  100
AcDbEntity
  8
1
  100
AcDbLine
  10
9.016506
  20
3.21404
  30
0
  11
9.116506
  21
3.183992
  31
0
  0
LINE
  5
b4
  100
AcDbEntity
  8
1
  100
AcDbLine
  10
9.116506
  20
3.183992
  30
0
  11
9.216506
  21
3.15328
  31
0
  0
LINE
  5
b5
  100
AcDbEntity
  8
1
  100
AcDbLine
  10
9.216506
  20
3.15328
  30
0
  11
9.316506
  21
3.121912
  31
0
  0
LINE
  5
b6
  100
AcDbEntity
  8
1
  100
AcDbLine
  10
9.316506
  20
3.121912
  30
0
  11
9.416506
  21
3.089893
  31
0
  0
LINE
  5
b7
  100
AcDbEntity
  8
1
  100
AcDbLine
  10
9.416506
  20
3.089893
  30
0
  11
9.516506
  21
3.057231
  31
0
  0
LINE
  5
b8
  100
AcDbEntity
  8
1
  100
AcDbLine
  10
9.516506
  20
3.057231
  30
0
  11
9.616506
  21
3.023932
  31
0
  0
LINE
  5
b9
  100
AcDbEntity
  8
1
  100
AcDbLine
  10
9.616506
  20
3.023932
  30
0
  11
9.716506
  21
2.990002
  31
0
  0
LINE
  5
ba
  100
AcDbEntity
  8
1
  100
AcDbLine
  10
9.716506
  20
2.990002
  30
0
  11
9.816506
  21
2.95545
  31
0
  0
LINE
  5
bb
  100
AcDbEntity
  8
1
  100
AcDbLine
  10
9.816506
  20
2.95545
  30
0
  11
9.916506
  21
2.920282
  31
0
  0
LINE
  5
bc
  100
AcDbEntity
  8
1
  100
AcDbLine
  10
9.916506
  20
2.920282
  30
0
  11
10.016506
  21
2.884506
  31
0
  0
LINE
  5
bd
  100
AcDbEntity
  8
1
  100
AcDbLine
  10
10.016506
  20
2.884506
  30
0
  11
10.116506
  21
2.848129
  31
0
  0
LINE
  5
be
  100
AcDbEntity
  8
1
  100
AcDbLine
  10
10.116506
  20
2.848129
  30
0
  11
10.216506
  21
2.811158
  31
0
  0
LINE
  5
bf
  100
AcDbEntity
  8
1
  100
AcDbLine
  10
10.216506
  20
2.811158
  30
0
  11
10.316506
  21
2.773602
  31
0
  0
LINE
  5
c0
  100
AcDbEntity
  8
1
  100
AcDbLine
  10
10.316506
  20
2.773602
  30
0
  11
10.416506
  21
2.735468
  31
0
  0
LINE
  5
c1
  100
AcDbEntity
  8
1
  100
AcDbLine
  10
10.416506
  20
2.735468
  30
0
  11
10.516506
  21
2.696764
  31
0
  0
LINE
  5
c2
  100
AcDbEntity
  8
1
  100
AcDbLine
  10
10.516506
  20
2.696764
  30
0
  11
10.616506
  21
2.657498
  31
0
  0
LINE
  5
c3
  100
AcDbEntity
  8
1
  100
AcDbLine
  10
10.616506
  20
2.657498
  30
0
  11
10.716506
  21
2.617679
  31
0
  0
LINE
  5
c4
  100
AcDbEntity
  8
1
  100
AcDbLine
  10
10.716506
  20
2.617679
  30
0
  11
10.816506
  21
2.577314
  31
0
  0
LINE
  5
c5
  100
AcDbEntity
  8
1
  100
AcDbLine
  10
10.816506
  20
2.577314
  30
0
  11
10.916506
  21
2.536413
  31
0
  0
LINE
  5
c6
  100
AcDbEntity
  8
1
  100
AcDbLine
  10
10.916506
  20
2.536413
  30
0
  11
11.016506
  21
2.494983
  31
0
  0
LINE
  5
c7
  100
AcDbEntity
  8
1
  100
AcDbLine
  10
11.016506
  20
2.494983
  30
0
  11
11.116506
  21
2.453033
  31
0
  0
LINE
  5
c8
  100
AcDbEntity
  8
1
  100
AcDbLine
  10
11.116506
  20
2.453033
  30
0
  11
11.216506
  21
2.410572
  31
0
  0
LINE
  5
c9
  100
AcDbEntity
  8
1
  100
AcDbLine
  10
7.960489
  20
3.875
  30
0
  11
8.016506
  21
3.874873
  31
0
  0
LINE
  5
ca
  100
AcDbEntity
  8
1
  100
AcDbLine
  10
8.016506
  20
3.874873
  30
0
  11
8.116506
  21
3.874018
  31
0
  0
LINE
  5
cb
  100
AcDbEntity
  8
1
  100
AcDbLine
  10
8.116506
  20
3.874018
  30
0
  11
8.216506
  21
3.872355
  31
0
  0
LINE
  5
cc
  100
AcDbEntity
  8
1
  100
AcDbLine
  10
8.216506
  20
3.872355
  30
0
  11
8.316506
  21
3.869885
  31
0
  0
LINE
  5
cd
  100
AcDbEntity
  8
1
  100
AcDbLine
  10
8.316506
  20
3.869885
  30
0
  11
8.416506
  21
3.866609
  31
0
  0
LINE
  5
ce
  100
AcDbEntity
  8
1
  100
AcDbLine
  10
8.416506
  20
3.866609
  30
0
  11
8.516506
  21
3.862528
  31
0
  0
LINE
  5
cf
  100
AcDbEntity
  8
1
  100
AcDbLine
  10
8.516506
  20
3.862528
  30
0
  11
8.616506
  21
3.857642
  31
0
  0
LINE
  5
d0
  100
AcDbEntity
  8
1
  100
AcDbLine
  10
8.616506
  20
3.857642
  30
0
  11
8.716506
  21
3.851952
  31
0
  0
LINE
  5
d1
  100
AcDbEntity
  8
1
  100
AcDbLine
  10
8.716506
  20
3.851952
  30
0
  11
8.816506
  21
3.84546
  31
0
  0
LINE
  5
d2
  100
AcDbEntity
  8
1
  100
AcDbLine
  10
8.816506
  20
3.84546
  30
0
  11
8.916506
  21
3.838166
  31
0
  0
LINE
  5
d3
  100
AcDbEntity
  8
1
  100
AcDbLine
  10
8.916506
  20
3.838166
  30
0
  11
9.016506
  21
3.830074
  31
0
  0
LINE
  5
d4
  100
AcDbEntity
  8
1
  100
AcDbLine
  10
9.016506
  20
3.830074
  30
0
  11
9.116506
  21
3.821183
  31
0
  0
LINE
  5
d5
  100
AcDbEntity
  8
1
  100
AcDbLine
  10
9.116506
  20
3.821183
  30
0
  11
9.216506
  21
3.811496
  31
0
  0
LINE
  5
d6
  100
AcDbEntity
  8
1
  100
AcDbLine
  10
9.216506
  20
3.811496
  30
0
  11
9.316506
  21
3.801015
  31
0
  0
LINE
  5
d7
  100
AcDbEntity
  8
1
  100
AcDbLine
  10
9.316506
  20
3.801015
  30
0
  11
9.416506
  21
3.789742
  31
0
  0
LINE
  5
d8
  100
AcDbEntity
  8
1
  100
AcDbLine
  10
9.416506
  20
3.789742
  30
0
  11
9.516506
  21
3.77768
  31
0
  0
LINE
  5
d9
  100
AcDbEntity
  8
1
  100
AcDbLine
  10
9.516506
  20
3.77768
  30
0
  11
9.616506
  21
3.76483
  31
0
  0
LINE
  5
da
  100
AcDbEntity
  8
1
  100
AcDbLine
  10
9.616506
  20
3.76483
  30
0
  11
9.716506
  21
3.751197
  31
0
  0
LINE
  5
db
  100
AcDbEntity
  8
1
  100
AcDbLine
  10
9.716506
  20
3.751197
  30
0
  11
9.816506
  21
3.736782
  31
0
  0
LINE
  5
dc
  100
AcDbEntity
  8
1
  100
AcDbLine
  10
9.816506
  20
3.736782
  30
0
  11
9.916506
  21
3.721588
  31
0
  0
LINE
  5
dd
  100
AcDbEntity
  8
1
  100
AcDbLine
  10
9.916506
  20
3.721588
  30
0
  11
10.016506
  21
3.705619
  31
0
  0
LINE
  5
de
  100
AcDbEntity
  8
1
  100
AcDbLine
  10
10.016506
  20
3.705619
  30
0
  11
10.116506
  21
3.688878
  31
0
  0
LINE
  5
df
  100
AcDbEntity
  8
1
  100
AcDbLine
  10
10.116506
  20
3.688878
  30
0
  11
10.216506
  21
3.671369
  31
0
  0
LINE
  5
e0
  100
AcDbEntity
  8
1
  100
AcDbLine
  10
10.216506
  20
3.671369
  30
0
  11
10.316506
  21
3.653094
  31
0
  0
LINE
  5
e1
  100
AcDbEntity
  8
1
  100
AcDbLine
  10
10.316506
  20
3.653094
  30
0
  11
10.416506
  21
3.634059
  31
0
  0
LINE
  5
e2
  100
AcDbEntity
  8
1
  100
AcDbLine
  10
10.416506
  20
3.634059
  30
0
  11
10.516506
  21
3.614267
  31
0
  0
LINE
  5
e3
  100
AcDbEntity
  8
1
  100
AcDbLine
  10
10.516506
  20
3.614267
  30
0
  11
10.616506
  21
3.593721
  31
0
  0
LINE
  5
e4
  100
AcDbEntity
  8
1
  100
AcDbLine
  10
10.616506
  20
3.593721
  30
0
  11
10.716506
  21
3.572427
  31
0
  0
LINE
  5
e5
  100
AcDbEntity
  8
1
  100
AcDbLine
  10
10.716506
  20
3.572427
  30
0
  11
10.816506
  21
3.550389
  31
0
  0
LINE
  5
e6
  100
AcDbEntity
  8
1
  100
AcDbLine
  10
10.816506
  20
3.550389
  30
0
  11
10.916506
  21
3.527611
  31
0
  0
LINE
  5
e7
  100
AcDbEntity
  8
1
  100
AcDbLine
  10
10.916506
  20
3.527611
  30
0
  11
11.016506
  21
3.504098
  31
0
  0
LINE
  5
e8
  100
AcDbEntity
  8
1
  100
AcDbLine
  10
11.016506
  20
3.504098
  30
0
  11
11.116506
  21
3.479855
  31
0
  0
LINE
  5
e9
  100
AcDbEntity
  8
1
  100
AcDbLine
  10
11.116506
  20
3.479855
  30
0
  11
11.216506
  21
3.454887
  31
0
  0
LINE
  5
ea
  100
AcDbEntity
  8
1
  100
AcDbLine
  10
11.216506
  20
3.875
  30
0
  11
11.216506
  21
-3.875
  31
0
  0
LINE
  5
eb
  100
AcDbEntity
  8
1
  100
AcDbLine
  10
11.216506
  20
-3.87496
  30
0
  11
11.116506
  21
-3.874303
  31
0
  0
LINE
  5
ec
  100
AcDbEntity
  8
1
  100
AcDbLine
  10
11.116506
  20
-3.874303
  30
0
  11
11.016506
  21
-3.872838
  31
0
  0
LINE
  5
ed
  100
AcDbEntity
  8
1
  100
AcDbLine
  10
11.016506
  20
-3.872838
  30
0
  11
10.916506
  21
-3.870567
  31
0
  0
LINE
  5
ee
  100
AcDbEntity
  8
1
  100
AcDbLine
  10
10.916506
  20
-3.870567
  30
0
  11
10.816506
  21
-3.86749
  31
0
  0
LINE
  5
ef
  100
AcDbEntity
  8
1
  100
AcDbLine
  10
10.816506
  20
-3.86749
  30
0
  11
10.716506
  21
-3.863606
  31
0
  0
LINE
  5
f0
  100
AcDbEntity
  8
1
  100
AcDbLine
  10
10.716506
  20
-3.863606
  30
0
  11
10.616506
  21
-3.858918
  31
0
  0
LINE
  5
f1
  100
AcDbEntity
  8
1
  100
AcDbLine
  10
10.616506
  20
-3.858918
  30
0
  11
10.516506
  21
-3.853426
  31
0
  0
LINE
  5
f2
  100
AcDbEntity
  8
1
  100
AcDbLine
  10
10.516506
  20
-3.853426
  30
0
  11
10.416506
  21
-3.847131
  31
0
  0
LINE
  5
f3
  100
AcDbEntity
  8
1
  100
AcDbLine
  10
10.416506
  20
-3.847131
  30
0
  11
10.316506
  21
-3.840035
  31
0
  0
LINE
  5
f4
  100
AcDbEntity
  8
1
  100
AcDbLine
  10
10.316506
  20
-3.840035
  30
0
  11
10.216506
  21
-3.832138
  31
0
  0
LINE
  5
f5
  100
AcDbEntity
  8
1
  100
AcDbLine
  10
10.216506
  20
-3.832138
  30
0
  11
10.116506
  21
-3.823444
  31
0
  0
LINE
  5
f6
  100
AcDbEntity
  8
1
  100
AcDbLine
  10
10.116506
  20
-3.823444
  30
0
  11
10.016506
  21
-3.813952
  31
0
  0
LINE
  5
f7
  100
AcDbEntity
  8
1
  100
AcDbLine
  10
10.016506
  20
-3.813952
  30
0
  11
9.916506
  21
-3.803667
  31
0
  0
LINE
  5
f8
  100
AcDbEntity
  8
1
  100
AcDbLine
  10
9.916506
  20
-3.803667
  30
0
  11
9.816506
  21
-3.792588
  31
0
  0
LINE
  5
f9
  100
AcDbEntity
  8
1
  100
AcDbLine
  10
9.816506
  20
-3.792588
  30
0
  11
9.716506
  21
-3.78072
  31
0
  0
LINE
  5
fa
  100
AcDbEntity
  8
1
  100
AcDbLine
  10
9.716506
  20
-3.78072
  30
0
  11
9.616506
  21
-3.768064
  31
0
  0
LINE
  5
fb
  100
AcDbEntity
  8
1
  100
AcDbLine
  10
9.616506
  20
-3.768064
  30
0
  11
9.516506
  21
-3.754623
  31
0
  0
LINE
  5
fc
  100
AcDbEntity
  8
1
  100
AcDbLine
  10
9.516506
  20
-3.754623
  30
0
  11
9.416506
  21
-3.7404
  31
0
  0
LINE
  5
fd
  100
AcDbEntity
  8
1
  100
AcDbLine
  10
9.416506
  20
-3.7404
  30
0
  11
9.316506
  21
-3.725397
  31
0
  0
LINE
  5
fe
  100
AcDbEntity
  8
1
  100
AcDbLine
  10
9.316506
  20
-3.725397
  30
0
  11
9.216506
  21
-3.709619
  31
0
  0
LINE
  5
ff
  100
AcDbEntity
  8
1
  100
AcDbLine
  10
9.216506
  20
-3.709619
  30
0
  11
9.116506
  21
-3.693067
  31
0
  0
LINE
  5
100
  100
AcDbEntity
  8
1
  100
AcDbLine
  10
9.116506
  20
-3.693067
  30
0
  11
9.016506
  21
-3.675747
  31
0
  0
LINE
  5
101
  100
AcDbEntity
  8
1
  100
AcDbLine
  10
9.016506
  20
-3.675747
  30
0
  11
8.916506
  21
-3.65766
  31
0
  0
LINE
  5
102
  100
AcDbEntity
  8
1
  100
AcDbLine
  10
8.916506
  20
-3.65766
  30
0
  11
8.816506
  21
-3.638812
  31
0
  0
LINE
  5
103
  100
AcDbEntity
  8
1
  100
AcDbLine
  10
8.816506
  20
-3.638812
  30
0
  11
8.716506
  21
-3.619205
  31
0
  0
LINE
  5
104
  100
AcDbEntity
  8
1
  100
AcDbLine
  10
8.716506
  20
-3.619205
  30
0
  11
8.616506
  21
-3.598845
  31
0
  0
LINE
  5
105
  100
AcDbEntity
  8
1
  100
AcDbLine
  10
8.616506
  20
-3.598845
  30
0
  11
8.516506
  21
-3.577734
  31
0
  0
LINE
  5
106
  100
AcDbEntity
  8
1
  100
AcDbLine
  10
8.516506
  20
-3.577734
  30
0
  11
8.416506
  21
-3.555879
  31
0
  0
LINE
  5
107
  100
AcDbEntity
  8
1
  100
AcDbLine
  10
8.416506
  20
-3.555879
  30
0
  11
8.316506
  21
-3.533282
  31
0
  0
LINE
  5
108
  100
AcDbEntity
  8
1
  100
AcDbLine
  10
8.316506
  20
-3.533282
  30
0
  11
8.216506
  21
-3.50995
  31
0
  0
LINE
  5
109
  100
AcDbEntity
  8
1
  100
AcDbLine
  10
8.216506
  20
-3.50995
  30
0
  11
8.116506
  21
-3.485886
  31
0
  0
LINE
  5
10a
  100
AcDbEntity
  8
1
  100
AcDbLine
  10
8.116506
  20
-3.485886
  30
0
  11
8.016506
  21
-3.461096
  31
0
  0
LINE
  5
10b
  100
AcDbEntity
  8
1
  100
AcDbLine
  10
8.016506
  20
-3.461096
  30
0
  11
7.916506
  21
-3.435585
  31
0
  0
LINE
  5
10c
  100
AcDbEntity
  8
1
  100
AcDbLine
  10
7.916506
  20
-3.435585
  30
0
  11
7.816506
  21
-3.409358
  31
0
  0
LINE
  5
10d
  100
AcDbEntity
  8
1
  100
AcDbLine
  10
7.816506
  20
-3.409358
  30
0
  11
7.716506
  21
-3.382421
  31
0
  0
LINE
  5
10e
  100
AcDbEntity
  8
1
  100
AcDbLine
  10
7.716506
  20
-3.382421
  30
0
  11
7.616506
  21
-3.354779
  31
0
  0
LINE
  5
10f
  100
AcDbEntity
  8
1
  100
AcDbLine
  10
7.616506
  20
-3.354779
  30
0
  11
7.516506
  21
-3.326439
  31
0
  0
LINE
  5
110
  100
AcDbEntity
  8
1
  100
AcDbLine
  10
7.516506
  20
-3.326439
  30
0
  11
7.416506
  21
-3.297405
  31
0
  0
LINE
  5
111
  100
AcDbEntity
  8
1
  100
AcDbLine
  10
7.416506
  20
-3.297405
  30
0
  11
7.316506
  21
-3.267685
  31
0
  0
LINE
  5
112
  100
AcDbEntity
  8
1
  100
AcDbLine
  10
7.316506
  20
-3.267685
  30
0
  11
7.216506
  21
-3.237283
  31
0
  0
LINE
  5
113
  100
AcDbEntity
  8
1
  100
AcDbLine
  10
7.216506
  20
-3.237283
  30
0
  11
7.116506
  21
-3.206208
  31
0
  0
LINE
  5
114
  100
AcDbEntity
  8
1
  100
AcDbLine
  10
7.116506
  20
-3.206208
  30
0
  11
7.016506
  21
-3.174464
  31
0
  0
LINE
  5
115
  100
AcDbEntity
  8
1
  100
AcDbLine
  10
7.016506
  20
-3.174464
  30
0
  11
6.916506
  21
-3.142059
  31
0
  0
LINE
  5
116
  100
AcDbEntity
  8
1
  100
AcDbLine
  10
6.916506
  20
-3.142059
  30
0
  11
6.816506
  21
-3.108999
  31
0
  0
LINE
  5
117
  100
AcDbEntity
  8
1
  100
AcDbLine
  10
6.816506
  20
-3.108999
  30
0
  11
6.716506
  21
-3.075292
  31
0
  0
LINE
  5
118
  100
AcDbEntity
  8
1
  100
AcDbLine
  10
6.716506
  20
-3.075292
  30
0
  11
6.616506
  21
-3.040944
  31
0
  0
LINE
  5
119
  100
AcDbEntity
  8
1
  100
AcDbLine
  10
6.616506
  20
-3.040944
  30
0
  11
6.516506
  21
-3.005963
  31
0
  0
LINE
  5
11a
  100
AcDbEntity
  8
1
  100
AcDbLine
  10
6.516506
  20
-3.005963
  30
0
  11
6.416506
  21
-2.970355
  31
0
  0
LINE
  5
11b
  100
AcDbEntity
  8
1
  100
AcDbLine
  10
6.416506
  20
-2.970355
  30
0
  11
6.316506
  21
-2.934129
  31
0
  0
LINE
  5
11c
  100
AcDbEntity
  8
1
  100
AcDbLine
  10
6.316506
  20
-2.934129
  30
0
  11
6.216506
  21
-2.897291
  31
0
  0
LINE
  5
11d
  100
AcDbEntity
  8
1
  100
AcDbLine
  10
6.216506
  20
-2.897291
  30
0
  11
6.116506
  21
-2.859849
  31
0
  0
LINE
  5
11e
  100
AcDbEntity
  8
1
  100
AcDbLine
  10
6.116506
  20
-2.859849
  30
0
  11
6.016506
  21
-2.821812
  31
0
  0
LINE
  5
11f
  100
AcDbEntity
  8
1
  100
AcDbLine
  10
6.016506
  20
-2.821812
  30
0
  11
5.916506
  21
-2.783187
  31
0
  0
LINE
  5
120
  100
AcDbEntity
  8
1
  100
AcDbLine
  10
5.916506
  20
-2.783187
  30
0
  11
5.816506
  21
-2.743982
  31
0
  0
LINE
  5
121
  100
AcDbEntity
  8
1
  100
AcDbLine
  10
5.816506
  20
-2.743982
  30
0
  11
5.716506
  21
-2.704206
  31
0
  0
LINE
  5
122
  100
AcDbEntity
  8
1
  100
AcDbLine
  10
5.716506
  20
-2.704206
  30
0
  11
5.616506
  21
-2.663866
  31
0
  0
LINE
  5
123
  100
AcDbEntity
  8
1
  100
AcDbLine
  10
5.616506
  20
-2.663866
  30
0
  11
5.516506
  21
-2.622971
  31
0
  0
LINE
  5
124
  100
AcDbEntity
  8
1
  100
AcDbLine
  10
5.516506
  20
-2.622971
  30
0
  11
5.416506
  21
-2.58153
  31
0
  0
LINE
  5
125
  100
AcDbEntity
  8
1
  100
AcDbLine
  10
5.416506
  20
-2.58153
  30
0
  11
5.316506
  21
-2.539551
  31
0
  0
LINE
  5
126
  100
AcDbEntity
  8
1
  100
AcDbLine
  10
5.316506
  20
-2.539551
  30
0
  11
5.216506
  21
-2.497043
  31
0
  0
LINE
  5
127
  100
AcDbEntity
  8
1
  100
AcDbLine
  10
5.216506
  20
-2.497043
  30
0
  11
5.116506
  21
-2.454014
  31
0
  0
LINE
  5
128
  100
AcDbEntity
  8
1
  100
AcDbLine
  10
5.116506
  20
-2.454014
  30
0
  11
5.016506
  21
-2.410475
  31
0
  0
LINE
  5
129
  100
AcDbEntity
  8
1
  100
AcDbLine
  10
5.016506
  20
-2.410475
  30
0
  11
4.916506
  21
-2.366433
  31
0
  0
LINE
  5
12a
  100
AcDbEntity
  8
1
  100
AcDbLine
  10
4.916506
  20
-2.366433
  30
0
  11
4.816506
  21
-2.321898
  31
0
  0
LINE
  5
12b
  100
AcDbEntity
  8
1
  100
AcDbLine
  10
4.816506
  20
-2.321898
  30
0
  11
4.716506
  21
-2.27688
  31
0
  0
LINE
  5
12c
  100
AcDbEntity
  8
1
  100
AcDbLine
  10
4.716506
  20
-2.27688
  30
0
  11
4.616506
  21
-2.231387
  31
0
  0
LINE
  5
12d
  100
AcDbEntity
  8
1
  100
AcDbLine
  10
4.616506
  20
-2.231387
  30
0
  11
4.516506
  21
-2.185429
  31
0
  0
LINE
  5
12e
  100
AcDbEntity
  8
1
  100
AcDbLine
  10
4.516506
  20
-2.185429
  30
0
  11
4.416506
  21
-2.139016
  31
0
  0
LINE
  5
12f
  100
AcDbEntity
  8
1
  100
AcDbLine
  10
4.416506
  20
-2.139016
  30
0
  11
4.316506
  21
-2.092157
  31
0
  0
LINE
  5
130
  100
AcDbEntity
  8
1
  100
AcDbLine
  10
4.316506
  20
-2.092157
  30
0
  11
4.216506
  21
-2.044863
  31
0
  0
LINE
  5
131
  100
AcDbEntity
  8
1
  100
AcDbLine
  10
4.216506
  20
-2.044863
  30
0
  11
4.116506
  21
-1.997142
  31
0
  0
LINE
  5
132
  100
AcDbEntity
  8
1
  100
AcDbLine
  10
4.116506
  20
-1.997142
  30
0
  11
4.016506
  21
-1.949006
  31
0
  0
LINE
  5
133
  100
AcDbEntity
  8
1
  100
AcDbLine
  10
4.016506
  20
-1.949006
  30
0
  11
3.916506
  21
-1.900463
  31
0
  0
LINE
  5
134
  100
AcDbEntity
  8
1
  100
AcDbLine
  10
3.916506
  20
-1.900463
  30
0
  11
3.816506
  21
-1.851525
  31
0
  0
LINE
  5
135
  100
AcDbEntity
  8
1
  100
AcDbLine
  10
3.816506
  20
-1.851525
  30
0
  11
3.716506
  21
-1.802201
  31
0
  0
LINE
  5
136
  100
AcDbEntity
  8
1
  100
AcDbLine
  10
3.716506
  20
-1.802201
  30
0
  11
3.616506
  21
-1.752501
  31
0
  0
LINE
  5
137
  100
AcDbEntity
  8
1
  100
AcDbLine
  10
3.616506
  20
-1.752501
  30
0
  11
3.516506
  21
-1.702436
  31
0
  0
LINE
  5
138
  100
AcDbEntity
  8
1
  100
AcDbLine
  10
3.516506
  20
-1.702436
  30
0
  11
3.416506
  21
-1.652017
  31
0
  0
LINE
  5
139
  100
AcDbEntity
  8
1
  100
AcDbLine
  10
3.416506
  20
-1.652017
  30
0
  11
3.316506
  21
-1.601253
  31
0
  0
LINE
  5
13a
  100
AcDbEntity
  8
1
  100
AcDbLine
  10
3.316506
  20
-1.601253
  30
0
  11
3.216506
  21
-1.550156
  31
0
  0
LINE
  5
13b
  100
AcDbEntity
  8
1
  100
AcDbLine
  10
3.216506
  20
-1.550156
  30
0
  11
3.116506
  21
-1.498736
  31
0
  0
LINE
  5
13c
  100
AcDbEntity
  8
1
  100
AcDbLine
  10
3.116506
  20
-1.498736
  30
0
  11
3.016506
  21
-1.447003
  31
0
  0
LINE
  5
13d
  100
AcDbEntity
  8
1
  100
AcDbLine
  10
3.016506
  20
-1.447003
  30
0
  11
2.916506
  21
-1.39497
  31
0
  0
LINE
  5
13e
  100
AcDbEntity
  8
1
  100
AcDbLine
  10
2.916506
  20
-1.39497
  30
0
  11
2.816506
  21
-1.342645
  31
0
  0
LINE
  5
13f
  100
AcDbEntity
  8
1
  100
AcDbLine
  10
2.816506
  20
-1.342645
  30
0
  11
2.716506
  21
-1.290041
  31
0
  0
LINE
  5
140
  100
AcDbEntity
  8
1
  100
AcDbLine
  10
2.716506
  20
-1.290041
  30
0
  11
2.616506
  21
-1.237168
  31
0
  0
LINE
  5
141
  100
AcDbEntity
  8
1
  100
AcDbLine
  10
2.616506
  20
-1.237168
  30
0
  11
2.516506
  21
-1.184037
  31
0
  0
LINE
  5
142
  100
AcDbEntity
  8
1
  100
AcDbLine
  10
2.516506
  20
-1.184037
  30
0
  11
2.416506
  21
-1.13066
  31
0
  0
LINE
  5
143
  100
AcDbEntity
  8
1
  100
AcDbLine
  10
2.416506
  20
-1.13066
  30
0
  11
2.316506
  21
-1.077047
  31
0
  0
LINE
  5
144
  100
AcDbEntity
  8
1
  100
AcDbLine
  10
2.316506
  20
-1.077047
  30
0
  11
2.216506
  21
-1.02321
  31
0
  0
LINE
  5
145
  100
AcDbEntity
  8
1
  100
AcDbLine
  10
2.216506
  20
-1.02321
  30
0
  11
2.116506
  21
-0.96916
  31
0
  0
LINE
  5
146
  100
AcDbEntity
  8
1
  100
AcDbLine
  10
2.116506
  20
-0.96916
  30
0
  11
2.016506
  21
-0.914907
  31
0
  0
LINE
  5
147
  100
AcDbEntity
  8
1
  100
AcDbLine
  10
2.016506
  20
-0.914907
  30
0
  11
1.916506
  21
-0.860464
  31
0
  0
LINE
  5
148
  100
AcDbEntity
  8
1
  100
AcDbLine
  10
1.916506
  20
-0.860464
  30
0
  11
1.816506
  21
-0.805842
  31
0
  0
LINE
  5
149
  100
AcDbEntity
  8
1
  100
AcDbLine
  10
1.816506
  20
-0.805842
  30
0
  11
1.716506
  21
-0.751052
  31
0
  0
LINE
  5
14a
  100
AcDbEntity
  8
1
  100
AcDbLine
  10
1.716506
  20
-0.751052
  30
0
  11
1.616506
  21
-0.696106
  31
0
  0
LINE
  5
14b
  100
AcDbEntity
  8
1
  100
AcDbLine
  10
1.616506
  20
-0.696106
  30
0
  11
1.516506
  21
-0.641014
  31
0
  0
LINE
  5
14c
  100
AcDbEntity
  8
1
  100
AcDbLine
  10
1.516506
  20
-0.641014
  30
0
  11
1.416506
  21
-0.585789
  31
0
  0
LINE
  5
14d
  100
AcDbEntity
  8
1
  100
AcDbLine
  10
1.416506
  20
-0.585789
  30
0
  11
1.316506
  21
-0.530442
  31
0
  0
LINE
  5
14e
  100
AcDbEntity
  8
1
  100
AcDbLine
  10
1.316506
  20
-0.530442
  30
0
  11
1.216506
  21
-0.474984
  31
0
  0
LINE
  5
14f
  100
AcDbEntity
  8
1
  100
AcDbLine
  10
1.216506
  20
-0.474984
  30
0
  11
1.116506
  21
-0.419428
  31
0
  0
LINE
  5
150
  100
AcDbEntity
  8
1
  100
AcDbLine
  10
1.116506
  20
-0.419428
  30
0
  11
1.016506
  21
-0.363784
  31
0
  0
LINE
  5
151
  100
AcDbEntity
  8
1
  100
AcDbLine
  10
1.016506
  20
-0.363784
  30
0
  11
0.916506
  21
-0.308064
  31
0
  0
LINE
  5
152
  100
AcDbEntity
  8
1
  100
AcDbLine
  10
0.916506
  20
-0.308064
  30
0
  11
0.816506
  21
-0.25228
  31
0
  0
LINE
  5
153
  100
AcDbEntity
  8
1
  100
AcDbLine
  10
0.816506
  20
-0.25228
  30
0
  11
0.716506
  21
-0.196443
  31
0
  0
LINE
  5
154
  100
AcDbEntity
  8
1
  100
AcDbLine
  10
0.716506
  20
-0.196443
  30
0
  11
0.616506
  21
-0.140566
  31
0
  0
LINE
  5
155
  100
AcDbEntity
  8
1
  100
AcDbLine
  10
0.616506
  20
-0.140566
  30
0
  11
0.516506
  21
-0.084659
  31
0
  0
LINE
  5
156
  100
AcDbEntity
  8
1
  100
AcDbLine
  10
0.516506
  20
-0.084659
  30
0
  11
0.416506
  21
-0.028735
  31
0
  0
LINE
  5
157
  100
AcDbEntity
  8
1
  100
AcDbLine
  10
0.416506
  20
-0.028735
  30
0
  11
0.316506
  21
0.027195
  31
0
  0
LINE
  5
158
  100
AcDbEntity
  8
1
  100
AcDbLine
  10
0.316506
  20
0.027195
  30
0
  11
0.216506
  21
0.08312
  31
0
  0
LINE
  5
159
  100
AcDbEntity
  8
1
  100
AcDbLine
  10
0.216506
  20
0.08312
  30
0
  11
0.116506
  21
0.132724
  31
0
  0
LINE
  5
15a
  100
AcDbEntity
  8
1
  100
AcDbLine
  10
0.116506
  20
0.132724
  30
0
  11
0.016506
  21
0.183976
  31
0
  0
LINE
  5
15b
  100
AcDbEntity
  8
1
  100
AcDbLine
  10
0.016506
  20
0.183976
  30
0
  11
0
  21
0.193343
  31
0
  0
LINE
  5
15c
  100
AcDbEntity
  8
1
  100
AcDbLine
  10
0.216506
  20
0.671634
  30
0
  11
0.316506
  21
0.617334
  31
0
  0
LINE
  5
15d
  100
AcDbEntity
  8
1
  100
AcDbLine
  10
0.316506
  20
0.617334
  30
0
  11
0.416506
  21
0.562906
  31
0
  0
LINE
  5
15e
  100
AcDbEntity
  8
1
  100
AcDbLine
  10
0.416506
  20
0.562906
  30
0
  11
0.516506
  21
0.508361
  31
0
  0
LINE
  5
15f
  100
AcDbEntity
  8
1
  100
AcDbLine
  10
0.516506
  20
0.508361
  30
0
  11
0.616506
  21
0.453709
  31
0
  0
LINE
  5
160
  100
AcDbEntity
  8
1
  100
AcDbLine
  10
0.616506
  20
0.453709
  30
0
  11
0.716506
  21
0.398963
  31
0
  0
LINE
  5
161
  100
AcDbEntity
  8
1
  100
AcDbLine
  10
0.716506
  20
0.398963
  30
0
  11
0.816506
  21
0.344134
  31
0
  0
LINE
  5
162
  100
AcDbEntity
  8
1
  100
AcDbLine
  10
0.816506
  20
0.344134
  30
0
  11
0.916506
  21
0.289234
  31
0
  0
LINE
  5
163
  100
AcDbEntity
  8
1
  100
AcDbLine
  10
0.916506
  20
0.289234
  30
0
  11
1.016506
  21
0.234273
  31
0
  0
LINE
  5
164
  100
AcDbEntity
  8
1
  100
AcDbLine
  10
1.016506
  20
0.234273
  30
0
  11
1.116506
  21
0.179263
  31
0
  0
LINE
  5
165
  100
AcDbEntity
  8
1
  100
AcDbLine
  10
1.116506
  20
0.179263
  30
0
  11
1.216506
  21
0.124216
  31
0
  0
LINE
  5
166
  100
AcDbEntity
  8
1
  100
AcDbLine
  10
1.216506
  20
0.124216
  30
0
  11
1.316506
  21
0.069143
  31
0
  0
LINE
  5
167
  100
AcDbEntity
  8
1
  100
AcDbLine
  10
1.316506
  20
0.069143
  30
0
  11
1.416506
  21
0.014055
  31
0
  0
LINE
  5
168
  100
AcDbEntity
  8
1
  100
AcDbLine
  10
1.416506
  20
0.014055
  30
0
  11
1.516506
  21
-0.041035
  31
0
  0
LINE
  5
169
  100
AcDbEntity
  8
1
  100
AcDbLine
  10
1.516506
  20
-0.041035
  30
0
  11
1.616506
  21
-0.096117
  31
0
  0
LINE
  5
16a
  100
AcDbEntity
  8
1
  100
AcDbLine
  10
1.616506
  20
-0.096117
  30
0
  11
1.716506
  21
-0.151178
  31
0
  0
LINE
  5
16b
  100
AcDbEntity
  8
1
  100
AcDbLine
  10
1.716506
  20
-0.151178
  30
0
  11
1.816506
  21
-0.206209
  31
0
  0
LINE
  5
16c
  100
AcDbEntity
  8
1
  100
AcDbLine
  10
1.816506
  20
-0.206209
  30
0
  11
1.916506
  21
-0.261196
  31
0
  0
LINE
  5
16d
  100
AcDbEntity
  8
1
  100
AcDbLine
  10
1.916506
  20
-0.261196
  30
0
  11
2.016506
  21
-0.316129
  31
0
  0
LINE
  5
16e
  100
AcDbEntity
  8
1
  100
AcDbLine
  10
2.016506
  20
-0.316129
  30
0
  11
2.116506
  21
-0.370996
  31
0
  0
LINE
  5
16f
  100
AcDbEntity
  8
1
  100
AcDbLine
  10
2.116506
  20
-0.370996
  30
0
  11
2.216506
  21
-0.425786
  31
0
  0
LINE
  5
170
  100
AcDbEntity
  8
1
  100
AcDbLine
  10
2.216506
  20
-0.425786
  30
0
  11
2.316506
  21
-0.480487
  31
0
  0
LINE
  5
171
  100
AcDbEntity
  8
1
  100
AcDbLine
  10
2.316506
  20
-0.480487
  30
0
  11
2.416506
  21
-0.535088
  31
0
  0
LINE
  5
172
  100
AcDbEntity
  8
1
  100
AcDbLine
  10
2.416506
  20
-0.535088
  30
0
  11
2.516506
  21
-0.589577
  31
0
  0
LINE
  5
173
  100
AcDbEntity
  8
1
  100
AcDbLine
  10
2.516506
  20
-0.589577
  30
0
  11
2.616506
  21
-0.643944
  31
0
  0
LINE
  5
174
  100
AcDbEntity
  8
1
  100
AcDbLine
  10
2.616506
  20
-0.643944
  30
0
  11
2.716506
  21
-0.698176
  31
0
  0
LINE
  5
175
  100
AcDbEntity
  8
1
  100
AcDbLine
  10
2.716506
  20
-0.698176
  30
0
  11
2.816506
  21
-0.752263
  31
0
  0
LINE
  5
176
  100
AcDbEntity
  8
1
  100
AcDbLine
  10
2.816506
  20
-0.752263
  30
0
  11
2.916506
  21
-0.806193
  31
0
  0
LINE
  5
177
  100
AcDbEntity
  8
1
  100
AcDbLine
  10
2.916506
  20
-0.806193
  30
0
  11
3.016506
  21
-0.859956
  31
0
  0
LINE
  5
178
  100
AcDbEntity
  8
1
  100
AcDbLine
  10
3.016506
  20
-0.859956
  30
0
  11
3.116506
  21
-0.913539
  31
0
  0
LINE
  5
179
  100
AcDbEntity
  8
1
  100
AcDbLine
  10
3.116506
  20
-0.913539
  30
0
  11
3.216506
  21
-0.966932
  31
0
  0
LINE
  5
17a
  100
AcDbEntity
  8
1
  100
AcDbLine
  10
3.216506
  20
-0.966932
  30
0
  11
3.316506
  21
-1.020123
  31
0
  0
LINE
  5
17b
  100
AcDbEntity
  8
1
  100
AcDbLine
  10
3.316506
  20
-1.020123
  30
0
  11
3.416506
  21
-1.073102
  31
0
  0
LINE
  5
17c
  100
AcDbEntity
  8
1
  100
AcDbLine
  10
3.416506
  20
-1.073102
  30
0
  11
3.516506
  21
-1.125858
  31
0
  0
LINE
  5
17d
  100
AcDbEntity
  8
1
  100
AcDbLine
  10
3.516506
  20
-1.125858
  30
0
  11
3.616506
  21
-1.178378
  31
0
  0
LINE
  5
17e
  100
AcDbEntity
  8
1
  100
AcDbLine
  10
3.616506
  20
-1.178378
  30
0
  11
3.716506
  21
-1.230654
  31
0
  0
LINE
  5
17f
  100
AcDbEntity
  8
1
  100
AcDbLine
  10
3.716506
  20
-1.230654
  30
0
  11
3.816506
  21
-1.282673
  31
0
  0
LINE
  5
180
  100
AcDbEntity
  8
1
  100
AcDbLine
  10
3.816506
  20
-1.282673
  30
0
  11
3.916506
  21
-1.334424
  31
0
  0
LINE
  5
181
  100
AcDbEntity
  8
1
  100
AcDbLine
  10
3.916506
  20
-1.334424
  30
0
  11
4.016506
  21
-1.385898
  31
0
  0
LINE
  5
182
  100
AcDbEntity
  8
1
  100
AcDbLine
  10
4.016506
  20
-1.385898
  30
0
  11
4.116506
  21
-1.437083
  31
0
  0
LINE
  5
183
  100
AcDbEntity
  8
1
  100
AcDbLine
  10
4.116506
  20
-1.437083
  30
0
  11
4.216506
  21
-1.487969
  31
0
  0
LINE
  5
184
  100
AcDbEntity
  8
1
  100
AcDbLine
  10
4.216506
  20
-1.487969
  30
0
  11
4.316506
  21
-1.538544
  31
0
  0
LINE
  5
185
  100
AcDbEntity
  8
1
  100
AcDbLine
  10
4.316506
  20
-1.538544
  30
0
  11
4.416506
  21
-1.588799
  31
0
  0
LINE
  5
186
  100
AcDbEntity
  8
1
  100
AcDbLine
  10
4.416506
  20
-1.588799
  30
0
  11
4.516506
  21
-1.638723
  31
0
  0
LINE
  5
187
  100
AcDbEntity
  8
1
  100
AcDbLine
  10
4.516506
  20
-1.638723
  30
0
  11
4.616506
  21
-1.688306
  31
0
  0
LINE
  5
188
  100
AcDbEntity
  8
1
  100
AcDbLine
  10
4.616506
  20
-1.688306
  30
0
  11
4.716506
  21
-1.737537
  31
0
  0
LINE
  5
189
  100
AcDbEntity
  8
1
  100
AcDbLine
  10
4.716506
  20
-1.737537
  30
0
  11
4.816506
  21
-1.786406
  31
0
  0
LINE
  5
18a
  100
AcDbEntity
  8
1
  100
AcDbLine
  10
4.816506
  20
-1.786406
  30
0
  11
4.916506
  21
-1.834903
  31
0
  0
LINE
  5
18b
  100
AcDbEntity
  8
1
  100
AcDbLine
  10
4.916506
  20
-1.834903
  30
0
  11
5.016506
  21
-1.883017
  31
0
  0
LINE
  5
18c
  100
AcDbEntity
  8
1
  100
AcDbLine
  10
5.016506
  20
-1.883017
  30
0
  11
5.116506
  21
-1.93074
  31
0
  0
LINE
  5
18d
  100
AcDbEntity
  8
1
  100
AcDbLine
  10
5.116506
  20
-1.93074
  30
0
  11
5.216506
  21
-1.97806
  31
0
  0
LINE
  5
18e
  100
AcDbEntity
  8
1
  100
AcDbLine
  10
5.216506
  20
-1.97806
  30
0
  11
5.316506
  21
-2.024968
  31
0
  0
LINE
  5
18f
  100
AcDbEntity
  8
1
  100
AcDbLine
  10
5.316506
  20
-2.024968
  30
0
  11
5.416506
  21
-2.071454
  31
0
  0
LINE
  5
190
  100
AcDbEntity
  8
1
  100
AcDbLine
  10
5.416506
  20
-2.071454
  30
0
  11
5.516506
  21
-2.117508
  31
0
  0
LINE
  5
191
  100
AcDbEntity
  8
1
  100
AcDbLine
  10
5.516506
  20
-2.117508
  30
0
  11
5.616506
  21
-2.163122
  31
0
  0
LINE
  5
192
  100
AcDbEntity
  8
1
  100
AcDbLine
  10
5.616506
  20
-2.163122
  30
0
  11
5.716506
  21
-2.208285
  31
0
  0
LINE
  5
193
  100
AcDbEntity
  8
1
  100
AcDbLine
  10
5.716506
  20
-2.208285
  30
0
  11
5.816506
  21
-2.252987
  31
0
  0
LINE
  5
194
  100
AcDbEntity
  8
1
  100
AcDbLine
  10
5.816506
  20
-2.252987
  30
0
  11
5.916506
  21
-2.297221
  31
0
  0
LINE
  5
195
  100
AcDbEntity
  8
1
  100
AcDbLine
  10
5.916506
  20
-2.297221
  30
0
  11
6.016506
  21
-2.340975
  31
0
  0
LINE
  5
196
  100
AcDbEntity
  8
1
  100
AcDbLine
  10
6.016506
  20
-2.340975
  30
0
  11
6.116506
  21
-2.384242
  31
0
  0
LINE
  5
197
  100
AcDbEntity
  8
1
  100
AcDbLine
  10
6.116506
  20
-2.384242
  30
0
  11
6.216506
  21
-2.427013
  31
0
  0
LINE
  5
198
  100
AcDbEntity
  8
1
  100
AcDbLine
  10
6.216506
  20
-2.427013
  30
0
  11
6.316506
  21
-2.469278
  31
0
  0
LINE
  5
199
  100
AcDbEntity
  8
1
  100
AcDbLine
  10
6.316506
  20
-2.469278
  30
0
  11
6.416506
  21
-2.511028
  31
0
  0
LINE
  5
19a
  100
AcDbEntity
  8
1
  100
AcDbLine
  10
6.416506
  20
-2.511028
  30
0
  11
6.516506
  21
-2.552255
  31
0
  0
LINE
  5
19b
  100
AcDbEntity
  8
1
  100
AcDbLine
  10
6.516506
  20
-2.552255
  30
0
  11
6.616506
  21
-2.592951
  31
0
  0
LINE
  5
19c
  100
AcDbEntity
  8
1
  100
AcDbLine
  10
6.616506
  20
-2.592951
  30
0
  11
6.716506
  21
-2.633106
  31
0
  0
LINE
  5
19d
  100
AcDbEntity
  8
1
  100
AcDbLine
  10
6.716506
  20
-2.633106
  30
0
  11
6.816506
  21
-2.672713
  31
0
  0
LINE
  5
19e
  100
AcDbEntity
  8
1
  100
AcDbLine
  10
6.816506
  20
-2.672713
  30
0
  11
6.916506
  21
-2.711763
  31
0
  0
LINE
  5
19f
  100
AcDbEntity
  8
1
  100
AcDbLine
  10
6.916506
  20
-2.711763
  30
0
  11
7.016506
  21
-2.750248
  31
0
  0
LINE
  5
1a0
  100
AcDbEntity
  8
1
  100
AcDbLine
  10
7.016506
  20
-2.750248
  30
0
  11
7.116506
  21
-2.78816
  31
0
  0
LINE
  5
1a1
  100
AcDbEntity
  8
1
  100
AcDbLine
  10
7.116506
  20
-2.78816
  30
0
  11
7.216506
  21
-2.825491
  31
0
  0
LINE
  5
1a2
  100
AcDbEntity
  8
1
  100
AcDbLine
  10
7.216506
  20
-2.825491
  30
0
  11
7.316506
  21
-2.862233
  31
0
  0
LINE
  5
1a3
  100
AcDbEntity
  8
1
  100
AcDbLine
  10
7.316506
  20
-2.862233
  30
0
  11
7.416506
  21
-2.89838
  31
0
  0
LINE
  5
1a4
  100
AcDbEntity
  8
1
  100
AcDbLine
  10
7.416506
  20
-2.89838
  30
0
  11
7.516506
  21
-2.933922
  31
0
  0
LINE
  5
1a5
  100
AcDbEntity
  8
1
  100
AcDbLine
  10
7.516506
  20
-2.933922
  30
0
  11
7.616506
  21
-2.968853
  31
0
  0
LINE
  5
1a6
  100
AcDbEntity
  8
1
  100
AcDbLine
  10
7.616506
  20
-2.968853
  30
0
  11
7.716506
  21
-3.003166
  31
0
  0
LINE
  5
1a7
  100
AcDbEntity
  8
1
  100
AcDbLine
  10
7.716506
  20
-3.003166
  30
0
  11
7.816506
  21
-3.036853
  31
0
  0
LINE
  5
1a8
  100
AcDbEntity
  8
1
  100
AcDbLine
  10
7.816506
  20
-3.036853
  30
0
  11
7.916506
  21
-3.069908
  31
0
  0
LINE
  5
1a9
  100
AcDbEntity
  8
1
  100
AcDbLine
  10
7.916506
  20
-3.069908
  30
0
  11
8.016506
  21
-3.102322
  31
0
  0
LINE
  5
1aa
  100
AcDbEntity
  8
1
  100
AcDbLine
  10
8.016506
  20
-3.102322
  30
0
  11
8.116506
  21
-3.134091
  31
0
  0
LINE
  5
1ab
  100
AcDbEntity
  8
1
  100
AcDbLine
  10
8.116506
  20
-3.134091
  30
0
  11
8.216506
  21
-3.165207
  31
0
  0
LINE
  5
1ac
  100
AcDbEntity
  8
1
  100
AcDbLine
  10
8.216506
  20
-3.165207
  30
0
  11
8.316506
  21
-3.195663
  31
0
  0
LINE
  5
1ad
  100
AcDbEntity
  8
1
  100
AcDbLine
  10
8.316506
  20
-3.195663
  30
0
  11
8.416506
  21
-3.225453
  31
0
  0
LINE
  5
1ae
  100
AcDbEntity
  8
1
  100
AcDbLine
  10
8.416506
  20
-3.225453
  30
0
  11
8.516506
  21
-3.254572
  31
0
  0
LINE
  5
1af
  100
AcDbEntity
  8
1
  100
AcDbLine
  10
8.516506
  20
-3.254572
  30
0
  11
8.616506
  21
-3.283012
  31
0
  0
LINE
  5
1b0
  100
AcDbEntity
  8
1
  100
AcDbLine
  10
8.616506
  20
-3.283012
  30
0
  11
8.716506
  21
-3.310769
  31
0
  0
LINE
  5
1b1
  100
AcDbEntity
  8
1
  100
AcDbLine
  10
8.716506
  20
-3.310769
  30
0
  11
8.816506
  21
-3.337836
  31
0
  0
LINE
  5
1b2
  100
AcDbEntity
  8
1
  100
AcDbLine
  10
8.816506
  20
-3.337836
  30
0
  11
8.916506
  21
-3.364207
  31
0
  0
LINE
  5
1b3
  100
AcDbEntity
  8
1
  100
AcDbLine
  10
8.916506
  20
-3.364207
  30
0
  11
9.016506
  21
-3.389878
  31
0
  0
LINE
  5
1b4
  100
AcDbEntity
  8
1
  100
AcDbLine
  10
9.016506
  20
-3.389878
  30
0
  11
9.116506
  21
-3.414842
  31
0
  0
LINE
  5
1b5
  100
AcDbEntity
  8
1
  100
AcDbLine
  10
9.116506
  20
-3.414842
  30
0
  11
9.216506
  21
-3.439095
  31
0
  0
LINE
  5
1b6
  100
AcDbEntity
  8
1
  100
AcDbLine
  10
9.216506
  20
-3.439095
  30
0
  11
9.316506
  21
-3.462632
  31
0
  0
LINE
  5
1b7
  100
AcDbEntity
  8
1
  100
AcDbLine
  10
9.316506
  20
-3.462632
  30
0
  11
9.416506
  21
-3.485447
  31
0
  0
LINE
  5
1b8
  100
AcDbEntity
  8
1
  100
AcDbLine
  10
9.416506
  20
-3.485447
  30
0
  11
9.516506
  21
-3.507536
  31
0
  0
LINE
  5
1b9
  100
AcDbEntity
  8
1
  100
AcDbLine
  10
9.516506
  20
-3.507536
  30
0
  11
9.616506
  21
-3.528894
  31
0
  0
LINE
  5
1ba
  100
AcDbEntity
  8
1
  100
AcDbLine
  10
9.616506
  20
-3.528894
  30
0
  11
9.716506
  21
-3.549517
  31
0
  0
LINE
  5
1bb
  100
AcDbEntity
  8
1
  100
AcDbLine
  10
9.716506
  20
-3.549517
  30
0
  11
9.816506
  21
-3.569401
  31
0
  0
LINE
  5
1bc
  100
AcDbEntity
  8
1
  100
AcDbLine
  10
9.816506
  20
-3.569401
  30
0
  11
9.916506
  21
-3.588541
  31
0
  0
LINE
  5
1bd
  100
AcDbEntity
  8
1
  100
AcDbLine
  10
9.916506
  20
-3.588541
  30
0
  11
10.016506
  21
-3.606933
  31
0
  0
LINE
  5
1be
  100
AcDbEntity
  8
1
  100
AcDbLine
  10
10.016506
  20
-3.606933
  30
0
  11
10.116506
  21
-3.624574
  31
0
  0
LINE
  5
1bf
  100
AcDbEntity
  8
1
  100
AcDbLine
  10
10.116506
  20
-3.624574
  30
0
  11
10.216506
  21
-3.64146
  31
0
  0
LINE
  5
1c0
  100
AcDbEntity
  8
1
  100
AcDbLine
  10
10.216506
  20
-3.64146
  30
0
  11
10.316506
  21
-3.657587
  31
0
  0
LINE
  5
1c1
  100
AcDbEntity
  8
1
  100
AcDbLine
  10
10.316506
  20
-3.657587
  30
0
  11
10.416506
  21
-3.672952
  31
0
  0
LINE
  5
1c2
  100
AcDbEntity
  8
1
  100
AcDbLine
  10
10.416506
  20
-3.672952
  30
0
  11
10.516506
  21
-3.687553
  31
0
  0
LINE
  5
1c3
  100
AcDbEntity
  8
1
  100
AcDbLine
  10
10.516506
  20
-3.687553
  30
0
  11
10.616506
  21
-3.701384
  31
0
  0
LINE
  5
1c4
  100
AcDbEntity
  8
1
  100
AcDbLine
  10
10.616506
  20
-3.701384
  30
0
  11
10.716506
  21
-3.714445
  31
0
  0
LINE
  5
1c5
  100
AcDbEntity
  8
1
  100
AcDbLine
  10
10.716506
  20
-3.714445
  30
0
  11
10.816506
  21
-3.726732
  31
0
  0
LINE
  5
1c6
  100
AcDbEntity
  8
1
  100
AcDbLine
  10
10.816506
  20
-3.726732
  30
0
  11
10.916506
  21
-3.738243
  31
0
  0
LINE
  5
1c7
  100
AcDbEntity
  8
1
  100
AcDbLine
  10
10.916506
  20
-3.738243
  30
0
  11
11.016506
  21
-3.748974
  31
0
  0
LINE
  5
1c8
  100
AcDbEntity
  8
1
  100
AcDbLine
  10
11.016506
  20
-3.748974
  30
0
  11
11.116506
  21
-3.758925
  31
0
  0
LINE
  5
1c9
  100
AcDbEntity
  8
1
  100
AcDbLine
  10
11.116506
  20
-3.758925
  30
0
  11
11.216506
  21
-3.768093
  31
0
  0
LINE
  5
1ca
  100
AcDbEntity
  8
1
  100
AcDbLine
  10
11.216506
  20
-3.247159
  30
0
  11
11.116506
  21
-3.2163
  31
0
  0
LINE
  5
1cb
  100
AcDbEntity
  8
1
  100
AcDbLine
  10
11.116506
  20
-3.2163
  30
0
  11
11.016506
  21
-3.184771
  31
0
  0
LINE
  5
1cc
  100
AcDbEntity
  8
1
  100
AcDbLine
  10
11.016506
  20
-3.184771
  30
0
  11
10.916506
  21
-3.152578
  31
0
  0
LINE
  5
1cd
  100
AcDbEntity
  8
1
  100
AcDbLine
  10
10.916506
  20
-3.152578
  30
0
  11
10.816506
  21
-3.119729
  31
0
  0
LINE
  5
1ce
  100
AcDbEntity
  8
1
  100
AcDbLine
  10
10.816506
  20
-3.119729
  30
0
  11
10.716506
  21
-3.08623
  31
0
  0
LINE
  5
1cf
  100
AcDbEntity
  8
1
  100
AcDbLine
  10
10.716506
  20
-3.08623
  30
0
  11
10.616506
  21
-3.052087
  31
0
  0
LINE
  5
1d0
  100
AcDbEntity
  8
1
  100
AcDbLine
  10
10.616506
  20
-3.052087
  30
0
  11
10.516506
  21
-3.017309
  31
0
  0
LINE
  5
1d1
  100
AcDbEntity
  8
1
  100
AcDbLine
  10
10.516506
  20
-3.017309
  30
0
  11
10.416506
  21
-2.981903
  31
0
  0
LINE
  5
1d2
  100
AcDbEntity
  8
1
  100
AcDbLine
  10
10.416506
  20
-2.981903
  30
0
  11
10.316506
  21
-2.945875
  31
0
  0
LINE
  5
1d3
  100
AcDbEntity
  8
1
  100
AcDbLine
  10
10.316506
  20
-2.945875
  30
0
  11
10.216506
  21
-2.909233
  31
0
  0
LINE
  5
1d4
  100
AcDbEntity
  8
1
  100
AcDbLine
  10
10.216506
  20
-2.909233
  30
0
  11
10.116506
  21
-2.871986
  31
0
  0
LINE
  5
1d5
  100
AcDbEntity
  8
1
  100
AcDbLine
  10
10.116506
  20
-2.871986
  30
0
  11
10.016506
  21
-2.83414
  31
0
  0
LINE
  5
1d6
  100
AcDbEntity
  8
1
  100
AcDbLine
  10
10.016506
  20
-2.83414
  30
0
  11
9.916506
  21
-2.795704
  31
0
  0
LINE
  5
1d7
  100
AcDbEntity
  8
1
  100
AcDbLine
  10
9.916506
  20
-2.795704
  30
0
  11
9.816506
  21
-2.756685
  31
0
  0
LINE
  5
1d8
  100
AcDbEntity
  8
1
  100
AcDbLine
  10
9.816506
  20
-2.756685
  30
0
  11
9.716506
  21
-2.717092
  31
0
  0
LINE
  5
1d9
  100
AcDbEntity
  8
1
  100
AcDbLine
  10
9.716506
  20
-2.717092
  30
0
  11
9.616506
  21
-2.676932
  31
0
  0
LINE
  5
1da
  100
AcDbEntity
  8
1
  100
AcDbLine
  10
9.616506
  20
-2.676932
  30
0
  11
9.516506
  21
-2.636216
  31
0
  0
LINE
  5
1db
  100
AcDbEntity
  8
1
  100
AcDbLine
  10
9.516506
  20
-2.636216
  30
0
  11
9.416506
  21
-2.59495
  31
0
  0
LINE
  5
1dc
  100
AcDbEntity
  8
1
  100
AcDbLine
  10
9.416506
  20
-2.59495
  30
0
  11
9.316506
  21
-2.553143
  31
0
  0
LINE
  5
1dd
  100
AcDbEntity
  8
1
  100
AcDbLine
  10
9.316506
  20
-2.553143
  30
0
  11
9.216506
  21
-2.510804
  31
0
  0
LINE
  5
1de
  100
AcDbEntity
  8
1
  100
AcDbLine
  10
9.216506
  20
-2.510804
  30
0
  11
9.116506
  21
-2.467943
  31
0
  0
LINE
  5
1df
  100
AcDbEntity
  8
1
  100
AcDbLine
  10
9.116506
  20
-2.467943
  30
0
  11
9.016506
  21
-2.424567
  31
0
  0
LINE
  5
1e0
  100
AcDbEntity
  8
1
  100
AcDbLine
  10
9.016506
  20
-2.424567
  30
0
  11
8.916506
  21
-2.380686
  31
0
  0
LINE
  5
1e1
  100
AcDbEntity
  8
1
  100
AcDbLine
  10
8.916506
  20
-2.380686
  30
0
  11
8.816506
  21
-2.336309
  31
0
  0
LINE
  5
1e2
  100
AcDbEntity
  8
1
  100
AcDbLine
  10
8.816506
  20
-2.336309
  30
0
  11
8.716506
  21
-2.291446
  31
0
  0
LINE
  5
1e3
  100
AcDbEntity
  8
1
  100
AcDbLine
  10
8.716506
  20
-2.291446
  30
0
  11
8.616506
  21
-2.246105
  31
0
  0
LINE
  5
1e4
  100
AcDbEntity
  8
1
  100
AcDbLine
  10
8.616506
  20
-2.246105
  30
0
  11
8.516506
  21
-2.200296
  31
0
  0
LINE
  5
1e5
  100
AcDbEntity
  8
1
  100
AcDbLine
  10
8.516506
  20
-2.200296
  30
0
  11
8.416506
  21
-2.154029
  31
0
  0
LINE
  5
1e6
  100
AcDbEntity
  8
1
  100
AcDbLine
  10
8.416506
  20
-2.154029
  30
0
  11
8.316506
  21
-2.107313
  31
0
  0
LINE
  5
1e7
  100
AcDbEntity
  8
1
  100
AcDbLine
  10
8.316506
  20
-2.107313
  30
0
  11
8.216506
  21
-2.060158
  31
0
  0
LINE
  5
1e8
  100
AcDbEntity
  8
1
  100
AcDbLine
  10
8.216506
  20
-2.060158
  30
0
  11
8.116506
  21
-2.012573
  31
0
  0
LINE
  5
1e9
  100
AcDbEntity
  8
1
  100
AcDbLine
  10
8.116506
  20
-2.012573
  30
0
  11
8.016506
  21
-1.96457
  31
0
  0
LINE
  5
1ea
  100
AcDbEntity
  8
1
  100
AcDbLine
  10
8.016506
  20
-1.96457
  30
0
  11
7.916506
  21
-1.916157
  31
0
  0
LINE
  5
1eb
  100
AcDbEntity
  8
1
  100
AcDbLine
  10
7.916506
  20
-1.916157
  30
0
  11
7.816506
  21
-1.867345
  31
0
  0
LINE
  5
1ec
  100
AcDbEntity
  8
1
  100
AcDbLine
  10
7.816506
  20
-1.867345
  30
0
  11
7.716506
  21
-1.818144
  31
0
  0
LINE
  5
1ed
  100
AcDbEntity
  8
1
  100
AcDbLine
  10
7.716506
  20
-1.818144
  30
0
  11
7.616506
  21
-1.768564
  31
0
  0
LINE
  5
1ee
  100
AcDbEntity
  8
1
  100
AcDbLine
  10
7.616506
  20
-1.768564
  30
0
  11
7.516506
  21
-1.718616
  31
0
  0
LINE
  5
1ef
  100
AcDbEntity
  8
1
  100
AcDbLine
  10
7.516506
  20
-1.718616
  30
0
  11
7.416506
  21
-1.66831
  31
0
  0
LINE
  5
1f0
  100
AcDbEntity
  8
1
  100
AcDbLine
  10
7.416506
  20
-1.66831
  30
0
  11
7.316506
  21
-1.617656
  31
0
  0
LINE
  5
1f1
  100
AcDbEntity
  8
1
  100
AcDbLine
  10
7.316506
  20
-1.617656
  30
0
  11
7.216506
  21
-1.566665
  31
0
  0
LINE
  5
1f2
  100
AcDbEntity
  8
1
  100
AcDbLine
  10
7.216506
  20
-1.566665
  30
0
  11
7.116506
  21
-1.515348
  31
0
  0
LINE
  5
1f3
  100
AcDbEntity
  8
1
  100
AcDbLine
  10
7.116506
  20
-1.515348
  30
0
  11
7.016506
  21
-1.463715
  31
0
  0
LINE
  5
1f4
  100
AcDbEntity
  8
1
  100
AcDbLine
  10
7.016506
  20
-1.463715
  30
0
  11
6.916506
  21
-1.411777
  31
0
  0
LINE
  5
1f5
  100
AcDbEntity
  8
1
  100
AcDbLine
  10
6.916506
  20
-1.411777
  30
0
  11
6.816506
  21
-1.359546
  31
0
  0
LINE
  5
1f6
  100
AcDbEntity
  8
1
  100
AcDbLine
  10
6.816506
  20
-1.359546
  30
0
  11
6.716506
  21
-1.30703
  31
0
  0
LINE
  5
1f7
  100
AcDbEntity
  8
1
  100
AcDbLine
  10
6.716506
  20
-1.30703
  30
0
  11
6.616506
  21
-1.254243
  31
0
  0
LINE
  5
1f8
  100
AcDbEntity
  8
1
  100
AcDbLine
  10
6.616506
  20
-1.254243
  30
0
  11
6.516506
  21
-1.201194
  31
0
  0
LINE
  5
1f9
  100
AcDbEntity
  8
1
  100
AcDbLine
  10
6.516506
  20
-1.201194
  30
0
  11
6.416506
  21
-1.147895
  31
0
  0
LINE
  5
1fa
  100
AcDbEntity
  8
1
  100
AcDbLine
  10
6.416506
  20
-1.147895
  30
0
  11
6.316506
  21
-1.094357
  31
0
  0
LINE
  5
1fb
  100
AcDbEntity
  8
1
  100
AcDbLine
  10
6.316506
  20
-1.094357
  30
0
  11
6.216506
  21
-1.040591
  31
0
  0
LINE
  5
1fc
  100
AcDbEntity
  8
1
  100
AcDbLine
  10
6.216506
  20
-1.040591
  30
0
  11
6.116506
  21
-0.986608
  31
0
  0
LINE
  5
1fd
  100
AcDbEntity
  8
1
  100
AcDbLine
  10
6.116506
  20
-0.986608
  30
0
  11
6.016506
  21
-0.93242
  31
0
  0
LINE
  5
1fe
  100
AcDbEntity
  8
1
  100
AcDbLine
  10
6.016506
  20
-0.93242
  30
0
  11
5.916506
  21
-0.878037
  31
0
  0
LINE
  5
1ff
  100
AcDbEntity
  8
1
  100
AcDbLine
  10
5.916506
  20
-0.878037
  30
0
  11
5.816506
  21
-0.823471
  31
0
  0
LINE
  5
200
  100
AcDbEntity
  8
1
  100
AcDbLine
  10
5.816506
  20
-0.823471
  30
0
  11
5.716506
  21
-0.768734
  31
0
  0
LINE
  5
201
  100
AcDbEntity
  8
1
  100
AcDbLine
  10
5.716506
  20
-0.768734
  30
0
  11
5.616506
  21
-0.713837
  31
0
  0
LINE
  5
202
  100
AcDbEntity
  8
1
  100
AcDbLine
  10
5.616506
  20
-0.713837
  30
0
  11
5.516506
  21
-0.658791
  31
0
  0
LINE
  5
203
  100
AcDbEntity
  8
1
  100
AcDbLine
  10
5.516506
  20
-0.658791
  30
0
  11
5.416506
  21
-0.603607
  31
0
  0
LINE
  5
204
  100
AcDbEntity
  8
1
  100
AcDbLine
  10
5.416506
  20
-0.603607
  30
0
  11
5.316506
  21
-0.548298
  31
0
  0
LINE
  5
205
  100
AcDbEntity
  8
1
  100
AcDbLine
  10
5.316506
  20
-0.548298
  30
0
  11
5.216506
  21
-0.492875
  31
0
  0
LINE
  5
206
  100
AcDbEntity
  8
1
  100
AcDbLine
  10
5.216506
  20
-0.492875
  30
0
  11
5.116506
  21
-0.437349
  31
0
  0
LINE
  5
207
  100
AcDbEntity
  8
1
  100
AcDbLine
  10
5.116506
  20
-0.437349
  30
0
  11
5.016506
  21
-0.381732
  31
0
  0
LINE
  5
208
  100
AcDbEntity
  8
1
  100
AcDbLine
  10
5.016506
  20
-0.381732
  30
0
  11
4.916506
  21
-0.326035
  31
0
  0
LINE
  5
209
  100
AcDbEntity
  8
1
  100
AcDbLine
  10
4.916506
  20
-0.326035
  30
0
  11
4.816506
  21
-0.270271
  31
0
  0
LINE
  5
20a
  100
AcDbEntity
  8
1
  100
AcDbLine
  10
4.816506
  20
-0.270271
  30
0
  11
4.716506
  21
-0.21445
  31
0
  0
LINE
  5
20b
  100
AcDbEntity
  8
1
  100
AcDbLine
  10
4.716506
  20
-0.21445
  30
0
  11
4.616506
  21
-0.158585
  31
0
  0
LINE
  5
20c
  100
AcDbEntity
  8
1
  100
AcDbLine
  10
4.616506
  20
-0.158585
  30
0
  11
4.516506
  21
-0.102686
  31
0
  0
LINE
  5
20d
  100
AcDbEntity
  8
1
  100
AcDbLine
  10
4.516506
  20
-0.102686
  30
0
  11
4.416506
  21
-0.046766
  31
0
  0
LINE
  5
20e
  100
AcDbEntity
  8
1
  100
AcDbLine
  10
4.416506
  20
-0.046766
  30
0
  11
4.316506
  21
0.009163
  31
0
  0
LINE
  5
20f
  100
AcDbEntity
  8
1
  100
AcDbLine
  10
4.316506
  20
0.009163
  30
0
  11
4.216506
  21
0.065091
  31
0
  0
LINE
  5
210
  100
AcDbEntity
  8
1
  100
AcDbLine
  10
4.216506
  20
0.065091
  30
0
  11
4.116506
  21
0.121005
  31
0
  0
LINE
  5
211
  100
AcDbEntity
  8
1
  100
AcDbLine
  10
4.116506
  20
0.121005
  30
0
  11
4.016506
  21
0.176894
  31
0
  0
LINE
  5
212
  100
AcDbEntity
  8
1
  100
AcDbLine
  10
4.016506
  20
0.176894
  30
0
  11
3.916506
  21
0.232747
  31
0
  0
LINE
  5
213
  100
AcDbEntity
  8
1
  100
AcDbLine
  10
3.916506
  20
0.232747
  30
0
  11
3.816506
  21
0.28855
  31
0
  0
LINE
  5
214
  100
AcDbEntity
  8
1
  100
AcDbLine
  10
3.816506
  20
0.28855
  30
0
  11
3.716506
  21
0.344294
  31
0
  0
LINE
  5
215
  100
AcDbEntity
  8
1
  100
AcDbLine
  10
3.716506
  20
0.344294
  30
0
  11
3.616506
  21
0.399966
  31
0
  0
LINE
  5
216
  100
AcDbEntity
  8
1
  100
AcDbLine
  10
3.616506
  20
0.399966
  30
0
  11
3.516506
  21
0.455554
  31
0
  0
LINE
  5
217
  100
AcDbEntity
  8
1
  100
AcDbLine
  10
3.516506
  20
0.455554
  30
0
  11
3.416506
  21
0.511048
  31
0
  0
LINE
  5
218
  100
AcDbEntity
  8
1
  100
AcDbLine
  10
3.416506
  20
0.511048
  30
0
  11
3.316506
  21
0.566435
  31
0
  0
LINE
  5
219
  100
AcDbEntity
  8
1
  100
AcDbLine
  10
3.316506
  20
0.566435
  30
0
  11
3.216506
  21
0.621704
  31
0
  0
LINE
  5
21a
  100
AcDbEntity
  8
1
  100
AcDbLine
  10
3.216506
  20
0.621704
  30
0
  11
3.116506
  21
0.676843
  31
0
  0
LINE
  5
21b
  100
AcDbEntity
  8
1
  100
AcDbLine
  10
3.116506
  20
0.676843
  30
0
  11
3.016506
  21
0.731842
  31
0
  0
LINE
  5
21c
  100
AcDbEntity
  8
1
  100
AcDbLine
  10
3.016506
  20
0.731842
  30
0
  11
2.916506
  21
0.786688
  31
0
  0
LINE
  5
21d
  100
AcDbEntity
  8
1
  100
AcDbLine
  10
2.916506
  20
0.786688
  30
0
  11
2.816506
  21
0.84137
  31
0
  0
LINE
  5
21e
  100
AcDbEntity
  8
1
  100
AcDbLine
  10
2.816506
  20
0.84137
  30
0
  11
2.716506
  21
0.895877
  31
0
  0
LINE
  5
21f
  100
AcDbEntity
  8
1
  100
AcDbLine
  10
2.716506
  20
0.895877
  30
0
  11
2.616506
  21
0.950198
  31
0
  0
LINE
  5
220
  100
AcDbEntity
  8
1
  100
AcDbLine
  10
2.616506
  20
0.950198
  30
0
  11
2.516506
  21
1.00432
  31
0
  0
LINE
  5
221
  100
AcDbEntity
  8
1
  100
AcDbLine
  10
2.516506
  20
1.00432
  30
0
  11
2.416506
  21
1.058233
  31
0
  0
LINE
  5
222
  100
AcDbEntity
  8
1
  100
AcDbLine
  10
2.416506
  20
1.058233
  30
0
  11
2.316506
  21
1.111926
  31
0
  0
LINE
  5
223
  100
AcDbEntity
  8
1
  100
AcDbLine
  10
2.316506
  20
1.111926
  30
0
  11
2.216506
  21
1.165387
  31
0
  0
LINE
  5
224
  100
AcDbEntity
  8
1
  100
AcDbLine
  10
2.216506
  20
1.165387
  30
0
  11
2.116506
  21
1.218605
  31
0
  0
LINE
  5
225
  100
AcDbEntity
  8
1
  100
AcDbLine
  10
2.116506
  20
1.218605
  30
0
  11
2.016506
  21
1.271569
  31
0
  0
LINE
  5
226
  100
AcDbEntity
  8
1
  100
AcDbLine
  10
2.016506
  20
1.271569
  30
0
  11
1.916506
  21
1.324269
  31
0
  0
LINE
  5
227
  100
AcDbEntity
  8
1
  100
AcDbLine
  10
1.916506
  20
1.324269
  30
0
  11
1.816506
  21
1.376692
  31
0
  0
LINE
  5
228
  100
AcDbEntity
  8
1
  100
AcDbLine
  10
1.816506
  20
1.376692
  30
0
  11
1.716506
  21
1.428829
  31
0
  0
LINE
  5
229
  100
AcDbEntity
  8
1
  100
AcDbLine
  10
1.716506
  20
1.428829
  30
0
  11
1.616506
  21
1.480668
  31
0
  0
LINE
  5
22a
  100
AcDbEntity
  8
1
  100
AcDbLine
  10
1.616506
  20
1.480668
  30
0
  11
1.516506
  21
1.532199
  31
0
  0
LINE
  5
22b
  100
AcDbEntity
  8
1
  100
AcDbLine
  10
1.516506
  20
1.532199
  30
0
  11
1.416506
  21
1.58341
  31
0
  0
LINE
  5
22c
  100
AcDbEntity
  8
1
  100
AcDbLine
  10
1.416506
  20
1.58341
  30
0
  11
1.316506
  21
1.634292
  31
0
  0
LINE
  5
22d
  100
AcDbEntity
  8
1
  100
AcDbLine
  10
1.316506
  20
1.634292
  30
0
  11
1.216506
  21
1.684833
  31
0
  0
LINE
  5
22e
  100
AcDbEntity
  8
1
  100
AcDbLine
  10
1.216506
  20
1.684833
  30
0
  11
1.116506
  21
1.735023
  31
0
  0
LINE
  5
22f
  100
AcDbEntity
  8
1
  100
AcDbLine
  10
1.116506
  20
1.735023
  30
0
  11
1.016506
  21
1.784851
  31
0
  0
LINE
  5
230
  100
AcDbEntity
  8
1
  100
AcDbLine
  10
1.016506
  20
1.784851
  30
0
  11
0.916506
  21
1.834308
  31
0
  0
LINE
  5
231
  100
AcDbEntity
  8
1
  100
AcDbLine
  10
0.916506
  20
1.834308
  30
0
  11
0.816506
  21
1.883383
  31
0
  0
LINE
  5
232
  100
AcDbEntity
  8
1
  100
AcDbLine
  10
0.816506
  20
1.883383
  30
0
  11
0.716506
  21
1.932065
  31
0
  0
LINE
  5
233
  100
AcDbEntity
  8
1
  100
AcDbLine
  10
0.716506
  20
1.932065
  30
0
  11
0.616506
  21
1.980345
  31
0
  0
LINE
  5
234
  100
AcDbEntity
  8
1
  100
AcDbLine
  10
0.616506
  20
1.980345
  30
0
  11
0.516506
  21
2.028212
  31
0
  0
LINE
  5
235
  100
AcDbEntity
  8
1
  100
AcDbLine
  10
0.516506
  20
2.028212
  30
0
  11
0.416506
  21
2.075657
  31
0
  0
LINE
  5
236
  100
AcDbEntity
  8
1
  100
AcDbLine
  10
0.416506
  20
2.075657
  30
0
  11
0.316506
  21
2.122669
  31
0
  0
LINE
  5
237
  100
AcDbEntity
  8
1
  100
AcDbLine
  10
0.316506
  20
2.122669
  30
0
  11
0.216506
  21
2.169239
  31
0
  0
LINE
  5
238
  100
AcDbEntity
  8
1
  100
AcDbLine
  10
0.216506
  20
2.169239
  30
0
  11
0.116506
  21
2.219808
  31
0
  0
LINE
  5
239
  100
AcDbEntity
  8
1
  100
AcDbLine
  10
0.116506
  20
2.219808
  30
0
  11
0.016506
  21
2.271824
  31
0
  0
LINE
  5
23a
  100
AcDbEntity
  8
1
  100
AcDbLine
  10
0.016506
  20
2.271824
  30
0
  11
0
  21
2.279774
  31
0
  0
LINE
  5
23b
  100
AcDbEntity
  8
1
  100
AcDbLine
  10
0.216506
  20
3.875
  30
0
  11
0.216506
  21
-3.875
  31
0
  0
LINE
  5
23c
  100
AcDbEntity
  8
1
  100
AcDbLine
  10
0
  20
-3.977844
  30
0
  11
0.016506
  21
-3.977039
  31
0
  0
LINE
  5
23d
  100
AcDbEntity
  8
1
  100
AcDbLine
  10
0.016506
  20
-3.977039
  30
0
  11
0.116506
  21
-3.921335
  31
0
  0
LINE
  5
23e
  100
AcDbEntity
  8
1
  100
AcDbLine
  10
0.116506
  20
-3.921335
  30
0
  11
0.216506
  21
-3.86536
  31
0
  0
LINE
  5
23f
  100
AcDbEntity
  8
1
  100
AcDbLine
  10
0.216506
  20
-3.86536
  30
0
  11
0.316506
  21
-3.8689
  31
0
  0
LINE
  5
240
  100
AcDbEntity
  8
1
  100
AcDbLine
  10
0.316506
  20
-3.8689
  30
0
  11
0.416506
  21
-3.871634
  31
0
  0
LINE
  5
241
  100
AcDbEntity
  8
1
  100
AcDbLine
  10
0.416506
  20
-3.871634
  30
0
  11
0.516506
  21
-3.873562
  31
0
  0
LINE
  5
242
  100
AcDbEntity
  8
1
  100
AcDbLine
  10
0.516506
  20
-3.873562
  30
0
  11
0.616506
  21
-3.874682
  31
0
  0
LINE
  5
243
  100
AcDbEntity
  8
1
  100
AcDbLine
  10
0.616506
  20
-3.874682
  30
0
  11
0.705291
  21
-3.875
  31
0
  0
LINE
  5
244
  100
AcDbEntity
  8
1
  100
AcDbLine
  10
0
  20
4
  30
0
  11
0
  21
-4
  31
0
  0
LINE
  5
245
  100
AcDbEntity
  8
1
  100
AcDbLine
  10
0
  20
-4
  30
0
  11
0
  21
4
  31
0
  0
LINE
  5
246
  100
AcDbEntity
  8
SK1
  100
AcDbLine
  10
0
  20
4
  30
0
  11
-31.283
  21
4
  31
0
  0
LINE
  5
247
  100
AcDbEntity
  8
SK1
  100
AcDbLine
  10
-31.283
  20
4
  30
0
  11
-31.783
  21
3.5
  31
0
  0
LINE
  5
248
  100
AcDbEntity
  8
SK1
  100
AcDbLine
  10
-31.783
  20
3.5
  30
0
  11
-31.783
  21
-3.5
  31
0
  0
LINE
  5
249
  100
AcDbEntity
  8
SK1
  100
AcDbLine
  10
-31.783
  20
-3.5
  30
0
  11
-31.283
  21
-4
  31
0
  0
LINE
  5
24a
  100
AcDbEntity
  8
SK1
  100
AcDbLine
  10
-31.283
  20
-4
  30
0
  11
0
  21
-4
  31
0
  0
LINE
  5
24b
  100
AcDbEntity
  8
SK1
  100
AcDbLine
  10
0
  20
-4
  30
0
  11
0
  21
4
  31
0
  0
LINE
  5
24c
  100
AcDbEntity
  8
SK1
  100
AcDbLine
  10
-31.283
  20
-4
  30
0
  11
-31.283
  21
4
  31
0
  0
LINE
  5
24d
  100
AcDbEntity
  8
SK1
  100
AcDbLine
  10
-2.581773
  20
4
  30
0
  11
-2.483494
  21
3.967004
  31
0
  0
LINE
  5
24e
  100
AcDbEntity
  8
SK1
  100
AcDbLine
  10
-2.483494
  20
3.967004
  30
0
  11
-2.383494
  21
3.885684
  31
0
  0
LINE
  5
24f
  100
AcDbEntity
  8
SK1
  100
AcDbLine
  10
-2.383494
  20
3.885684
  30
0
  11
-2.283494
  21
3.77914
  31
0
  0
LINE
  5
250
  100
AcDbEntity
  8
SK1
  100
AcDbLine
  10
-2.283494
  20
3.77914
  30
0
  11
-2.183494
  21
3.662703
  31
0
  0
LINE
  5
251
  100
AcDbEntity
  8
SK1
  100
AcDbLine
  10
-2.183494
  20
3.662703
  30
0
  11
-2.083494
  21
3.545976
  31
0
  0
LINE
  5
252
  100
AcDbEntity
  8
SK1
  100
AcDbLine
  10
-2.083494
  20
3.545976
  30
0
  11
-1.983494
  21
3.434535
  31
0
  0
LINE
  5
253
  100
AcDbEntity
  8
SK1
  100
AcDbLine
  10
-1.983494
  20
3.434535
  30
0
  11
-1.883494
  21
3.331222
  31
0
  0
LINE
  5
254
  100
AcDbEntity
  8
SK1
  100
AcDbLine
  10
-1.883494
  20
3.331222
  30
0
  11
-1.783494
  21
3.2371
  31
0
  0
LINE
  5
255
  100
AcDbEntity
  8
SK1
  100
AcDbLine
  10
-1.783494
  20
3.2371
  30
0
  11
-1.683494
  21
3.152122
  31
0
  0
LINE
  5
256
  100
AcDbEntity
  8
SK1
  100
AcDbLine
  10
-1.683494
  20
3.152122
  30
0
  11
-1.583494
  21
3.075597
  31
0
  0
LINE
  5
257
  100
AcDbEntity
  8
SK1
  100
AcDbLine
  10
-1.583494
  20
3.075597
  30
0
  11
-1.483494
  21
3.006501
  31
0
  0
LINE
  5
258
  100
AcDbEntity
  8
SK1
  100
AcDbLine
  10
-1.483494
  20
3.006501
  30
0
  11
-1.383494
  21
2.94368
  31
0
  0
LINE
  5
259
  100
AcDbEntity
  8
SK1
  100
AcDbLine
  10
-1.383494
  20
2.94368
  30
0
  11
-1.283494
  21
2.885974
  31
0
  0
LINE
  5
25a
  100
AcDbEntity
  8
SK1
  100
AcDbLine
  10
-1.283494
  20
2.885974
  30
0
  11
-1.183494
  21
2.832299
  31
0
  0
LINE
  5
25b
  100
AcDbEntity
  8
SK1
  100
AcDbLine
  10
-1.183494
  20
2.832299
  30
0
  11
-1.083494
  21
2.781684
  31
0
  0
LINE
  5
25c
  100
AcDbEntity
  8
SK1
  100
AcDbLine
  10
-1.083494
  20
2.781684
  30
0
  11
-0.983494
  21
2.733293
  31
0
  0
LINE
  5
25d
  100
AcDbEntity
  8
SK1
  100
AcDbLine
  10
-0.983494
  20
2.733293
  30
0
  11
-0.883494
  21
2.686427
  31
0
  0
LINE
  5
25e
  100
AcDbEntity
  8
SK1
  100
AcDbLine
  10
-0.883494
  20
2.686427
  30
0
  11
-0.783494
  21
2.640519
  31
0
  0
LINE
  5
25f
  100
AcDbEntity
  8
SK1
  100
AcDbLine
  10
-0.783494
  20
2.640519
  30
0
  11
-0.683494
  21
2.595121
  31
0
  0
LINE
  5
260
  100
AcDbEntity
  8
SK1
  100
AcDbLine
  10
-0.683494
  20
2.595121
  30
0
  11
-0.583494
  21
2.549896
  31
0
  0
LINE
  5
261
  100
AcDbEntity
  8
SK1
  100
AcDbLine
  10
-0.583494
  20
2.549896
  30
0
  11
-0.483494
  21
2.504593
  31
0
  0
LINE
  5
262
  100
AcDbEntity
  8
SK1
  100
AcDbLine
  10
-0.483494
  20
2.504593
  30
0
  11
-0.383494
  21
2.459042
  31
0
  0
LINE
  5
263
  100
AcDbEntity
  8
SK1
  100
AcDbLine
  10
-0.383494
  20
2.459042
  30
0
  11
-0.283494
  21
2.413129
  31
0
  0
LINE
  5
264
  100
AcDbEntity
  8
SK1
  100
AcDbLine
  10
-0.283494
  20
2.413129
  30
0
  11
-0.183494
  21
2.366788
  31
0
  0
LINE
  5
265
  100
AcDbEntity
  8
SK1
  100
AcDbLine
  10
-0.183494
  20
2.366788
  30
0
  11
-0.083494
  21
2.319986
  31
0
  0
LINE
  5
266
  100
AcDbEntity
  8
SK1
  100
AcDbLine
  10
-0.083494
  20
2.319986
  30
0
  11
0
  21
2.279774
  31
0
  0
LINE
  5
267
  100
AcDbEntity
  8
SK1
  100
AcDbLine
  10
0
  20
0.193343
  30
0
  11
-0.083494
  21
0.240727
  31
0
  0
LINE
  5
268
  100
AcDbEntity
  8
SK1
  100
AcDbLine
  10
-0.083494
  20
0.240727
  30
0
  11
-0.183494
  21
0.29833
  31
0
  0
LINE
  5
269
  100
AcDbEntity
  8
SK1
  100
AcDbLine
  10
-0.183494
  20
0.29833
  30
0
  11
-0.283494
  21
0.355872
  31
0
  0
LINE
  5
26a
  100
AcDbEntity
  8
SK1
  100
AcDbLine
  10
-0.283494
  20
0.355872
  30
0
  11
-0.383494
  21
0.413339
  31
0
  0
LINE
  5
26b
  100
AcDbEntity
  8
SK1
  100
AcDbLine
  10
-0.383494
  20
0.413339
  30
0
  11
-0.483494
  21
0.470719
  31
0
  0
LINE
  5
26c
  100
AcDbEntity
  8
SK1
  100
AcDbLine
  10
-0.483494
  20
0.470719
  30
0
  11
-0.583494
  21
0.528002
  31
0
  0
LINE
  5
26d
  100
AcDbEntity
  8
SK1
  100
AcDbLine
  10
-0.583494
  20
0.528002
  30
0
  11
-0.683494
  21
0.585174
  31
0
  0
LINE
  5
26e
  100
AcDbEntity
  8
SK1
  100
AcDbLine
  10
-0.683494
  20
0.585174
  30
0
  11
-0.783494
  21
0.642222
  31
0
  0
LINE
  5
26f
  100
AcDbEntity
  8
SK1
  100
AcDbLine
  10
-0.783494
  20
0.642222
  30
0
  11
-0.883494
  21
0.699129
  31
0
  0
LINE
  5
270
  100
AcDbEntity
  8
SK1
  100
AcDbLine
  10
-0.883494
  20
0.699129
  30
0
  11
-0.983494
  21
0.755876
  31
0
  0
LINE
  5
271
  100
AcDbEntity
  8
SK1
  100
AcDbLine
  10
-0.983494
  20
0.755876
  30
0
  11
-1.083494
  21
0.812427
  31
0
  0
LINE
  5
272
  100
AcDbEntity
  8
SK1
  100
AcDbLine
  10
-1.083494
  20
0.812427
  30
0
  11
-1.183494
  21
0.868726
  31
0
  0
LINE
  5
273
  100
AcDbEntity
  8
SK1
  100
AcDbLine
  10
-1.183494
  20
0.868726
  30
0
  11
-1.283494
  21
0.924673
  31
0
  0
LINE
  5
274
  100
AcDbEntity
  8
SK1
  100
AcDbLine
  10
-1.283494
  20
0.924673
  30
0
  11
-1.383494
  21
0.980089
  31
0
  0
LINE
  5
275
  100
AcDbEntity
  8
SK1
  100
AcDbLine
  10
-1.383494
  20
0.980089
  30
0
  11
-1.483494
  21
1.034661
  31
0
  0
LINE
  5
276
  100
AcDbEntity
  8
SK1
  100
AcDbLine
  10
-1.483494
  20
1.034661
  30
0
  11
-1.583494
  21
1.087853
  31
0
  0
LINE
  5
277
  100
AcDbEntity
  8
SK1
  100
AcDbLine
  10
-1.583494
  20
1.087853
  30
0
  11
-1.683494
  21
1.138774
  31
0
  0
LINE
  5
278
  100
AcDbEntity
  8
SK1
  100
AcDbLine
  10
-1.683494
  20
1.138774
  30
0
  11
-1.783494
  21
1.18597
  31
0
  0
LINE
  5
279
  100
AcDbEntity
  8
SK1
  100
AcDbLine
  10
-1.783494
  20
1.18597
  30
0
  11
-1.883494
  21
1.227133
  31
0
  0
LINE
  5
27a
  100
AcDbEntity
  8
SK1
  100
AcDbLine
  10
-1.883494
  20
1.227133
  30
0
  11
-1.983494
  21
1.258662
  31
0
  0
LINE
  5
27b
  100
AcDbEntity
  8
SK1
  100
AcDbLine
  10
-1.983494
  20
1.258662
  30
0
  11
-2.083494
  21
1.275041
  31
0
  0
LINE
  5
27c
  100
AcDbEntity
  8
SK1
  100
AcDbLine
  10
-2.083494
  20
1.275041
  30
0
  11
-2.183494
  21
1.267924
  31
0
  0
LINE
  5
27d
  100
AcDbEntity
  8
SK1
  100
AcDbLine
  10
-2.183494
  20
1.267924
  30
0
  11
-2.283494
  21
1.224805
  31
0
  0
LINE
  5
27e
  100
AcDbEntity
  8
SK1
  100
AcDbLine
  10
-2.283494
  20
1.224805
  30
0
  11
-2.383494
  21
1.127043
  31
0
  0
LINE
  5
27f
  100
AcDbEntity
  8
SK1
  100
AcDbLine
  10
-2.383494
  20
1.127043
  30
0
  11
-2.483494
  21
0.946991
  31
0
  0
LINE
  5
280
  100
AcDbEntity
  8
SK1
  100
AcDbLine
  10
-2.483494
  20
0.946991
  30
0
  11
-2.583494
  21
0.644155
  31
0
  0
LINE
  5
281
  100
AcDbEntity
  8
SK1
  100
AcDbLine
  10
-2.583494
  20
0.644155
  30
0
  11
-2.683494
  21
0.161514
  31
0
  0
LINE
  5
282
  100
AcDbEntity
  8
SK1
  100
AcDbLine
  10
-2.683494
  20
0.161514
  30
0
  11
-2.783494
  21
-0.572162
  31
0
  0
LINE
  5
283
  100
AcDbEntity
  8
SK1
  100
AcDbLine
  10
-2.783494
  20
-0.572162
  30
0
  11
-2.783494
  21
-0.7482
  31
0
  0
LINE
  5
284
  100
AcDbEntity
  8
SK1
  100
AcDbLine
  10
-2.783494
  20
-0.7482
  30
0
  11
-2.683494
  21
-1.438394
  31
0
  0
LINE
  5
285
  100
AcDbEntity
  8
SK1
  100
AcDbLine
  10
-2.683494
  20
-1.438394
  30
0
  11
-2.583494
  21
-1.99222
  31
0
  0
LINE
  5
286
  100
AcDbEntity
  8
SK1
  100
AcDbLine
  10
-2.583494
  20
-1.99222
  30
0
  11
-2.483494
  21
-2.427531
  31
0
  0
LINE
  5
287
  100
AcDbEntity
  8
SK1
  100
AcDbLine
  10
-2.483494
  20
-2.427531
  30
0
  11
-2.383494
  21
-2.765091
  31
0
  0
LINE
  5
288
  100
AcDbEntity
  8
SK1
  100
AcDbLine
  10
-2.383494
  20
-2.765091
  30
0
  11
-2.283494
  21
-3.024723
  31
0
  0
LINE
  5
289
  100
AcDbEntity
  8
SK1
  100
AcDbLine
  10
-2.283494
  20
-3.024723
  30
0
  11
-2.183494
  21
-3.223636
  31
0
  0
LINE
  5
28a
  100
AcDbEntity
  8
SK1
  100
AcDbLine
  10
-2.183494
  20
-3.223636
  30
0
  11
-2.083494
  21
-3.375967
  31
0
  0
LINE
  5
28b
  100
AcDbEntity
  8
SK1
  100
AcDbLine
  10
-2.083494
  20
-3.375967
  30
0
  11
-1.983494
  21
-3.49293
  31
0
  0
LINE
  5
28c
  100
AcDbEntity
  8
SK1
  100
AcDbLine
  10
-1.983494
  20
-3.49293
  30
0
  11
-1.883494
  21
-3.583219
  31
0
  0
LINE
  5
28d
  100
AcDbEntity
  8
SK1
  100
AcDbLine
  10
-1.883494
  20
-3.583219
  30
0
  11
-1.783494
  21
-3.653467
  31
0
  0
LINE
  5
28e
  100
AcDbEntity
  8
SK1
  100
AcDbLine
  10
-1.783494
  20
-3.653467
  30
0
  11
-1.683494
  21
-3.708688
  31
0
  0
LINE
  5
28f
  100
AcDbEntity
  8
SK1
  100
AcDbLine
  10
-1.683494
  20
-3.708688
  30
0
  11
-1.583494
  21
-3.752641
  31
0
  0
LINE
  5
290
  100
AcDbEntity
  8
SK1
  100
AcDbLine
  10
-1.583494
  20
-3.752641
  30
0
  11
-1.483494
  21
-3.788138
  31
0
  0
LINE
  5
291
  100
AcDbEntity
  8
SK1
  100
AcDbLine
  10
-1.483494
  20
-3.788138
  30
0
  11
-1.383494
  21
-3.817274
  31
0
  0
LINE
  5
292
  100
AcDbEntity
  8
SK1
  100
AcDbLine
  10
-1.383494
  20
-3.817274
  30
0
  11
-1.283494
  21
-3.841604
  31
0
  0
LINE
  5
293
  100
AcDbEntity
  8
SK1
  100
AcDbLine
  10
-1.283494
  20
-3.841604
  30
0
  11
-1.183494
  21
-3.862282
  31
0
  0
LINE
  5
294
  100
AcDbEntity
  8
SK1
  100
AcDbLine
  10
-1.183494
  20
-3.862282
  30
0
  11
-1.083494
  21
-3.880154
  31
0
  0
LINE
  5
295
  100
AcDbEntity
  8
SK1
  100
AcDbLine
  10
-1.083494
  20
-3.880154
  30
0
  11
-0.983494
  21
-3.895842
  31
0
  0
LINE
  5
296
  100
AcDbEntity
  8
SK1
  100
AcDbLine
  10
-0.983494
  20
-3.895842
  30
0
  11
-0.883494
  21
-3.909793
  31
0
  0
LINE
  5
297
  100
AcDbEntity
  8
SK1
  100
AcDbLine
  10
-0.883494
  20
-3.909793
  30
0
  11
-0.783494
  21
-3.922325
  31
0
  0
LINE
  5
298
  100
AcDbEntity
  8
SK1
  100
AcDbLine
  10
-0.783494
  20
-3.922325
  30
0
  11
-0.683494
  21
-3.933658
  31
0
  0
LINE
  5
299
  100
AcDbEntity
  8
SK1
  100
AcDbLine
  10
-0.683494
  20
-3.933658
  30
0
  11
-0.583494
  21
-3.943941
  31
0
  0
LINE
  5
29a
  100
AcDbEntity
  8
SK1
  100
AcDbLine
  10
-0.583494
  20
-3.943941
  30
0
  11
-0.483494
  21
-3.95327
  31
0
  0
LINE
  5
29b
  100
AcDbEntity
  8
SK1
  100
AcDbLine
  10
-0.483494
  20
-3.95327
  30
0
  11
-0.383494
  21
-3.961706
  31
0
  0
LINE
  5
29c
  100
AcDbEntity
  8
SK1
  100
AcDbLine
  10
-0.383494
  20
-3.961706
  30
0
  11
-0.283494
  21
-3.969282
  31
0
  0
LINE
  5
29d
  100
AcDbEntity
  8
SK1
  100
AcDbLine
  10
-0.283494
  20
-3.969282
  30
0
  11
-0.183494
  21
-3.976016
  31
0
  0
LINE
  5
29e
  100
AcDbEntity
  8
SK1
  100
AcDbLine
  10
-0.183494
  20
-3.976016
  30
0
  11
-0.083494
  21
-3.981916
  31
0
  0
LINE
  5
29f
  100
AcDbEntity
  8
SK1
  100
AcDbLine
  10
-0.083494
  20
-3.981916
  30
0
  11
0
  21
-3.977844
  31
0
  0
LINE
  5
2a0
  100
AcDbEntity
  8
SK1
  100
AcDbLine
  10
0
  20
-4
  30
0
  11
0
  21
4
  31
0
  0
LINE
  5
2a1
  100
AcDbEntity
  8
SK1
  100
AcDbLine
  10
0
  20
4
  30
0
  11
0
  21
-4
  31
0
  0
LINE
  5
2ea
  100
AcDbEntity
  8
NOCUT
  100
AcDbLine
  10
0.216506
  20
0
  30
0
  11
0.216506
  21
3.875
  31
0
  0
LINE
  5
2eb
  100
AcDbEntity
  8
NOCUT
  100
AcDbLine
  10
0.216506
  20
3.875
  30
0
  11
0
  21
4
  31
0
  0
LINE
  5
2ec
  100
AcDbEntity
  8
NOCUT
  100
AcDbLine
  10
0
  20
4
  30
0
  11
0
  21
0
  31
0
  0
LINE
  5
2ed
  100
AcDbEntity
  8
NOCUT
  100
AcDbLine
  10
0
  20
0
  30
0
  11
0.216506
  21
0
  31
0
  0
LINE
  5
2ee
  100
AcDbEntity
  8
CUT
  100
AcDbLine
  10
11.216506
  20
0
  30
0
  11
11.216506
  21
3.875
  31
0
  0
LINE
  5
2ef
  100
AcDbEntity
  8
CUT
  100
AcDbLine
  10
11.216506
  20
3.875
  30
0
  11
0.216506
  21
3.875
  31
0
  0
LINE
  5
2f0
  100
AcDbEntity
  8
CUT
  100
AcDbLine
  10
0.216506
  20
3.875
  30
0
  11
0.216506
  21
0
  31
0
  0
LINE
  5
2f1
  100
AcDbEntity
  8
CUT
  100
AcDbLine
  10
0.216506
  20
0
  30
0
  11
11.216506
  21
0
  31
0
  0
LINE
  5
2f2
  100
AcDbEntity
  8
4
  100
AcDbLine
  10
0
  20
0
  30
0
  11
11.216506
  21
0
  31
0
  0
LINE
  5
2f3
  100
AcDbEntity
  8
INFTEXT
  100
AcDbLine
  10
-104.130151
  20
-43.291689
  30
0
  11
-104.130151
  21
-39.291689
  31
0
  0
LINE
  5
2f4
  100
AcDbEntity
  8
INFTEXT
  100
AcDbLine
  10
-104.130151
  20
-39.291689
  30
0
  11
-69.130151
  21
-39.291689
  31
0
  0
LINE
  5
2f5
  100
AcDbEntity
  8
INFTEXT
  100
AcDbLine
  10
-69.130151
  20
-39.291689
  30
0
  11
-69.130151
  21
-43.291689
  31
0
  0
LINE
  5
2f6
  100
AcDbEntity
  8
INFTEXT
  100
AcDbLine
  10
-69.130151
  20
-43.291689
  30
0
  11
-104.130151
  21
-43.291689
  31
0
  0
MTEXT
  5
2f7
  100
AcDbEntity
  8
INFTEXT
  100
AcDbMText
  10
-103.130151
  20
-43.308496
  30
0
  11
1
  21
0
  31
0
  40
2
  41
0
  71
7
  72
1
  1
Nut:
  0
LINE
  5
2f8
  100
AcDbEntity
  8
INFTEXT
  100
AcDbLine
  10
-69.130151
  20
-43.291689
  30
0
  11
-69.130151
  21
-39.291689
  31
0
  0
LINE
  5
2f9
  100
AcDbEntity
  8
INFTEXT
  100
AcDbLine
  10
-69.130151
  20
-39.291689
  30
0
  11
-14.130151
  21
-39.291689
  31
0
  0
LINE
  5
2fa
  100
AcDbEntity
  8
INFTEXT
  100
AcDbLine
  10
-14.130151
  20
-39.291689
  30
0
  11
-14.130151
  21
-43.291689
  31
0
  0
LINE
  5
2fb
  100
AcDbEntity
  8
INFTEXT
  100
AcDbLine
  10
-14.130151
  20
-43.291689
  30
0
  11
-69.130151
  21
-43.291689
  31
0
  0
MTEXT
  5
2fc
  100
AcDbEntity
  8
INFTEXT
  100
AcDbMText
  10
-68.130151
  20
-43.308496
  30
0
  11
1
  21
0
  31
0
  40
2
  41
0
  71
7
  72
1
  1
1A1 Ø125 Br10 x 0°
  0
LINE
  5
2fd
  100
AcDbEntity
  8
INFTEXT
  100
AcDbLine
  10
-104.130151
  20
-47.291689
  30
0
  11
-104.130151
  21
-43.291689
  31
0
  0
LINE
  5
2fe
  100
AcDbEntity
  8
INFTEXT
  100
AcDbLine
  10
-104.130151
  20
-43.291689
  30
0
  11
-69.130151
  21
-43.291689
  31
0
  0
LINE
  5
2ff
  100
AcDbEntity
  8
INFTEXT
  100
AcDbLine
  10
-69.130151
  20
-43.291689
  30
0
  11
-69.130151
  21
-47.291689
  31
0
  0
LINE
  5
300
  100
AcDbEntity
  8
INFTEXT
  100
AcDbLine
  10
-69.130151
  20
-47.291689
  30
0
  11
-104.130151
  21
-47.291689
  31
0
  0
MTEXT
  5
301
  100
AcDbEntity
  8
INFTEXT
  100
AcDbMText
  10
-103.130151
  20
-47.308496
  30
0
  11
1
  21
0
  31
0
  40
2
  41
0
  71
7
  72
1
  1
Rücken:
  0
LINE
  5
302
  100
AcDbEntity
  8
INFTEXT
  100
AcDbLine
  10
-69.130151
  20
-47.291689
  30
0
  11
-69.130151
  21
-43.291689
  31
0
  0
LINE
  5
303
  100
AcDbEntity
  8
INFTEXT
  100
AcDbLine
  10
-69.130151
  20
-43.291689
  30
0
  11
-14.130151
  21
-43.291689
  31
0
  0
LINE
  5
304
  100
AcDbEntity
  8
INFTEXT
  100
AcDbLine
  10
-14.130151
  20
-43.291689
  30
0
  11
-14.130151
  21
-47.291689
  31
0
  0
LINE
  5
305
  100
AcDbEntity
  8
INFTEXT
  100
AcDbLine
  10
-14.130151
  20
-47.291689
  30
0
  11
-69.130151
  21
-47.291689
  31
0
  0
MTEXT
  5
306
  100
AcDbEntity
  8
INFTEXT
  100
AcDbMText
  10
-68.130151
  20
-47.308496
  30
0
  11
1
  21
0
  31
0
  40
2
  41
0
  71
7
  72
1
  1
1A1 Ø125 Br4 x 0°
  0
LINE
  5
307
  100
AcDbEntity
  8
INFTEXT
  100
AcDbLine
  10
-104.130151
  20
-51.291689
  30
0
  11
-104.130151
  21
-47.291689
  31
0
  0
LINE
  5
308
  100
AcDbEntity
  8
INFTEXT
  100
AcDbLine
  10
-104.130151
  20
-47.291689
  30
0
  11
-69.130151
  21
-47.291689
  31
0
  0
LINE
  5
309
  100
AcDbEntity
  8
INFTEXT
  100
AcDbLine
  10
-69.130151
  20
-47.291689
  30
0
  11
-69.130151
  21
-51.291689
  31
0
  0
LINE
  5
30a
  100
AcDbEntity
  8
INFTEXT
  100
AcDbLine
  10
-69.130151
  20
-51.291689
  30
0
  11
-104.130151
  21
-51.291689
  31
0
  0
MTEXT
  5
30b
  100
AcDbEntity
  8
INFTEXT
  100
AcDbMText
  10
-103.130151
  20
-51.308496
  30
0
  11
1
  21
0
  31
0
  40
2
  41
0
  71
7
  72
1
  1
Radial:
  0
LINE
  5
30c
  100
AcDbEntity
  8
INFTEXT
  100
AcDbLine
  10
-69.130151
  20
-51.291689
  30
0
  11
-69.130151
  21
-47.291689
  31
0
  0
LINE
  5
30d
  100
AcDbEntity
  8
INFTEXT
  100
AcDbLine
  10
-69.130151
  20
-47.291689
  30
0
  11
-14.130151
  21
-47.291689
  31
0
  0
LINE
  5
30e
  100
AcDbEntity
  8
INFTEXT
  100
AcDbLine
  10
-14.130151
  20
-47.291689
  30
0
  11
-14.130151
  21
-51.291689
  31
0
  0
LINE
  5
30f
  100
AcDbEntity
  8
INFTEXT
  100
AcDbLine
  10
-14.130151
  20
-51.291689
  30
0
  11
-69.130151
  21
-51.291689
  31
0
  0
MTEXT
  5
310
  100
AcDbEntity
  8
INFTEXT
  100
AcDbMText
  10
-68.130151
  20
-51.308496
  30
0
  11
1
  21
0
  31
0
  40
2
  41
0
  71
7
  72
1
  1
1A1 Ø 75 Br4 x 0°
  0
LINE
  5
311
  100
AcDbEntity
  8
INFTEXT
  100
AcDbLine
  10
-104.130151
  20
-55.291689
  30
0
  11
-104.130151
  21
-51.291689
  31
0
  0
LINE
  5
312
  100
AcDbEntity
  8
INFTEXT
  100
AcDbLine
  10
-104.130151
  20
-51.291689
  30
0
  11
-69.130151
  21
-51.291689
  31
0
  0
LINE
  5
313
  100
AcDbEntity
  8
INFTEXT
  100
AcDbLine
  10
-69.130151
  20
-51.291689
  30
0
  11
-69.130151
  21
-55.291689
  31
0
  0
LINE
  5
314
  100
AcDbEntity
  8
INFTEXT
  100
AcDbLine
  10
-69.130151
  20
-55.291689
  30
0
  11
-104.130151
  21
-55.291689
  31
0
  0
MTEXT
  5
315
  100
AcDbEntity
  8
INFTEXT
  100
AcDbMText
  10
-103.130151
  20
-55.308496
  30
0
  11
1
  21
0
  31
0
  40
2
  41
0
  71
7
  72
1
  1
Ausspitzung:
  0
LINE
  5
316
  100
AcDbEntity
  8
INFTEXT
  100
AcDbLine
  10
-69.130151
  20
-55.291689
  30
0
  11
-69.130151
  21
-51.291689
  31
0
  0
LINE
  5
317
  100
AcDbEntity
  8
INFTEXT
  100
AcDbLine
  10
-69.130151
  20
-51.291689
  30
0
  11
-14.130151
  21
-51.291689
  31
0
  0
LINE
  5
318
  100
AcDbEntity
  8
INFTEXT
  100
AcDbLine
  10
-14.130151
  20
-51.291689
  30
0
  11
-14.130151
  21
-55.291689
  31
0
  0
LINE
  5
319
  100
AcDbEntity
  8
INFTEXT
  100
AcDbLine
  10
-14.130151
  20
-55.291689
  30
0
  11
-69.130151
  21
-55.291689
  31
0
  0
MTEXT
  5
31a
  100
AcDbEntity
  8
INFTEXT
  100
AcDbMText
  10
-68.130151
  20
-55.308496
  30
0
  11
1
  21
0
  31
0
  40
2
  41
0
  71
7
  72
1
  1
12V9 Ø100 45°
  0
LINE
  5
31b
  100
AcDbEntity
  8
INFTEXT
  100
AcDbLine
  10
-104.130151
  20
-59.291689
  30
0
  11
-104.130151
  21
-55.291689
  31
0
  0
LINE
  5
31c
  100
AcDbEntity
  8
INFTEXT
  100
AcDbLine
  10
-104.130151
  20
-55.291689
  30
0
  11
-69.130151
  21
-55.291689
  31
0
  0
LINE
  5
31d
  100
AcDbEntity
  8
INFTEXT
  100
AcDbLine
  10
-69.130151
  20
-55.291689
  30
0
  11
-69.130151
  21
-59.291689
  31
0
  0
LINE
  5
31e
  100
AcDbEntity
  8
INFTEXT
  100
AcDbLine
  10
-69.130151
  20
-59.291689
  30
0
  11
-104.130151
  21
-59.291689
  31
0
  0
MTEXT
  5
31f
  100
AcDbEntity
  8
INFTEXT
  100
AcDbMText
  10
-103.130151
  20
-59.308496
  30
0
  11
1
  21
0
  31
0
  40
2
  41
0
  71
7
  72
1
  1
Stirn Freifläche 1/2: 
  0
LINE
  5
320
  100
AcDbEntity
  8
INFTEXT
  100
AcDbLine
  10
-69.130151
  20
-59.291689
  30
0
  11
-69.130151
  21
-55.291689
  31
0
  0
LINE
  5
321
  100
AcDbEntity
  8
INFTEXT
  100
AcDbLine
  10
-69.130151
  20
-55.291689
  30
0
  11
-14.130151
  21
-55.291689
  31
0
  0
LINE
  5
322
  100
AcDbEntity
  8
INFTEXT
  100
AcDbLine
  10
-14.130151
  20
-55.291689
  30
0
  11
-14.130151
  21
-59.291689
  31
0
  0
LINE
  5
323
  100
AcDbEntity
  8
INFTEXT
  100
AcDbLine
  10
-14.130151
  20
-59.291689
  30
0
  11
-69.130151
  21
-59.291689
  31
0
  0
MTEXT
  5
324
  100
AcDbEntity
  8
INFTEXT
  100
AcDbMText
  10
-68.130151
  20
-59.308496
  30
0
  11
1
  21
0
  31
0
  40
2
  41
0
  71
7
  72
1
  1
11V9  Ø100
  0
LINE
  5
325
  100
AcDbEntity
  8
INFTOTAL
  100
AcDbLine
  10
-110.497484
  20
27.931937
  30
0
  11
29.583839
  21
27.931937
  31
0
  0
LINE
  5
326
  100
AcDbEntity
  8
INFTOTAL
  100
AcDbLine
  10
29.583839
  20
27.931937
  30
0
  11
29.583839
  21
-65.659022
  31
0
  0
LINE
  5
327
  100
AcDbEntity
  8
INFTOTAL
  100
AcDbLine
  10
29.583839
  20
-65.659022
  30
0
  11
-110.497484
  21
-65.659022
  31
0
  0
LINE
  5
328
  100
AcDbEntity
  8
INFTOTAL
  100
AcDbLine
  10
-110.497484
  20
-65.659022
  30
0
  11
-110.497484
  21
27.931937
  31
0
  0
ENDSEC
  0
SECTION
  2
OBJECTS
  0
DICTIONARY
  5
329
  330
0
100
AcDbDictionary
281
    1
  3
ACAD_GROUP
  350
32a
  0
DICTIONARY
  5
32a
102
{ACAD_REACTORS
  330
329
102
}
  330
329
100
AcDbDictionary
281
    1
  0
ENDSEC
  0
EOF
