  0
SECTION
  2
HEADER
  9
$ACADVER
  1
AC1015
  9
$DWGCODEPAGE
  3
ansi_1252
  9
$HANDSEED
  5
106AB90
  0
ENDSEC
  0
SECTION
  2
TABLES
  0
TABLE
  2
VPORT
  5
2
  330
0
  100
AcDbSymbolTable
  70
    0
  0
ENDTAB
  0
TABLE
  2
LTYPE
  5
3
  330
0
  100
AcDbSymbolTable
  70
    4
  0
LTYPE
  5
4
  330
3
  100
AcDbSymbolTableRecord
  100
AcDbLinetypeTableRecord
  2
ByBlock
  70
    0
  3

  72
65
  73
    0
  40
0
  0
LTYPE
  5
5
  330
3
  100
AcDbSymbolTableRecord
  100
AcDbLinetypeTableRecord
  2
ByLayer
  70
    0
  3

  72
65
  73
    0
  40
0
  0
LTYPE
  5
6
  330
3
  100
AcDbSymbolTableRecord
  100
AcDbLinetypeTableRecord
  2
CONTINUOUS
  70
    0
  3
Solid Line
  72
65
  73
    0
  40
0
  0
LTYPE
  5
7
  330
3
  100
AcDbSymbolTableRecord
  100
AcDbLinetypeTableRecord
  2
DASH
  70
    0
  3
Hidden
  72
65
  73
2
  40
2.5
  49
1.5
  74
0
  49
-1
  74
0
  0
LTYPE
  5
8
  330
3
  100
AcDbSymbolTableRecord
  100
AcDbLinetypeTableRecord
  2
LONGDASHDASH
  70
    0
  3
__ . __
  72
65
  73
    4
  40
7
  49
4
  74
    0
  49
-1
  74
    0
  49
1
  74
    0
  49
-1
  74
    0
  0
ENDTAB
  0
TABLE
  2
LAYER
  5
9
  330
0
  100
AcDbSymbolTable
  70
    40
  0
LAYER
  5
a
  330
9
  100
AcDbSymbolTableRecord
  100
AcDbLayerTableRecord
  2
0
  70
    0
  62
    0
  6
CONTINUOUS
  390
0
  0
LAYER
  5
c
  330
9
  100
AcDbSymbolTableRecord
  100
AcDbLayerTableRecord
  2
1
  70
    0
  62
    4
  6
CONTINUOUS
  370
50
  390
0
  0
LAYER
  5
d
  330
9
  100
AcDbSymbolTableRecord
  100
AcDbLayerTableRecord
  2
2
  70
    0
  62
    7
  6
CONTINUOUS
  370
25
  390
0
  0
LAYER
  5
f
  330
9
  100
AcDbSymbolTableRecord
  100
AcDbLayerTableRecord
  2
4
  70
    0
  62
    2
  6
LONGDASHDASH
  370
25
  390
0
  0
LAYER
  5
13
  330
9
  100
AcDbSymbolTableRecord
  100
AcDbLayerTableRecord
  2
SK1
  70
    0
  62
    4
  6
CONTINUOUS
  370
50
  390
0
  0
LAYER
  5
14
  330
9
  100
AcDbSymbolTableRecord
  100
AcDbLayerTableRecord
  2
SK2
  70
    0
  62
    7
  6
CONTINUOUS
  370
25
  390
0
  0
LAYER
  5
21
  330
9
  100
AcDbSymbolTableRecord
  100
AcDbLayerTableRecord
  2
NOCUT
  70
    0
  62
    7
  6
CONTINUOUS
  370
25
  390
0
  0
LAYER
  5
22
  330
9
  100
AcDbSymbolTableRecord
  100
AcDbLayerTableRecord
  2
CUT
  70
    0
  62
    1
  6
CONTINUOUS
  370
25
  390
0
  0
LAYER
  5
26
  330
9
  100
AcDbSymbolTableRecord
  100
AcDbLayerTableRecord
  2
INFTOTAL
  70
    0
  62
    9
  6
CONTINUOUS
  370
18
  390
0
  0
ENDTAB
  0
TABLE
  2
STYLE
  5
27
  330
0
  100
AcDbSymbolTable
  70
    1
  0
STYLE
  5
28
  330
27
  100
AcDbSymbolTableRecord
  100
AcDbTextStyleTableRecord
  2
Monospac821 BT
  70
    0
  40
    3.5
  41
1
  50
0
  71
0
  42
3
  3

  4

  1001
ACAD
  1000
Monospac821 BT
  1071
256
  0
ENDTAB
  0
TABLE
  2
VIEW
  5
29
  330
0
  100
AcDbSymbolTable
  70
    0
  0
ENDTAB
  0
TABLE
  2
UCS
  5
2a
  330
0
  100
AcDbSymbolTable
  70
    0
  0
ENDTAB
  0
TABLE
  2
APPID
  5
2b
  330
0
  100
AcDbSymbolTable
  70
    1
  0
APPID
  5
2c
  330
2b
  100
AcDbSymbolTableRecord
  100
AcDbRegAppTableRecord
  2
ACAD
  70
    0
  0
ENDTAB
  0
TABLE
  2
DIMSTYLE
  5
2d
  330
0
  100
AcDbSymbolTable
  70
    1
  100
AcDbDimStyleTable
  0
DIMSTYLE
  105
2e
  330
2d
  100
AcDbSymbolTableRecord
  100
AcDbDimStyleTableRecord
  2
ISBEtdSketcher
  70
    0
  41
    3
  42
0.5
  44
1
  73
0
  77
1
  78
1
  140
3.5
  141
2.5
  143
0.03937
  147
0.8
  172
1
  174
1
  178
0
  179
1
  271
2
  279
1
  284
1
  340
28
  0
ENDTAB
  0
TABLE
  2
BLOCK_RECORD
  5
2f
  330
0
  100
AcDbSymbolTable
  70
    2
  0
BLOCK_RECORD
  5
30
  330
2f
  100
AcDbSymbolTableRecord
  100
AcDbBlockTableRecord
  2
*Model_Space
  0
BLOCK_RECORD
  5
31
  330
2f
  100
AcDbSymbolTableRecord
  100
AcDbBlockTableRecord
  2
*Paper_Space
  0
BLOCK_RECORD
  5
ab
  330
2f
  100
AcDbSymbolTableRecord
  100
AcDbBlockTableRecord
  2
*Daa
  340
0
  0
BLOCK_RECORD
  5
b9
  330
2f
  100
AcDbSymbolTableRecord
  100
AcDbBlockTableRecord
  2
*Db8
  340
0
  0
BLOCK_RECORD
  5
c7
  330
2f
  100
AcDbSymbolTableRecord
  100
AcDbBlockTableRecord
  2
*Dc6
  340
0
  0
BLOCK_RECORD
  5
d7
  330
2f
  100
AcDbSymbolTableRecord
  100
AcDbBlockTableRecord
  2
*Dd6
  340
0
  0
BLOCK_RECORD
  5
e5
  330
2f
  100
AcDbSymbolTableRecord
  100
AcDbBlockTableRecord
  2
*De4
  340
0
  0
ENDTAB
  0
ENDSEC
  0
SECTION
  2
BLOCKS
  0
BLOCK
  5
32
  330
30
  100
AcDbEntity
  8
0
  100
AcDbBlockBegin
  2
*Model_Space
  70
    0
  10
0
  20
0
  30
0
  3
*Model_Space
  1

  0
ENDBLK
  5
33
  330
30
  100
AcDbEntity
  8
0
  100
AcDbBlockEnd
  0
BLOCK
  5
34
  330
31
  100
AcDbEntity
  8
0
  100
AcDbBlockBegin
  2
*Paper_Space
  70
    0
  10
0
  20
0
  30
0
  3
*Paper_Space
  1

  0
ENDBLK
  5
35
  330
31
  100
AcDbEntity
  8
0
  100
AcDbBlockEnd
  0
BLOCK
  5
a9
  330
ab
  100
AcDbEntity
  8
SK2
  100
AcDbBlockBegin
  2
*Daa
  70
1
  10
0
  20
0
  30
0
  3
*Daa
  1

  0
LINE
  5
ac
  330
ab
  100
AcDbEntity
  8
SK2
  100
AcDbLine
  10
-33.835
  20
-27.5
  30
0
  11
-33.835
  21
1
  31
0
  0
LINE
  5
ad
  330
ab
  100
AcDbEntity
  8
SK2
  100
AcDbLine
  10
4.165064
  20
-27.5
  30
0
  11
4.165064
  21
0.25
  31
0
  0
LINE
  5
ae
  330
ab
  100
AcDbEntity
  8
SK2
  100
AcDbLine
  10
-33.835
  20
-25.5
  30
0
  11
4.165064
  21
-25.5
  31
0
  0
SOLID
  5
af
  330
ab
  100
AcDbEntity
  8
SK2
  100
AcDbTrace
  10
-33.835
  20
-25.5
  30
0
  11
-31.356388
  21
-25.173685
  31
0
  12
-31.356388
  22
-25.826315
  32
0
  13
-31.356388
  23
-25.826315
  33
0
  0
SOLID
  5
b0
  330
ab
  100
AcDbEntity
  8
SK2
  100
AcDbTrace
  10
4.165064
  20
-25.5
  30
0
  11
1.686451
  21
-25.826315
  31
0
  12
1.686451
  22
-25.173685
  32
0
  13
1.686451
  23
-25.173685
  33
0
  0
MTEXT
  5
b1
  330
ab
  100
AcDbEntity
  8
SK2
  100
AcDbMText
  10
-16.003576
  20
-25.5
  30
0
  11
1
  21
0
  31
0
  40
2
  41
0
  71
8
  72
1
  1
38
  0
POINT
  5
b2
  330
ab
  100
AcDbEntity
  8
SK2
  62
0
  100
AcDbPoint
  10
-33.835
  20
1
  30
0
  0
POINT
  5
b3
  330
ab
  100
AcDbEntity
  8
SK2
  62
0
  100
AcDbPoint
  10
4.165064
  20
0.25
  30
0
  0
POINT
  5
b4
  330
ab
  100
AcDbEntity
  8
SK2
  62
0
  100
AcDbPoint
  10
4.165064
  20
-25.5
  30
0
  0
ENDBLK
  5
b5
  330
ab
  100
AcDbEntity
  8
SK2
  100
AcDbBlockEnd
  0
BLOCK
  5
b7
  330
b9
  100
AcDbEntity
  8
SK2
  100
AcDbBlockBegin
  2
*Db8
  70
1
  10
0
  20
0
  30
0
  3
*Db8
  1

  0
LINE
  5
ba
  330
b9
  100
AcDbEntity
  8
SK2
  100
AcDbLine
  10
4.165064
  20
-0.25
  30
0
  11
16.165064
  21
-0.25
  31
0
  0
LINE
  5
bb
  330
b9
  100
AcDbEntity
  8
SK2
  100
AcDbLine
  10
4.165064
  20
0.25
  30
0
  11
16.165064
  21
0.25
  31
0
  0
LINE
  5
bc
  330
b9
  100
AcDbEntity
  8
SK2
  100
AcDbLine
  10
14.165064
  20
-5.92437
  30
0
  11
14.165064
  21
3.907563
  31
0
  0
SOLID
  5
bd
  330
b9
  100
AcDbEntity
  8
SK2
  100
AcDbTrace
  10
14.165064
  20
-0.25
  30
0
  11
13.838748
  21
2.228612
  31
0
  12
14.491379
  22
2.228612
  32
0
  13
14.491379
  23
2.228612
  33
0
  0
SOLID
  5
be
  330
b9
  100
AcDbEntity
  8
SK2
  100
AcDbTrace
  10
14.165064
  20
0.25
  30
0
  11
14.491379
  21
-2.228612
  31
0
  12
13.838748
  22
-2.228612
  32
0
  13
13.838748
  23
-2.228612
  33
0
  0
MTEXT
  5
bf
  330
b9
  100
AcDbEntity
  8
SK2
  100
AcDbMText
  10
14.165064
  20
3.79754
  30
0
  11
0
  21
1
  31
0
  40
2
  41
0
  71
8
  72
1
  1
Ø0.5 e8
  0
POINT
  5
c0
  330
b9
  100
AcDbEntity
  8
SK2
  62
0
  100
AcDbPoint
  10
4.165064
  20
-0.25
  30
0
  0
POINT
  5
c1
  330
b9
  100
AcDbEntity
  8
SK2
  62
0
  100
AcDbPoint
  10
4.165064
  20
0.25
  30
0
  0
POINT
  5
c2
  330
b9
  100
AcDbEntity
  8
SK2
  62
0
  100
AcDbPoint
  10
14.165064
  20
3.907563
  30
0
  0
ENDBLK
  5
c3
  330
b9
  100
AcDbEntity
  8
SK2
  100
AcDbBlockEnd
  0
BLOCK
  5
c5
  330
c7
  100
AcDbEntity
  8
SK2
  100
AcDbBlockBegin
  2
*Dc6
  70
1
  10
0
  20
0
  30
0
  3
*Dc6
  1

  0
LINE
  5
c8
  330
c7
  100
AcDbEntity
  8
SK2
  100
AcDbLine
  10
-2.118667
  20
2.723213
  30
0
  11
-21.186665
  21
13.732127
  31
0
  0
LINE
  5
c9
  330
c7
  100
AcDbEntity
  8
SK2
  100
AcDbLine
  10
-2.446425
  20
1.5
  30
0
  11
-24.464254
  21
1.5
  31
0
  0
ARC
  5
ca
  330
c7
  100
AcDbEntity
  8
SK2
  100
AcDbCircle
  10
0
  20
1.5
  30
0
  40
22.464254
  100
AcDbArc
  50
150
  51
180
  0
SOLID
  5
cb
  330
c7
  100
AcDbEntity
  8
SK2
  100
AcDbTrace
  10
-19.454614
  20
12.732127
  30
0
  11
-20.411323
  21
10.422428
  31
0
  12
-20.976518
  22
10.748743
  32
0
  13
-20.976518
  23
10.748743
  33
0
  0
SOLID
  5
cc
  330
c7
  100
AcDbEntity
  8
SK2
  100
AcDbTrace
  10
-22.464254
  20
1.5
  30
0
  11
-22.790569
  21
3.978612
  31
0
  12
-22.137938
  22
3.978612
  32
0
  13
-22.137938
  23
3.978612
  33
0
  0
MTEXT
  5
cd
  330
c7
  100
AcDbEntity
  8
SK2
  100
AcDbMText
  10
-21.818439
  20
6.847746
  30
0
  11
0.238056
  21
0.971251
  31
0
  40
2
  41
0
  71
8
  72
1
  1
30°
  0
POINT
  5
ce
  330
c7
  100
AcDbEntity
  8
SK2
  62
0
  100
AcDbPoint
  10
-20.972187
  20
9.550469
  30
0
  0
POINT
  5
cf
  330
c7
  100
AcDbEntity
  8
SK2
  62
0
  100
AcDbPoint
  10
0
  20
1.5
  30
0
  0
POINT
  5
d0
  330
c7
  100
AcDbEntity
  8
SK2
  62
0
  100
AcDbPoint
  10
-2.118667
  20
2.723213
  30
0
  0
POINT
  5
d1
  330
c7
  100
AcDbEntity
  8
SK2
  62
0
  100
AcDbPoint
  10
0
  20
1.5
  30
0
  0
POINT
  5
d2
  330
c7
  100
AcDbEntity
  8
SK2
  62
0
  100
AcDbPoint
  10
-2.446425
  20
1.5
  30
0
  0
ENDBLK
  5
d3
  330
c7
  100
AcDbEntity
  8
SK2
  100
AcDbBlockEnd
  0
BLOCK
  5
d5
  330
d7
  100
AcDbEntity
  8
SK2
  100
AcDbBlockBegin
  2
*Dd6
  70
1
  10
0
  20
0
  30
0
  3
*Dd6
  1

  0
LINE
  5
d8
  330
d7
  100
AcDbEntity
  8
SK2
  100
AcDbLine
  10
-33.335
  20
-1.5
  30
0
  11
-40.834936
  21
-1.5
  31
0
  0
LINE
  5
d9
  330
d7
  100
AcDbEntity
  8
SK2
  100
AcDbLine
  10
-33.335
  20
1.5
  30
0
  11
-40.834936
  21
1.5
  31
0
  0
LINE
  5
da
  330
d7
  100
AcDbEntity
  8
SK2
  100
AcDbLine
  10
-38.834936
  20
-6.428571
  30
0
  11
-38.834936
  21
1.5
  31
0
  0
SOLID
  5
db
  330
d7
  100
AcDbEntity
  8
SK2
  100
AcDbTrace
  10
-38.834936
  20
-1.5
  30
0
  11
-39.161252
  21
0.978612
  31
0
  12
-38.508621
  22
0.978612
  32
0
  13
-38.508621
  23
0.978612
  33
0
  0
SOLID
  5
dc
  330
d7
  100
AcDbEntity
  8
SK2
  100
AcDbTrace
  10
-38.834936
  20
1.5
  30
0
  11
-38.508621
  21
-0.978612
  31
0
  12
-39.161252
  22
-0.978612
  32
0
  13
-39.161252
  23
-0.978612
  33
0
  0
MTEXT
  5
dd
  330
d7
  100
AcDbEntity
  8
SK2
  100
AcDbMText
  10
-38.834936
  20
-0.019114
  30
0
  11
0
  21
1
  31
0
  40
2
  41
0
  71
8
  72
1
  1
Ø3h6
  0
POINT
  5
de
  330
d7
  100
AcDbEntity
  8
SK2
  62
0
  100
AcDbPoint
  10
-33.335
  20
-1.5
  30
0
  0
POINT
  5
df
  330
d7
  100
AcDbEntity
  8
SK2
  62
0
  100
AcDbPoint
  10
-33.335
  20
1.5
  30
0
  0
POINT
  5
e0
  330
d7
  100
AcDbEntity
  8
SK2
  62
0
  100
AcDbPoint
  10
-38.834936
  20
1.5
  30
0
  0
ENDBLK
  5
e1
  330
d7
  100
AcDbEntity
  8
SK2
  100
AcDbBlockEnd
  0
BLOCK
  5
e3
  330
e5
  100
AcDbEntity
  8
2
  100
AcDbBlockBegin
  2
*De4
  70
1
  10
0
  20
0
  30
0
  3
*De4
  1

  0
LINE
  5
e6
  330
e5
  100
AcDbEntity
  8
2
  100
AcDbLine
  10
4.165064
  20
-27.5
  30
0
  11
4.165064
  21
0.25
  31
0
  0
LINE
  5
e7
  330
e5
  100
AcDbEntity
  8
2
  100
AcDbLine
  10
2.165064
  20
-13
  30
0
  11
2.165064
  21
0.25
  31
0
  0
LINE
  5
e8
  330
e5
  100
AcDbEntity
  8
2
  100
AcDbLine
  10
4.165064
  20
-11
  30
0
  11
1.260504
  21
-11
  31
0
  0
SOLID
  5
e9
  330
e5
  100
AcDbEntity
  8
2
  100
AcDbTrace
  10
4.165064
  20
-11
  30
0
  11
6.643676
  21
-10.673685
  31
0
  12
6.643676
  22
-11.326315
  32
0
  13
6.643676
  23
-11.326315
  33
0
  0
SOLID
  5
ea
  330
e5
  100
AcDbEntity
  8
2
  100
AcDbTrace
  10
2.165064
  20
-11
  30
0
  11
-0.313549
  21
-11.326315
  31
0
  12
-0.313549
  22
-10.673685
  32
0
  13
-0.313549
  23
-10.673685
  33
0
  0
MTEXT
  5
eb
  330
e5
  100
AcDbEntity
  8
2
  100
AcDbMText
  10
3.254802
  20
-11
  30
0
  11
1
  21
-0
  31
0
  40
2
  41
0
  71
8
  72
1
  1
2
  0
POINT
  5
ec
  330
e5
  100
AcDbEntity
  8
2
  62
0
  100
AcDbPoint
  10
4.165064
  20
-27.5
  30
0
  0
POINT
  5
ed
  330
e5
  100
AcDbEntity
  8
2
  62
0
  100
AcDbPoint
  10
2.165064
  20
0.25
  30
0
  0
POINT
  5
ee
  330
e5
  100
AcDbEntity
  8
2
  62
0
  100
AcDbPoint
  10
1.260504
  20
-11
  30
0
  0
ENDBLK
  5
ef
  330
e5
  100
AcDbEntity
  8
2
  100
AcDbBlockEnd
  0
ENDSEC
  0
SECTION
  2
ENTITIES
  0
DIMENSION
  5
b6
  100
AcDbEntity
  8
SK2
  100
AcDbDimension
  2
*Daa
  10
4.165064
  20
-25.5
  30
0
  11
-16.003576
  21
-25.5
  31
0
  70
160
  1
<>
  71
5
  3
ISBEtdSketcher
  42
38.000064
  100
AcDbAlignedDimension
  13
-33.835
  23
1
  33
0
  14
4.165064
  24
0.25
  34
0
  50
0
  100
AcDbRotatedDimension
  0
DIMENSION
  5
c4
  100
AcDbEntity
  8
SK2
  100
AcDbDimension
  2
*Db8
  10
14.165064
  20
3.907563
  30
0
  11
14.165064
  21
3.79754
  31
0
  70
160
  1
%%c<> e8
  71
5
  3
ISBEtdSketcher
  42
0.5
  100
AcDbAlignedDimension
  13
4.165064
  23
-0.25
  33
0
  14
4.165064
  24
0.25
  34
0
  50
-90
  100
AcDbRotatedDimension
  0
DIMENSION
  5
d4
  100
AcDbEntity
  8
SK2
  100
AcDbDimension
  2
*Dc6
  10
-2.446425
  20
1.5
  30
0
  11
-21.818439
  21
6.847746
  31
0
  70
162
  1
30°
  71
5
  53
76.228178
  3
ISBEtdSketcher
  100
AcDb2LineAngularDimension
  13
-2.118667
  23
2.723213
  33
0
  14
0
  24
1.5
  34
0
  15
0
  25
1.5
  35
0
  16
-20.972187
  26
9.550469
  36
0
  0
DIMENSION
  5
e2
  100
AcDbEntity
  8
SK2
  100
AcDbDimension
  2
*Dd6
  10
-38.834936
  20
1.5
  30
0
  11
-38.834936
  21
-0.019114
  31
0
  70
160
  1
%%c<>h6
  71
5
  3
ISBEtdSketcher
  42
3
  100
AcDbAlignedDimension
  13
-33.335
  23
-1.5
  33
0
  14
-33.335
  24
1.5
  34
0
  50
-90
  100
AcDbRotatedDimension
  0
DIMENSION
  5
f0
  100
AcDbEntity
  8
2
  100
AcDbDimension
  2
*De4
  10
1.260504
  20
-11
  30
0
  11
3.254802
  21
-11
  31
0
  70
160
  1
<>
  71
5
  3
ISBEtdSketcher
  42
2
  100
AcDbAlignedDimension
  13
4.165064
  23
-27.5
  33
0
  14
2.165064
  24
0.25
  34
0
  50
0
  100
AcDbRotatedDimension
  0
LINE
  5
36
  100
AcDbEntity
  8
1
  100
AcDbLine
  10
4.165064
  20
0
  30
0
  11
4.165064
  21
0.25
  31
0
  0
LINE
  5
37
  100
AcDbEntity
  8
1
  100
AcDbLine
  10
4.165064
  20
0.25
  30
0
  11
2.165064
  21
0.25
  31
0
  0
LINE
  5
38
  100
AcDbEntity
  8
1
  100
AcDbLine
  10
2.165064
  20
0.25
  30
0
  11
0
  21
1.5
  31
0
  0
LINE
  5
39
  100
AcDbEntity
  8
1
  100
AcDbLine
  10
0
  20
1.5
  30
0
  11
0
  21
-1.5
  31
0
  0
LINE
  5
3a
  100
AcDbEntity
  8
1
  100
AcDbLine
  10
0
  20
-1.5
  30
0
  11
2.165064
  21
-0.25
  31
0
  0
LINE
  5
3b
  100
AcDbEntity
  8
1
  100
AcDbLine
  10
2.165064
  20
-0.25
  30
0
  11
4.165064
  21
-0.25
  31
0
  0
LINE
  5
3c
  100
AcDbEntity
  8
1
  100
AcDbLine
  10
4.165064
  20
-0.25
  30
0
  11
4.165064
  21
0
  31
0
  0
LINE
  5
3d
  100
AcDbEntity
  8
1
  100
AcDbLine
  10
4.165064
  20
-0.197753
  30
0
  11
4.065064
  21
-0.19172
  31
0
  0
LINE
  5
3e
  100
AcDbEntity
  8
1
  100
AcDbLine
  10
4.065064
  20
-0.19172
  30
0
  11
3.965064
  21
-0.185404
  31
0
  0
LINE
  5
3f
  100
AcDbEntity
  8
1
  100
AcDbLine
  10
3.965064
  20
-0.185404
  30
0
  11
3.865064
  21
-0.178814
  31
0
  0
LINE
  5
40
  100
AcDbEntity
  8
1
  100
AcDbLine
  10
3.865064
  20
-0.178814
  30
0
  11
3.765064
  21
-0.171958
  31
0
  0
LINE
  5
41
  100
AcDbEntity
  8
1
  100
AcDbLine
  10
3.765064
  20
-0.171958
  30
0
  11
3.665064
  21
-0.164848
  31
0
  0
LINE
  5
42
  100
AcDbEntity
  8
1
  100
AcDbLine
  10
3.665064
  20
-0.164848
  30
0
  11
3.565064
  21
-0.157493
  31
0
  0
LINE
  5
43
  100
AcDbEntity
  8
1
  100
AcDbLine
  10
3.565064
  20
-0.157493
  30
0
  11
3.465064
  21
-0.149905
  31
0
  0
LINE
  5
44
  100
AcDbEntity
  8
1
  100
AcDbLine
  10
3.465064
  20
-0.149905
  30
0
  11
3.365064
  21
-0.142096
  31
0
  0
LINE
  5
45
  100
AcDbEntity
  8
1
  100
AcDbLine
  10
3.365064
  20
-0.142096
  30
0
  11
3.265064
  21
-0.134075
  31
0
  0
LINE
  5
46
  100
AcDbEntity
  8
1
  100
AcDbLine
  10
3.265064
  20
-0.134075
  30
0
  11
3.165064
  21
-0.125856
  31
0
  0
LINE
  5
47
  100
AcDbEntity
  8
1
  100
AcDbLine
  10
3.165064
  20
-0.125856
  30
0
  11
3.065064
  21
-0.117451
  31
0
  0
LINE
  5
48
  100
AcDbEntity
  8
1
  100
AcDbLine
  10
3.065064
  20
-0.117451
  30
0
  11
2.965064
  21
-0.108872
  31
0
  0
LINE
  5
49
  100
AcDbEntity
  8
1
  100
AcDbLine
  10
2.965064
  20
-0.108872
  30
0
  11
2.865064
  21
-0.100131
  31
0
  0
LINE
  5
4a
  100
AcDbEntity
  8
1
  100
AcDbLine
  10
2.865064
  20
-0.100131
  30
0
  11
2.765064
  21
-0.091242
  31
0
  0
LINE
  5
4b
  100
AcDbEntity
  8
1
  100
AcDbLine
  10
2.765064
  20
-0.091242
  30
0
  11
2.665064
  21
-0.082218
  31
0
  0
LINE
  5
4c
  100
AcDbEntity
  8
1
  100
AcDbLine
  10
2.665064
  20
-0.082218
  30
0
  11
2.565064
  21
-0.073072
  31
0
  0
LINE
  5
4d
  100
AcDbEntity
  8
1
  100
AcDbLine
  10
2.565064
  20
-0.073072
  30
0
  11
2.465064
  21
-0.063818
  31
0
  0
LINE
  5
4e
  100
AcDbEntity
  8
1
  100
AcDbLine
  10
2.465064
  20
-0.063818
  30
0
  11
2.365064
  21
-0.054469
  31
0
  0
LINE
  5
4f
  100
AcDbEntity
  8
1
  100
AcDbLine
  10
2.365064
  20
-0.054469
  30
0
  11
2.265064
  21
-0.04504
  31
0
  0
LINE
  5
50
  100
AcDbEntity
  8
1
  100
AcDbLine
  10
2.265064
  20
-0.04504
  30
0
  11
2.065064
  21
-0.045845
  31
0
  0
LINE
  5
51
  100
AcDbEntity
  8
1
  100
AcDbLine
  10
2.065064
  20
-0.045845
  30
0
  11
1.965064
  21
-0.04526
  31
0
  0
LINE
  5
52
  100
AcDbEntity
  8
1
  100
AcDbLine
  10
1.965064
  20
-0.04526
  30
0
  11
1.865064
  21
-0.039072
  31
0
  0
LINE
  5
53
  100
AcDbEntity
  8
1
  100
AcDbLine
  10
1.865064
  20
-0.039072
  30
0
  11
1.765064
  21
-0.027037
  31
0
  0
LINE
  5
54
  100
AcDbEntity
  8
1
  100
AcDbLine
  10
1.765064
  20
-0.027037
  30
0
  11
1.665064
  21
-0.00573
  31
0
  0
LINE
  5
55
  100
AcDbEntity
  8
1
  100
AcDbLine
  10
1.665064
  20
-0.00573
  30
0
  11
1.565064
  21
0.033023
  31
0
  0
LINE
  5
56
  100
AcDbEntity
  8
1
  100
AcDbLine
  10
1.565064
  20
0.033023
  30
0
  11
1.465064
  21
0.10561
  31
0
  0
LINE
  5
57
  100
AcDbEntity
  8
1
  100
AcDbLine
  10
1.465064
  20
0.10561
  30
0
  11
1.365064
  21
0.239506
  31
0
  0
LINE
  5
58
  100
AcDbEntity
  8
1
  100
AcDbLine
  10
1.365064
  20
0.239506
  30
0
  11
1.265064
  21
0.465569
  31
0
  0
LINE
  5
59
  100
AcDbEntity
  8
1
  100
AcDbLine
  10
1.265064
  20
0.465569
  30
0
  11
1.165064
  21
0.757335
  31
0
  0
LINE
  5
5a
  100
AcDbEntity
  8
1
  100
AcDbLine
  10
1.165064
  20
0.757335
  30
0
  11
1.165064
  21
0.748481
  31
0
  0
LINE
  5
5b
  100
AcDbEntity
  8
1
  100
AcDbLine
  10
1.165064
  20
0.748481
  30
0
  11
1.261528
  21
0.771656
  31
0
  0
LINE
  5
5c
  100
AcDbEntity
  8
1
  100
AcDbLine
  10
2.165064
  20
0.25
  30
0
  11
2.165064
  21
-0.25
  31
0
  0
LINE
  5
5d
  100
AcDbEntity
  8
1
  100
AcDbLine
  10
2.165064
  20
-0.25
  30
0
  11
2.165064
  21
0.25
  31
0
  0
LINE
  5
5e
  100
AcDbEntity
  8
1
  100
AcDbLine
  10
4.165064
  20
0.17722
  30
0
  11
4.065064
  21
0.183874
  31
0
  0
LINE
  5
5f
  100
AcDbEntity
  8
1
  100
AcDbLine
  10
4.065064
  20
0.183874
  30
0
  11
3.965064
  21
0.190256
  31
0
  0
LINE
  5
60
  100
AcDbEntity
  8
1
  100
AcDbLine
  10
3.965064
  20
0.190256
  30
0
  11
3.865064
  21
0.196356
  31
0
  0
LINE
  5
61
  100
AcDbEntity
  8
1
  100
AcDbLine
  10
3.865064
  20
0.196356
  30
0
  11
3.765064
  21
0.202165
  31
0
  0
LINE
  5
62
  100
AcDbEntity
  8
1
  100
AcDbLine
  10
3.765064
  20
0.202165
  30
0
  11
3.665064
  21
0.207675
  31
0
  0
LINE
  5
63
  100
AcDbEntity
  8
1
  100
AcDbLine
  10
3.665064
  20
0.207675
  30
0
  11
3.565064
  21
0.212877
  31
0
  0
LINE
  5
64
  100
AcDbEntity
  8
1
  100
AcDbLine
  10
3.565064
  20
0.212877
  30
0
  11
3.465064
  21
0.217763
  31
0
  0
LINE
  5
65
  100
AcDbEntity
  8
1
  100
AcDbLine
  10
3.465064
  20
0.217763
  30
0
  11
3.365064
  21
0.222327
  31
0
  0
LINE
  5
66
  100
AcDbEntity
  8
1
  100
AcDbLine
  10
3.365064
  20
0.222327
  30
0
  11
3.265064
  21
0.226562
  31
0
  0
LINE
  5
67
  100
AcDbEntity
  8
1
  100
AcDbLine
  10
3.265064
  20
0.226562
  30
0
  11
3.165064
  21
0.230461
  31
0
  0
LINE
  5
68
  100
AcDbEntity
  8
1
  100
AcDbLine
  10
3.165064
  20
0.230461
  30
0
  11
3.065064
  21
0.234019
  31
0
  0
LINE
  5
69
  100
AcDbEntity
  8
1
  100
AcDbLine
  10
3.065064
  20
0.234019
  30
0
  11
2.965064
  21
0.23723
  31
0
  0
LINE
  5
6a
  100
AcDbEntity
  8
1
  100
AcDbLine
  10
2.965064
  20
0.23723
  30
0
  11
2.865064
  21
0.240089
  31
0
  0
LINE
  5
6b
  100
AcDbEntity
  8
1
  100
AcDbLine
  10
2.865064
  20
0.240089
  30
0
  11
2.765064
  21
0.242593
  31
0
  0
LINE
  5
6c
  100
AcDbEntity
  8
1
  100
AcDbLine
  10
2.765064
  20
0.242593
  30
0
  11
2.665064
  21
0.244738
  31
0
  0
LINE
  5
6d
  100
AcDbEntity
  8
1
  100
AcDbLine
  10
2.665064
  20
0.244738
  30
0
  11
2.565064
  21
0.24652
  31
0
  0
LINE
  5
6e
  100
AcDbEntity
  8
1
  100
AcDbLine
  10
2.565064
  20
0.24652
  30
0
  11
2.465064
  21
0.247937
  31
0
  0
LINE
  5
6f
  100
AcDbEntity
  8
1
  100
AcDbLine
  10
2.465064
  20
0.247937
  30
0
  11
2.365064
  21
0.248987
  31
0
  0
LINE
  5
70
  100
AcDbEntity
  8
1
  100
AcDbLine
  10
2.365064
  20
0.248987
  30
0
  11
2.265064
  21
0.249668
  31
0
  0
LINE
  5
71
  100
AcDbEntity
  8
1
  100
AcDbLine
  10
2.265064
  20
0.249668
  30
0
  11
2.190713
  21
0.25
  31
0
  0
LINE
  5
72
  100
AcDbEntity
  8
1
  100
AcDbLine
  10
3.154775
  20
0.25
  30
0
  11
3.165064
  21
0.249998
  31
0
  0
LINE
  5
73
  100
AcDbEntity
  8
1
  100
AcDbLine
  10
3.165064
  20
0.249998
  30
0
  11
3.265064
  21
0.249775
  31
0
  0
LINE
  5
74
  100
AcDbEntity
  8
1
  100
AcDbLine
  10
3.265064
  20
0.249775
  30
0
  11
3.365064
  21
0.249182
  31
0
  0
LINE
  5
75
  100
AcDbEntity
  8
1
  100
AcDbLine
  10
3.365064
  20
0.249182
  30
0
  11
3.465064
  21
0.248219
  31
0
  0
LINE
  5
76
  100
AcDbEntity
  8
1
  100
AcDbLine
  10
3.465064
  20
0.248219
  30
0
  11
3.565064
  21
0.246889
  31
0
  0
LINE
  5
77
  100
AcDbEntity
  8
1
  100
AcDbLine
  10
3.565064
  20
0.246889
  30
0
  11
3.665064
  21
0.245193
  31
0
  0
LINE
  5
78
  100
AcDbEntity
  8
1
  100
AcDbLine
  10
3.665064
  20
0.245193
  30
0
  11
3.765064
  21
0.243134
  31
0
  0
LINE
  5
79
  100
AcDbEntity
  8
1
  100
AcDbLine
  10
3.765064
  20
0.243134
  30
0
  11
3.865064
  21
0.240715
  31
0
  0
LINE
  5
7a
  100
AcDbEntity
  8
1
  100
AcDbLine
  10
3.865064
  20
0.240715
  30
0
  11
3.965064
  21
0.23794
  31
0
  0
LINE
  5
7b
  100
AcDbEntity
  8
1
  100
AcDbLine
  10
3.965064
  20
0.23794
  30
0
  11
4.065064
  21
0.234811
  31
0
  0
LINE
  5
7c
  100
AcDbEntity
  8
1
  100
AcDbLine
  10
4.065064
  20
0.234811
  30
0
  11
4.165064
  21
0.231335
  31
0
  0
LINE
  5
7d
  100
AcDbEntity
  8
1
  100
AcDbLine
  10
4.165064
  20
0.25
  30
0
  11
4.165064
  21
-0.25
  31
0
  0
LINE
  5
7e
  100
AcDbEntity
  8
1
  100
AcDbLine
  10
4.165064
  20
-0.241318
  30
0
  11
4.065064
  21
-0.238626
  31
0
  0
LINE
  5
7f
  100
AcDbEntity
  8
1
  100
AcDbLine
  10
4.065064
  20
-0.238626
  30
0
  11
3.965064
  21
-0.235581
  31
0
  0
LINE
  5
80
  100
AcDbEntity
  8
1
  100
AcDbLine
  10
3.965064
  20
-0.235581
  30
0
  11
3.865064
  21
-0.232186
  31
0
  0
LINE
  5
81
  100
AcDbEntity
  8
1
  100
AcDbLine
  10
3.865064
  20
-0.232186
  30
0
  11
3.765064
  21
-0.228448
  31
0
  0
LINE
  5
82
  100
AcDbEntity
  8
1
  100
AcDbLine
  10
3.765064
  20
-0.228448
  30
0
  11
3.665064
  21
-0.224371
  31
0
  0
LINE
  5
83
  100
AcDbEntity
  8
1
  100
AcDbLine
  10
3.665064
  20
-0.224371
  30
0
  11
3.565064
  21
-0.219962
  31
0
  0
LINE
  5
84
  100
AcDbEntity
  8
1
  100
AcDbLine
  10
3.565064
  20
-0.219962
  30
0
  11
3.465064
  21
-0.215227
  31
0
  0
LINE
  5
85
  100
AcDbEntity
  8
1
  100
AcDbLine
  10
3.465064
  20
-0.215227
  30
0
  11
3.365064
  21
-0.210174
  31
0
  0
LINE
  5
86
  100
AcDbEntity
  8
1
  100
AcDbLine
  10
3.365064
  20
-0.210174
  30
0
  11
3.265064
  21
-0.204808
  31
0
  0
LINE
  5
87
  100
AcDbEntity
  8
1
  100
AcDbLine
  10
3.265064
  20
-0.204808
  30
0
  11
3.165064
  21
-0.19914
  31
0
  0
LINE
  5
88
  100
AcDbEntity
  8
1
  100
AcDbLine
  10
3.165064
  20
-0.19914
  30
0
  11
3.065064
  21
-0.193177
  31
0
  0
LINE
  5
89
  100
AcDbEntity
  8
1
  100
AcDbLine
  10
3.065064
  20
-0.193177
  30
0
  11
2.965064
  21
-0.186927
  31
0
  0
LINE
  5
8a
  100
AcDbEntity
  8
1
  100
AcDbLine
  10
2.965064
  20
-0.186927
  30
0
  11
2.865064
  21
-0.180401
  31
0
  0
LINE
  5
8b
  100
AcDbEntity
  8
1
  100
AcDbLine
  10
2.865064
  20
-0.180401
  30
0
  11
2.765064
  21
-0.173607
  31
0
  0
LINE
  5
8c
  100
AcDbEntity
  8
1
  100
AcDbLine
  10
2.765064
  20
-0.173607
  30
0
  11
2.665064
  21
-0.166556
  31
0
  0
LINE
  5
8d
  100
AcDbEntity
  8
1
  100
AcDbLine
  10
2.665064
  20
-0.166556
  30
0
  11
2.565064
  21
-0.159258
  31
0
  0
LINE
  5
8e
  100
AcDbEntity
  8
1
  100
AcDbLine
  10
2.565064
  20
-0.159258
  30
0
  11
2.465064
  21
-0.151725
  31
0
  0
LINE
  5
8f
  100
AcDbEntity
  8
1
  100
AcDbLine
  10
2.465064
  20
-0.151725
  30
0
  11
2.365064
  21
-0.143967
  31
0
  0
LINE
  5
90
  100
AcDbEntity
  8
1
  100
AcDbLine
  10
2.365064
  20
-0.143967
  30
0
  11
2.265064
  21
-0.135995
  31
0
  0
LINE
  5
91
  100
AcDbEntity
  8
1
  100
AcDbLine
  10
2.265064
  20
-0.135995
  30
0
  11
2.065064
  21
-0.134619
  31
0
  0
LINE
  5
92
  100
AcDbEntity
  8
1
  100
AcDbLine
  10
2.065064
  20
-0.134619
  30
0
  11
1.965064
  21
-0.143653
  31
0
  0
LINE
  5
93
  100
AcDbEntity
  8
1
  100
AcDbLine
  10
1.965064
  20
-0.143653
  30
0
  11
1.865064
  21
-0.155007
  31
0
  0
LINE
  5
94
  100
AcDbEntity
  8
1
  100
AcDbLine
  10
1.865064
  20
-0.155007
  30
0
  11
1.765064
  21
-0.168974
  31
0
  0
LINE
  5
95
  100
AcDbEntity
  8
1
  100
AcDbLine
  10
1.765064
  20
-0.168974
  30
0
  11
1.665064
  21
-0.186089
  31
0
  0
LINE
  5
96
  100
AcDbEntity
  8
1
  100
AcDbLine
  10
1.665064
  20
-0.186089
  30
0
  11
1.565064
  21
-0.206482
  31
0
  0
LINE
  5
97
  100
AcDbEntity
  8
1
  100
AcDbLine
  10
1.565064
  20
-0.206482
  30
0
  11
1.465064
  21
-0.227715
  31
0
  0
LINE
  5
98
  100
AcDbEntity
  8
1
  100
AcDbLine
  10
1.465064
  20
-0.227715
  30
0
  11
1.365064
  21
-0.264479
  31
0
  0
LINE
  5
99
  100
AcDbEntity
  8
1
  100
AcDbLine
  10
1.365064
  20
-0.264479
  30
0
  11
1.265064
  21
-0.373564
  31
0
  0
LINE
  5
9a
  100
AcDbEntity
  8
1
  100
AcDbLine
  10
1.265064
  20
-0.373564
  30
0
  11
1.165064
  21
-0.67955
  31
0
  0
LINE
  5
9b
  100
AcDbEntity
  8
1
  100
AcDbLine
  10
1.165064
  20
-0.67955
  30
0
  11
1.165064
  21
-0.667136
  31
0
  0
LINE
  5
9c
  100
AcDbEntity
  8
1
  100
AcDbLine
  10
1.165064
  20
-0.667136
  30
0
  11
1.265064
  21
-0.763506
  31
0
  0
LINE
  5
9d
  100
AcDbEntity
  8
1
  100
AcDbLine
  10
1.265064
  20
-0.763506
  30
0
  11
1.308163
  21
-0.744732
  31
0
  0
LINE
  5
9e
  100
AcDbEntity
  8
1
  100
AcDbLine
  10
0
  20
1.5
  30
0
  11
0
  21
-1.5
  31
0
  0
LINE
  5
9f
  100
AcDbEntity
  8
1
  100
AcDbLine
  10
0
  20
-1.5
  30
0
  11
0
  21
1.5
  31
0
  0
LINE
  5
a0
  100
AcDbEntity
  8
SK1
  100
AcDbLine
  10
0
  20
1.5
  30
0
  11
-33.335
  21
1.5
  31
0
  0
LINE
  5
a1
  100
AcDbEntity
  8
SK1
  100
AcDbLine
  10
-33.335
  20
1.5
  30
0
  11
-33.835
  21
1
  31
0
  0
LINE
  5
a2
  100
AcDbEntity
  8
SK1
  100
AcDbLine
  10
-33.835
  20
1
  30
0
  11
-33.835
  21
-1
  31
0
  0
LINE
  5
a3
  100
AcDbEntity
  8
SK1
  100
AcDbLine
  10
-33.835
  20
-1
  30
0
  11
-33.335
  21
-1.5
  31
0
  0
LINE
  5
a4
  100
AcDbEntity
  8
SK1
  100
AcDbLine
  10
-33.335
  20
-1.5
  30
0
  11
0
  21
-1.5
  31
0
  0
LINE
  5
a5
  100
AcDbEntity
  8
SK1
  100
AcDbLine
  10
0
  20
-1.5
  30
0
  11
0
  21
1.5
  31
0
  0
LINE
  5
a6
  100
AcDbEntity
  8
SK1
  100
AcDbLine
  10
-33.335
  20
-1.5
  30
0
  11
-33.335
  21
1.5
  31
0
  0
LINE
  5
a7
  100
AcDbEntity
  8
SK1
  100
AcDbLine
  10
0
  20
1.5
  30
0
  11
0
  21
-1.5
  31
0
  0
LINE
  5
a8
  100
AcDbEntity
  8
SK1
  100
AcDbLine
  10
0
  20
-1.5
  30
0
  11
0
  21
1.5
  31
0
  0
LINE
  5
f1
  100
AcDbEntity
  8
NOCUT
  100
AcDbLine
  10
2.165064
  20
0
  30
0
  11
2.165064
  21
0.25
  31
0
  0
LINE
  5
f2
  100
AcDbEntity
  8
NOCUT
  100
AcDbLine
  10
2.165064
  20
0.25
  30
0
  11
0
  21
1.5
  31
0
  0
LINE
  5
f3
  100
AcDbEntity
  8
NOCUT
  100
AcDbLine
  10
0
  20
1.5
  30
0
  11
0
  21
0
  31
0
  0
LINE
  5
f4
  100
AcDbEntity
  8
NOCUT
  100
AcDbLine
  10
0
  20
0
  30
0
  11
2.165064
  21
0
  31
0
  0
LINE
  5
f5
  100
AcDbEntity
  8
CUT
  100
AcDbLine
  10
4.165064
  20
0
  30
0
  11
4.165064
  21
0.25
  31
0
  0
LINE
  5
f6
  100
AcDbEntity
  8
CUT
  100
AcDbLine
  10
4.165064
  20
0.25
  30
0
  11
2.165064
  21
0.25
  31
0
  0
LINE
  5
f7
  100
AcDbEntity
  8
CUT
  100
AcDbLine
  10
2.165064
  20
0.25
  30
0
  11
2.165064
  21
0
  31
0
  0
LINE
  5
f8
  100
AcDbEntity
  8
CUT
  100
AcDbLine
  10
2.165064
  20
0
  30
0
  11
4.165064
  21
0
  31
0
  0
LINE
  5
f9
  100
AcDbEntity
  8
4
  100
AcDbLine
  10
0
  20
0
  30
0
  11
4.165064
  21
0
  31
0
  0
LINE
  5
fa
  100
AcDbEntity
  8
INFTOTAL
  100
AcDbLine
  10
-43.684936
  20
16.582127
  30
0
  11
19.015064
  21
16.582127
  31
0
  0
LINE
  5
fb
  100
AcDbEntity
  8
INFTOTAL
  100
AcDbLine
  10
19.015064
  20
16.582127
  30
0
  11
19.015064
  21
-30.35
  31
0
  0
LINE
  5
fc
  100
AcDbEntity
  8
INFTOTAL
  100
AcDbLine
  10
19.015064
  20
-30.35
  30
0
  11
-43.684936
  21
-30.35
  31
0
  0
LINE
  5
fd
  100
AcDbEntity
  8
INFTOTAL
  100
AcDbLine
  10
-43.684936
  20
-30.35
  30
0
  11
-43.684936
  21
16.582127
  31
0
  0
ENDSEC
  0
SECTION
  2
OBJECTS
  0
DICTIONARY
  5
fe
  330
0
100
AcDbDictionary
281
    1
  3
ACAD_GROUP
  350
ff
  0
DICTIONARY
  5
ff
102
{ACAD_REACTORS
  330
fe
102
}
  330
fe
100
AcDbDictionary
281
    1
  0
ENDSEC
  0
EOF
